  0
SECTION
  2
HEADER
  9
$ACADVER
  1
AC1014
  9
$ACADMAINTVER
 70
     0
  9
$DWGCODEPAGE
  3
ANSI_1252
  9
$INSBASE
 10
0.0
 20
0.0
 30
0.0
  9
$EXTMIN
 10
0.0
 20
0.0
 30
0.0
  9
$EXTMAX
 10
712.0
 20
967.9999999999997
 30
0.0
  9
$LIMMIN
 10
11.59500000000002
 20
10.18999999999999
  9
$LIMMAX
 10
189.595
 20
252.1899999999999
  9
$ORTHOMODE
 70
     0
  9
$REGENMODE
 70
     1
  9
$FILLMODE
 70
     1
  9
$QTEXTMODE
 70
     0
  9
$MIRRTEXT
 70
     0
  9
$DRAGMODE
 70
     2
  9
$LTSCALE
 40
0.25
  9
$OSMODE
 70
    39
  9
$ATTMODE
 70
     1
  9
$TEXTSIZE
 40
3.5
  9
$TRACEWID
 40
1.0
  9
$TEXTSTYLE
  7
BODY
  9
$CLAYER
  8
APL_BORDER
  9
$CELTYPE
  6
CONTINUOUS
  9
$CECOLOR
 62
     7
  9
$CELTSCALE
 40
1.0
  9
$DELOBJ
 70
     1
  9
$DISPSILH
 70
     0
  9
$DIMSCALE
 40
1.0
  9
$DIMASZ
 40
5.0
  9
$DIMEXO
 40
0.625
  9
$DIMDLI
 40
3.75
  9
$DIMRND
 40
0.0
  9
$DIMDLE
 40
0.0
  9
$DIMEXE
 40
1.25
  9
$DIMTP
 40
0.0
  9
$DIMTM
 40
0.0
  9
$DIMTXT
 40
2.5
  9
$DIMCEN
 40
2.5
  9
$DIMTSZ
 40
0.0
  9
$DIMTOL
 70
     0
  9
$DIMLIM
 70
     0
  9
$DIMTIH
 70
     0
  9
$DIMTOH
 70
     0
  9
$DIMSE1
 70
     0
  9
$DIMSE2
 70
     0
  9
$DIMTAD
 70
     1
  9
$DIMZIN
 70
     8
  9
$DIMBLK
  1

  9
$DIMASO
 70
     1
  9
$DIMSHO
 70
     1
  9
$DIMPOST
  1

  9
$DIMAPOST
  1

  9
$DIMALT
 70
     0
  9
$DIMALTD
 70
     3
  9
$DIMALTF
 40
0.03937007874016
  9
$DIMLFAC
 40
1.0
  9
$DIMTOFL
 70
     1
  9
$DIMTVP
 40
0.0
  9
$DIMTIX
 70
     0
  9
$DIMSOXD
 70
     0
  9
$DIMSAH
 70
     0
  9
$DIMBLK1
  1

  9
$DIMBLK2
  1

  9
$DIMSTYLE
  2
ISO-25
  9
$DIMCLRD
 70
     0
  9
$DIMCLRE
 70
     0
  9
$DIMCLRT
 70
     0
  9
$DIMTFAC
 40
1.0
  9
$DIMGAP
 40
0.625
  9
$DIMJUST
 70
     0
  9
$DIMSD1
 70
     0
  9
$DIMSD2
 70
     0
  9
$DIMTOLJ
 70
     0
  9
$DIMTZIN
 70
     8
  9
$DIMALTZ
 70
     0
  9
$DIMALTTZ
 70
     0
  9
$DIMFIT
 70
     3
  9
$DIMUPT
 70
     0
  9
$DIMUNIT
 70
     2
  9
$DIMDEC
 70
     2
  9
$DIMTDEC
 70
     2
  9
$DIMALTU
 70
     2
  9
$DIMALTTD
 70
     3
  9
$DIMTXSTY
  7
ARIAL-REGULAR
  9
$DIMAUNIT
 70
     0
  9
$LUNITS
 70
     2
  9
$LUPREC
 70
     4
  9
$SKETCHINC
 40
1.0
  9
$FILLETRAD
 40
0.0
  9
$AUNITS
 70
     0
  9
$AUPREC
 70
     0
  9
$MENU
  1
.
  9
$ELEVATION
 40
0.0
  9
$PELEVATION
 40
0.0
  9
$THICKNESS
 40
0.0
  9
$LIMCHECK
 70
     0
  9
$BLIPMODE
 70
     0
  9
$CHAMFERA
 40
1.0
  9
$CHAMFERB
 40
1.0
  9
$CHAMFERC
 40
20.0
  9
$CHAMFERD
 40
0.0
  9
$SKPOLY
 70
     0
  9
$TDCREATE
 40
2452682.378968784
  9
$TDUPDATE
 40
2455233.477939710
  9
$TDINDWG
 40
1.2811558449
  9
$TDUSRTIMER
 40
1.2811552662
  9
$USRTIMER
 70
     1
  9
$ANGBASE
 50
0.0
  9
$ANGDIR
 70
     0
  9
$PDMODE
 70
     3
  9
$PDSIZE
 40
3.0
  9
$PLINEWID
 40
0.0
  9
$COORDS
 70
     1
  9
$SPLFRAME
 70
     0
  9
$SPLINETYPE
 70
     6
  9
$SPLINESEGS
 70
     8
  9
$ATTDIA
 70
     1
  9
$ATTREQ
 70
     1
  9
$HANDLING
 70
     1
  9
$HANDSEED
  5
334F
  9
$SURFTAB1
 70
     6
  9
$SURFTAB2
 70
     6
  9
$SURFTYPE
 70
     6
  9
$SURFU
 70
     6
  9
$SURFV
 70
     6
  9
$UCSNAME
  2

  9
$UCSORG
 10
0.0
 20
0.0
 30
0.0
  9
$UCSXDIR
 10
1.0
 20
0.0
 30
0.0
  9
$UCSYDIR
 10
0.0
 20
1.0
 30
0.0
  9
$PUCSNAME
  2

  9
$PUCSORG
 10
0.0
 20
0.0
 30
0.0
  9
$PUCSXDIR
 10
1.0
 20
0.0
 30
0.0
  9
$PUCSYDIR
 10
0.0
 20
1.0
 30
0.0
  9
$USERI1
 70
     0
  9
$USERI2
 70
     0
  9
$USERI3
 70
     0
  9
$USERI4
 70
     0
  9
$USERI5
 70
     0
  9
$USERR1
 40
0.0
  9
$USERR2
 40
0.0
  9
$USERR3
 40
0.0
  9
$USERR4
 40
0.0
  9
$USERR5
 40
0.0
  9
$WORLDVIEW
 70
     1
  9
$SHADEDGE
 70
     3
  9
$SHADEDIF
 70
    70
  9
$TILEMODE
 70
     0
  9
$MAXACTVP
 70
    64
  9
$PINSBASE
 10
0.0
 20
0.0
 30
0.0
  9
$PLIMCHECK
 70
     0
  9
$PEXTMIN
 10
11.58824886427339
 20
1.177884661932466
 30
-0.0015258207003583
  9
$PEXTMAX
 10
189.6073677543587
 20
282.2033753668243
 30
0.0000000349246037
  9
$PLIMMIN
 10
-5.027082920074462
 20
-5.408084392547607
  9
$PLIMMAX
 10
204.8615736961364
 20
291.6449246406555
  9
$UNITMODE
 70
     0
  9
$VISRETAIN
 70
     1
  9
$PLINEGEN
 70
     0
  9
$PSLTSCALE
 70
     1
  9
$TREEDEPTH
 70
  3020
  9
$PICKSTYLE
 70
     1
  9
$CMLSTYLE
  2
STANDARD
  9
$CMLJUST
 70
     0
  9
$CMLSCALE
 40
20.0
  9
$PROXYGRAPHICS
 70
     1
  9
$MEASUREMENT
 70
     1
  0
ENDSEC
  0
SECTION
  2
CLASSES
  0
CLASS
  1
ACDBDICTIONARYWDFLT
  2
AcDbDictionaryWithDefault
  3
AutoCAD 2000
 90
        0
280
     0
281
     0
  0
CLASS
  1
ACDBPLACEHOLDER
  2
AcDbPlaceHolder
  3
AutoCAD 2000
 90
        0
280
     0
281
     0
  0
CLASS
  1
LAYOUT
  2
AcDbLayout
  3
AutoCAD 2000
 90
        0
280
     0
281
     0
  0
CLASS
  1
DICTIONARYVAR
  2
AcDbDictionaryVar
  3
AutoCAD 2000
 90
        0
280
     0
281
     0
  0
CLASS
  1
DIMASSOC
  2
AcDbDimAssoc
  3
"AcDbDimAssoc|Product Desc:     AcDim ARX App For Dimension|Company:          Autodesk, Inc.|WEB Address:      www.autodesk.com"
 90
        0
280
     0
281
     0
  0
CLASS
  1
TABLESTYLE
  2
AcDbTableStyle
  3
ObjectDBX Classes
 90
     2047
280
     0
281
     0
  0
CLASS
  1
SORTENTSTABLE
  2
AcDbSortentsTable
  3
AutoCAD 2000
 90
        0
280
     0
281
     0
  0
CLASS
  1
MATERIAL
  2
AcDbMaterial
  3
ObjectDBX Classes
 90
        0
280
     0
281
     0
  0
CLASS
  1
VISUALSTYLE
  2
AcDbVisualStyle
  3
ObjectDBX Classes
 90
     4095
280
     0
281
     0
  0
CLASS
  1
SCALE
  2
AcDbScale
  3
ObjectDBX Classes
 90
     1153
280
     0
281
     0
  0
CLASS
  1
MLEADERSTYLE
  2
AcDbMLeaderStyle
  3
ACDB_MLEADERSTYLE_CLASS
 90
     4095
280
     0
281
     0
  0
CLASS
  1
EXACTERMXREFMAP
  2
ExAcTermXrefMap
  3
EXAC_SERVICE
 90
     1025
280
     0
281
     0
  0
CLASS
  1
NPOCOLLECTION
  2
AcDbImpNonPersistentObjectsCollection
  3
ObjectDBX Classes
 90
     1153
280
     0
281
     0
  0
CLASS
  1
EXACXREFPANELOBJECT
  2
ExAcXREFPanelObject
  3
EXAC_ESW
 90
     1025
280
     0
281
     0
  0
CLASS
  1
CELLSTYLEMAP
  2
AcDbCellStyleMap
  3
ObjectDBX Classes
 90
     1152
280
     0
281
     0
  0
CLASS
  1
IDBUFFER
  2
AcDbIdBuffer
  3
AutoCAD 2000
 90
        0
280
     0
281
     0
  0
CLASS
  1
ACAD_PROXY_OBJECT_WRAPPER
  2
AcDbProxyObjectWrapper
  3
AutoCAD 2000
 90
        0
280
     0
281
     0
  0
CLASS
  1
LONG_TRANSACTION
  2
AcDbLongTransaction
  3
AutoCAD 2000
 90
        0
280
     0
281
     0
  0
CLASS
  1
LWPOLYLINE
  2
AcDbPolyline
  3
AutoCAD 2000
 90
        0
280
     0
281
     1
  0
CLASS
  1
HATCH
  2
AcDbHatch
  3
AutoCAD 2000
 90
        0
280
     0
281
     1
  0
CLASS
  1
XRECORD
  2
AcDbXrecord
  3
AutoCAD 2000
 90
        0
280
     0
281
     0
  0
ENDSEC
  0
SECTION
  2
TABLES
  0
TABLE
  2
VPORT
  5
8
102
{ACAD_XDICTIONARY
360
2F2F
102
}
330
0
100
AcDbSymbolTable
 70
     1
  0
VPORT
  5
310C
330
8
100
AcDbSymbolTableRecord
100
AcDbViewportTableRecord
  2
*ACTIVE
 70
     0
 10
0.0
 20
0.0
 11
1.0
 21
1.0
 12
356.0000016577542
 22
484.0000022538006
 13
0.0
 23
0.0
 14
10.0
 24
10.0
 15
10.0
 25
10.0
 16
0.0
 26
0.0
 36
1.0
 17
0.0
 27
0.0
 37
0.0
 40
976.1599948516645
 41
2.208100558659217
 42
50.0
 43
0.0
 44
0.0
 50
0.0
 51
0.0
 71
     0
 72
 20000
 73
     1
 74
     2
 75
     0
 76
     0
 77
     0
 78
     0
  0
ENDTAB
  0
TABLE
  2
LTYPE
  5
5
330
0
100
AcDbSymbolTable
 70
     3
  0
LTYPE
  5
14
330
5
100
AcDbSymbolTableRecord
100
AcDbLinetypeTableRecord
  2
BYBLOCK
 70
     0
  3

 72
    65
 73
     0
 40
0.0
  0
LTYPE
  5
15
330
5
100
AcDbSymbolTableRecord
100
AcDbLinetypeTableRecord
  2
BYLAYER
 70
     0
  3

 72
    65
 73
     0
 40
0.0
  0
LTYPE
  5
16
330
5
100
AcDbSymbolTableRecord
100
AcDbLinetypeTableRecord
  2
CONTINUOUS
 70
     0
  3
Solid line
 72
    65
 73
     0
 40
0.0
  0
LTYPE
  5
6A
330
5
100
AcDbSymbolTableRecord
100
AcDbLinetypeTableRecord
  2
DASHED
 70
     0
  3
Dashed __ __ __ __ __ __ __ __ __ __ __ __ __ _
 72
    65
 73
     2
 40
19.04999999999999
 49
12.7
 74
     0
 49
-6.349999999999999
 74
     0
  0
LTYPE
  5
5F7
330
5
100
AcDbSymbolTableRecord
100
AcDbLinetypeTableRecord
  2
PHANTOM
 70
     0
  3
Phantom ______  __  __  ______  __  __  ______
 72
    65
 73
     6
 40
12.7
 49
6.349999999999999
 74
     0
 49
-1.27
 74
     0
 49
1.27
 74
     0
 49
-1.27
 74
     0
 49
1.27
 74
     0
 49
-1.27
 74
     0
  0
ENDTAB
  0
TABLE
  2
LAYER
  5
2
102
{ACAD_XDICTIONARY
360
A4F
102
}
330
0
100
AcDbSymbolTable
 70
    14
  0
LAYER
  5
10
102
{ACAD_XDICTIONARY
360
2D43
102
}
330
2
100
AcDbSymbolTableRecord
100
AcDbLayerTableRecord
  2
0
 70
     4
 62
     7
  6
CONTINUOUS
  0
LAYER
  5
41
102
{ACAD_XDICTIONARY
360
2D45
102
}
330
2
100
AcDbSymbolTableRecord
100
AcDbLayerTableRecord
  2
APL_BORDER
 70
     0
 62
     7
  6
CONTINUOUS
  0
LAYER
  5
42
102
{ACAD_XDICTIONARY
360
2D47
102
}
330
2
100
AcDbSymbolTableRecord
100
AcDbLayerTableRecord
  2
APL_NOTES
 70
     0
 62
     7
  6
CONTINUOUS
  0
LAYER
  5
11C
102
{ACAD_XDICTIONARY
360
2D49
102
}
330
2
100
AcDbSymbolTableRecord
100
AcDbLayerTableRecord
  2
APL_JOINERY
 70
     0
 62
     2
  6
CONTINUOUS
  0
LAYER
  5
965
102
{ACAD_XDICTIONARY
360
32DA
102
}
330
2
100
AcDbSymbolTableRecord
100
AcDbLayerTableRecord
  2
DEFPOINTS
 70
     0
 62
     7
  6
CONTINUOUS
  0
LAYER
  5
2C4D
102
{ACAD_XDICTIONARY
360
2D4B
102
}
330
2
100
AcDbSymbolTableRecord
100
AcDbLayerTableRecord
  2
FIRS|APL_BORDER
 70
    48
 62
     7
  6
CONTINUOUS
  0
LAYER
  5
2C52
102
{ACAD_XDICTIONARY
360
2D55
102
}
330
2
100
AcDbSymbolTableRecord
100
AcDbLayerTableRecord
  2
01955|APL_JOINERY
 70
    48
 62
     2
  6
CONTINUOUS
  0
LAYER
  5
2C53
102
{ACAD_XDICTIONARY
360
2D57
102
}
330
2
100
AcDbSymbolTableRecord
100
AcDbLayerTableRecord
  2
01955|APL_HATCH
 70
    48
 62
   253
  6
CONTINUOUS
  0
LAYER
  5
2C54
102
{ACAD_XDICTIONARY
360
2D59
102
}
330
2
100
AcDbSymbolTableRecord
100
AcDbLayerTableRecord
  2
01953|APL_JOINERY
 70
    48
 62
     2
  6
CONTINUOUS
  0
LAYER
  5
2C55
102
{ACAD_XDICTIONARY
360
2D5B
102
}
330
2
100
AcDbSymbolTableRecord
100
AcDbLayerTableRecord
  2
01953|APL_HATCH
 70
    48
 62
   253
  6
CONTINUOUS
  0
LAYER
  5
2C56
102
{ACAD_XDICTIONARY
360
2D5D
102
}
330
2
100
AcDbSymbolTableRecord
100
AcDbLayerTableRecord
  2
01956|APL_JOINERY
 70
    48
 62
     2
  6
CONTINUOUS
  0
LAYER
  5
2C57
102
{ACAD_XDICTIONARY
360
2D5F
102
}
330
2
100
AcDbSymbolTableRecord
100
AcDbLayerTableRecord
  2
01956|APL_HATCH
 70
    48
 62
   253
  6
CONTINUOUS
  0
ENDTAB
  0
TABLE
  2
STYLE
  5
3
330
0
100
AcDbSymbolTable
 70
    13
  0
STYLE
  5
11
330
3
100
AcDbSymbolTableRecord
100
AcDbTextStyleTableRecord
  2
STANDARD
 70
     0
 40
0.0
 41
1.0
 50
0.0
 71
     0
 42
2.5
  3
txt
  4

  0
STYLE
  5
71
330
3
100
AcDbSymbolTableRecord
100
AcDbTextStyleTableRecord
  2
ARIAL-REGULAR
 70
     0
 40
0.0
 41
1.0
 50
0.0
 71
     0
 42
5.0
  3
arial.ttf
  4

1001
ACAD
1000
Arial
1071
       34
  0
STYLE
  5
C9D
330
3
100
AcDbSymbolTableRecord
100
AcDbTextStyleTableRecord
  2
BODY
 70
     0
 40
3.5
 41
1.0
 50
0.0
 71
     0
 42
3.5
  3
TT0260M_.TTF
  4

1001
ACAD
1000
Zurich Ex BT
1071
       34
  0
STYLE
  5
2E1A
330
3
100
AcDbSymbolTableRecord
100
AcDbTextStyleTableRecord
  2
ARIAL-BOLD
 70
     0
 40
0.0
 41
1.0
 50
0.0
 71
     0
 42
2.0
  3
arialbd.ttf
  4

1001
ACAD
1000
Arial
1071
 33554466
  0
ENDTAB
  0
TABLE
  2
VIEW
  5
6
330
0
100
AcDbSymbolTable
 70
     0
  0
ENDTAB
  0
TABLE
  2
UCS
  5
7
330
0
100
AcDbSymbolTable
 70
     0
  0
ENDTAB
  0
TABLE
  2
APPID
  5
9
330
0
100
AcDbSymbolTable
 70
    11
  0
APPID
  5
12
330
9
100
AcDbSymbolTableRecord
100
AcDbRegAppTableRecord
  2
ACAD
 70
     0
  0
APPID
  5
72C
330
9
100
AcDbSymbolTableRecord
100
AcDbRegAppTableRecord
  2
DCO15
 70
     0
  0
APPID
  5
2B8C
330
9
100
AcDbSymbolTableRecord
100
AcDbRegAppTableRecord
  2
ACAD_EXEMPT_FROM_CAD_STANDARDS
 70
     0
  0
APPID
  5
2D0D
330
9
100
AcDbSymbolTableRecord
100
AcDbRegAppTableRecord
  2
ACAD_MLEADERVER
 70
     0
  0
APPID
  5
306B
330
9
100
AcDbSymbolTableRecord
100
AcDbRegAppTableRecord
  2
ACAD_PSEXT
 70
     0
  0
APPID
  5
3178
330
9
100
AcDbSymbolTableRecord
100
AcDbRegAppTableRecord
  2
ACAUTHENVIRON
 70
     0
  0
APPID
  5
3179
330
9
100
AcDbSymbolTableRecord
100
AcDbRegAppTableRecord
  2
ACDBDYNAMICBLOCKTRUENAME
 70
     0
  0
APPID
  5
317A
330
9
100
AcDbSymbolTableRecord
100
AcDbRegAppTableRecord
  2
ACDBDYNAMICBLOCKGUID
 70
     0
  0
APPID
  5
317B
330
9
100
AcDbSymbolTableRecord
100
AcDbRegAppTableRecord
  2
ACDBBLOCKREPETAG
 70
     0
  0
APPID
  5
317C
330
9
100
AcDbSymbolTableRecord
100
AcDbRegAppTableRecord
  2
ACDBBLOCKREPBTAG
 70
     0
  0
APPID
  5
3335
330
9
100
AcDbSymbolTableRecord
100
AcDbRegAppTableRecord
  2
CONTENTBLOCKICON
 70
     0
  0
ENDTAB
  0
TABLE
  2
DIMSTYLE
  5
A
330
0
100
AcDbSymbolTable
 70
     6
  0
DIMSTYLE
105
27
102
{ACAD_REACTORS
330
2669
330
26D2
330
27D8
330
2A5D
102
}
330
A
100
AcDbSymbolTableRecord
100
AcDbDimStyleTableRecord
  2
ISO-25
 70
     0
  3

  4

  5

  6

  7

 40
1.0
 41
5.0
 42
0.625
 43
3.75
 44
1.25
 45
0.0
 46
0.0
 47
0.0
 48
0.0
140
2.5
141
2.5
142
0.0
143
0.03937007874016
144
1.0
145
0.0
146
1.0
147
0.625
 71
     0
 72
     0
 73
     0
 74
     0
 75
     0
 76
     0
 77
     1
 78
     8
170
     0
171
     3
172
     1
173
     0
174
     0
175
     0
176
     0
177
     0
178
     0
270
     2
271
     2
272
     2
273
     2
274
     3
340
71
275
     0
280
     0
281
     0
282
     0
283
     0
284
     8
285
     0
286
     0
287
     3
288
     0
  0
DIMSTYLE
105
C9E
102
{ACAD_REACTORS
330
23D6
330
23D9
102
}
330
A
100
AcDbSymbolTableRecord
100
AcDbDimStyleTableRecord
  2
VATAGE_MANUFACTURING_PACK_
 70
     0
  3

  4

  5

  6

  7

 40
1.0
 41
2.5
 42
1.5
 43
3.75
 44
1.0
 45
0.0
 46
0.0
 47
0.0
 48
0.0
140
1.75
141
-2.5
142
0.0
143
0.03937007874016
144
1.0
145
0.0
146
1.0
147
1.0
 71
     0
 72
     0
 73
     0
 74
     0
 75
     0
 76
     0
 77
     1
 78
     1
170
     0
171
     3
172
     1
173
     0
174
     0
175
     0
176
     9
177
     9
178
     7
270
     2
271
     0
272
     0
273
     2
274
     3
340
C9D
275
     0
280
     0
281
     0
282
     0
283
     0
284
     8
285
     0
286
     0
287
     0
288
     0
  0
ENDTAB
  0
TABLE
  2
BLOCK_RECORD
  5
1
330
0
100
AcDbSymbolTable
 70
    30
  0
BLOCK_RECORD
  5
1F
102
{ACAD_XDICTIONARY
360
2C8E
102
}
330
1
100
AcDbSymbolTableRecord
100
AcDbBlockTableRecord
  2
*MODEL_SPACE
  0
BLOCK_RECORD
  5
2B
102
{ACAD_XDICTIONARY
360
332B
102
}
330
1
100
AcDbSymbolTableRecord
100
AcDbBlockTableRecord
  2
*PAPER_SPACE
  0
BLOCK_RECORD
  5
52
102
{ACAD_XDICTIONARY
360
332D
102
}
330
1
100
AcDbSymbolTableRecord
100
AcDbBlockTableRecord
  2
FIRS
1001
ACAD
1000
DesignCenter Data
1002
{
1070
     1
1070
     4
1002
}
  0
BLOCK_RECORD
  5
1D30
102
{ACAD_XDICTIONARY
360
332F
102
}
330
1
100
AcDbSymbolTableRecord
100
AcDbBlockTableRecord
  2
01955
1001
ACAD
1000
DesignCenter Data
1002
{
1070
     1
1070
     4
1002
}
  0
BLOCK_RECORD
  5
1D36
102
{ACAD_XDICTIONARY
360
3331
102
}
330
1
100
AcDbSymbolTableRecord
100
AcDbBlockTableRecord
  2
01953
1001
ACAD
1000
DesignCenter Data
1002
{
1070
     1
1070
     4
1002
}
  0
BLOCK_RECORD
  5
1D3C
102
{ACAD_XDICTIONARY
360
3333
102
}
330
1
100
AcDbSymbolTableRecord
100
AcDbBlockTableRecord
  2
01956
1001
ACAD
1000
DesignCenter Data
1002
{
1070
     1
1070
     4
1002
}
  0
BLOCK_RECORD
  5
2119
330
1
100
AcDbSymbolTableRecord
100
AcDbBlockTableRecord
  2
SW_CENTERMARKSYMBOL_1
  0
BLOCK_RECORD
  5
2120
330
1
100
AcDbSymbolTableRecord
100
AcDbBlockTableRecord
  2
SW_CENTERMARKSYMBOL_2
  0
BLOCK_RECORD
  5
212B
330
1
100
AcDbSymbolTableRecord
100
AcDbBlockTableRecord
  2
SW_CENTERMARKSYMBOL_3
  0
BLOCK_RECORD
  5
2136
330
1
100
AcDbSymbolTableRecord
100
AcDbBlockTableRecord
  2
SW_CENTERMARKSYMBOL_5
  0
BLOCK_RECORD
  5
2141
330
1
100
AcDbSymbolTableRecord
100
AcDbBlockTableRecord
  2
SW_CENTERMARKSYMBOL_6
  0
BLOCK_RECORD
  5
2447
330
1
100
AcDbSymbolTableRecord
100
AcDbBlockTableRecord
  2
*D16
  0
BLOCK_RECORD
  5
2453
330
1
100
AcDbSymbolTableRecord
100
AcDbBlockTableRecord
  2
*D17
  0
BLOCK_RECORD
  5
2495
330
1
100
AcDbSymbolTableRecord
100
AcDbBlockTableRecord
  2
BRACKET
1001
ACAD
1000
DesignCenter Data
1002
{
1070
     1
1070
     4
1002
}
1001
CONTENTBLOCKICON
1071
        0
1004
2800000020000000200000000100080000000000000400000000000000000000000000000000000000000000000080000080000000808000800000008000800080800000C0C0C000C0DCC000F0CAA6000020400000206000002080000020A0000020C0000020E00000400000004020000040400000406000004080000040A0
1004
000040C0000040E00000600000006020000060400000606000006080000060A0000060C0000060E00000800000008020000080400000806000008080000080A0000080C0000080E00000A0000000A0200000A0400000A0600000A0800000A0A00000A0C00000A0E00000C0000000C0200000C0400000C0600000C0800000C0
1004
A00000C0C00000C0E00000E0000000E0200000E0400000E0600000E0800000E0A00000E0C00000E0E00040000000400020004000400040006000400080004000A0004000C0004000E00040200000402020004020400040206000402080004020A0004020C0004020E000404000004040200040404000404060004040800040
1004
40A0004040C0004040E00040600000406020004060400040606000406080004060A0004060C0004060E00040800000408020004080400040806000408080004080A0004080C0004080E00040A0000040A0200040A0400040A0600040A0800040A0A00040A0C00040A0E00040C0000040C0200040C0400040C0600040C08000
1004
40C0A00040C0C00040C0E00040E0000040E0200040E0400040E0600040E0800040E0A00040E0C00040E0E00080000000800020008000400080006000800080008000A0008000C0008000E00080200000802020008020400080206000802080008020A0008020C0008020E00080400000804020008040400080406000804080
1004
008040A0008040C0008040E00080600000806020008060400080606000806080008060A0008060C0008060E00080800000808020008080400080806000808080008080A0008080C0008080E00080A0000080A0200080A0400080A0600080A0800080A0A00080A0C00080A0E00080C0000080C0200080C0400080C0600080C0
1004
800080C0A00080C0C00080C0E00080E0000080E0200080E0400080E0600080E0800080E0A00080E0C00080E0E000C0000000C0002000C0004000C0006000C0008000C000A000C000C000C000E000C0200000C0202000C0204000C0206000C0208000C020A000C020C000C020E000C0400000C0402000C0404000C0406000C0
1004
408000C040A000C040C000C040E000C0600000C0602000C0604000C0606000C0608000C060A000C060C000C060E000C0800000C0802000C0804000C0806000C0808000C080A000C080C000C080E000C0A00000C0A02000C0A04000C0A06000C0A08000C0A0A000C0A0C000C0A0E000C0C00000C0C02000C0C04000C0C06000
1004
C0C08000C0C0A000F0FBFF00A4A0A000808080000000FF0000FF000000FFFF00FF000000FF00FF00FFFF0000FFFFFF0000000000000000000000000000000000000000000000000000000000000000000000000000000000000000000000000000000000000000000000000000000000000000000000000000000000000000
1004
00000000000000000000000000000000000000000000000000000000000000000000000000000000000000000000000000000000000000000000000000000000000000000000000000000000000000000000000000000000000000000000000000000000000000000000000000000000000000000000000000000000000000
1004
00000000000000000000000000000000000000000000000000000000000000000000000000000000000000000000000000000000000000000000000000000000000000000000000000000000000000000000000000000000000000000000000000000000000000000000000000000000000000000000000000000000000000
1004
00000000000000000000000000000000000000000000000000000000000000000000000000000000000000000000000000000000FFFFFFFFFFFFFFFFFFFFFFFFFFFFFFFFFFFFFFFFFFFFFFFFFFFFFFFFFFFF0000FF00000000000000000000000000000000000000000000000000000000FF000000FFFFFFFFFFFFFFFF0000
1004
00000000000000000000FFFFFFFFFFFFFFFF000000000000000000000000FFFFFFFFFF0000FFFFFFFFFF000000000000000000000000000000000000000000000000FF0000FF00000000000000000000000000000000000000000000000000000000FF0000FF00000000000000000000000000000000000000000000000000
1004
000000FF0000FF000000000000000000000000000000000000000000000000000000FF00000000FF000000000000000000000000000000000000000000000000000000000000000000000000000000000000000000000000000000000000000000000000000000000000000000000000000000000000000000000000000000
1004
00000000000000000000000000000000000000000000000000000000000000000000000000000000000000000000000000000000000000000000000000000000000000000000000000000000000000000000000000000000000000000000000000000000000000000000000000000000000000000000000000000000000000
1004
00000000000000000000000000000000000000000000000000000000000000000000000000000000000000000000000000000000000000000000000000000000000000000000000000000000000000000000000000000000000000000000000000000000000000000000000000000000000000000000000000000000000000
1004
0000000000000000000000000000000000000000000000000000000000000000000000000000000000000000000000000000000000000000
  0
BLOCK_RECORD
  5
266A
330
1
100
AcDbSymbolTableRecord
100
AcDbBlockTableRecord
  2
*D19
  0
BLOCK_RECORD
  5
26D5
330
1
100
AcDbSymbolTableRecord
100
AcDbBlockTableRecord
  2
*D20
  0
BLOCK_RECORD
  5
27B7
330
1
100
AcDbSymbolTableRecord
100
AcDbBlockTableRecord
  2
FOOTING
1001
ACAD
1000
DesignCenter Data
1002
{
1070
     1
1070
     4
1002
}
1001
CONTENTBLOCKICON
1071
        0
1004
2800000020000000200000000100080000000000000400000000000000000000000000000000000000000000000080000080000000808000800000008000800080800000C0C0C000C0DCC000F0CAA6000020400000206000002080000020A0000020C0000020E00000400000004020000040400000406000004080000040A0
1004
000040C0000040E00000600000006020000060400000606000006080000060A0000060C0000060E00000800000008020000080400000806000008080000080A0000080C0000080E00000A0000000A0200000A0400000A0600000A0800000A0A00000A0C00000A0E00000C0000000C0200000C0400000C0600000C0800000C0
1004
A00000C0C00000C0E00000E0000000E0200000E0400000E0600000E0800000E0A00000E0C00000E0E00040000000400020004000400040006000400080004000A0004000C0004000E00040200000402020004020400040206000402080004020A0004020C0004020E000404000004040200040404000404060004040800040
1004
40A0004040C0004040E00040600000406020004060400040606000406080004060A0004060C0004060E00040800000408020004080400040806000408080004080A0004080C0004080E00040A0000040A0200040A0400040A0600040A0800040A0A00040A0C00040A0E00040C0000040C0200040C0400040C0600040C08000
1004
40C0A00040C0C00040C0E00040E0000040E0200040E0400040E0600040E0800040E0A00040E0C00040E0E00080000000800020008000400080006000800080008000A0008000C0008000E00080200000802020008020400080206000802080008020A0008020C0008020E00080400000804020008040400080406000804080
1004
008040A0008040C0008040E00080600000806020008060400080606000806080008060A0008060C0008060E00080800000808020008080400080806000808080008080A0008080C0008080E00080A0000080A0200080A0400080A0600080A0800080A0A00080A0C00080A0E00080C0000080C0200080C0400080C0600080C0
1004
800080C0A00080C0C00080C0E00080E0000080E0200080E0400080E0600080E0800080E0A00080E0C00080E0E000C0000000C0002000C0004000C0006000C0008000C000A000C000C000C000E000C0200000C0202000C0204000C0206000C0208000C020A000C020C000C020E000C0400000C0402000C0404000C0406000C0
1004
408000C040A000C040C000C040E000C0600000C0602000C0604000C0606000C0608000C060A000C060C000C060E000C0800000C0802000C0804000C0806000C0808000C080A000C080C000C080E000C0A00000C0A02000C0A04000C0A06000C0A08000C0A0A000C0A0C000C0A0E000C0C00000C0C02000C0C04000C0C06000
1004
C0C08000C0C0A000F0FBFF00A4A0A000808080000000FF0000FF000000FFFF00FF000000FF00FF00FFFF0000FFFFFF000000000000000000000000000000000000000000000000000000000000000000000000FFFFFFFFFFFFFFFFFFFFFFFFFFFFFFFFFFFFFFFFFFFFFFFFFFFF0000000000FF000000000000000000000000
1004
0000000000000000000000000000FF00000000FF0000000000000000000000000000000000000000000000000000FF00000000FFFFFFFFFFFFFFFFFFFFFFFFFFFFFFFFFFFFFFFFFFFFFFFFFFFFFFFF00000000000000FF00000000000000000000000000000000FF0000000000000000000000000000FF0000000000000000
1004
0000000000000000FF0000000000000000000000000000FF00000000000000000000000000000000FF0000000000000000000000000000FF00000000000000000000000000000000FF0000000000000000000000000000FF00000000000000000000000000000000FF0000000000000000000000000000FF00000000000000
1004
000000000000000000FF0000000000000000000000000000FF00000000000000000000000000000000FF0000000000000000000000000000FF00000000000000000000000000000000FF0000000000000000000000000000FF00000000000000000000000000000000FF0000000000000000000000000000FF000000000000
1004
00000000000000000000FF0000000000000000000000000000FF00000000000000000000000000000000FF0000000000000000000000000000FF00000000000000000000000000000000FF0000000000000000000000000000FF00000000000000000000000000000000FF0000000000000000000000000000FF0000000000
1004
0000000000000000000000FF0000000000000000000000000000FF00000000000000000000000000000000FF0000000000000000000000000000FF00000000000000000000000000000000FF0000000000000000000000000000FF00000000000000000000000000000000FF0000000000000000000000000000FF00000000
1004
000000000000000000000000FF0000000000000000000000000000FF00000000000000000000000000000000FF0000000000000000000000000000FF00000000000000000000000000000000FF0000000000000000000000000000FF00000000000000000000000000000000FF0000000000000000000000000000FF000000
1004
00000000000000000000000000FF0000000000000000000000000000FF00000000000000000000000000000000FF0000000000000000000000000000FF00000000000000000000000000000000FF0000000000000000000000000000FF00000000000000000000000000000000FF0000000000000000000000000000FF0000
1004
0000000000000000000000000000FF0000000000000000000000000000000000000000000000000000000000000000000000000000000000
  0
BLOCK_RECORD
  5
27D9
330
1
100
AcDbSymbolTableRecord
100
AcDbBlockTableRecord
  2
*D22
  0
BLOCK_RECORD
  5
282B
330
1
100
AcDbSymbolTableRecord
100
AcDbBlockTableRecord
  2
PLAN_FOOTING
1001
ACAD
1000
DesignCenter Data
1002
{
1070
     1
1070
     4
1002
}
1001
CONTENTBLOCKICON
1071
        0
1004
2800000020000000200000000100080000000000000400000000000000000000000000000000000000000000000080000080000000808000800000008000800080800000C0C0C000C0DCC000F0CAA6000020400000206000002080000020A0000020C0000020E00000400000004020000040400000406000004080000040A0
1004
000040C0000040E00000600000006020000060400000606000006080000060A0000060C0000060E00000800000008020000080400000806000008080000080A0000080C0000080E00000A0000000A0200000A0400000A0600000A0800000A0A00000A0C00000A0E00000C0000000C0200000C0400000C0600000C0800000C0
1004
A00000C0C00000C0E00000E0000000E0200000E0400000E0600000E0800000E0A00000E0C00000E0E00040000000400020004000400040006000400080004000A0004000C0004000E00040200000402020004020400040206000402080004020A0004020C0004020E000404000004040200040404000404060004040800040
1004
40A0004040C0004040E00040600000406020004060400040606000406080004060A0004060C0004060E00040800000408020004080400040806000408080004080A0004080C0004080E00040A0000040A0200040A0400040A0600040A0800040A0A00040A0C00040A0E00040C0000040C0200040C0400040C0600040C08000
1004
40C0A00040C0C00040C0E00040E0000040E0200040E0400040E0600040E0800040E0A00040E0C00040E0E00080000000800020008000400080006000800080008000A0008000C0008000E00080200000802020008020400080206000802080008020A0008020C0008020E00080400000804020008040400080406000804080
1004
008040A0008040C0008040E00080600000806020008060400080606000806080008060A0008060C0008060E00080800000808020008080400080806000808080008080A0008080C0008080E00080A0000080A0200080A0400080A0600080A0800080A0A00080A0C00080A0E00080C0000080C0200080C0400080C0600080C0
1004
800080C0A00080C0C00080C0E00080E0000080E0200080E0400080E0600080E0800080E0A00080E0C00080E0E000C0000000C0002000C0004000C0006000C0008000C000A000C000C000C000E000C0200000C0202000C0204000C0206000C0208000C020A000C020C000C020E000C0400000C0402000C0404000C0406000C0
1004
408000C040A000C040C000C040E000C0600000C0602000C0604000C0606000C0608000C060A000C060C000C060E000C0800000C0802000C0804000C0806000C0808000C080A000C080C000C080E000C0A00000C0A02000C0A04000C0A06000C0A08000C0A0A000C0A0C000C0A0E000C0C00000C0C02000C0C04000C0C06000
1004
C0C08000C0C0A000F0FBFF00A4A0A000808080000000FF0000FF000000FFFF00FF000000FF00FF00FFFF0000FFFFFF0000000000000000000000000000000000000000000000000000000000000000000000000000000000000000000000000000000000000000000000000000000000000000000000000000000000000000
1004
0000000000000000000000000000000000000000000000000000000000000000000000000000000000000000000000000000000000FFFFFFFF000000000000000000000000000000000000000000000000000000FFFF00FFFFFFFF000000000000000000000000000000000000000000000000FFFF00FF00FF0000FFFFFF00
1004
0000000000000000000000000000000000000000FF00FF00FF00FF00000000FFFFFF0000000000000000000000000000000000FFFF00FF00FF00FF00000000000000FFFF000000000000000000000000000000FFFF0000FF0000FF000000000000000000FFFFFF000000000000000000000000FFFFFF0000FFFF0000000000
1004
0000000000000000FFFFFF000000000000000000FFFF00FFFF000000000000000000000000000000000000FFFF00000000000000FFFF0000FFFFFFFFFFFFFFFFFFFFFFFFFFFFFF0000000000FFFFFF0000000000FFFF00FFFF000000000000FFFFFF00000000FFFF000000FF0000FFFF00000000FFFF00FFFF000000000000
1004
0000000000000000FFFFFFFF0000FF00FFFF000000FFFF00FFFF0000000000000000000000000000FFFFFFFF00FF00FF00FFFF0000FFFF00FFFF0000000000000000000000000000FFFFFFFF00FF00FF00FF000000FFFF00FFFF0000000000000000000000000000FFFFFFFF0000FF00FFFF000000FFFF00FFFF0000000000
1004
00FFFFFF00000000FFFFFF0000FF0000FFFF00000000FFFF0000FFFFFFFFFFFFFFFFFFFFFFFFFFFFFF0000000000FFFFFF0000000000FFFF00FFFF000000000000000000000000000000000000FFFF00000000000000FFFFFF0000FFFF00000000000000000000000000FFFFFF000000000000000000FFFF0000FF0000FF00
1004
0000000000000000FFFFFF000000000000000000000000FFFF00FF00FF00FF00000000000000FFFF00000000000000000000000000000000FF00FF00FF00FF00000000FFFFFF000000000000000000000000000000000000FFFF00FF00FF0000FFFFFF00000000000000000000000000000000000000000000FFFF00FFFFFF
1004
FF0000000000000000000000000000000000000000000000000000FFFFFFFF000000000000000000000000000000000000000000000000000000000000000000000000000000000000000000000000000000000000000000000000000000000000000000000000000000000000000000000000000000000000000000000000
1004
0000000000000000000000000000000000000000000000000000000000000000000000000000000000000000000000000000000000000000
  0
BLOCK_RECORD
  5
2893
330
1
100
AcDbSymbolTableRecord
100
AcDbBlockTableRecord
  2
PLAN_9100860
1001
ACAD
1000
DesignCenter Data
1002
{
1070
     1
1070
     4
1002
}
1001
CONTENTBLOCKICON
1071
        0
1004
2800000020000000200000000100080000000000000400000000000000000000000000000000000000000000000080000080000000808000800000008000800080800000C0C0C000C0DCC000F0CAA6000020400000206000002080000020A0000020C0000020E00000400000004020000040400000406000004080000040A0
1004
000040C0000040E00000600000006020000060400000606000006080000060A0000060C0000060E00000800000008020000080400000806000008080000080A0000080C0000080E00000A0000000A0200000A0400000A0600000A0800000A0A00000A0C00000A0E00000C0000000C0200000C0400000C0600000C0800000C0
1004
A00000C0C00000C0E00000E0000000E0200000E0400000E0600000E0800000E0A00000E0C00000E0E00040000000400020004000400040006000400080004000A0004000C0004000E00040200000402020004020400040206000402080004020A0004020C0004020E000404000004040200040404000404060004040800040
1004
40A0004040C0004040E00040600000406020004060400040606000406080004060A0004060C0004060E00040800000408020004080400040806000408080004080A0004080C0004080E00040A0000040A0200040A0400040A0600040A0800040A0A00040A0C00040A0E00040C0000040C0200040C0400040C0600040C08000
1004
40C0A00040C0C00040C0E00040E0000040E0200040E0400040E0600040E0800040E0A00040E0C00040E0E00080000000800020008000400080006000800080008000A0008000C0008000E00080200000802020008020400080206000802080008020A0008020C0008020E00080400000804020008040400080406000804080
1004
008040A0008040C0008040E00080600000806020008060400080606000806080008060A0008060C0008060E00080800000808020008080400080806000808080008080A0008080C0008080E00080A0000080A0200080A0400080A0600080A0800080A0A00080A0C00080A0E00080C0000080C0200080C0400080C0600080C0
1004
800080C0A00080C0C00080C0E00080E0000080E0200080E0400080E0600080E0800080E0A00080E0C00080E0E000C0000000C0002000C0004000C0006000C0008000C000A000C000C000C000E000C0200000C0202000C0204000C0206000C0208000C020A000C020C000C020E000C0400000C0402000C0404000C0406000C0
1004
408000C040A000C040C000C040E000C0600000C0602000C0604000C0606000C0608000C060A000C060C000C060E000C0800000C0802000C0804000C0806000C0808000C080A000C080C000C080E000C0A00000C0A02000C0A04000C0A06000C0A08000C0A0A000C0A0C000C0A0E000C0C00000C0C02000C0C04000C0C06000
1004
C0C08000C0C0A000F0FBFF00A4A0A000808080000000FF0000FF000000FFFF00FF000000FF00FF00FFFF0000FFFFFF000000000000000000000000000000000000000000000000000000000000000000000000000000000000000000000000000000000000000000000000FF00000000000000000000000000000000000000
1004
0000000000000000000000FFFF0000000000000000000000000000000000000000000000000000000000FF00FF0000000000000000000000000000000000000000000000000000000000FF00FF0000000000000000000000000000000000000000000000000000000000FF00FF000000000000000000000000000000000000
1004
0000000000000000000000FF00FF0000000000000000000000000000000000000000000000000000000000FF00FF0000000000000000000000000000000000000000000000000000000000FF00FF0000000000000000000000000000000000000000000000000000000000FF00FF00000000000000000000FFFFFFFFFFFFFF
1004
FFFFFFFFFFFFFFFFFFFFFFFF0000FF000000000000000000FFFFFFFFFFFFFFFFFFFFFFFFFFFFFFFF000000000000FF000000000000000000FF000000000000000000000000000000FFFF00000000FF0000000000000000FF000000000000000000000000000000000000FFFF0000FF0000000000000000FF00000000000000
1004
000000000000000000000000FF0000FF0000000000000000FF00000000000000000000000000000000000000FF0000FF0000000000000000FF00000000000000000000000000000000000000FF0000FF0000000000000000FF00000000000000000000000000000000000000FF0000FF0000000000000000FF000000000000
1004
00000000000000000000000000FF0000FF000000000000000000FF00000000000000000000000000000000FFFF000000FF000000000000000000FFFFFFFFFFFFFFFFFFFFFFFFFFFFFFFFFF0000000000FF00000000000000000000FFFFFFFFFFFFFFFFFFFFFFFFFFFFFFFFFFFF000000FF0000000000000000000000000000
1004
0000000000000000000000000000FFFF00FF0000000000000000000000000000000000000000000000000000000000FF00FF0000000000000000000000000000000000000000000000000000000000FF00FF0000000000000000000000000000000000000000000000000000000000FF00FF00000000000000000000000000
1004
00000000000000000000000000000000FF00FF0000000000000000000000000000000000000000000000000000000000FF00FF0000000000000000000000000000000000000000000000000000000000FF00FF000000000000000000000000000000000000000000000000000000000000FFFF000000000000000000000000
1004
00000000000000000000000000000000000000FF000000000000000000000000000000000000000000000000000000000000000000000000
  0
BLOCK_RECORD
  5
2A5F
330
1
100
AcDbSymbolTableRecord
100
AcDbBlockTableRecord
  2
*D25
  0
BLOCK_RECORD
  5
2E66
102
{ACAD_XDICTIONARY
360
2E6E
102
}
330
1
100
AcDbSymbolTableRecord
100
AcDbBlockTableRecord
  2
FIRST_A4_SM_ATTRIBUTES__2_
1001
ACAD
1000
DesignCenter Data
1002
{
1070
     1
1070
     4
1002
}
  0
ENDTAB
  0
ENDSEC
  0
SECTION
  2
BLOCKS
  0
BLOCK
  5
20
330
1F
100
AcDbEntity
  8
0
100
AcDbBlockBegin
  2
*MODEL_SPACE
 70
     0
 10
0.0
 20
0.0
 30
0.0
  3
*MODEL_SPACE
  1

  0
ENDBLK
  5
21
330
1F
100
AcDbEntity
  8
0
100
AcDbBlockEnd
  0
BLOCK
  5
2D
330
2B
100
AcDbEntity
 67
     1
  8
0
100
AcDbBlockBegin
  2
*PAPER_SPACE
 70
     0
 10
0.0
 20
0.0
 30
0.0
  3
*PAPER_SPACE
  1

  0
ENDBLK
  5
2E
330
2B
100
AcDbEntity
 67
     1
  8
0
100
AcDbBlockEnd
  0
BLOCK
  5
53
330
52
100
AcDbEntity
  8
0
100
AcDbBlockBegin
  2
FIRS
 70
    36
 10
0.0
 20
0.0
 30
0.0
  3
FIRS
  1
first a4 SM border.dwg
  0
ENDBLK
  5
54
330
52
100
AcDbEntity
  8
0
100
AcDbBlockEnd
  0
BLOCK
  5
1D31
330
1D30
100
AcDbEntity
  8
0
100
AcDbBlockBegin
  2
01955
 70
    36
 10
0.0
 20
0.0
 30
0.0
  3
01955
  1
I:\DWG Master Blocks\01955.dwg
  0
ENDBLK
  5
1D32
330
1D30
100
AcDbEntity
  8
0
100
AcDbBlockEnd
  0
BLOCK
  5
1D37
330
1D36
100
AcDbEntity
  8
0
100
AcDbBlockBegin
  2
01953
 70
    36
 10
0.0
 20
0.0
 30
0.0
  3
01953
  1
I:\DWG Master Blocks\01953.dwg
  0
ENDBLK
  5
1D38
330
1D36
100
AcDbEntity
  8
0
100
AcDbBlockEnd
  0
BLOCK
  5
1D3D
330
1D3C
100
AcDbEntity
  8
0
100
AcDbBlockBegin
  2
01956
 70
    36
 10
0.0
 20
0.0
 30
0.0
  3
01956
  1
I:\DWG Master Blocks\01956.dwg
  0
ENDBLK
  5
1D3E
330
1D3C
100
AcDbEntity
  8
0
100
AcDbBlockEnd
  0
BLOCK
  5
211E
330
2119
100
AcDbEntity
  8
0
100
AcDbBlockBegin
  2
SW_CENTERMARKSYMBOL_1
 70
     0
 10
0.0
 20
0.0
 30
0.0
  3
SW_CENTERMARKSYMBOL_1
  1

  0
LINE
  5
211A
330
2119
100
AcDbEntity
  8
0
  6
CONTINUOUS
 62
     7
100
AcDbLine
 10
0.0
 20
0.0
 30
0.0
 11
0.0
 21
0.6250000000000006
 31
0.0
  0
LINE
  5
211B
330
2119
100
AcDbEntity
  8
0
  6
CONTINUOUS
 62
     7
100
AcDbLine
 10
0.0
 20
0.0
 30
0.0
 11
-0.6250000000000006
 21
0.0
 31
0.0
  0
LINE
  5
211C
330
2119
100
AcDbEntity
  8
0
  6
CONTINUOUS
 62
     7
100
AcDbLine
 10
0.0
 20
0.0
 30
0.0
 11
0.0
 21
-0.6250000000000006
 31
0.0
  0
LINE
  5
211D
330
2119
100
AcDbEntity
  8
0
  6
CONTINUOUS
 62
     7
100
AcDbLine
 10
0.0
 20
0.0
 30
0.0
 11
0.6250000000000006
 21
0.0
 31
0.0
  0
ENDBLK
  5
211F
330
2119
100
AcDbEntity
  8
0
100
AcDbBlockEnd
  0
BLOCK
  5
2129
330
2120
100
AcDbEntity
  8
0
100
AcDbBlockBegin
  2
SW_CENTERMARKSYMBOL_2
 70
     0
 10
0.0
 20
0.0
 30
0.0
  3
SW_CENTERMARKSYMBOL_2
  1

  0
LINE
  5
2121
330
2120
100
AcDbEntity
  8
0
  6
CONTINUOUS
 62
     7
100
AcDbLine
 10
0.0
 20
0.0
 30
0.0
 11
0.0
 21
0.6250000000000006
 31
0.0
  0
LINE
  5
2122
330
2120
100
AcDbEntity
  8
0
  6
CONTINUOUS
 62
     7
100
AcDbLine
 10
0.0
 20
0.0
 30
0.0
 11
-0.6249999999999972
 21
0.0
 31
0.0
  0
LINE
  5
2123
330
2120
100
AcDbEntity
  8
0
  6
CONTINUOUS
 62
     7
100
AcDbLine
 10
0.0
 20
0.0
 30
0.0
 11
0.0
 21
-0.6250000000000006
 31
0.0
  0
LINE
  5
2124
330
2120
100
AcDbEntity
  8
0
  6
CONTINUOUS
 62
     7
100
AcDbLine
 10
0.0
 20
0.0
 30
0.0
 11
0.6250000000000006
 21
0.0
 31
0.0
  0
LINE
  5
2125
330
2120
100
AcDbEntity
  8
0
  6
CONTINUOUS
 62
     7
100
AcDbLine
 10
0.0
 20
1.250000000000001
 30
0.0
 11
0.0
 21
4.374999999999997
 31
0.0
  0
LINE
  5
2126
330
2120
100
AcDbEntity
  8
0
  6
CONTINUOUS
 62
     7
100
AcDbLine
 10
-1.249999999999997
 20
0.0
 30
0.0
 11
-4.374999999999997
 21
0.0
 31
0.0
  0
LINE
  5
2127
330
2120
100
AcDbEntity
  8
0
  6
CONTINUOUS
 62
     7
100
AcDbLine
 10
0.0
 20
-1.250000000000001
 30
0.0
 11
0.0
 21
-4.374999999999997
 31
0.0
  0
LINE
  5
2128
330
2120
100
AcDbEntity
  8
0
  6
CONTINUOUS
 62
     7
100
AcDbLine
 10
1.250000000000001
 20
0.0
 30
0.0
 11
4.375
 21
0.0
 31
0.0
  0
ENDBLK
  5
212A
330
2120
100
AcDbEntity
  8
0
100
AcDbBlockEnd
  0
BLOCK
  5
2134
330
212B
100
AcDbEntity
  8
0
100
AcDbBlockBegin
  2
SW_CENTERMARKSYMBOL_3
 70
     0
 10
0.0
 20
0.0
 30
0.0
  3
SW_CENTERMARKSYMBOL_3
  1

  0
LINE
  5
212C
330
212B
100
AcDbEntity
  8
0
  6
CONTINUOUS
 62
     7
100
AcDbLine
 10
0.0
 20
0.0
 30
0.0
 11
0.0
 21
0.6250000000000006
 31
0.0
  0
LINE
  5
212D
330
212B
100
AcDbEntity
  8
0
  6
CONTINUOUS
 62
     7
100
AcDbLine
 10
0.0
 20
0.0
 30
0.0
 11
-0.6250000000000006
 21
0.0
 31
0.0
  0
LINE
  5
212E
330
212B
100
AcDbEntity
  8
0
  6
CONTINUOUS
 62
     7
100
AcDbLine
 10
0.0
 20
0.0
 30
0.0
 11
0.0
 21
-0.6250000000000006
 31
0.0
  0
LINE
  5
212F
330
212B
100
AcDbEntity
  8
0
  6
CONTINUOUS
 62
     7
100
AcDbLine
 10
0.0
 20
0.0
 30
0.0
 11
0.6250000000000006
 21
0.0
 31
0.0
  0
LINE
  5
2130
330
212B
100
AcDbEntity
  8
0
  6
CONTINUOUS
 62
     7
100
AcDbLine
 10
0.0
 20
1.250000000000001
 30
0.0
 11
0.0
 21
4.375000000000003
 31
0.0
  0
LINE
  5
2131
330
212B
100
AcDbEntity
  8
0
  6
CONTINUOUS
 62
     7
100
AcDbLine
 10
-1.250000000000001
 20
0.0
 30
0.0
 11
-4.374999999999997
 21
0.0
 31
0.0
  0
LINE
  5
2132
330
212B
100
AcDbEntity
  8
0
  6
CONTINUOUS
 62
     7
100
AcDbLine
 10
0.0
 20
-1.250000000000001
 30
0.0
 11
0.0
 21
-4.374999999999997
 31
0.0
  0
LINE
  5
2133
330
212B
100
AcDbEntity
  8
0
  6
CONTINUOUS
 62
     7
100
AcDbLine
 10
1.250000000000001
 20
0.0
 30
0.0
 11
4.374999999999997
 21
0.0
 31
0.0
  0
ENDBLK
  5
2135
330
212B
100
AcDbEntity
  8
0
100
AcDbBlockEnd
  0
BLOCK
  5
213F
330
2136
100
AcDbEntity
  8
0
100
AcDbBlockBegin
  2
SW_CENTERMARKSYMBOL_5
 70
     0
 10
0.0
 20
0.0
 30
0.0
  3
SW_CENTERMARKSYMBOL_5
  1

  0
LINE
  5
2137
330
2136
100
AcDbEntity
  8
0
  6
CONTINUOUS
 62
     7
100
AcDbLine
 10
0.0
 20
0.0
 30
0.0
 11
0.0
 21
0.6250000000000006
 31
0.0
  0
LINE
  5
2138
330
2136
100
AcDbEntity
  8
0
  6
CONTINUOUS
 62
     7
100
AcDbLine
 10
0.0
 20
0.0
 30
0.0
 11
-0.6249999999999867
 21
0.0
 31
0.0
  0
LINE
  5
2139
330
2136
100
AcDbEntity
  8
0
  6
CONTINUOUS
 62
     7
100
AcDbLine
 10
0.0
 20
0.0
 30
0.0
 11
0.0
 21
-0.6250000000000006
 31
0.0
  0
LINE
  5
213A
330
2136
100
AcDbEntity
  8
0
  6
CONTINUOUS
 62
     7
100
AcDbLine
 10
0.0
 20
0.0
 30
0.0
 11
0.6250000000000006
 21
0.0
 31
0.0
  0
LINE
  5
213B
330
2136
100
AcDbEntity
  8
0
  6
CONTINUOUS
 62
     7
100
AcDbLine
 10
0.0
 20
1.250000000000001
 30
0.0
 11
0.0
 21
3.749999999999996
 31
0.0
  0
LINE
  5
213C
330
2136
100
AcDbEntity
  8
0
  6
CONTINUOUS
 62
     7
100
AcDbLine
 10
-1.249999999999987
 20
0.0
 30
0.0
 11
-3.749999999999989
 21
0.0
 31
0.0
  0
LINE
  5
213D
330
2136
100
AcDbEntity
  8
0
  6
CONTINUOUS
 62
     7
100
AcDbLine
 10
0.0
 20
-1.250000000000001
 30
0.0
 11
0.0
 21
-3.750000000000003
 31
0.0
  0
LINE
  5
213E
330
2136
100
AcDbEntity
  8
0
  6
CONTINUOUS
 62
     7
100
AcDbLine
 10
1.250000000000001
 20
0.0
 30
0.0
 11
3.750000000000003
 21
0.0
 31
0.0
  0
ENDBLK
  5
2140
330
2136
100
AcDbEntity
  8
0
100
AcDbBlockEnd
  0
BLOCK
  5
214A
330
2141
100
AcDbEntity
  8
0
100
AcDbBlockBegin
  2
SW_CENTERMARKSYMBOL_6
 70
     0
 10
0.0
 20
0.0
 30
0.0
  3
SW_CENTERMARKSYMBOL_6
  1

  0
LINE
  5
2142
330
2141
100
AcDbEntity
  8
0
  6
CONTINUOUS
 62
     7
100
AcDbLine
 10
0.0
 20
0.0
 30
0.0
 11
0.0
 21
0.6250000000000006
 31
0.0
  0
LINE
  5
2143
330
2141
100
AcDbEntity
  8
0
  6
CONTINUOUS
 62
     7
100
AcDbLine
 10
0.0
 20
0.0
 30
0.0
 11
-0.6250000000000006
 21
0.0
 31
0.0
  0
LINE
  5
2144
330
2141
100
AcDbEntity
  8
0
  6
CONTINUOUS
 62
     7
100
AcDbLine
 10
0.0
 20
0.0
 30
0.0
 11
0.0
 21
-0.6250000000000006
 31
0.0
  0
LINE
  5
2145
330
2141
100
AcDbEntity
  8
0
  6
CONTINUOUS
 62
     7
100
AcDbLine
 10
0.0
 20
0.0
 30
0.0
 11
0.6250000000000006
 21
0.0
 31
0.0
  0
LINE
  5
2146
330
2141
100
AcDbEntity
  8
0
  6
CONTINUOUS
 62
     7
100
AcDbLine
 10
0.0
 20
1.250000000000001
 30
0.0
 11
0.0
 21
3.750000000000003
 31
0.0
  0
LINE
  5
2147
330
2141
100
AcDbEntity
  8
0
  6
CONTINUOUS
 62
     7
100
AcDbLine
 10
-1.250000000000001
 20
0.0
 30
0.0
 11
-3.749999999999989
 21
0.0
 31
0.0
  0
LINE
  5
2148
330
2141
100
AcDbEntity
  8
0
  6
CONTINUOUS
 62
     7
100
AcDbLine
 10
0.0
 20
-1.250000000000001
 30
0.0
 11
0.0
 21
-3.749999999999996
 31
0.0
  0
LINE
  5
2149
330
2141
100
AcDbEntity
  8
0
  6
CONTINUOUS
 62
     7
100
AcDbLine
 10
1.250000000000001
 20
0.0
 30
0.0
 11
3.750000000000003
 21
0.0
 31
0.0
  0
ENDBLK
  5
214B
330
2141
100
AcDbEntity
  8
0
100
AcDbBlockEnd
  0
BLOCK
  5
2451
330
2447
100
AcDbEntity
  8
0
100
AcDbBlockBegin
  2
*D16
 70
     1
 10
0.0
 20
0.0
 30
0.0
  3
*D16
  1

  0
LINE
  5
2922
330
2447
100
AcDbEntity
  8
APL_NOTES
 62
     9
100
AcDbLine
 10
291.6710237293215
 20
242.1297583111372
 30
0.0
 11
329.1109523700995
 21
242.1297583111372
 31
0.0
  0
LINE
  5
2923
330
2447
100
AcDbEntity
  8
APL_NOTES
 62
     9
100
AcDbLine
 10
214.9314471761897
 20
442.2616577225418
 30
0.0
 11
329.1109523700996
 21
442.2616577225418
 31
0.0
  0
LINE
  5
2924
330
2447
100
AcDbEntity
  8
APL_NOTES
 62
     9
100
AcDbLine
 10
324.1109523700996
 20
252.1297583111372
 30
0.0
 11
324.1109523700996
 21
432.2616577225418
 31
0.0
  0
SOLID
  5
2925
330
2447
100
AcDbEntity
  8
APL_NOTES
 62
     9
100
AcDbTrace
 10
322.4442857034329
 20
252.1297583111372
 30
0.0
 11
325.7776190367662
 21
252.1297583111372
 31
0.0
 12
324.1109523700996
 22
242.1297583111372
 32
0.0
 13
324.1109523700996
 23
242.1297583111372
 33
0.0
  0
SOLID
  5
2926
330
2447
100
AcDbEntity
  8
APL_NOTES
 62
     9
100
AcDbTrace
 10
322.4442857034329
 20
432.2616577225418
 30
0.0
 11
325.7776190367663
 21
432.2616577225418
 31
0.0
 12
324.1109523700996
 22
442.2616577225418
 32
0.0
 13
324.1109523700996
 23
442.2616577225418
 33
0.0
  0
MTEXT
  5
2927
330
2447
100
AcDbEntity
  8
APL_NOTES
 62
     7
100
AcDbMText
 10
316.6375553714638
 20
342.1957080168396
 30
0.0
 40
10.0
 41
0.0
 71
     5
 72
     1
  1
Max 200mm to top of Rail
  7
ARIAL-REGULAR
 11
0.0000000000000001
 21
1.0
 31
0.0
1001
ACAD
1000
MTEXTBEGIN
1070
    73
1070
     1
1070
    44
1040
1.0
1070
    74
1070
     0
1000
MTEXTEND
  0
POINT
  5
2928
330
2447
100
AcDbEntity
  8
DEFPOINTS
 62
     0
100
AcDbPoint
 10
281.6710237293215
 20
242.1297583111372
 30
0.0
  0
POINT
  5
2929
330
2447
100
AcDbEntity
  8
DEFPOINTS
 62
     0
100
AcDbPoint
 10
204.9314471761898
 20
442.2616577225418
 30
0.0
  0
POINT
  5
292A
330
2447
100
AcDbEntity
  8
DEFPOINTS
 62
     0
100
AcDbPoint
 10
324.1109523700996
 20
442.2616577225418
 30
0.0
  0
ENDBLK
  5
2452
330
2447
100
AcDbEntity
  8
0
100
AcDbBlockEnd
  0
BLOCK
  5
245D
330
2453
100
AcDbEntity
  8
0
100
AcDbBlockBegin
  2
*D17
 70
     1
 10
0.0
 20
0.0
 30
0.0
  3
*D17
  1

  0
LINE
  5
292B
330
2453
100
AcDbEntity
  8
APL_NOTES
 62
     9
100
AcDbLine
 10
648.1599729168696
 20
241.1988262092347
 30
0.0
 11
687.0292121951727
 21
241.1988262092347
 31
0.0
  0
LINE
  5
292C
330
2453
100
AcDbEntity
  8
APL_NOTES
 62
     9
100
AcDbLine
 10
571.4207471276666
 20
441.3287363395396
 30
0.0
 11
687.0292121951727
 21
441.3287363395395
 31
0.0
  0
LINE
  5
292D
330
2453
100
AcDbEntity
  8
APL_NOTES
 62
     9
100
AcDbLine
 10
682.0292121951727
 20
251.1988262092347
 30
0.0
 11
682.0292121951728
 21
431.3287363395396
 31
0.0
  0
SOLID
  5
292E
330
2453
100
AcDbEntity
  8
APL_NOTES
 62
     9
100
AcDbTrace
 10
680.362545528506
 20
251.1988262092347
 30
0.0
 11
683.6958788618393
 21
251.1988262092347
 31
0.0
 12
682.0292121951727
 22
241.1988262092347
 32
0.0
 13
682.0292121951727
 23
241.1988262092347
 33
0.0
  0
SOLID
  5
292F
330
2453
100
AcDbEntity
  8
APL_NOTES
 62
     9
100
AcDbTrace
 10
680.3625455285062
 20
431.3287363395396
 30
0.0
 11
683.6958788618394
 21
431.3287363395396
 31
0.0
 12
682.0292121951728
 22
441.3287363395395
 32
0.0
 13
682.0292121951728
 23
441.3287363395395
 33
0.0
  0
MTEXT
  5
2930
330
2453
100
AcDbEntity
  8
APL_NOTES
 62
     7
100
AcDbMText
 10
674.555815196537
 20
341.2637812743872
 30
0.0
 40
10.0
 41
0.0
 71
     5
 72
     1
  1
Max 200mm to top of Rail
  7
ARIAL-REGULAR
 11
0.0000000000000001
 21
1.0
 31
0.0
1001
ACAD
1000
MTEXTBEGIN
1070
    73
1070
     1
1070
    44
1040
1.0
1070
    74
1070
     0
1000
MTEXTEND
  0
POINT
  5
2931
330
2453
100
AcDbEntity
  8
DEFPOINTS
 62
     0
100
AcDbPoint
 10
638.1599729168696
 20
241.1988262092347
 30
0.0
  0
POINT
  5
2932
330
2453
100
AcDbEntity
  8
DEFPOINTS
 62
     0
100
AcDbPoint
 10
561.4207471276666
 20
441.3287363395396
 30
0.0
  0
POINT
  5
2933
330
2453
100
AcDbEntity
  8
DEFPOINTS
 62
     0
100
AcDbPoint
 10
682.0292121951728
 20
441.3287363395395
 30
0.0
  0
ENDBLK
  5
245E
330
2453
100
AcDbEntity
  8
0
100
AcDbBlockEnd
  0
BLOCK
  5
2496
330
2495
100
AcDbEntity
  8
0
100
AcDbBlockBegin
  2
BRACKET
 70
     0
 10
0.0
 20
0.0
 30
0.0
  3
BRACKET
  1

  0
LINE
  5
2498
330
2495
100
AcDbEntity
  8
APL_JOINERY
  6
CONTINUOUS
 62
     7
100
AcDbLine
 10
-474.8218853302271
 20
388.3288530744707
 30
0.0
 11
-559.8218853302273
 21
388.3288530744707
 31
0.0
  0
LINE
  5
2499
330
2495
100
AcDbEntity
  8
APL_JOINERY
  6
CONTINUOUS
 62
     7
100
AcDbLine
 10
-494.7084264322863
 20
394.3288530744706
 30
0.0
 11
-476.8218853302271
 21
394.3288530744706
 31
0.0
  0
ARC
  5
249A
330
2495
100
AcDbEntity
  8
APL_JOINERY
  6
CONTINUOUS
 62
     7
100
AcDbCircle
 10
-557.8218853302273
 20
392.3288530744707
 30
0.0
 40
2.0
100
AcDbArc
 50
90.0
 51
180.0
  0
LINE
  5
249B
330
2495
100
AcDbEntity
  8
APL_JOINERY
  6
CONTINUOUS
 62
     7
100
AcDbLine
 10
-559.8218853302273
 20
388.3288530744707
 30
0.0
 11
-559.8218853302273
 21
392.3288530744707
 31
0.0
  0
LINE
  5
249C
330
2495
100
AcDbEntity
  8
APL_JOINERY
  6
CONTINUOUS
 62
     7
100
AcDbLine
 10
-540.935344228168
 20
394.3288530744707
 30
0.0
 11
-557.8218853302273
 21
394.3288530744707
 31
0.0
  0
ARC
  5
249D
330
2495
100
AcDbEntity
  8
APL_JOINERY
  6
CONTINUOUS
 62
     7
100
AcDbCircle
 10
-530.3996904753152
 20
377.3288530744706
 30
0.0
 40
20.00000000000003
100
AcDbArc
 50
90.0
 51
121.7883306170516
  0
ARC
  5
249E
330
2495
100
AcDbEntity
  8
APL_JOINERY
  6
CONTINUOUS
 62
     7
100
AcDbCircle
 10
-524.8891643302273
 20
409.2615740744706
 30
0.0
 40
3.067279000000013
100
AcDbArc
 50
0.0
 51
90.0
  0
ARC
  5
249F
330
2495
100
AcDbEntity
  8
APL_JOINERY
  6
CONTINUOUS
 62
     7
100
AcDbCircle
 10
-524.8218853302273
 20
400.3288530744708
 30
0.0
 40
3.000000000000056
100
AcDbArc
 50
270.0
 51
0.0
  0
LINE
  5
24A0
330
2495
100
AcDbEntity
  8
APL_JOINERY
  6
CONTINUOUS
 62
     7
100
AcDbLine
 10
-530.3996904753152
 20
397.3288530744707
 30
0.0
 11
-524.8218853302273
 21
397.3288530744707
 31
0.0
  0
LINE
  5
24A1
330
2495
100
AcDbEntity
  8
APL_JOINERY
  6
CONTINUOUS
 62
     7
100
AcDbLine
 10
-521.8218853302273
 20
400.3288530744707
 30
0.0
 11
-521.8218853302273
 21
409.2615740744706
 31
0.0
  0
LINE
  5
24A2
330
2495
100
AcDbEntity
  8
APL_JOINERY
  6
CONTINUOUS
 62
     7
100
AcDbLine
 10
-524.8891643302273
 20
412.3288530744707
 30
0.0
 11
-526.0218853302274
 21
412.3288530744704
 31
0.0
  0
ARC
  5
24A3
330
2495
100
AcDbEntity
  8
APL_JOINERY
  6
CONTINUOUS
 62
     7
100
AcDbCircle
 10
-505.2440801851392
 20
377.3288530744707
 30
0.0
 40
20.0
100
AcDbArc
 50
58.21166938294838
 51
90.0
  0
ARC
  5
24A4
330
2495
100
AcDbEntity
  8
APL_JOINERY
  6
CONTINUOUS
 62
     7
100
AcDbCircle
 10
-510.7546063302272
 20
409.2615740744706
 30
0.0
 40
3.067279000000041
100
AcDbArc
 50
90.0
 51
180.0
  0
LINE
  5
24A5
330
2495
100
AcDbEntity
  8
APL_JOINERY
  6
CONTINUOUS
 62
     7
100
AcDbLine
 10
-510.8218853302272
 20
397.3288530744707
 30
0.0
 11
-505.2440801851392
 21
397.3288530744707
 31
0.0
  0
LINE
  5
24A6
330
2495
100
AcDbEntity
  8
APL_JOINERY
  6
CONTINUOUS
 62
     7
100
AcDbLine
 10
-513.8218853302273
 20
409.2615740744706
 30
0.0
 11
-513.8218853302273
 21
400.3288530744708
 31
0.0
  0
ARC
  5
24A7
330
2495
100
AcDbEntity
  8
APL_JOINERY
  6
CONTINUOUS
 62
     7
100
AcDbCircle
 10
-510.8218853302272
 20
400.3288530744708
 30
0.0
 40
3.000000000000056
100
AcDbArc
 50
180.0
 51
270.0
  0
ARC
  5
24A8
330
2495
100
AcDbEntity
  8
APL_JOINERY
  6
CONTINUOUS
 62
     7
100
AcDbCircle
 10
-476.8218853302271
 20
392.3288530744706
 30
0.0
 40
2.0
100
AcDbArc
 50
0.0
 51
90.0
  0
LINE
  5
24A9
330
2495
100
AcDbEntity
  8
APL_JOINERY
  6
CONTINUOUS
 62
     7
100
AcDbLine
 10
-474.8218853302271
 20
388.3288530744707
 30
0.0
 11
-474.8218853302272
 21
392.3288530744706
 31
0.0
  0
ENDBLK
  5
2497
330
2495
100
AcDbEntity
  8
0
100
AcDbBlockEnd
  0
BLOCK
  5
2674
330
266A
100
AcDbEntity
  8
0
 62
     4
100
AcDbBlockBegin
  2
*D19
 70
     1
 10
0.0
 20
0.0
 30
0.0
  3
*D19
  1

  0
LINE
  5
2AC6
330
266A
100
AcDbEntity
  8
APL_NOTES
  6
CONTINUOUS
 62
     0
100
AcDbLine
 10
493.1599729168692
 20
74.03734870869357
 30
0.0
 11
493.1599729168692
 21
59.97027152562532
 31
0.0
  0
LINE
  5
2AC7
330
266A
100
AcDbEntity
  8
APL_NOTES
  6
CONTINUOUS
 62
     0
100
AcDbLine
 10
643.1599729168692
 20
74.03734870869357
 30
0.0
 11
643.1599729168692
 21
59.97027152562532
 31
0.0
  0
LINE
  5
2AC8
330
266A
100
AcDbEntity
  8
APL_NOTES
  6
CONTINUOUS
 62
     0
100
AcDbLine
 10
503.1599729168692
 20
64.97027152562532
 30
0.0
 11
633.1599729168693
 21
64.97027152562532
 31
0.0
  0
SOLID
  5
2AC9
330
266A
100
AcDbEntity
  8
APL_NOTES
  6
CONTINUOUS
 62
     0
100
AcDbTrace
 10
503.1599729168692
 20
66.63693819229199
 30
0.0
 11
503.1599729168692
 21
63.30360485895866
 31
0.0
 12
493.1599729168692
 22
64.97027152562532
 32
0.0
 13
493.1599729168692
 23
64.97027152562532
 33
0.0
  0
SOLID
  5
2ACA
330
266A
100
AcDbEntity
  8
APL_NOTES
  6
CONTINUOUS
 62
     0
100
AcDbTrace
 10
633.1599729168693
 20
66.63693819229199
 30
0.0
 11
633.1599729168693
 21
63.30360485895866
 31
0.0
 12
643.1599729168692
 22
64.97027152562532
 32
0.0
 13
643.1599729168692
 23
64.97027152562532
 33
0.0
  0
MTEXT
  5
2ACB
330
266A
100
AcDbEntity
  8
APL_NOTES
  6
CONTINUOUS
 62
     0
100
AcDbMText
 10
568.1599729168692
 20
70.70100140284224
 30
0.0
 40
10.0
 41
0.0
 71
     5
 72
     1
  1
150mm min
  7
ARIAL-REGULAR
1001
ACAD
1000
MTEXTBEGIN
1070
    73
1070
     1
1070
    44
1040
1.0
1070
    74
1070
     0
1000
MTEXTEND
  0
POINT
  5
2ACC
330
266A
100
AcDbEntity
  8
DEFPOINTS
  6
CONTINUOUS
 62
     0
100
AcDbPoint
 10
493.1599729168692
 20
84.03734870869357
 30
0.0
  0
POINT
  5
2ACD
330
266A
100
AcDbEntity
  8
DEFPOINTS
  6
CONTINUOUS
 62
     0
100
AcDbPoint
 10
643.1599729168692
 20
84.03734870869357
 30
0.0
  0
POINT
  5
2ACE
330
266A
100
AcDbEntity
  8
DEFPOINTS
  6
CONTINUOUS
 62
     0
100
AcDbPoint
 10
643.1599729168692
 20
64.97027152562532
 30
0.0
  0
ENDBLK
  5
2675
330
266A
100
AcDbEntity
  8
0
 62
     4
100
AcDbBlockEnd
  0
BLOCK
  5
26DF
330
26D5
100
AcDbEntity
  8
0
 62
     7
100
AcDbBlockBegin
  2
*D20
 70
     1
 10
0.0
 20
0.0
 30
0.0
  3
*D20
  1

  0
LINE
  5
2ABD
330
26D5
100
AcDbEntity
  8
APL_NOTES
  6
CONTINUOUS
 62
     0
100
AcDbLine
 10
181.6710237293223
 20
74.96828081059607
 30
0.0
 11
181.6710237293223
 21
60.90120362752782
 31
0.0
  0
LINE
  5
2ABE
330
26D5
100
AcDbEntity
  8
APL_NOTES
  6
CONTINUOUS
 62
     0
100
AcDbLine
 10
281.6710237293223
 20
74.96828081059607
 30
0.0
 11
281.6710237293223
 21
60.90120362752782
 31
0.0
  0
LINE
  5
2ABF
330
26D5
100
AcDbEntity
  8
APL_NOTES
  6
CONTINUOUS
 62
     0
100
AcDbLine
 10
191.6710237293223
 20
65.90120362752782
 30
0.0
 11
271.6710237293223
 21
65.90120362752782
 31
0.0
  0
SOLID
  5
2AC0
330
26D5
100
AcDbEntity
  8
APL_NOTES
  6
CONTINUOUS
 62
     0
100
AcDbTrace
 10
191.6710237293223
 20
67.56787029419449
 30
0.0
 11
191.6710237293223
 21
64.23453696086115
 31
0.0
 12
181.6710237293223
 22
65.90120362752782
 32
0.0
 13
181.6710237293223
 23
65.90120362752782
 33
0.0
  0
SOLID
  5
2AC1
330
26D5
100
AcDbEntity
  8
APL_NOTES
  6
CONTINUOUS
 62
     0
100
AcDbTrace
 10
271.6710237293223
 20
67.56787029419449
 30
0.0
 11
271.6710237293223
 21
64.23453696086115
 31
0.0
 12
281.6710237293223
 22
65.90120362752782
 32
0.0
 13
281.6710237293223
 23
65.90120362752782
 33
0.0
  0
MTEXT
  5
2AC2
330
26D5
100
AcDbEntity
  8
APL_NOTES
  6
CONTINUOUS
 62
     0
100
AcDbMText
 10
231.6710237293223
 20
71.63193350474474
 30
0.0
 40
10.0
 41
0.0
 71
     5
 72
     1
  1
100mm min
  7
ARIAL-REGULAR
1001
ACAD
1000
MTEXTBEGIN
1070
    73
1070
     1
1070
    44
1040
1.0
1070
    74
1070
     0
1000
MTEXTEND
  0
POINT
  5
2AC3
330
26D5
100
AcDbEntity
  8
DEFPOINTS
  6
CONTINUOUS
 62
     0
100
AcDbPoint
 10
181.6710237293223
 20
84.96828081059607
 30
0.0
  0
POINT
  5
2AC4
330
26D5
100
AcDbEntity
  8
DEFPOINTS
  6
CONTINUOUS
 62
     0
100
AcDbPoint
 10
281.6710237293223
 20
84.96828081059607
 30
0.0
  0
POINT
  5
2AC5
330
26D5
100
AcDbEntity
  8
DEFPOINTS
  6
CONTINUOUS
 62
     0
100
AcDbPoint
 10
281.6710237293223
 20
65.90120362752782
 30
0.0
  0
ENDBLK
  5
26E0
330
26D5
100
AcDbEntity
  8
0
 62
     7
100
AcDbBlockEnd
  0
BLOCK
  5
27B8
330
27B7
100
AcDbEntity
  8
0
 62
     7
100
AcDbBlockBegin
  2
FOOTING
 70
     0
 10
0.0
 20
0.0
 30
0.0
  3
FOOTING
  1

  0
LINE
  5
27CB
330
27B7
100
AcDbEntity
  8
APL_JOINERY
  6
CONTINUOUS
 62
     7
100
AcDbLine
 10
125.8697008335229
 20
652.5121321013569
 30
0.0
 11
257.0877635108554
 21
652.5121321013569
 31
0.0
  0
LINE
  5
27CC
330
27B7
100
AcDbEntity
  8
APL_JOINERY
  6
CONTINUOUS
 62
     7
100
AcDbLine
 10
125.8697008335229
 20
640.5121321013568
 30
0.0
 11
257.0877635108554
 21
640.5121321013568
 31
0.0
  0
LINE
  5
27CD
330
27B7
100
AcDbEntity
  8
APL_JOINERY
  6
CONTINUOUS
 62
     7
100
AcDbLine
 10
257.0877635108554
 20
652.5121321013569
 30
0.0
 11
258.0877635108553
 21
651.5121321013569
 31
0.0
  0
LINE
  5
27CE
330
27B7
100
AcDbEntity
  8
APL_JOINERY
  6
CONTINUOUS
 62
     7
100
AcDbLine
 10
258.0877635108553
 20
641.5121321013568
 30
0.0
 11
257.0877635108554
 21
640.5121321013568
 31
0.0
  0
LINE
  5
27CF
330
27B7
100
AcDbEntity
  8
APL_JOINERY
  6
CONTINUOUS
 62
     7
100
AcDbLine
 10
258.0877635108553
 20
651.5121321013569
 30
0.0
 11
258.0877635108553
 21
641.5121321013568
 31
0.0
  0
LINE
  5
27D0
330
27B7
100
AcDbEntity
  8
APL_JOINERY
  6
CONTINUOUS
 62
     7
100
AcDbLine
 10
222.5697008335234
 20
783.3688726225929
 30
0.0
 11
222.5697008335234
 21
652.5121321013569
 31
0.0
  0
LINE
  5
27D1
330
27B7
100
AcDbEntity
  8
APL_JOINERY
  6
CONTINUOUS
 62
     7
100
AcDbLine
 10
136.8697008335238
 20
783.3688726225929
 30
0.0
 11
136.8697008335238
 21
652.5121321013569
 31
0.0
  0
LINE
  5
27D2
330
27B7
100
AcDbEntity
  8
APL_JOINERY
  6
CONTINUOUS
 62
     7
100
AcDbLine
 10
125.8697008335229
 20
652.5121321013569
 30
0.0
 11
124.8697008335229
 21
651.5121321013569
 31
0.0
  0
LINE
  5
27D3
330
27B7
100
AcDbEntity
  8
APL_JOINERY
  6
CONTINUOUS
 62
     7
100
AcDbLine
 10
124.8697008335229
 20
641.5121321013568
 30
0.0
 11
125.8697008335229
 21
640.5121321013568
 31
0.0
  0
LINE
  5
27D4
330
27B7
100
AcDbEntity
  8
APL_JOINERY
  6
CONTINUOUS
 62
     7
100
AcDbLine
 10
124.8697008335229
 20
651.5121321013569
 30
0.0
 11
124.8697008335229
 21
641.5121321013568
 31
0.0
  0
ENDBLK
  5
27B9
330
27B7
100
AcDbEntity
  8
0
 62
     7
100
AcDbBlockEnd
  0
BLOCK
  5
27E3
330
27D9
100
AcDbEntity
  8
0
 62
     7
100
AcDbBlockBegin
  2
*D22
 70
     1
 10
0.0
 20
0.0
 30
0.0
  3
*D22
  1

  0
LINE
  5
3337
330
27D9
100
AcDbEntity
  8
APL_NOTES
  6
CONTINUOUS
 62
     0
100
AcDbLine
 10
86.1845629684735
 20
635.8983166695481
 30
0.0
 11
86.1845629684735
 21
696.1120405650152
 31
0.0
  0
LINE
  5
3338
330
27D9
100
AcDbEntity
  8
APL_NOTES
  6
CONTINUOUS
 62
     0
100
AcDbLine
 10
111.2127342683558
 20
661.8777858200331
 30
0.0
 11
111.2127342683558
 21
696.1120405650152
 31
0.0
  0
LINE
  5
3339
330
27D9
100
AcDbEntity
  8
APL_NOTES
  6
CONTINUOUS
 62
     0
100
AcDbLine
 10
96.1845629684735
 20
691.1120405650152
 30
0.0
 11
101.2127342683557
 21
691.1120405650152
 31
0.0
  0
LINE
  5
333A
330
27D9
100
AcDbEntity
  8
APL_NOTES
  6
CONTINUOUS
 62
     0
100
AcDbLine
 10
98.69864861841465
 20
691.1120405650152
 30
0.0
 11
238.4728767222086
 21
742.3257582829555
 31
0.0
  0
LINE
  5
333B
330
27D9
100
AcDbEntity
  8
APL_NOTES
  6
CONTINUOUS
 62
     0
100
AcDbLine
 10
238.4728767222086
 20
742.3257582829555
 30
0.0
 11
360.6642136935592
 21
742.3257582829555
 31
0.0
  0
MTEXT
  5
333C
330
27D9
100
AcDbEntity
  8
APL_NOTES
  6
CONTINUOUS
 62
     0
100
AcDbMText
 10
299.5685452078839
 20
749.5060106704044
 30
0.0
 40
10.0
 41
0.0
 71
     5
 72
     1
  1
25mm min (Timber)
  7
ARIAL-REGULAR
  0
SOLID
  5
333D
330
27D9
100
AcDbEntity
  8
APL_NOTES
  6
CONTINUOUS
 62
     0
100
AcDbTrace
 10
96.1845629684735
 20
692.7787072316818
 30
0.0
 11
96.1845629684735
 21
689.4453738983486
 31
0.0
 12
86.1845629684735
 22
691.1120405650152
 32
0.0
 13
86.1845629684735
 23
691.1120405650152
 33
0.0
  0
SOLID
  5
333E
330
27D9
100
AcDbEntity
  8
APL_NOTES
  6
CONTINUOUS
 62
     0
100
AcDbTrace
 10
101.2127342683557
 20
692.7787072316818
 30
0.0
 11
101.2127342683557
 21
689.4453738983486
 31
0.0
 12
111.2127342683558
 22
691.1120405650152
 32
0.0
 13
111.2127342683558
 23
691.1120405650152
 33
0.0
  0
POINT
  5
333F
330
27D9
100
AcDbEntity
  8
DEFPOINTS
  6
CONTINUOUS
 62
     0
100
AcDbPoint
 10
86.1845629684735
 20
625.8983166695482
 30
0.0
  0
POINT
  5
3340
330
27D9
100
AcDbEntity
  8
DEFPOINTS
  6
CONTINUOUS
 62
     0
100
AcDbPoint
 10
111.2127342683558
 20
651.8777858200332
 30
0.0
  0
POINT
  5
3341
330
27D9
100
AcDbEntity
  8
DEFPOINTS
  6
CONTINUOUS
 62
     0
100
AcDbPoint
 10
111.2127342683558
 20
691.1120405650152
 30
0.0
  0
ENDBLK
  5
27E4
330
27D9
100
AcDbEntity
  8
0
 62
     7
100
AcDbBlockEnd
  0
BLOCK
  5
282C
330
282B
100
AcDbEntity
  8
0
 62
     7
100
AcDbBlockBegin
  2
PLAN_FOOTING
 70
     0
 10
0.0
 20
0.0
 30
0.0
  3
PLAN_FOOTING
  1

  0
ARC
  5
282E
330
282B
100
AcDbEntity
  8
APL_JOINERY
  6
CONTINUOUS
 62
     7
100
AcDbCircle
 10
222.5409103934313
 20
885.3332549848513
 30
0.0
 40
16.15000000000004
100
AcDbArc
 50
290.7364987853767
 51
69.26350121462329
  0
ARC
  5
282F
330
282B
100
AcDbEntity
  8
APL_JOINERY
  6
CONTINUOUS
 62
     7
100
AcDbCircle
 10
222.5409103934313
 20
885.3332549848513
 30
0.0
 40
17.15000000000001
100
AcDbArc
 50
290.7364987853767
 51
69.26350121462329
  0
LINE
  5
2830
330
282B
100
AcDbEntity
  8
APL_JOINERY
  6
CONTINUOUS
 62
     7
100
AcDbLine
 10
228.2591517510205
 20
900.4370364906984
 30
0.0
 11
129.2091517510212
 21
937.9370364906993
 31
0.0
  0
LINE
  5
2831
330
282B
100
AcDbEntity
  8
APL_JOINERY
  6
CONTINUOUS
 62
     7
100
AcDbLine
 10
129.5632224233173
 20
938.8722551597913
 30
0.0
 11
228.6132224233175
 21
901.3722551597913
 31
0.0
  0
ARC
  5
2832
330
282B
100
AcDbEntity
  8
APL_JOINERY
  6
CONTINUOUS
 62
     7
100
AcDbCircle
 10
123.4909103934311
 20
922.8332549848522
 30
0.0
 40
17.15000000000001
100
AcDbArc
 50
69.26350121462329
 51
180.0
  0
ARC
  5
2833
330
282B
100
AcDbEntity
  8
APL_JOINERY
  6
CONTINUOUS
 62
     7
100
AcDbCircle
 10
123.4909103934311
 20
922.8332549848522
 30
0.0
 40
16.15000000000009
100
AcDbArc
 50
69.26350121462329
 51
180.0
  0
CIRCLE
  5
2834
330
282B
100
AcDbEntity
  8
APL_JOINERY
  6
CONTINUOUS
 62
     7
100
AcDbCircle
 10
123.4909103934311
 20
922.8332549848522
 30
0.0
 40
15.00000000000005
  0
ARC
  5
2835
330
282B
100
AcDbEntity
  8
APL_JOINERY
  6
CONTINUOUS
 62
     7
100
AcDbCircle
 10
123.4909103934311
 20
847.8332549848522
 30
0.0
 40
17.14999999999997
100
AcDbArc
 50
180.0
 51
290.7364987853767
  0
ARC
  5
2836
330
282B
100
AcDbEntity
  8
APL_JOINERY
  6
CONTINUOUS
 62
     7
100
AcDbCircle
 10
123.4909103934311
 20
847.8332549848522
 30
0.0
 40
16.14999999999998
100
AcDbArc
 50
180.0
 51
290.7364987853767
  0
CIRCLE
  5
2837
330
282B
100
AcDbEntity
  8
APL_JOINERY
  6
CONTINUOUS
 62
     7
100
AcDbCircle
 10
123.4909103934311
 20
847.8332549848522
 30
0.0
 40
15.0
  0
LINE
  5
2838
330
282B
100
AcDbEntity
  8
APL_JOINERY
  6
CONTINUOUS
 62
     7
100
AcDbLine
 10
107.3409103934314
 20
922.8332549848522
 30
0.0
 11
107.3409103934305
 21
847.8332549848522
 31
0.0
  0
LINE
  5
2839
330
282B
100
AcDbEntity
  8
APL_JOINERY
  6
CONTINUOUS
 62
     7
100
AcDbLine
 10
106.3409103934305
 20
847.8332549848531
 30
0.0
 11
106.3409103934314
 21
922.8332549848531
 31
0.0
  0
LINE
  5
283A
330
282B
100
AcDbEntity
  8
APL_JOINERY
  6
CONTINUOUS
 62
     7
100
AcDbLine
 10
129.2091517510203
 20
832.729473479006
 30
0.0
 11
228.2591517510205
 21
870.2294734790051
 31
0.0
  0
LINE
  5
283B
330
282B
100
AcDbEntity
  8
APL_JOINERY
  6
CONTINUOUS
 62
     7
100
AcDbLine
 10
228.6132224233175
 20
869.2942548099129
 30
0.0
 11
129.5632224233173
 21
831.7942548099129
 31
0.0
  0
CIRCLE
  5
283C
330
282B
100
AcDbEntity
  8
APL_JOINERY
  6
CONTINUOUS
 62
     7
100
AcDbCircle
 10
123.4909103934311
 20
847.8332549848522
 30
0.0
 40
6.500000000000056
  0
LINE
  5
283D
330
282B
100
AcDbEntity
  8
APL_JOINERY
  6
CONTINUOUS
 62
     7
100
AcDbLine
 10
177.6909103934336
 20
900.8332549848521
 30
0.0
 11
173.6909103934336
 21
900.8332549848521
 31
0.0
  0
LINE
  5
283E
330
282B
100
AcDbEntity
  8
APL_JOINERY
  6
CONTINUOUS
 62
     7
100
AcDbLine
 10
173.6909103934336
 20
869.8332549848521
 30
0.0
 11
177.6909103934327
 21
869.8332549848521
 31
0.0
  0
LINE
  5
283F
330
282B
100
AcDbEntity
  8
APL_JOINERY
  6
CONTINUOUS
 62
     7
100
AcDbLine
 10
123.4909103934311
 20
903.1832549848525
 30
0.0
 11
186.1909103934309
 21
903.1832549848516
 31
0.0
  0
LINE
  5
2840
330
282B
100
AcDbEntity
  8
APL_JOINERY
  6
CONTINUOUS
 62
     7
100
AcDbLine
 10
186.1909103934309
 20
867.4832549848517
 30
0.0
 11
123.4909103934311
 21
867.4832549848527
 31
0.0
  0
LINE
  5
2841
330
282B
100
AcDbEntity
  8
APL_JOINERY
  6
CONTINUOUS
 62
     7
100
AcDbLine
 10
123.6909103934336
 20
902.8332549848521
 30
0.0
 11
186.1909103934336
 21
902.8332549848521
 31
0.0
  0
LINE
  5
2842
330
282B
100
AcDbEntity
  8
APL_JOINERY
  6
CONTINUOUS
 62
     7
100
AcDbLine
 10
186.1909103934327
 20
867.8332549848521
 30
0.0
 11
123.6909103934336
 21
867.8332549848521
 31
0.0
  0
ARC
  5
2843
330
282B
100
AcDbEntity
  8
APL_JOINERY
  6
CONTINUOUS
 62
     7
100
AcDbCircle
 10
154.8453992951632
 20
899.1332549848523
 30
0.0
 40
2.0
100
AcDbArc
 50
352.2070756645805
 51
90.0
  0
ARC
  5
2844
330
282B
100
AcDbEntity
  8
APL_JOINERY
  6
CONTINUOUS
 62
     7
100
AcDbCircle
 10
162.8409103934333
 20
900.4255025801425
 30
0.0
 40
0.8999999999999422
100
AcDbArc
 50
195.2650200558052
 51
224.2200444276779
  0
ARC
  5
2845
330
282B
100
AcDbEntity
  8
APL_JOINERY
  6
CONTINUOUS
 62
     7
100
AcDbCircle
 10
166.5364214917041
 20
899.1332549848523
 30
0.0
 40
2.000000000000113
100
AcDbArc
 50
90.0
 51
187.7929243354194
  0
ARC
  5
2846
330
282B
100
AcDbEntity
  8
APL_JOINERY
  6
CONTINUOUS
 62
     7
100
AcDbCircle
 10
158.5409103934331
 20
900.4255025801434
 30
0.0
 40
0.9000000000000065
100
AcDbArc
 50
315.7799555723185
 51
344.7349799441846
  0
ARC
  5
2847
330
282B
100
AcDbEntity
  8
APL_JOINERY
  6
CONTINUOUS
 62
     7
100
AcDbCircle
 10
123.4909103934311
 20
898.0332549848521
 30
0.0
 40
5.149999999999977
100
AcDbArc
 50
90.0
 51
180.0
  0
ARC
  5
2848
330
282B
100
AcDbEntity
  8
APL_JOINERY
  6
CONTINUOUS
 62
     7
100
AcDbCircle
 10
123.6909103934337
 20
897.8332549848522
 30
0.0
 40
5.000000000000113
100
AcDbArc
 50
90.0
 51
180.0
  0
ARC
  5
2849
330
282B
100
AcDbEntity
  8
APL_JOINERY
  6
CONTINUOUS
 62
     7
100
AcDbCircle
 10
127.2909103934331
 20
896.533254984852
 30
0.0
 40
4.600000000000022
100
AcDbArc
 50
90.0
 51
180.0
  0
LINE
  5
284A
330
282B
100
AcDbEntity
  8
APL_JOINERY
  6
CONTINUOUS
 62
     7
100
AcDbLine
 10
142.4051239558062
 20
869.5332549848519
 30
0.0
 11
154.8453992951632
 21
869.5332549848519
 31
0.0
  0
LINE
  5
284B
330
282B
100
AcDbEntity
  8
APL_JOINERY
  6
CONTINUOUS
 62
     7
100
AcDbLine
 10
118.3409103934314
 20
872.6332549848523
 30
0.0
 11
118.3409103934314
 21
898.0332549848519
 31
0.0
  0
LINE
  5
284C
330
282B
100
AcDbEntity
  8
APL_JOINERY
  6
CONTINUOUS
 62
     7
100
AcDbLine
 10
118.6909103934336
 20
872.8332549848522
 30
0.0
 11
118.6909103934336
 21
897.8332549848522
 31
0.0
  0
LINE
  5
284D
330
282B
100
AcDbEntity
  8
APL_JOINERY
  6
CONTINUOUS
 62
     7
100
AcDbLine
 10
122.6909103934336
 20
896.533254984852
 30
0.0
 11
122.6909103934336
 21
874.1332549848523
 31
0.0
  0
ARC
  5
284E
330
282B
100
AcDbEntity
  8
APL_JOINERY
  6
CONTINUOUS
 62
     7
100
AcDbCircle
 10
127.2909103934331
 20
874.1332549848523
 30
0.0
 40
4.600000000000022
100
AcDbArc
 50
180.0
 51
270.0
  0
ARC
  5
284F
330
282B
100
AcDbEntity
  8
APL_JOINERY
  6
CONTINUOUS
 62
     7
100
AcDbCircle
 10
123.4909103934311
 20
872.6332549848525
 30
0.0
 40
5.150000000000034
100
AcDbArc
 50
180.0
 51
270.0
  0
ARC
  5
2850
330
282B
100
AcDbEntity
  8
APL_JOINERY
  6
CONTINUOUS
 62
     7
100
AcDbCircle
 10
123.6909103934337
 20
872.8332549848522
 30
0.0
 40
5.000000000000056
100
AcDbArc
 50
180.0
 51
270.0
  0
LINE
  5
2851
330
282B
100
AcDbEntity
  8
APL_JOINERY
  6
CONTINUOUS
 62
     7
100
AcDbLine
 10
137.6909103934336
 20
869.8332549848521
 30
0.0
 11
141.6909103934336
 21
869.8332549848521
 31
0.0
  0
ARC
  5
2852
330
282B
100
AcDbEntity
  8
APL_JOINERY
  6
CONTINUOUS
 62
     7
100
AcDbCircle
 10
136.9766968310601
 20
870.0332549848521
 30
0.0
 40
0.4999999999999639
100
AcDbArc
 50
270.0
 51
315.0000000000123
  0
LINE
  5
2853
330
282B
100
AcDbEntity
  8
APL_JOINERY
  6
CONTINUOUS
 62
     7
100
AcDbLine
 10
137.3302502216534
 20
869.6797015942586
 30
0.0
 11
137.3373570028403
 21
869.6868083754454
 31
0.0
  0
ARC
  5
2854
330
282B
100
AcDbEntity
  8
APL_JOINERY
  6
CONTINUOUS
 62
     7
100
AcDbCircle
 10
137.6909103934337
 20
869.3332549848522
 30
0.0
 40
0.4999999999999639
100
AcDbArc
 50
90.0
 51
135.0000000000123
  0
ARC
  5
2855
330
282B
100
AcDbEntity
  8
APL_JOINERY
  6
CONTINUOUS
 62
     7
100
AcDbCircle
 10
141.6909103934337
 20
869.3332549848522
 30
0.0
 40
0.4999999999999432
100
AcDbArc
 50
44.99999999999112
 51
90.0
  0
LINE
  5
2856
330
282B
100
AcDbEntity
  8
APL_JOINERY
  6
CONTINUOUS
 62
     7
100
AcDbLine
 10
142.044463784026
 20
869.6868083754454
 30
0.0
 11
142.0515705652129
 21
869.6797015942586
 31
0.0
  0
ARC
  5
2857
330
282B
100
AcDbEntity
  8
APL_JOINERY
  6
CONTINUOUS
 62
     7
100
AcDbCircle
 10
142.4051239558063
 20
870.0332549848521
 30
0.0
 40
0.4999999999999639
100
AcDbArc
 50
224.9999999999876
 51
270.0
  0
LINE
  5
2858
330
282B
100
AcDbEntity
  8
APL_JOINERY
  6
CONTINUOUS
 62
     7
100
AcDbLine
 10
127.2909103934331
 20
869.5332549848519
 30
0.0
 11
136.9766968310601
 21
869.5332549848519
 31
0.0
  0
ARC
  5
2859
330
282B
100
AcDbEntity
  8
APL_JOINERY
  6
CONTINUOUS
 62
     7
100
AcDbCircle
 10
160.6909103934327
 20
872.3332549848523
 30
0.0
 40
2.099999999999994
100
AcDbArc
 50
135.779955572322
 51
224.2200444276814
  0
ARC
  5
285A
330
282B
100
AcDbEntity
  8
APL_JOINERY
  6
CONTINUOUS
 62
     7
100
AcDbCircle
 10
158.5409103934331
 20
874.4255025801434
 30
0.0
 40
0.9000000000000591
100
AcDbArc
 50
315.7799555723038
 51
135.7799555723357
  0
ARC
  5
285B
330
282B
100
AcDbEntity
  8
APL_JOINERY
  6
CONTINUOUS
 62
     7
100
AcDbCircle
 10
154.8453992951632
 20
871.533254984852
 30
0.0
 40
2.000000000000046
100
AcDbArc
 50
270.0
 51
7.792924335419452
  0
ARC
  5
285C
330
282B
100
AcDbEntity
  8
APL_JOINERY
  6
CONTINUOUS
 62
     7
100
AcDbCircle
 10
160.6909103934327
 20
872.3332549848523
 30
0.0
 40
3.89999999999996
100
AcDbArc
 50
135.7799555723185
 51
187.792924335426
  0
LINE
  5
285D
330
282B
100
AcDbEntity
  8
APL_JOINERY
  6
CONTINUOUS
 62
     7
100
AcDbLine
 10
166.5364214917031
 20
869.5332549848519
 30
0.0
 11
172.9766968310601
 21
869.5332549848519
 31
0.0
  0
ARC
  5
285E
330
282B
100
AcDbEntity
  8
APL_JOINERY
  6
CONTINUOUS
 62
     7
100
AcDbCircle
 10
160.6909103934327
 20
872.3332549848523
 30
0.0
 40
3.900000000000082
100
AcDbArc
 50
352.207075664574
 51
44.22004442768145
  0
ARC
  5
285F
330
282B
100
AcDbEntity
  8
APL_JOINERY
  6
CONTINUOUS
 62
     7
100
AcDbCircle
 10
166.5364214917032
 20
871.533254984852
 30
0.0
 40
2.000000000000046
100
AcDbArc
 50
172.2070756645805
 51
270.0
  0
ARC
  5
2860
330
282B
100
AcDbEntity
  8
APL_JOINERY
  6
CONTINUOUS
 62
     7
100
AcDbCircle
 10
172.9766968310602
 20
870.0332549848521
 30
0.0
 40
0.4999999999999639
100
AcDbArc
 50
270.0
 51
315.0000000000123
  0
LINE
  5
2861
330
282B
100
AcDbEntity
  8
APL_JOINERY
  6
CONTINUOUS
 62
     7
100
AcDbLine
 10
173.3302502216534
 20
869.6797015942586
 30
0.0
 11
173.3373570028403
 21
869.6868083754454
 31
0.0
  0
ARC
  5
2862
330
282B
100
AcDbEntity
  8
APL_JOINERY
  6
CONTINUOUS
 62
     7
100
AcDbCircle
 10
173.6909103934337
 20
869.3332549848522
 30
0.0
 40
0.4999999999999639
100
AcDbArc
 50
90.0
 51
135.0000000000123
  0
ARC
  5
2863
330
282B
100
AcDbEntity
  8
APL_JOINERY
  6
CONTINUOUS
 62
     7
100
AcDbCircle
 10
161.4903047213589
 20
870.6096051629678
 30
0.0
 40
0.4999999999999128
100
AcDbArc
 50
294.8809276063248
 51
344.7349799441947
  0
ARC
  5
2864
330
282B
100
AcDbEntity
  8
APL_JOINERY
  6
CONTINUOUS
 62
     7
100
AcDbCircle
 10
162.8409103934333
 20
870.2410073895611
 30
0.0
 40
0.9000000000000913
100
AcDbArc
 50
135.7799555723174
 51
164.7349799441778
  0
ARC
  5
2865
330
282B
100
AcDbEntity
  8
APL_JOINERY
  6
CONTINUOUS
 62
     7
100
AcDbCircle
 10
160.6909103934327
 20
872.3332549848523
 30
0.0
 40
2.100000000000076
100
AcDbArc
 50
315.7799555723185
 51
44.22004442767794
  0
ARC
  5
2866
330
282B
100
AcDbEntity
  8
APL_JOINERY
  6
CONTINUOUS
 62
     7
100
AcDbCircle
 10
158.5409103934331
 20
870.241007389562
 30
0.0
 40
0.8999999999999037
100
AcDbArc
 50
15.26502005580518
 51
44.22004442766427
  0
ARC
  5
2867
330
282B
100
AcDbEntity
  8
APL_JOINERY
  6
CONTINUOUS
 62
     7
100
AcDbCircle
 10
159.8915160655075
 20
870.6096051629687
 30
0.0
 40
0.5000000000000647
100
AcDbArc
 50
195.2650200558256
 51
245.1190723937027
  0
ARC
  5
2868
330
282B
100
AcDbEntity
  8
APL_JOINERY
  6
CONTINUOUS
 62
     7
100
AcDbCircle
 10
160.6909103934327
 20
872.3332549848523
 30
0.0
 40
2.400000000000216
100
AcDbArc
 50
245.1190723937021
 51
294.8809276063105
  0
ARC
  5
2869
330
282B
100
AcDbEntity
  8
APL_JOINERY
  6
CONTINUOUS
 62
     7
100
AcDbCircle
 10
162.8409103934333
 20
874.4255025801434
 30
0.0
 40
0.9000000000001053
100
AcDbArc
 50
44.22004442766315
 51
224.2200444276962
  0
ARC
  5
286A
330
282B
100
AcDbEntity
  8
APL_JOINERY
  6
CONTINUOUS
 62
     7
100
AcDbCircle
 10
160.6909103934337
 20
898.3332549848523
 30
0.0
 40
2.099999999999953
100
AcDbArc
 50
135.7799555723174
 51
224.2200444276814
  0
ARC
  5
286B
330
282B
100
AcDbEntity
  8
APL_JOINERY
  6
CONTINUOUS
 62
     7
100
AcDbCircle
 10
158.5409103934331
 20
896.2410073895611
 30
0.0
 40
0.9000000000001053
100
AcDbArc
 50
224.2200444276631
 51
44.22004442768257
  0
ARC
  5
286C
330
282B
100
AcDbEntity
  8
APL_JOINERY
  6
CONTINUOUS
 62
     7
100
AcDbCircle
 10
160.6909103934337
 20
898.3332549848523
 30
0.0
 40
3.900000000000001
100
AcDbArc
 50
172.2070756645739
 51
224.2200444276814
  0
ARC
  5
286D
330
282B
100
AcDbEntity
  8
APL_JOINERY
  6
CONTINUOUS
 62
     7
100
AcDbCircle
 10
160.6909103934337
 20
898.3332549848523
 30
0.0
 40
3.900000000000097
100
AcDbArc
 50
315.7799555723185
 51
7.792924335426008
  0
ARC
  5
286E
330
282B
100
AcDbEntity
  8
APL_JOINERY
  6
CONTINUOUS
 62
     7
100
AcDbCircle
 10
160.6909103934337
 20
898.3332549848523
 30
0.0
 40
2.10000000000008
100
AcDbArc
 50
315.7799555723221
 51
44.22004442768145
  0
ARC
  5
286F
330
282B
100
AcDbEntity
  8
APL_JOINERY
  6
CONTINUOUS
 62
     7
100
AcDbCircle
 10
162.8409103934333
 20
896.2410073895611
 30
0.0
 40
0.8999999999999829
100
AcDbArc
 50
135.7799555723037
 51
315.7799555723221
  0
LINE
  5
2870
330
282B
100
AcDbEntity
  8
APL_JOINERY
  6
CONTINUOUS
 62
     7
100
AcDbLine
 10
154.8453992951632
 20
901.1332549848523
 30
0.0
 11
142.4051239558062
 21
901.1332549848523
 31
0.0
  0
CIRCLE
  5
2871
330
282B
100
AcDbEntity
  8
APL_JOINERY
  6
CONTINUOUS
 62
     7
100
AcDbCircle
 10
123.4909103934311
 20
922.8332549848522
 30
0.0
 40
6.5
  0
LINE
  5
2872
330
282B
100
AcDbEntity
  8
APL_JOINERY
  6
CONTINUOUS
 62
     7
100
AcDbLine
 10
141.6909103934336
 20
900.8332549848521
 30
0.0
 11
137.6909103934336
 21
900.8332549848521
 31
0.0
  0
ARC
  5
2873
330
282B
100
AcDbEntity
  8
APL_JOINERY
  6
CONTINUOUS
 62
     7
100
AcDbCircle
 10
137.6909103934337
 20
901.3332549848522
 30
0.0
 40
0.4999999999998835
100
AcDbArc
 50
224.9999999999726
 51
270.0
  0
LINE
  5
2874
330
282B
100
AcDbEntity
  8
APL_JOINERY
  6
CONTINUOUS
 62
     7
100
AcDbLine
 10
137.3373570028403
 20
900.9797015942588
 30
0.0
 11
137.3302502216534
 21
900.9868083754456
 31
0.0
  0
ARC
  5
2875
330
282B
100
AcDbEntity
  8
APL_JOINERY
  6
CONTINUOUS
 62
     7
100
AcDbCircle
 10
136.9766968310601
 20
900.6332549848524
 30
0.0
 40
0.4999999999999639
100
AcDbArc
 50
44.99999999999112
 51
90.0
  0
ARC
  5
2876
330
282B
100
AcDbEntity
  8
APL_JOINERY
  6
CONTINUOUS
 62
     7
100
AcDbCircle
 10
142.4051239558063
 20
900.6332549848524
 30
0.0
 40
0.4999999999999639
100
AcDbArc
 50
90.0
 51
135.0000000000123
  0
LINE
  5
2877
330
282B
100
AcDbEntity
  8
APL_JOINERY
  6
CONTINUOUS
 62
     7
100
AcDbLine
 10
142.0515705652129
 20
900.9868083754456
 30
0.0
 11
142.044463784027
 21
900.9797015942588
 31
0.0
  0
ARC
  5
2878
330
282B
100
AcDbEntity
  8
APL_JOINERY
  6
CONTINUOUS
 62
     7
100
AcDbCircle
 10
141.6909103934337
 20
901.3332549848522
 30
0.0
 40
0.4999999999999432
100
AcDbArc
 50
270.0
 51
315.0000000000089
  0
LINE
  5
2879
330
282B
100
AcDbEntity
  8
APL_JOINERY
  6
CONTINUOUS
 62
     7
100
AcDbLine
 10
136.9766968310601
 20
901.1332549848523
 30
0.0
 11
127.2909103934331
 21
901.1332549848523
 31
0.0
  0
LINE
  5
287A
330
282B
100
AcDbEntity
  8
APL_JOINERY
  6
CONTINUOUS
 62
     7
100
AcDbLine
 10
172.9766968310601
 20
901.1332549848523
 30
0.0
 11
166.536421491704
 21
901.1332549848523
 31
0.0
  0
ARC
  5
287B
330
282B
100
AcDbEntity
  8
APL_JOINERY
  6
CONTINUOUS
 62
     7
100
AcDbCircle
 10
173.6909103934337
 20
901.3332549848522
 30
0.0
 40
0.4999999999998433
100
AcDbArc
 50
224.9999999999876
 51
270.0
  0
LINE
  5
287C
330
282B
100
AcDbEntity
  8
APL_JOINERY
  6
CONTINUOUS
 62
     7
100
AcDbLine
 10
173.3373570028403
 20
900.9797015942588
 30
0.0
 11
173.3302502216534
 21
900.9868083754447
 31
0.0
  0
ARC
  5
287D
330
282B
100
AcDbEntity
  8
APL_JOINERY
  6
CONTINUOUS
 62
     7
100
AcDbCircle
 10
172.9766968310602
 20
900.6332549848524
 30
0.0
 40
0.4999999999999432
100
AcDbArc
 50
44.99999999999112
 51
90.0
  0
ARC
  5
287E
330
282B
100
AcDbEntity
  8
APL_JOINERY
  6
CONTINUOUS
 62
     7
100
AcDbCircle
 10
161.4903047213589
 20
900.0569048067358
 30
0.0
 40
0.5000000000000823
100
AcDbArc
 50
15.26502005582556
 51
65.11907239368935
  0
ARC
  5
287F
330
282B
100
AcDbEntity
  8
APL_JOINERY
  6
CONTINUOUS
 62
     7
100
AcDbCircle
 10
159.8915160655075
 20
900.0569048067358
 30
0.0
 40
0.4999999999999578
100
AcDbArc
 50
114.8809276063106
 51
164.7349799441845
  0
ARC
  5
2880
330
282B
100
AcDbEntity
  8
APL_JOINERY
  6
CONTINUOUS
 62
     7
100
AcDbCircle
 10
160.6909103934337
 20
898.3332549848523
 30
0.0
 40
2.400000000000189
100
AcDbArc
 50
65.11907239368935
 51
114.8809276063106
  0
CIRCLE
  5
2881
330
282B
100
AcDbEntity
  8
APL_JOINERY
  6
CONTINUOUS
 62
     7
100
AcDbCircle
 10
222.5409103934313
 20
885.3332549848513
 30
0.0
 40
14.99999999999994
  0
ARC
  5
2882
330
282B
100
AcDbEntity
  8
APL_JOINERY
  6
CONTINUOUS
 62
     7
100
AcDbCircle
 10
186.1909103934309
 20
885.3332549848522
 30
0.0
 40
17.85000000000002
100
AcDbArc
 50
270.0
 51
90.0
  0
ARC
  5
2883
330
282B
100
AcDbEntity
  8
APL_JOINERY
  6
CONTINUOUS
 62
     7
100
AcDbCircle
 10
186.1909103934337
 20
885.3332549848522
 30
0.0
 40
17.50000000000005
100
AcDbArc
 50
270.0
 51
90.0
  0
ARC
  5
2884
330
282B
100
AcDbEntity
  8
APL_JOINERY
  6
CONTINUOUS
 62
     7
100
AcDbCircle
 10
188.3909103934335
 20
893.5436142948942
 30
0.0
 40
7.300000000000086
100
AcDbArc
 50
0.0
 51
74.99973400426165
  0
LINE
  5
2885
330
282B
100
AcDbEntity
  8
APL_JOINERY
  6
CONTINUOUS
 62
     7
100
AcDbLine
 10
195.6909103934336
 20
877.1228956748092
 30
0.0
 11
195.6909103934336
 21
893.543614294894
 31
0.0
  0
ARC
  5
2886
330
282B
100
AcDbEntity
  8
APL_JOINERY
  6
CONTINUOUS
 62
     7
100
AcDbCircle
 10
188.3909103934335
 20
877.1228956748094
 30
0.0
 40
7.300000000000011
100
AcDbArc
 50
285.0002659957384
 51
0.0
  0
ARC
  5
2887
330
282B
100
AcDbEntity
  8
APL_JOINERY
  6
CONTINUOUS
 62
     7
100
AcDbCircle
 10
186.1909103934337
 20
885.3332549848522
 30
0.0
 40
15.80000000000012
100
AcDbArc
 50
270.0
 51
285.0002659957384
  0
ARC
  5
2888
330
282B
100
AcDbEntity
  8
APL_JOINERY
  6
CONTINUOUS
 62
     7
100
AcDbCircle
 10
177.6909103934328
 20
869.3332549848522
 30
0.0
 40
0.4999999999999432
100
AcDbArc
 50
44.99999999997266
 51
90.0
  0
LINE
  5
2889
330
282B
100
AcDbEntity
  8
APL_JOINERY
  6
CONTINUOUS
 62
     7
100
AcDbLine
 10
178.044463784026
 20
869.6868083754454
 30
0.0
 11
178.0515705652129
 21
869.6797015942586
 31
0.0
  0
ARC
  5
288A
330
282B
100
AcDbEntity
  8
APL_JOINERY
  6
CONTINUOUS
 62
     7
100
AcDbCircle
 10
178.4051239558063
 20
870.0332549848521
 30
0.0
 40
0.5000000000000569
100
AcDbArc
 50
224.9999999999911
 51
270.0
  0
LINE
  5
288B
330
282B
100
AcDbEntity
  8
APL_JOINERY
  6
CONTINUOUS
 62
     7
100
AcDbLine
 10
178.4051239558062
 20
869.5332549848519
 30
0.0
 11
186.1909103934327
 21
869.5332549848519
 31
0.0
  0
CIRCLE
  5
288C
330
282B
100
AcDbEntity
  8
APL_JOINERY
  6
CONTINUOUS
 62
     7
100
AcDbCircle
 10
222.5409103934313
 20
885.3332549848513
 30
0.0
 40
6.5
  0
ARC
  5
288D
330
282B
100
AcDbEntity
  8
APL_JOINERY
  6
CONTINUOUS
 62
     7
100
AcDbCircle
 10
186.1909103934337
 20
885.3332549848522
 30
0.0
 40
15.8000000000001
100
AcDbArc
 50
74.99973400426165
 51
90.0
  0
ARC
  5
288E
330
282B
100
AcDbEntity
  8
APL_JOINERY
  6
CONTINUOUS
 62
     7
100
AcDbCircle
 10
178.4051239558063
 20
900.6332549848524
 30
0.0
 40
0.5000000000000569
100
AcDbArc
 50
90.0
 51
135.0000000000089
  0
LINE
  5
288F
330
282B
100
AcDbEntity
  8
APL_JOINERY
  6
CONTINUOUS
 62
     7
100
AcDbLine
 10
178.0515705652129
 20
900.9868083754447
 30
0.0
 11
178.0444637840269
 21
900.9797015942588
 31
0.0
  0
ARC
  5
2890
330
282B
100
AcDbEntity
  8
APL_JOINERY
  6
CONTINUOUS
 62
     7
100
AcDbCircle
 10
177.6909103934337
 20
901.3332549848522
 30
0.0
 40
0.4999999999999432
100
AcDbArc
 50
270.0
 51
315.0000000000089
  0
LINE
  5
2891
330
282B
100
AcDbEntity
  8
APL_JOINERY
  6
CONTINUOUS
 62
     7
100
AcDbLine
 10
186.1909103934336
 20
901.1332549848523
 30
0.0
 11
178.4051239558062
 21
901.1332549848523
 31
0.0
  0
ENDBLK
  5
282D
330
282B
100
AcDbEntity
  8
0
 62
     7
100
AcDbBlockEnd
  0
BLOCK
  5
2894
330
2893
100
AcDbEntity
  8
0
 62
     7
100
AcDbBlockBegin
  2
PLAN_9100860
 70
     0
 10
0.0
 20
0.0
 30
0.0
  3
PLAN_9100860
  1

  0
LINE
  5
2896
330
2893
100
AcDbEntity
  8
APL_JOINERY
  6
CONTINUOUS
 62
     7
100
AcDbLine
 10
510.4355345358172
 20
918.2534004466623
 30
0.0
 11
435.0355345358176
 21
918.2534004466623
 31
0.0
  0
LINE
  5
2897
330
2893
100
AcDbEntity
  8
APL_JOINERY
  6
CONTINUOUS
 62
     7
100
AcDbLine
 10
510.4355345358172
 20
874.4534004466629
 30
0.0
 11
435.0355345358176
 21
874.4534004466629
 31
0.0
  0
LINE
  5
2898
330
2893
100
AcDbEntity
  8
APL_JOINERY
  6
CONTINUOUS
 62
     7
100
AcDbLine
 10
435.0355345358176
 20
914.2534004466622
 30
0.0
 11
497.5355345358176
 21
914.2534004466622
 31
0.0
  0
LINE
  5
2899
330
2893
100
AcDbEntity
  8
APL_JOINERY
  6
CONTINUOUS
 62
     7
100
AcDbLine
 10
435.0355345358176
 20
878.453400446663
 30
0.0
 11
497.5355345358176
 21
878.453400446663
 31
0.0
  0
ARC
  5
289A
330
2893
100
AcDbEntity
  8
APL_JOINERY
  6
CONTINUOUS
 62
     7
100
AcDbCircle
 10
435.0355345358176
 20
908.8534004466607
 30
0.0
 40
9.400000000000005
100
AcDbArc
 50
90.0
 51
180.0
  0
ARC
  5
289B
330
2893
100
AcDbEntity
  8
APL_JOINERY
  6
CONTINUOUS
 62
     7
100
AcDbCircle
 10
435.0355345358176
 20
883.8534004466607
 30
0.0
 40
9.40000000000009
100
AcDbArc
 50
180.0
 51
270.0
  0
LINE
  5
289C
330
2893
100
AcDbEntity
  8
APL_JOINERY
  6
CONTINUOUS
 62
     7
100
AcDbLine
 10
425.6355345358179
 20
883.8534004466607
 30
0.0
 11
425.6355345358179
 21
908.8534004466607
 31
0.0
  0
LINE
  5
289D
330
2893
100
AcDbEntity
  8
APL_JOINERY
  6
CONTINUOUS
 62
     7
100
AcDbLine
 10
429.6355345358179
 20
908.8534004466607
 30
0.0
 11
429.6355345358179
 21
883.8534004466607
 31
0.0
  0
ARC
  5
289E
330
2893
100
AcDbEntity
  8
APL_JOINERY
  6
CONTINUOUS
 62
     7
100
AcDbCircle
 10
435.0355345358176
 20
883.8534004466607
 30
0.0
 40
5.40000000000009
100
AcDbArc
 50
180.0
 51
270.0
  0
ARC
  5
289F
330
2893
100
AcDbEntity
  8
APL_JOINERY
  6
CONTINUOUS
 62
     7
100
AcDbCircle
 10
435.0355345358176
 20
908.8534004466607
 30
0.0
 40
5.400000000000005
100
AcDbArc
 50
90.0
 51
180.0
  0
LINE
  5
28A0
330
2893
100
AcDbEntity
  8
APL_JOINERY
  6
CONTINUOUS
 62
     7
100
AcDbLine
 10
527.4355345358172
 20
905.7676140090359
 30
0.0
 11
527.4355345358172
 21
955.3534004466625
 31
0.0
  0
LINE
  5
28A1
330
2893
100
AcDbEntity
  8
APL_JOINERY
  6
CONTINUOUS
 62
     7
100
AcDbLine
 10
515.4355345358172
 20
948.3534004466626
 30
0.0
 11
515.4355345358172
 21
923.2534004466621
 31
0.0
  0
LINE
  5
28A2
330
2893
100
AcDbEntity
  8
APL_JOINERY
  6
CONTINUOUS
 62
     7
100
AcDbLine
 10
515.4355345358172
 20
844.3534004466625
 30
0.0
 11
515.4355345358172
 21
869.453400446663
 31
0.0
  0
LINE
  5
28A3
330
2893
100
AcDbEntity
  8
APL_JOINERY
  6
CONTINUOUS
 62
     7
100
AcDbLine
 10
527.4355345358172
 20
886.9391868842892
 30
0.0
 11
527.4355345358172
 21
837.3534004466625
 31
0.0
  0
LINE
  5
28A4
330
2893
100
AcDbEntity
  8
APL_JOINERY
  6
CONTINUOUS
 62
     7
100
AcDbLine
 10
526.4355345358171
 20
836.3534004466625
 30
0.0
 11
523.4355345358181
 21
836.3534004466625
 31
0.0
  0
ARC
  5
28A5
330
2893
100
AcDbEntity
  8
APL_JOINERY
  6
CONTINUOUS
 62
     7
100
AcDbCircle
 10
523.4355345358172
 20
844.3534004466625
 30
0.0
 40
8.000000000000014
100
AcDbArc
 50
180.0
 51
270.0
  0
ARC
  5
28A6
330
2893
100
AcDbEntity
  8
APL_JOINERY
  6
CONTINUOUS
 62
     7
100
AcDbCircle
 10
526.4355345358171
 20
837.3534004466625
 30
0.0
 40
1.0
100
AcDbArc
 50
270.0
 51
0.0
  0
LINE
  5
28A7
330
2893
100
AcDbEntity
  8
APL_JOINERY
  6
CONTINUOUS
 62
     7
100
AcDbLine
 10
523.9355345358172
 20
901.4391868842892
 30
0.0
 11
523.9355345358172
 21
891.267614009036
 31
0.0
  0
ARC
  5
28A8
330
2893
100
AcDbEntity
  8
APL_JOINERY
  6
CONTINUOUS
 62
     7
100
AcDbCircle
 10
497.5355345358176
 20
896.3534004466625
 30
0.0
 40
17.89999999999997
100
AcDbArc
 50
270.0
 51
90.0
  0
ARC
  5
28A9
330
2893
100
AcDbEntity
  8
APL_JOINERY
  6
CONTINUOUS
 62
     7
100
AcDbCircle
 10
510.4355345358172
 20
869.453400446663
 30
0.0
 40
5.0
100
AcDbArc
 50
0.0
 51
90.0
  0
ARC
  5
28AA
330
2893
100
AcDbEntity
  8
APL_JOINERY
  6
CONTINUOUS
 62
     7
100
AcDbCircle
 10
526.4355345358171
 20
886.9391868842892
 30
0.0
 40
1.000000000000088
100
AcDbArc
 50
0.0
 51
44.99999999999107
  0
LINE
  5
28AB
330
2893
100
AcDbEntity
  8
APL_JOINERY
  6
CONTINUOUS
 62
     7
100
AcDbLine
 10
524.2284277546304
 20
890.5605072278492
 30
0.0
 11
527.1426413170038
 21
887.6462936654759
 31
0.0
  0
ARC
  5
28AC
330
2893
100
AcDbEntity
  8
APL_JOINERY
  6
CONTINUOUS
 62
     7
100
AcDbCircle
 10
524.9355345358171
 20
891.267614009036
 30
0.0
 40
1.000000000000028
100
AcDbArc
 50
180.0
 51
225.0000000000083
  0
ARC
  5
28AD
330
2893
100
AcDbEntity
  8
APL_JOINERY
  6
CONTINUOUS
 62
     7
100
AcDbCircle
 10
510.4355345358172
 20
923.2534004466621
 30
0.0
 40
5.0
100
AcDbArc
 50
270.0
 51
0.0
  0
ARC
  5
28AE
330
2893
100
AcDbEntity
  8
APL_JOINERY
  6
CONTINUOUS
 62
     7
100
AcDbCircle
 10
524.9355345358171
 20
901.4391868842892
 30
0.0
 40
1.000000000000007
100
AcDbArc
 50
135.000000000006
 51
180.0
  0
LINE
  5
28AF
330
2893
100
AcDbEntity
  8
APL_JOINERY
  6
CONTINUOUS
 62
     7
100
AcDbLine
 10
524.2284277546304
 20
902.1462936654758
 30
0.0
 11
527.1426413170038
 21
905.0605072278493
 31
0.0
  0
ARC
  5
28B0
330
2893
100
AcDbEntity
  8
APL_JOINERY
  6
CONTINUOUS
 62
     7
100
AcDbCircle
 10
526.4355345358171
 20
905.7676140090359
 30
0.0
 40
1.0
100
AcDbArc
 50
315.000000000006
 51
0.0
  0
LINE
  5
28B1
330
2893
100
AcDbEntity
  8
APL_JOINERY
  6
CONTINUOUS
 62
     7
100
AcDbLine
 10
526.4355345358171
 20
956.3534004466626
 30
0.0
 11
523.4355345358172
 21
956.3534004466626
 31
0.0
  0
ARC
  5
28B2
330
2893
100
AcDbEntity
  8
APL_JOINERY
  6
CONTINUOUS
 62
     7
100
AcDbCircle
 10
523.4355345358172
 20
948.3534004466626
 30
0.0
 40
8.000000000000028
100
AcDbArc
 50
90.0
 51
180.0
  0
ARC
  5
28B3
330
2893
100
AcDbEntity
  8
APL_JOINERY
  6
CONTINUOUS
 62
     7
100
AcDbCircle
 10
526.4355345358171
 20
955.3534004466625
 30
0.0
 40
1.000000000000113
100
AcDbArc
 50
0.0
 51
90.0
  0
ENDBLK
  5
2895
330
2893
100
AcDbEntity
  8
0
 62
     7
100
AcDbBlockEnd
  0
BLOCK
  5
2A6B
330
2A5F
100
AcDbEntity
  8
0
 62
     7
100
AcDbBlockBegin
  2
*D25
 70
     1
 10
0.0
 20
0.0
 30
0.0
  3
*D25
  1

  0
LINE
  5
3344
330
2A5F
100
AcDbEntity
  8
APL_NOTES
  6
CONTINUOUS
 62
     0
100
AcDbLine
 10
492.5614045307006
 20
694.0073792947125
 30
0.0
 11
479.1803001028438
 21
694.0073792947125
 31
0.0
  0
LINE
  5
3345
330
2A5F
100
AcDbEntity
  8
APL_NOTES
  6
CONTINUOUS
 62
     0
100
AcDbLine
 10
517.4355345358171
 20
729.0322386327755
 30
0.0
 11
479.1803001028438
 21
729.0322386327755
 31
0.0
  0
LINE
  5
3346
330
2A5F
100
AcDbEntity
  8
APL_NOTES
  6
CONTINUOUS
 62
     0
100
AcDbLine
 10
484.1803001028438
 20
704.0073792947126
 30
0.0
 11
484.1803001028438
 21
719.0322386327754
 31
0.0
  0
LINE
  5
3347
330
2A5F
100
AcDbEntity
  8
APL_NOTES
  6
CONTINUOUS
 62
     0
100
AcDbLine
 10
484.1803001028438
 20
711.519808963744
 30
0.0
 11
578.2752626611429
 21
795.0719208807676
 31
0.0
  0
LINE
  5
3348
330
2A5F
100
AcDbEntity
  8
APL_NOTES
  6
CONTINUOUS
 62
     0
100
AcDbLine
 10
578.2752626611429
 20
795.0719208807676
 30
0.0
 11
578.2752626611429
 21
917.2632578521183
 31
0.0
  0
MTEXT
  5
3349
330
2A5F
100
AcDbEntity
  8
APL_NOTES
  6
CONTINUOUS
 62
     0
100
AcDbMText
 10
571.0950102736939
 20
856.167589366443
 30
0.0
 40
10.0
 41
0.0
 71
     5
 72
     1
  1
25mm min (Timber)
  7
ARIAL-REGULAR
 11
0.0000000000000001
 21
1.0
 31
0.0
  0
SOLID
  5
334A
330
2A5F
100
AcDbEntity
  8
APL_NOTES
  6
CONTINUOUS
 62
     0
100
AcDbTrace
 10
482.5136334361771
 20
704.0073792947126
 30
0.0
 11
485.8469667695104
 21
704.0073792947126
 31
0.0
 12
484.1803001028438
 22
694.0073792947125
 32
0.0
 13
484.1803001028438
 23
694.0073792947125
 33
0.0
  0
SOLID
  5
334B
330
2A5F
100
AcDbEntity
  8
APL_NOTES
  6
CONTINUOUS
 62
     0
100
AcDbTrace
 10
482.5136334361771
 20
719.0322386327754
 30
0.0
 11
485.8469667695104
 21
719.0322386327754
 31
0.0
 12
484.1803001028438
 22
729.0322386327755
 32
0.0
 13
484.1803001028438
 23
729.0322386327755
 33
0.0
  0
POINT
  5
334C
330
2A5F
100
AcDbEntity
  8
DEFPOINTS
  6
CONTINUOUS
 62
     0
100
AcDbPoint
 10
502.5614045307007
 20
694.0073792947125
 30
0.0
  0
POINT
  5
334D
330
2A5F
100
AcDbEntity
  8
DEFPOINTS
  6
CONTINUOUS
 62
     0
100
AcDbPoint
 10
527.4355345358172
 20
729.0322386327755
 30
0.0
  0
POINT
  5
334E
330
2A5F
100
AcDbEntity
  8
DEFPOINTS
  6
CONTINUOUS
 62
     0
100
AcDbPoint
 10
484.1803001028438
 20
729.0322386327755
 30
0.0
  0
ENDBLK
  5
2A6C
330
2A5F
100
AcDbEntity
  8
0
 62
     7
100
AcDbBlockEnd
  0
BLOCK
  5
2E70
330
2E66
100
AcDbEntity
  8
0
 62
     7
100
AcDbBlockBegin
  2
FIRST_A4_SM_ATTRIBUTES__2_
 70
     2
 10
0.0
 20
0.0
 30
0.0
  3
FIRST_A4_SM_ATTRIBUTES__2_
  1

  0
ATTDEF
  5
2E67
330
2E66
100
AcDbEntity
  8
APL_BORDER
100
AcDbText
 10
58.59500000000003
 20
263.3566666666666
 30
0.0
 40
3.0
  1
DRAWING TITLE LINE 1
  7
ARIAL-BOLD
100
AcDbAttributeDefinition
  3
Drawing Title Line 1
  2
DRAWINGTITLE_1
 70
     0
  0
ATTDEF
  5
2E68
330
2E66
100
AcDbEntity
  8
APL_BORDER
100
AcDbText
 10
58.59500000000003
 20
257.3566666666666
 30
0.0
 40
3.0
  1
CROSS SECTION
  7
ARIAL-BOLD
100
AcDbAttributeDefinition
  3
Drawing Title Line 2
  2
DRAWINGTITLE_2
 70
     0
  0
ATTDEF
  5
2E69
330
2E66
100
AcDbEntity
  8
APL_BORDER
100
AcDbText
 10
31.59500000000003
 20
263.3566666666665
 30
0.0
 40
2.5
  1
FAW##-0
  7
ARIAL-REGULAR
100
AcDbAttributeDefinition
  3
CAD Reference
  2
AW123-456
 70
     0
  0
ATTDEF
  5
2E6A
330
2E66
100
AcDbEntity
  8
APL_BORDER
100
AcDbText
 10
67.59499999999997
 20
251.8566666666665
 30
0.0
 40
2.5
  1
20.09.02
  7
ARIAL-REGULAR
100
AcDbAttributeDefinition
  3
Date
  2
20.09.02
 70
     0
  0
ATTDEF
  5
2E6B
330
2E66
100
AcDbEntity
  8
APL_BORDER
100
AcDbText
 10
97.09499999999998
 20
251.8566666666665
 30
0.0
 40
2.5
  1
1:2
  7
ARIAL-REGULAR
100
AcDbAttributeDefinition
  3
Scale
  2
1:2
 70
     0
  0
ATTDEF
  5
2E6C
330
2E66
100
AcDbEntity
  8
APL_BORDER
100
AcDbText
 10
11.59500000000001
 20
1.189999999999997
 30
0.0
 40
4.0
  1

  7
ARIAL-BOLD
100
AcDbAttributeDefinition
  3
Page Number (Left)
  2
1.2.34
 70
     0
  0
ATTDEF
  5
2E6D
330
2E66
100
AcDbEntity
  8
APL_BORDER
100
AcDbText
 10
189.595
 20
1.190000000000007
 30
0.0
 40
4.0
  1

  7
ARIAL-BOLD
 72
     2
 11
189.595
 21
1.190000000000007
 31
0.0
100
AcDbAttributeDefinition
  3
Page Number (Right)
  2
1.2.34
 70
     0
  0
ENDBLK
  5
2E71
330
2E66
100
AcDbEntity
  8
0
 62
     7
100
AcDbBlockEnd
  0
ENDSEC
  0
SECTION
  2
ENTITIES
  0
MTEXT
  5
1B6
330
1F
100
AcDbEntity
  8
APL_JOINERY
100
AcDbMText
 10
228.3034221982952
 20
376.2185796563134
 30
0.0
 40
2.5
 41
0.0
 71
     1
 72
     1
  1

  7
ARIAL-REGULAR
1001
ACAD
1000
MTEXTBEGIN
1070
    73
1070
     1
1070
    44
1040
1.0
1070
    74
1070
     0
1000
MTEXTEND
  0
TEXT
  5
6D3
330
1F
100
AcDbEntity
  8
APL_NOTES
100
AcDbText
 10
193.5205963540795
 20
137.197476116712
 30
0.0
 40
5.0
  1

  7
ARIAL-REGULAR
 11
193.5205963540795
 21
139.6974761167121
 31
0.0
100
AcDbText
 73
     2
  0
LWPOLYLINE
  5
A37
330
1F
100
AcDbEntity
  8
0
 62
   253
100
AcDbPolyline
 90
        4
 70
     1
 43
0.0
 10
0.0
 20
0.0
 10
0.0
 20
967.9999999999997
 10
712.0
 20
967.9999999999997
 10
712.0
 20
0.0
  0
LINE
  5
22F3
330
1F
100
AcDbEntity
  8
APL_JOINERY
  6
CONTINUOUS
 62
     7
100
AcDbLine
 10
271.3210237293228
 20
258.1297583111372
 30
0.0
 11
271.3210237293228
 21
365.2997583111373
 31
0.0
  0
LINE
  5
22F4
330
1F
100
AcDbEntity
  8
APL_JOINERY
  6
CONTINUOUS
 62
     7
100
AcDbLine
 10
281.6710237293214
 20
242.1297583111372
 30
0.0
 11
281.6710237293214
 21
258.1297583111372
 31
0.0
  0
LINE
  5
22F5
330
1F
100
AcDbEntity
  8
APL_JOINERY
  6
CONTINUOUS
 62
     7
100
AcDbLine
 10
165.6710237293223
 20
108.1297583111372
 30
0.0
 11
181.6710237293223
 21
108.1297583111372
 31
0.0
  0
LINE
  5
22F6
330
1F
100
AcDbEntity
  8
APL_JOINERY
  6
CONTINUOUS
 62
     7
100
AcDbLine
 10
191.3210237293228
 20
365.2997583111373
 30
0.0
 11
186.3210237293228
 21
365.2997583111373
 31
0.0
  0
LINE
  5
22F7
330
1F
100
AcDbEntity
  8
APL_JOINERY
  6
CONTINUOUS
 62
     7
100
AcDbLine
 10
186.3210237293228
 20
365.2997583111373
 30
0.0
 11
186.3210237293228
 21
258.1297583111372
 31
0.0
  0
LINE
  5
22F8
330
1F
100
AcDbEntity
  8
APL_JOINERY
  6
CONTINUOUS
 62
     7
100
AcDbLine
 10
271.3210237293228
 20
365.2997583111373
 30
0.0
 11
253.8210237293228
 21
365.2997583111373
 31
0.0
  0
LINE
  5
22F9
330
1F
100
AcDbEntity
  8
APL_JOINERY
  6
CONTINUOUS
 62
     7
100
AcDbLine
 10
253.8210237293228
 20
365.2997583111373
 30
0.0
 11
191.3210237293228
 21
365.2997583111373
 31
0.0
  0
ARC
  5
22FA
330
1F
100
AcDbEntity
  8
APL_JOINERY
  6
CONTINUOUS
 62
     7
100
AcDbCircle
 10
182.6710237293223
 20
241.1297583111372
 30
0.0
 40
17.00000000000002
100
AcDbArc
 50
90.0
 51
180.0
  0
LINE
  5
22FB
330
1F
100
AcDbEntity
  8
APL_JOINERY
  6
CONTINUOUS
 62
     7
100
AcDbLine
 10
182.6710237293223
 20
258.1297583111372
 30
0.0
 11
254.1710237293222
 21
258.1297583111372
 31
0.0
  0
LINE
  5
22FC
330
1F
100
AcDbEntity
  8
APL_JOINERY
  6
CONTINUOUS
 62
     7
100
AcDbLine
 10
254.1710237293222
 20
258.1297583111372
 30
0.0
 11
254.1710237293222
 21
242.1297583111372
 31
0.0
  0
ARC
  5
22FD
330
1F
100
AcDbEntity
  8
APL_JOINERY
  6
CONTINUOUS
 62
     7
100
AcDbCircle
 10
182.6710237293223
 20
241.1297583111372
 30
0.0
 40
1.000000000000028
100
AcDbArc
 50
90.0
 51
180.0
  0
LINE
  5
22FE
330
1F
100
AcDbEntity
  8
APL_JOINERY
  6
CONTINUOUS
 62
     7
100
AcDbLine
 10
181.6710237293223
 20
241.1297583111372
 30
0.0
 11
181.6710237293223
 21
135.6297583111372
 31
0.0
  0
LINE
  5
22FF
330
1F
100
AcDbEntity
  8
APL_JOINERY
  6
CONTINUOUS
 62
     7
100
AcDbLine
 10
165.6710237293223
 20
135.6297583111372
 30
0.0
 11
181.6710237293223
 21
135.6297583111372
 31
0.0
  0
LINE
  5
2300
330
1F
100
AcDbEntity
  8
APL_JOINERY
  6
CONTINUOUS
 62
     7
100
AcDbLine
 10
165.6710237293223
 20
135.6297583111372
 30
0.0
 11
165.6710237293223
 21
241.1297583111372
 31
0.0
  0
LINE
  5
2301
330
1F
100
AcDbEntity
  8
APL_JOINERY
  6
CONTINUOUS
 62
     7
100
AcDbLine
 10
254.1710237293222
 20
242.1297583111372
 30
0.0
 11
182.6710237293223
 21
242.1297583111372
 31
0.0
  0
LINE
  5
2302
330
1F
100
AcDbEntity
  8
APL_JOINERY
  6
CONTINUOUS
 62
     7
100
AcDbLine
 10
281.6710237293214
 20
258.1297583111372
 30
0.0
 11
254.1710237293222
 21
258.1297583111372
 31
0.0
  0
LINE
  5
2303
330
1F
100
AcDbEntity
  8
APL_JOINERY
  6
CONTINUOUS
 62
     7
100
AcDbLine
 10
281.6710237293214
 20
242.1297583111372
 30
0.0
 11
254.1710237293222
 21
242.1297583111372
 31
0.0
  0
LINE
  5
2304
330
1F
100
AcDbEntity
  8
APL_JOINERY
  6
CONTINUOUS
 62
     7
100
AcDbLine
 10
165.6710237293223
 20
108.1297583111372
 30
0.0
 11
165.6710237293223
 21
135.6297583111372
 31
0.0
  0
LINE
  5
2305
330
1F
100
AcDbEntity
  8
APL_JOINERY
  6
CONTINUOUS
 62
     7
100
AcDbLine
 10
181.6710237293223
 20
135.6297583111372
 30
0.0
 11
181.6710237293223
 21
108.1297583111372
 31
0.0
  0
LINE
  5
2306
330
1F
100
AcDbEntity
  8
APL_JOINERY
  6
CONTINUOUS
 62
     7
100
AcDbLine
 10
191.3210237293228
 20
365.2997583111373
 30
0.0
 11
191.3210237293228
 21
258.1297583111372
 31
0.0
  0
LINE
  5
2307
330
1F
100
AcDbEntity
  8
APL_JOINERY
  6
CONTINUOUS
 62
     7
100
AcDbLine
 10
253.8210237293228
 20
365.2997583111373
 30
0.0
 11
253.8210237293228
 21
258.1297583111372
 31
0.0
  0
LINE
  5
231D
330
1F
100
AcDbEntity
  8
APL_JOINERY
  6
CONTINUOUS
 62
     7
100
AcDbLine
 10
627.8099729168697
 20
257.1988262092347
 30
0.0
 11
627.8099729168697
 21
364.3688262092347
 31
0.0
  0
LINE
  5
231E
330
1F
100
AcDbEntity
  8
APL_JOINERY
  6
CONTINUOUS
 62
     7
100
AcDbLine
 10
638.1599729168693
 20
241.1988262092347
 30
0.0
 11
638.1599729168693
 21
257.1988262092347
 31
0.0
  0
LINE
  5
2320
330
1F
100
AcDbEntity
  8
APL_JOINERY
  6
CONTINUOUS
 62
     7
100
AcDbLine
 10
542.8099729168695
 20
364.3688262092347
 30
0.0
 11
542.8099729168698
 21
257.1988262092347
 31
0.0
  0
LINE
  5
2323
330
1F
100
AcDbEntity
  8
APL_JOINERY
  6
CONTINUOUS
 62
     7
100
AcDbLine
 10
494.1599729168692
 20
257.1988262092347
 30
0.0
 11
610.6599729168692
 21
257.1988262092347
 31
0.0
  0
LINE
  5
2324
330
1F
100
AcDbEntity
  8
APL_JOINERY
  6
CONTINUOUS
 62
     7
100
AcDbLine
 10
610.6599729168692
 20
257.1988262092347
 30
0.0
 11
610.6599729168692
 21
241.1988262092347
 31
0.0
  0
LINE
  5
2325
330
1F
100
AcDbEntity
  8
APL_JOINERY
  6
CONTINUOUS
 62
     7
100
AcDbLine
 10
477.1599729168692
 20
107.1988262092347
 30
0.0
 11
477.1599729168692
 21
240.1988262092347
 31
0.0
  0
LINE
  5
2326
330
1F
100
AcDbEntity
  8
APL_JOINERY
  6
CONTINUOUS
 62
     7
100
AcDbLine
 10
493.1599729168692
 20
107.1988262092347
 30
0.0
 11
477.1599729168692
 21
107.1988262092347
 31
0.0
  0
LINE
  5
2327
330
1F
100
AcDbEntity
  8
APL_JOINERY
  6
CONTINUOUS
 62
     7
100
AcDbLine
 10
493.1599729168692
 20
240.1988262092347
 30
0.0
 11
493.1599729168692
 21
107.1988262092347
 31
0.0
  0
ARC
  5
2328
330
1F
100
AcDbEntity
  8
APL_JOINERY
  6
CONTINUOUS
 62
     7
100
AcDbCircle
 10
494.1599729168692
 20
240.1988262092347
 30
0.0
 40
1.0
100
AcDbArc
 50
90.0
 51
180.0
  0
LINE
  5
2329
330
1F
100
AcDbEntity
  8
APL_JOINERY
  6
CONTINUOUS
 62
     7
100
AcDbLine
 10
610.6599729168692
 20
241.1988262092347
 30
0.0
 11
494.1599729168692
 21
241.1988262092347
 31
0.0
  0
ARC
  5
232A
330
1F
100
AcDbEntity
  8
APL_JOINERY
  6
CONTINUOUS
 62
     7
100
AcDbCircle
 10
494.1599729168692
 20
240.1988262092347
 30
0.0
 40
17.00000000000005
100
AcDbArc
 50
90.0
 51
180.0
  0
LINE
  5
232B
330
1F
100
AcDbEntity
  8
APL_JOINERY
  6
CONTINUOUS
 62
     7
100
AcDbLine
 10
638.1599729168693
 20
257.1988262092347
 30
0.0
 11
610.6599729168692
 21
257.1988262092347
 31
0.0
  0
LINE
  5
232C
102
{ACAD_REACTORS
330
23D8
102
}
330
1F
100
AcDbEntity
  8
APL_JOINERY
  6
CONTINUOUS
 62
     7
100
AcDbLine
 10
638.1599729168693
 20
241.1988262092347
 30
0.0
 11
610.6599729168692
 21
241.1988262092347
 31
0.0
  0
LINE
  5
232D
330
1F
100
AcDbEntity
  8
APL_JOINERY
  6
CONTINUOUS
 62
     7
100
AcDbLine
 10
547.8099729168698
 20
364.3688262092347
 30
0.0
 11
547.8099729168698
 21
257.1988262092347
 31
0.0
  0
LINE
  5
232E
330
1F
100
AcDbEntity
  8
APL_JOINERY
  6
CONTINUOUS
 62
     7
100
AcDbLine
 10
610.3099729168698
 20
364.3688262092347
 30
0.0
 11
610.3099729168698
 21
257.1988262092347
 31
0.0
  0
LINE
  5
237F
330
1F
100
AcDbEntity
  8
APL_JOINERY
  6
CONTINUOUS
 62
     7
100
AcDbLine
 10
526.4355345358167
 20
564.0073792947107
 30
0.0
 11
526.4355345358175
 21
714.0073792947107
 31
0.0
  0
LINE
  5
2380
330
1F
100
AcDbEntity
  8
APL_JOINERY
  6
CONTINUOUS
 62
     7
100
AcDbLine
 10
523.4355345358166
 20
564.0073792947107
 30
0.0
 11
523.4355345358176
 21
714.0073792947107
 31
0.0
  0
LINE
  5
2381
330
1F
100
AcDbEntity
  8
APL_JOINERY
  6
CONTINUOUS
 62
     7
100
AcDbLine
 10
526.4355345358167
 20
564.0073792947107
 30
0.0
 11
523.4355345358166
 21
564.0073792947107
 31
0.0
  0
LINE
  5
2382
330
1F
100
AcDbEntity
  8
APL_JOINERY
  6
CONTINUOUS
 62
     7
100
AcDbLine
 10
526.4355345358175
 20
714.0073792947107
 30
0.0
 11
523.4355345358176
 21
714.0073792947107
 31
0.0
  0
LINE
  5
2383
330
1F
100
AcDbEntity
  8
APL_JOINERY
  6
CONTINUOUS
 62
     7
100
AcDbLine
 10
515.4355345358167
 20
564.0073792947107
 30
0.0
 11
515.4355345358176
 21
714.0073792947107
 31
0.0
  0
LINE
  5
2384
330
1F
100
AcDbEntity
  8
APL_JOINERY
  6
CONTINUOUS
 62
     7
100
AcDbLine
 10
523.4355345358166
 20
564.0073792947107
 30
0.0
 11
515.4355345358167
 21
564.0073792947107
 31
0.0
  0
LINE
  5
2385
330
1F
100
AcDbEntity
  8
APL_JOINERY
  6
CONTINUOUS
 62
     7
100
AcDbLine
 10
523.4355345358176
 20
714.0073792947107
 30
0.0
 11
515.4355345358176
 21
714.0073792947107
 31
0.0
  0
LINE
  5
2386
330
1F
100
AcDbEntity
  8
APL_JOINERY
  6
CONTINUOUS
 62
     7
100
AcDbLine
 10
527.4355345358166
 20
564.0073792947107
 30
0.0
 11
527.4355345358176
 21
714.0073792947107
 31
0.0
  0
LINE
  5
2387
330
1F
100
AcDbEntity
  8
APL_JOINERY
  6
CONTINUOUS
 62
     7
100
AcDbLine
 10
527.4355345358166
 20
564.0073792947107
 30
0.0
 11
526.4355345358167
 21
564.0073792947107
 31
0.0
  0
LINE
  5
2388
330
1F
100
AcDbEntity
  8
APL_JOINERY
  6
CONTINUOUS
 62
     7
100
AcDbLine
 10
527.4355345358176
 20
714.0073792947107
 30
0.0
 11
526.4355345358175
 21
714.0073792947107
 31
0.0
  0
LINE
  5
2389
330
1F
100
AcDbEntity
  8
APL_JOINERY
  6
CONTINUOUS
 62
     7
100
AcDbLine
 10
510.4355345358167
 20
564.0073792947107
 30
0.0
 11
510.4355345358176
 21
714.0073792947107
 31
0.0
  0
LINE
  5
238A
330
1F
100
AcDbEntity
  8
APL_JOINERY
  6
CONTINUOUS
 62
     7
100
AcDbLine
 10
515.4355345358167
 20
564.0073792947107
 30
0.0
 11
510.4355345358167
 21
564.0073792947107
 31
0.0
  0
LINE
  5
238B
330
1F
100
AcDbEntity
  8
APL_JOINERY
  6
CONTINUOUS
 62
     7
100
AcDbLine
 10
515.4355345358176
 20
714.0073792947107
 30
0.0
 11
510.4355345358176
 21
714.0073792947107
 31
0.0
  0
LINE
  5
238C
330
1F
100
AcDbEntity
  8
APL_JOINERY
  6
CONTINUOUS
 62
     7
100
AcDbLine
 10
435.0355345358171
 20
564.0073792947125
 30
0.0
 11
435.035534535818
 21
714.0073792947125
 31
0.0
  0
LINE
  5
238D
330
1F
100
AcDbEntity
  8
APL_JOINERY
  6
CONTINUOUS
 62
     7
100
AcDbLine
 10
510.4355345358167
 20
564.0073792947107
 30
0.0
 11
435.0355345358171
 21
564.0073792947125
 31
0.0
  0
LINE
  5
238E
330
1F
100
AcDbEntity
  8
APL_JOINERY
  6
CONTINUOUS
 62
     7
100
AcDbLine
 10
510.4355345358176
 20
714.0073792947107
 30
0.0
 11
435.035534535818
 21
714.0073792947125
 31
0.0
  0
LINE
  5
238F
330
1F
100
AcDbEntity
  8
APL_JOINERY
  6
CONTINUOUS
 62
     7
100
AcDbLine
 10
425.6355345358175
 20
564.0073792947125
 30
0.0
 11
425.6355345358175
 21
714.0073792947125
 31
0.0
  0
LINE
  5
2390
330
1F
100
AcDbEntity
  8
APL_JOINERY
  6
CONTINUOUS
 62
     7
100
AcDbLine
 10
435.0355345358171
 20
564.0073792947125
 30
0.0
 11
425.6355345358175
 21
564.0073792947125
 31
0.0
  0
LINE
  5
2391
330
1F
100
AcDbEntity
  8
APL_JOINERY
  6
CONTINUOUS
 62
     7
100
AcDbLine
 10
435.035534535818
 20
714.0073792947125
 30
0.0
 11
425.6355345358175
 21
714.0073792947125
 31
0.0
  0
MTEXT
  5
23D5
330
1F
100
AcDbEntity
  8
APL_NOTES
 62
     7
100
AcDbMText
 10
469.1133958705977
 20
46.72893129459248
 30
0.0
 40
10.0
 41
229.872
 71
     1
 72
     5
  1
{\fArial|b1|i0|c0|p34;9100870} Nib Wall Bracket
  7
ARIAL-REGULAR
1001
ACAD
1000
MTEXTBEGIN
1070
    73
1070
     1
1070
    44
1040
1.0
1070
    74
1070
     0
1000
MTEXTEND
  0
DIMENSION
  5
23D6
102
{ACAD_XDICTIONARY
360
23D7
102
}
102
{ACAD_REACTORS
330
23D8
102
}
330
1F
100
AcDbEntity
  8
APL_NOTES
 62
     7
100
AcDbDimension
  2
*D17
 10
682.0292121951728
 20
441.3287363395395
 30
0.0
 11
682.0292121951727
 21
341.2637812743872
 31
0.0
 70
   160
  1
Max 200mm to top of Rail
  3
VATAGE_MANUFACTURING_PACK_
100
AcDbAlignedDimension
 13
638.1599729168696
 23
241.1988262092347
 33
0.0
 14
561.4207471276666
 24
441.3287363395396
 34
0.0
 50
90.0
100
AcDbRotatedDimension
1001
ACAD
1000
DSTYLE
1002
{
1070
    44
1040
5.0
1070
    42
1040
10.0
1070
   340
1005
71
1070
   140
1040
10.0
1070
    41
1040
10.0
1002
}
  0
DIMENSION
  5
23D9
330
1F
100
AcDbEntity
  8
APL_NOTES
 62
     7
100
AcDbDimension
  2
*D16
 10
324.1109523700996
 20
442.2616577225418
 30
0.0
 11
324.1109523700995
 21
342.1957080168396
 31
0.0
 70
   160
  1
Max 200mm to top of Rail
  3
VATAGE_MANUFACTURING_PACK_
100
AcDbAlignedDimension
 13
281.6710237293215
 23
242.1297583111372
 33
0.0
 14
204.9314471761898
 24
442.2616577225418
 34
0.0
 50
90.0
100
AcDbRotatedDimension
1001
ACAD
1000
DSTYLE
1002
{
1070
    44
1040
5.0
1070
    42
1040
10.0
1070
    41
1040
10.0
1070
   140
1040
10.0
1070
   340
1005
71
1002
}
  0
INSERT
  5
24AB
330
1F
100
AcDbEntity
  8
APL_JOINERY
100
AcDbBlockReference
  2
BRACKET
 10
746.1429090595499
 20
-23.02909476333343
 30
0.0
  0
INSERT
  5
24AC
330
1F
100
AcDbEntity
  8
APL_JOINERY
100
AcDbBlockReference
  2
01955
 10
228.3210237293223
 20
410.1875297805061
 30
0.0
  0
INSERT
  5
24AD
330
1F
100
AcDbEntity
  8
APL_JOINERY
100
AcDbBlockReference
  2
01953
 10
228.3154203169
 20
410.3352649895944
 30
0.0
  0
INSERT
  5
24AE
330
1F
100
AcDbEntity
  8
APL_JOINERY
100
AcDbBlockReference
  2
01956
 10
220.4210237293224
 20
389.2997583111371
 30
0.0
  0
LINE
  5
24C9
330
1F
100
AcDbEntity
  8
APL_JOINERY
 62
     3
100
AcDbLine
 10
181.6710237293223
 20
241.1297583111372
 30
0.0
 11
181.6710237293222
 21
84.96828081059607
 31
0.0
  0
LINE
  5
24CA
330
1F
100
AcDbEntity
  8
APL_JOINERY
 62
     3
100
AcDbLine
 10
182.6710237293223
 20
242.1297583111372
 30
0.0
 11
281.6710237293223
 21
242.1297583111372
 31
0.0
  0
LINE
  5
24CC
330
1F
100
AcDbEntity
  8
APL_JOINERY
 62
     3
100
AcDbLine
 10
281.6710237293223
 20
242.1297583111372
 30
0.0
 11
281.6710237293223
 21
84.96828081059607
 31
0.0
  0
LINE
  5
24CE
102
{ACAD_REACTORS
330
2680
102
}
330
1F
100
AcDbEntity
  8
APL_JOINERY
 62
     3
100
AcDbLine
 10
493.1599729168692
 20
240.1988262092347
 30
0.0
 11
493.1599729168692
 21
84.03734870869357
 31
0.0
  0
LINE
  5
24CF
102
{ACAD_REACTORS
330
2680
102
}
330
1F
100
AcDbEntity
  8
APL_JOINERY
 62
     3
100
AcDbLine
 10
643.1599729168692
 20
241.1988262092347
 30
0.0
 11
643.1599729168692
 21
84.03734870869357
 31
0.0
  0
LINE
  5
24D0
330
1F
100
AcDbEntity
  8
APL_JOINERY
 62
     3
100
AcDbLine
 10
494.1599729168692
 20
241.1988262092347
 30
0.0
 11
643.1599729168692
 21
241.1988262092347
 31
0.0
  0
HATCH
  5
2522
330
1F
100
AcDbEntity
  8
APL_JOINERY
 62
   253
100
AcDbHatch
 10
0.0
 20
0.0
 30
0.0
210
0.0
220
0.0
230
1.0
  2
ANSI31
 70
     0
 71
     0
 91
        1
 92
        7
 72
     1
 73
     1
 93
        5
 10
281.6710237293223
 20
242.1297583111372
 42
0.0
 10
182.6710237293223
 20
242.1297583111372
 42
0.4142135623730866
 10
181.6710237293223
 20
241.1297583111372
 42
0.0
 10
181.6710237293222
 20
84.96828081059607
 42
0.0
 10
281.6710237293223
 20
84.96828081059607
 42
0.0
 97
        0
 75
     0
 76
     1
 52
0.0
 41
2.0
 77
     0
 78
     1
 53
45.0
 43
0.0
 44
32.54743832988106
 45
-4.490128060534575
 46
4.490128060534576
 79
     0
 47
0.6953312852816039
 98
        1
 10
243.2807497061698
 20
167.1591881114316
  0
HATCH
  5
2572
330
1F
100
AcDbEntity
  8
APL_JOINERY
 62
   253
100
AcDbHatch
 10
0.0
 20
0.0
 30
0.0
210
0.0
220
0.0
230
1.0
  2
ANSI31
 70
     0
 71
     0
 91
        1
 92
        7
 72
     1
 73
     1
 93
        5
 10
643.1599729168693
 20
241.1988262092347
 42
0.0
 10
494.1599729168692
 20
241.1988262092347
 42
0.4142135623730951
 10
493.1599729168692
 20
240.1988262092347
 42
0.0
 10
493.1599729168691
 20
84.03734870869357
 42
0.0
 10
643.1599729168693
 20
84.03734870869357
 42
0.0
 97
        0
 75
     0
 76
     1
 52
0.0
 41
2.0
 77
     0
 78
     1
 53
45.0
 43
0.0
 44
32.54743832988106
 45
-4.490128060534575
 46
4.490128060534576
 79
     0
 47
0.6953312852816039
 98
        1
 10
541.0582906797181
 20
160.2058745858082
  0
LINE
  5
2573
330
1F
100
AcDbEntity
  8
APL_JOINERY
 62
     7
100
AcDbLine
 10
429.6355345358171
 20
714.0073792947125
 30
0.0
 11
429.6355345358171
 21
786.9910078679222
 31
0.0
  0
LINE
  5
2574
330
1F
100
AcDbEntity
  8
APL_JOINERY
 62
     7
100
AcDbLine
 10
515.4355345358172
 20
714.0073792947107
 30
0.0
 11
515.4355345358172
 21
786.9910078679222
 31
0.0
  0
LINE
  5
257B
330
1F
100
AcDbEntity
  8
APL_JOINERY
 62
     3
100
AcDbLine
 10
527.4355345358176
 20
729.0322386327755
 30
0.0
 11
677.4355345358176
 21
729.0322386327755
 31
0.0
  0
LINE
  5
257C
330
1F
100
AcDbEntity
  8
APL_JOINERY
 62
     3
100
AcDbLine
 10
527.4355345358176
 20
729.0322386327755
 30
0.0
 11
527.4355345358176
 21
509.6711389133984
 31
0.0
  0
LINE
  5
257E
330
1F
100
AcDbEntity
  8
APL_JOINERY
  6
DASHED
 62
     8
100
AcDbLine
 10
425.6355345358175
 20
714.0073792947125
 30
0.0
 11
425.6355345358179
 21
876.3328738202169
 31
0.0
  0
LINE
  5
257F
330
1F
100
AcDbEntity
  8
APL_JOINERY
  6
DASHED
 62
     8
100
AcDbLine
 10
527.4355345358172
 20
729.0322386327755
 30
0.0
 11
527.4355345358176
 21
829.8328738202187
 31
0.0
  0
HATCH
  5
25A0
330
1F
100
AcDbEntity
  8
APL_JOINERY
  6
CONTINUOUS
 62
   253
100
AcDbHatch
 10
0.0
 20
0.0
 30
0.0
210
0.0
220
0.0
230
1.0
  2
ANSI31
 70
     0
 71
     0
 91
        1
 92
        7
 72
     1
 73
     1
 93
        3
 10
677.4355345358173
 20
729.0322386327755
 42
0.0
 10
527.4355345358177
 20
729.0322386327755
 42
0.0
 10
527.4355345358176
 20
509.6711389133984
 42
0.3454729170954469
 97
        0
 75
     0
 76
     1
 52
0.0
 41
2.0
 77
     0
 78
     1
 53
45.0
 43
34.27556161894836
 44
-7.520526626443825
 45
-4.490128060534575
 46
4.490128060534576
 79
     0
 47
0.5990420932452878
 98
        1
 10
595.9289591021597
 20
631.0095557639295
  0
LINE
  5
25A2
330
1F
100
AcDbEntity
  8
APL_JOINERY
  6
PHANTOM
 62
     4
 48
3.0
100
AcDbLine
 10
502.5614045307007
 20
694.0073792947125
 30
0.0
 11
622.6449116556218
 21
694.0073792947125
 31
0.0
  0
LINE
  5
25A3
330
1F
100
AcDbEntity
  8
APL_JOINERY
  6
PHANTOM
 62
     4
 48
3.0
100
AcDbLine
 10
502.5614045307007
 20
584.0073792947126
 30
0.0
 11
622.6449116556218
 21
584.0073792947126
 31
0.0
  0
INSERT
  5
25C5
330
1F
100
AcDbEntity
  8
APL_JOINERY
100
AcDbBlockReference
  2
01955
 10
584.8099729168693
 20
409.2565976786036
 30
0.0
  0
INSERT
  5
25C6
330
1F
100
AcDbEntity
  8
APL_JOINERY
100
AcDbBlockReference
  2
BRACKET
 10
1102.631858247096
 20
-23.96002686523593
 30
0.0
  0
INSERT
  5
25C7
330
1F
100
AcDbEntity
  8
APL_JOINERY
100
AcDbBlockReference
  2
01956
 10
576.9099729168694
 20
388.3688262092346
 30
0.0
  0
INSERT
  5
25C8
330
1F
100
AcDbEntity
  8
APL_JOINERY
100
AcDbBlockReference
  2
01953
 10
584.8043695044471
 20
409.4043328876919
 30
0.0
  0
LINE
  5
25C9
330
1F
100
AcDbEntity
  8
APL_JOINERY
  6
CONTINUOUS
 62
     7
100
AcDbLine
 10
610.3099729168698
 20
364.3688262092347
 30
0.0
 11
547.8099729168698
 21
364.3688262092347
 31
0.0
  0
LINE
  5
25CA
330
1F
100
AcDbEntity
  8
APL_JOINERY
  6
CONTINUOUS
 62
     7
100
AcDbLine
 10
547.8099729168698
 20
364.3688262092347
 30
0.0
 11
542.8099729168698
 21
364.3688262092347
 31
0.0
  0
LINE
  5
25CB
330
1F
100
AcDbEntity
  8
APL_JOINERY
  6
CONTINUOUS
 62
     7
100
AcDbLine
 10
627.8099729168697
 20
364.3688262092347
 30
0.0
 11
610.3099729168698
 21
364.3688262092347
 31
0.0
  0
MTEXT
  5
2647
330
1F
100
AcDbEntity
  8
APL_NOTES
 62
     7
100
AcDbMText
 10
107.2615045635902
 20
46.72893129459253
 30
0.0
 40
10.0
 41
229.872
 71
     1
 72
     5
  1
{\fArial|b1|i0|c0|p34;9100874} Nib Wall Bracket
  7
ARIAL-REGULAR
1001
ACAD
1000
MTEXTBEGIN
1070
    73
1070
     1
1070
    44
1040
1.0
1070
    74
1070
     0
1000
MTEXTEND
  0
MTEXT
  5
2648
330
1F
100
AcDbEntity
  8
APL_NOTES
 62
     7
100
AcDbMText
 10
445.4646066147652
 20
492.7125646061135
 30
0.0
 40
10.0
 41
229.872
 71
     1
 72
     5
  1
{\fArial|b1|i0|c0|p34;9100860} Face Fix Bracket
  7
ARIAL-REGULAR
1001
ACAD
1000
MTEXTBEGIN
1070
    73
1070
     1
1070
    44
1040
1.0
1070
    74
1070
     0
1000
MTEXTEND
  0
LINE
  5
2649
330
1F
100
AcDbEntity
  8
APL_JOINERY
  6
PHANTOM
 62
     4
 48
3.0
100
AcDbLine
 10
460.1717547481626
 20
197.1988262092347
 30
0.0
 11
580.2552618730837
 21
197.1988262092347
 31
0.0
  0
LINE
  5
264A
330
1F
100
AcDbEntity
  8
APL_JOINERY
  6
PHANTOM
 62
     4
 48
3.0
100
AcDbLine
 10
460.1717547481626
 20
137.1988262092347
 30
0.0
 11
580.2552618730837
 21
137.1988262092347
 31
0.0
  0
LINE
  5
264B
330
1F
100
AcDbEntity
  8
APL_JOINERY
  6
PHANTOM
 62
     4
 48
3.0
100
AcDbLine
 10
151.7292082892822
 20
198.1297583111372
 30
0.0
 11
259.8127154142034
 21
198.1297583111372
 31
0.0
  0
LINE
  5
264C
330
1F
100
AcDbEntity
  8
APL_JOINERY
  6
PHANTOM
 62
     4
 48
3.0
100
AcDbLine
 10
151.7292082892822
 20
138.1297583111372
 30
0.0
 11
259.8127154142034
 21
138.1297583111372
 31
0.0
  0
DIMENSION
  5
2669
102
{ACAD_XDICTIONARY
360
2676
102
}
102
{ACAD_REACTORS
330
2680
102
}
330
1F
100
AcDbEntity
  8
APL_NOTES
  6
CONTINUOUS
 62
     7
100
AcDbDimension
  2
*D19
 10
643.1599729168692
 20
64.97027152562532
 30
0.0
 11
568.1599729168692
 21
70.70100140284224
 31
0.0
 70
    32
  1
150mm min
  3
ISO-25
100
AcDbAlignedDimension
 13
493.1599729168692
 23
84.03734870869357
 33
0.0
 14
643.1599729168692
 24
84.03734870869357
 34
0.0
100
AcDbRotatedDimension
1001
ACAD
1000
DSTYLE
1002
{
1070
    44
1040
5.0
1070
    42
1040
10.0
1070
   140
1040
10.0
1070
    41
1040
10.0
1002
}
  0
DIMENSION
  5
26D2
330
1F
100
AcDbEntity
  8
APL_NOTES
  6
CONTINUOUS
 62
     7
100
AcDbDimension
  2
*D20
 10
281.6710237293223
 20
65.90120362752782
 30
0.0
 11
231.6710237293223
 21
71.63193350474474
 31
0.0
 70
    32
  1
100mm min
  3
ISO-25
100
AcDbAlignedDimension
 13
181.6710237293223
 23
84.96828081059607
 33
0.0
 14
281.6710237293223
 24
84.96828081059607
 34
0.0
100
AcDbRotatedDimension
1001
ACAD
1000
DSTYLE
1002
{
1070
    44
1040
5.0
1070
    42
1040
10.0
1070
   140
1040
10.0
1070
    41
1040
10.0
1002
}
  0
MTEXT
  5
2768
330
1F
100
AcDbEntity
  8
APL_NOTES
 62
     7
100
AcDbMText
 10
48.22814329568609
 20
492.7125646061135
 30
0.0
 40
10.0
 41
310.5402
 71
     1
 72
     5
  1
Standard Bracket (Supplied welded to Post)
  7
ARIAL-REGULAR
1001
ACAD
1000
MTEXTBEGIN
1070
    73
1070
     1
1070
    44
1040
1.0
1070
    74
1070
     0
1000
MTEXTEND
  0
LINE
  5
276A
330
1F
100
AcDbEntity
  8
APL_JOINERY
 62
     3
100
AcDbLine
 10
86.1845629684735
 20
625.8983166695482
 30
0.0
 11
349.7124841144677
 21
625.8983166695482
 31
0.0
  0
LINE
  5
276B
330
1F
100
AcDbEntity
  8
APL_JOINERY
 62
     3
100
AcDbLine
 10
86.1845629684735
 20
625.8983166695482
 30
0.0
 11
86.1845629684735
 21
516.2177668098596
 31
0.0
  0
HATCH
  5
27A4
330
1F
100
AcDbEntity
  8
APL_JOINERY
  6
CONTINUOUS
 62
   253
100
AcDbHatch
 10
0.0
 20
0.0
 30
0.0
210
0.0
220
0.0
230
1.0
  2
ANSI31
 70
     0
 71
     0
 91
        1
 92
        7
 72
     1
 73
     1
 93
        3
 10
349.7124841144678
 20
625.8983166695482
 42
0.0
 10
86.1845629684735
 20
625.8983166695482
 42
0.0
 10
86.1845629684735
 20
516.2177668098595
 42
0.268920111783649
 97
        0
 75
     0
 76
     1
 52
0.0
 41
2.0
 77
     0
 78
     1
 53
45.0
 43
8.09303343483225
 44
-0.3799478051423648
 45
-4.490128060534575
 46
4.490128060534576
 79
     0
 47
0.6993196695131388
 98
        1
 10
214.6325300344615
 20
576.8755336688118
  0
INSERT
  5
27D5
330
1F
100
AcDbEntity
  8
APL_JOINERY
  6
CONTINUOUS
 62
     7
100
AcDbBlockReference
  2
FOOTING
 10
-30.80696656516773
 20
-14.61381543180868
 30
0.0
  0
LINE
  5
27D6
330
1F
100
AcDbEntity
  8
APL_JOINERY
  6
PHANTOM
 62
     4
 48
3.0
100
AcDbLine
 10
111.2127342683558
 20
651.8777858200332
 30
0.0
 11
111.2127342683558
 21
531.7942786951119
 31
0.0
  0
LINE
  5
27D7
330
1F
100
AcDbEntity
  8
APL_JOINERY
  6
PHANTOM
 62
     4
 48
3.0
100
AcDbLine
 10
210.2627342683559
 20
653.2451586160553
 30
0.0
 11
210.2627342683559
 21
533.1616514911342
 31
0.0
  0
DIMENSION
  5
27D8
330
1F
100
AcDbEntity
  8
APL_NOTES
  6
CONTINUOUS
 62
     7
100
AcDbDimension
  2
*D22
 10
111.2127342683558
 20
691.1120405650152
 30
0.0
 11
239.0978767222086
 21
742.3257582829555
 31
0.0
 70
   160
  1
25mm min (Timber)
  3
ISO-25
100
AcDbAlignedDimension
 13
86.1845629684735
 23
625.8983166695482
 33
0.0
 14
111.2127342683558
 24
651.8777858200332
 34
0.0
100
AcDbRotatedDimension
1001
ACAD
1000
DSTYLE
1002
{
1070
   287
1070
     4
1070
    41
1040
10.0
1070
    42
1040
10.0
1070
    44
1040
5.0
1070
   140
1040
10.0
1070
   279
1070
     1
1002
}
  0
LINE
  5
2829
330
1F
100
AcDbEntity
  8
APL_JOINERY
  6
DASHED
 62
     8
100
AcDbLine
 10
94.04323181498199
 20
639.3922062586944
 30
0.0
 11
94.04323181498245
 21
840.9179273155634
 31
0.0
  0
LINE
  5
282A
330
1F
100
AcDbEntity
  8
APL_JOINERY
  6
DASHED
 62
     8
100
AcDbLine
 10
227.3932318149821
 20
639.0831296378856
 30
0.0
 11
227.3932318149826
 21
878.4179273155626
 31
0.0
  0
INSERT
  5
2892
330
1F
100
AcDbEntity
  8
APL_JOINERY
  6
CONTINUOUS
 62
     7
100
AcDbBlockReference
  2
PLAN_FOOTING
 10
-12.27817612507533
 20
-7.520526626443825
 30
0.0
  0
INSERT
  5
28B4
330
1F
100
AcDbEntity
  8
APL_JOINERY
  6
CONTINUOUS
 62
     7
100
AcDbBlockReference
  2
PLAN_9100860
 10
0.0
 20
-21.87357206845354
 30
0.0
  0
INSERT
  5
295E
330
1F
100
AcDbEntity
  8
APL_JOINERY
  6
CONTINUOUS
 62
     7
100
AcDbBlockReference
  2
SW_CENTERMARKSYMBOL_3
 10
111.2127342683558
 20
915.3127283584083
 30
0.0
 41
4.0
 42
4.0
 43
4.0
  0
INSERT
  5
295F
330
1F
100
AcDbEntity
  8
APL_JOINERY
  6
CONTINUOUS
 62
     7
100
AcDbBlockReference
  2
SW_CENTERMARKSYMBOL_3
 10
111.2127342683558
 20
840.3127283584083
 30
0.0
 41
4.0
 42
4.0
 43
4.0
  0
INSERT
  5
2960
330
1F
100
AcDbEntity
  8
APL_JOINERY
  6
CONTINUOUS
 62
     7
100
AcDbBlockReference
  2
SW_CENTERMARKSYMBOL_3
 10
210.262734268356
 20
877.8127283584074
 30
0.0
 41
4.0
 42
4.0
 43
4.0
  0
LINE
  5
299A
330
1F
100
AcDbEntity
  8
APL_JOINERY
  6
DASHED
 62
     7
 48
0.5
100
AcDbLine
 10
515.4355345358172
 20
828.4798283782091
 30
0.0
 11
527.4355345358172
 21
828.4798283782091
 31
0.0
  0
LINE
  5
299C
330
1F
100
AcDbEntity
  8
APL_JOINERY
  6
DASHED
 62
     7
 48
0.5
100
AcDbLine
 10
515.4355345358172
 20
841.479828378209
 30
0.0
 11
527.4355345358172
 21
841.479828378209
 31
0.0
  0
LINE
  5
299D
330
1F
100
AcDbEntity
  8
APL_JOINERY
  6
DASHED
 62
     7
 48
0.5
100
AcDbLine
 10
515.4355345358172
 20
920.4798283782091
 30
0.0
 11
527.4355345358172
 21
920.4798283782091
 31
0.0
  0
LINE
  5
299E
330
1F
100
AcDbEntity
  8
APL_JOINERY
  6
DASHED
 62
     7
 48
0.5
100
AcDbLine
 10
515.4355345358172
 20
907.479828378209
 30
0.0
 11
527.4355345358172
 21
907.479828378209
 31
0.0
  0
MTEXT
  5
29EF
330
1F
100
AcDbEntity
  8
APL_NOTES
  6
CONTINUOUS
 62
     7
100
AcDbMText
 10
238.4814533234421
 20
739.3573546093112
 30
0.0
 40
10.0
 41
155.3924711835622
 71
     1
 72
     5
  1
50mm min (Conc)
  7
ARIAL-REGULAR
1001
ACAD
1000
MTEXTBEGIN
1070
    73
1070
     1
1070
    44
1040
1.0
1070
    74
1070
     0
1000
MTEXTEND
  0
DIMENSION
  5
2A5D
330
1F
100
AcDbEntity
  8
APL_NOTES
  6
CONTINUOUS
 62
     7
100
AcDbDimension
  2
*D25
 10
484.1803001028438
 20
729.0322386327755
 30
0.0
 11
578.2752626611427
 21
795.6969208807677
 31
0.0
 70
   160
  1
25mm min (Timber)
  3
ISO-25
100
AcDbAlignedDimension
 13
502.5614045307007
 23
694.0073792947125
 33
0.0
 14
527.4355345358172
 24
729.0322386327755
 34
0.0
 50
90.0
100
AcDbRotatedDimension
1001
ACAD
1000
DSTYLE
1002
{
1070
   287
1070
     4
1070
    41
1040
10.0
1070
    42
1040
10.0
1070
    44
1040
5.0
1070
   140
1040
10.0
1070
   279
1070
     1
1002
}
  0
MTEXT
  5
2A5E
330
1F
100
AcDbEntity
  8
APL_NOTES
  6
CONTINUOUS
 62
     7
100
AcDbMText
 10
582.186182530922
 20
796.9548431157633
 30
0.0
 40
10.0
 41
155.3924711835622
 71
     1
 72
     5
  1
50mm min (into Conc)
  7
ARIAL-REGULAR
 11
0.0000000000000001
 21
1.0
 31
0.0
1001
ACAD
1000
MTEXTBEGIN
1070
    73
1070
     1
1070
    44
1040
1.0
1070
    74
1070
     0
1000
MTEXTEND
  0
LINE
  5
2C7C
330
1F
100
AcDbEntity
  8
APL_JOINERY
  6
CONTINUOUS
 62
     7
100
AcDbLine
 10
442.1890383282449
 20
134.6988262092346
 30
0.0
 11
442.1890383282447
 21
240.1988262092347
 31
0.0
  0
LINE
  5
2C7D
330
1F
100
AcDbEntity
  8
APL_JOINERY
  6
CONTINUOUS
 62
     7
100
AcDbLine
 10
387.1890383282447
 20
134.6988262092346
 30
0.0
 11
387.1890383282448
 21
240.1988262092347
 31
0.0
  0
CIRCLE
  5
2C7F
330
1F
100
AcDbEntity
  8
APL_JOINERY
  6
CONTINUOUS
 62
     7
100
AcDbCircle
 10
414.6890383282448
 20
137.1988262092347
 30
0.0
 40
12.49999999999997
  0
CIRCLE
  5
2C80
330
1F
100
AcDbEntity
  8
APL_JOINERY
  6
CONTINUOUS
 62
     7
100
AcDbCircle
 10
414.6890383282448
 20
137.1988262092347
 30
0.0
 40
6.499999999999971
  0
INSERT
  5
2C81
330
1F
100
AcDbEntity
  8
APL_JOINERY
  6
CONTINUOUS
 62
     7
100
AcDbBlockReference
  2
SW_CENTERMARKSYMBOL_5
 10
414.6890383282448
 20
137.1988262092347
 30
0.0
 41
4.0
 42
4.0
 43
4.0
  0
LINE
  5
2C82
330
1F
100
AcDbEntity
  8
APL_JOINERY
  6
CONTINUOUS
 62
     7
100
AcDbLine
 10
397.1890383282448
 20
364.3688262092347
 30
0.0
 11
397.1890383282448
 21
257.1988262092347
 31
0.0
  0
LINE
  5
2C83
330
1F
100
AcDbEntity
  8
APL_JOINERY
  6
CONTINUOUS
 62
     7
100
AcDbLine
 10
402.1890383282448
 20
364.3688262092347
 30
0.0
 11
402.1890383282448
 21
257.1988262092347
 31
0.0
  0
LINE
  5
2C84
330
1F
100
AcDbEntity
  8
APL_JOINERY
  6
CONTINUOUS
 62
     7
100
AcDbLine
 10
427.1890383282448
 20
364.3688262092347
 30
0.0
 11
427.1890383282448
 21
257.1988262092347
 31
0.0
  0
LINE
  5
2C85
330
1F
100
AcDbEntity
  8
APL_JOINERY
  6
CONTINUOUS
 62
     7
100
AcDbLine
 10
432.1890383282449
 20
364.3688262092347
 30
0.0
 11
432.1890383282448
 21
257.1988262092347
 31
0.0
  0
LINE
  5
2C86
330
1F
100
AcDbEntity
  8
APL_JOINERY
  6
CONTINUOUS
 62
     7
100
AcDbLine
 10
442.1890383282447
 20
240.1988262092347
 30
0.0
 11
442.1890383282447
 21
257.1988262092347
 31
0.0
  0
LINE
  5
2C87
330
1F
100
AcDbEntity
  8
APL_JOINERY
  6
CONTINUOUS
 62
     7
100
AcDbLine
 10
387.1890383282448
 20
240.1988262092347
 30
0.0
 11
387.1890383282448
 21
257.1988262092347
 31
0.0
  0
LINE
  5
2C88
330
1F
100
AcDbEntity
  8
APL_JOINERY
  6
CONTINUOUS
 62
     7
100
AcDbLine
 10
387.1890383282448
 20
240.1988262092347
 30
0.0
 11
442.1890383282447
 21
240.1988262092347
 31
0.0
  0
CIRCLE
  5
2C89
330
1F
100
AcDbEntity
  8
APL_JOINERY
  6
CONTINUOUS
 62
     7
100
AcDbCircle
 10
414.6890383282448
 20
197.1988262092347
 30
0.0
 40
12.5
  0
CIRCLE
  5
2C8A
330
1F
100
AcDbEntity
  8
APL_JOINERY
  6
CONTINUOUS
 62
     7
100
AcDbCircle
 10
414.6890383282448
 20
197.1988262092347
 30
0.0
 40
6.499999999999971
  0
INSERT
  5
2C8B
330
1F
100
AcDbEntity
  8
APL_JOINERY
  6
CONTINUOUS
 62
     7
100
AcDbBlockReference
  2
SW_CENTERMARKSYMBOL_6
 10
414.6890383282448
 20
197.1988262092347
 30
0.0
 41
4.0
 42
4.0
 43
4.0
  0
LINE
  5
2C8C
330
1F
100
AcDbEntity
  8
APL_JOINERY
  6
CONTINUOUS
 62
     7
100
AcDbLine
 10
387.1890383282448
 20
257.1988262092347
 30
0.0
 11
442.1890383282447
 21
257.1988262092347
 31
0.0
  0
LINE
  5
2C8D
330
1F
100
AcDbEntity
  8
APL_NOTES
  6
CONTINUOUS
 62
     7
100
AcDbLine
 10
432.1890383282448
 20
364.3688262092347
 30
0.0
 11
397.1890383282448
 21
364.3688262092347
 31
0.0
  0
LINE
  5
2C90
330
1F
100
AcDbEntity
  8
APL_JOINERY
  6
CONTINUOUS
 62
     7
100
AcDbLine
 10
129.1896784459982
 20
135.6297583111372
 30
0.0
 11
129.1896784459982
 21
241.1297583111372
 31
0.0
  0
LINE
  5
2C91
330
1F
100
AcDbEntity
  8
APL_JOINERY
  6
CONTINUOUS
 62
     7
100
AcDbLine
 10
74.18967844599819
 20
135.6297583111372
 30
0.0
 11
74.18967844599819
 21
241.1297583111372
 31
0.0
  0
INSERT
  5
2C92
330
1F
100
AcDbEntity
  8
APL_JOINERY
  6
CONTINUOUS
 62
     7
100
AcDbBlockReference
  2
SW_CENTERMARKSYMBOL_3
 10
101.6896784459981
 20
198.1297583111372
 30
0.0
 41
4.0
 42
4.0
 43
4.0
  0
CIRCLE
  5
2C93
330
1F
100
AcDbEntity
  8
APL_JOINERY
  6
CONTINUOUS
 62
     7
100
AcDbCircle
 10
101.6896784459981
 20
138.1297583111372
 30
0.0
 40
14.99999999999997
  0
CIRCLE
  5
2C94
330
1F
100
AcDbEntity
  8
APL_JOINERY
  6
CONTINUOUS
 62
     7
100
AcDbCircle
 10
101.6896784459981
 20
138.1297583111372
 30
0.0
 40
6.499999999999971
  0
INSERT
  5
2C95
330
1F
100
AcDbEntity
  8
APL_JOINERY
  6
CONTINUOUS
 62
     7
100
AcDbBlockReference
  2
SW_CENTERMARKSYMBOL_2
 10
101.6896784459981
 20
138.1297583111372
 30
0.0
 41
4.0
 42
4.0
 43
4.0
  0
ARC
  5
2C96
330
1F
100
AcDbEntity
  8
APL_JOINERY
  6
CONTINUOUS
 62
     7
100
AcDbCircle
 10
101.6896784459981
 20
135.6297583111372
 30
0.0
 40
27.5000000000001
100
AcDbArc
 50
180.0
 51
0.0
  0
INSERT
  5
2C97
330
1F
100
AcDbEntity
  8
APL_JOINERY
  6
CONTINUOUS
 62
     7
100
AcDbBlockReference
  2
SW_CENTERMARKSYMBOL_1
 10
101.6896784459981
 20
135.6297583111372
 30
0.0
 41
4.0
 42
4.0
 43
4.0
  0
LINE
  5
2C98
330
1F
100
AcDbEntity
  8
APL_JOINERY
  6
CONTINUOUS
 62
     7
100
AcDbLine
 10
119.1896784459981
 20
365.2997583111373
 30
0.0
 11
119.1896784459981
 21
258.1297583111372
 31
0.0
  0
LINE
  5
2C99
330
1F
100
AcDbEntity
  8
APL_JOINERY
  6
CONTINUOUS
 62
     7
100
AcDbLine
 10
114.1896784459982
 20
365.2997583111373
 30
0.0
 11
114.1896784459982
 21
258.1297583111372
 31
0.0
  0
LINE
  5
2C9A
330
1F
100
AcDbEntity
  8
APL_JOINERY
  6
CONTINUOUS
 62
     7
100
AcDbLine
 10
84.18967844599819
 20
365.2997583111373
 30
0.0
 11
84.18967844599819
 21
258.1297583111372
 31
0.0
  0
LINE
  5
2C9B
330
1F
100
AcDbEntity
  8
APL_JOINERY
  6
CONTINUOUS
 62
     7
100
AcDbLine
 10
89.18967844599819
 20
365.2997583111373
 30
0.0
 11
89.18967844599819
 21
258.1297583111372
 31
0.0
  0
LINE
  5
2C9C
330
1F
100
AcDbEntity
  8
APL_JOINERY
  6
CONTINUOUS
 62
     7
100
AcDbLine
 10
129.1896784459982
 20
241.1297583111372
 30
0.0
 11
129.1896784459982
 21
258.1297583111372
 31
0.0
  0
LINE
  5
2C9D
330
1F
100
AcDbEntity
  8
APL_JOINERY
  6
CONTINUOUS
 62
     7
100
AcDbLine
 10
74.18967844599819
 20
241.1297583111372
 30
0.0
 11
74.18967844599819
 21
258.1297583111372
 31
0.0
  0
CIRCLE
  5
2C9E
330
1F
100
AcDbEntity
  8
APL_JOINERY
  6
CONTINUOUS
 62
     7
100
AcDbCircle
 10
101.6896784459981
 20
198.1297583111372
 30
0.0
 40
15.0
  0
CIRCLE
  5
2C9F
330
1F
100
AcDbEntity
  8
APL_JOINERY
  6
CONTINUOUS
 62
     7
100
AcDbCircle
 10
101.6896784459981
 20
198.1297583111372
 30
0.0
 40
6.499999999999971
  0
LINE
  5
2CA0
330
1F
100
AcDbEntity
  8
APL_JOINERY
  6
CONTINUOUS
 62
     7
100
AcDbLine
 10
74.18967844599819
 20
241.1297583111372
 30
0.0
 11
129.1896784459982
 21
241.1297583111372
 31
0.0
  0
LINE
  5
2CA1
330
1F
100
AcDbEntity
  8
APL_JOINERY
  6
CONTINUOUS
 62
     7
100
AcDbLine
 10
74.18967844599819
 20
258.1297583111372
 30
0.0
 11
129.1896784459982
 21
258.1297583111372
 31
0.0
  0
LINE
  5
2CA2
330
1F
100
AcDbEntity
  8
APL_NOTES
  6
CONTINUOUS
 62
     7
100
AcDbLine
 10
119.1896784459981
 20
365.2997583111373
 30
0.0
 11
84.18967844599819
 21
365.2997583111373
 31
0.0
  0
ARC
  5
2CA3
330
1F
100
AcDbEntity
  8
APL_JOINERY
  6
CONTINUOUS
 62
     7
100
AcDbCircle
 10
414.6890383282448
 20
134.6988262092347
 30
0.0
 40
27.5000000000001
100
AcDbArc
 50
180.0
 51
0.0
  0
LINE
  5
2CAB
330
1F
100
AcDbEntity
  8
APL_JOINERY
  6
CONTINUOUS
 62
     7
100
AcDbLine
 10
477.1599729168692
 20
134.6988262092347
 30
0.0
 11
493.1599729168692
 21
134.6988262092347
 31
0.0
  0
LWPOLYLINE
  5
301A
330
1F
100
AcDbEntity
  8
APL_JOINERY
 62
     3
100
AcDbPolyline
 90
        6
 70
     0
 43
0.0
 10
96.94578147779157
 20
768.7550571907842
 10
143.8654696178355
 20
768.7550571907842
 10
145.9758291707885
 20
774.972666694188
 10
148.6640606233077
 20
763.2866441847701
 10
150.2475228372131
 20
768.7550571907842
 10
200.4063907780118
 20
768.7550571907842
  0
LWPOLYLINE
  5
301F
330
1F
100
AcDbEntity
  8
APL_JOINERY
 62
     3
100
AcDbPolyline
 90
        6
 70
     0
 43
0.0
 10
419.2196258110403
 20
786.9910078679222
 10
466.1393139510842
 20
786.9910078679222
 10
468.2496735040373
 20
793.2086173713259
 10
470.9379049565564
 20
781.5225948619081
 10
472.5213671704619
 20
786.9910078679222
 10
522.6802351112605
 20
786.9910078679222
  0
VIEWPORT
  5
3E
102
{ACAD_XDICTIONARY
360
32D3
102
}
330
2B
100
AcDbEntity
 67
     1
  8
0
100
AcDbViewport
 10
99.91724538803097
 20
143.1184201240539
 30
0.0
 40
455.3207507657056
 41
301.3581251061481
 68
     1
 69
     1
1001
ACAD
1000
MVIEW
1002
{
1070
    16
1010
0.0
1020
0.0
1030
0.0
1010
0.0
1020
0.0
1030
1.0
1040
0.0
1040
301.3581251061481
1040
99.91724538803097
1040
143.1184201240539
1040
50.0
1040
0.0
1040
0.0
1070
     0
1070
   100
1070
     1
1070
     1
1070
     0
1070
     0
1070
     0
1070
     0
1040
0.0
1040
0.0
1040
0.0
1040
10.0
1040
10.0
1040
10.0
1040
10.0
1070
     0
1002
{
1002
}
1002
}
  0
VIEWPORT
  5
40
102
{ACAD_XDICTIONARY
360
32D5
102
}
330
2B
100
AcDbEntity
 67
     1
  8
0
100
AcDbViewport
 10
100.595
 20
130.7733333333333
 30
0.0
 40
178.0
 41
241.1666666666666
 68
     2
 69
     2
1001
ACAD
1000
MVIEW
1002
{
1070
    16
1010
0.0
1020
0.0
1030
0.0
1010
0.0
1020
0.0
1030
1.0
1040
0.0
1040
964.6666665482173
1040
358.6566837905879
1040
478.524469512188
1040
50.0
1040
0.0
1040
0.0
1070
     0
1070
   100
1070
     1
1070
     3
1070
     0
1070
     0
1070
     0
1070
     0
1040
0.0
1040
0.0
1040
0.0
1040
10.0
1040
10.0
1040
10.0
1040
10.0
1070
     0
1002
{
1002
}
1002
}
  0
INSERT
  5
56
330
2B
100
AcDbEntity
 67
     1
  8
APL_BORDER
100
AcDbBlockReference
  2
FIRS
 10
0.0
 20
0.0
 30
0.0
  0
INSERT
  5
2E72
330
2B
100
AcDbEntity
 67
     1
  8
APL_BORDER
  6
CONTINUOUS
 62
     7
100
AcDbBlockReference
 66
     1
  2
FIRST_A4_SM_ATTRIBUTES__2_
 10
0.0
 20
0.0
 30
0.0
  0
ATTRIB
  5
2E74
330
2E72
100
AcDbEntity
 67
     1
  8
APL_BORDER
100
AcDbText
 10
58.59500000000003
 20
263.3566666666666
 30
0.0
 40
3.0
  1
F900RS PROFILE BALUSTRADE
  7
ARIAL-BOLD
100
AcDbAttribute
  2
DRAWINGTITLE_1
 70
     0
  0
ATTRIB
  5
2E75
330
2E72
100
AcDbEntity
 67
     1
  8
APL_BORDER
100
AcDbText
 10
58.59500000000003
 20
257.3566666666666
 30
0.0
 40
3.0
  1
POST FOOTING OPTIONS
  7
ARIAL-BOLD
100
AcDbAttribute
  2
DRAWINGTITLE_2
 70
     0
  0
ATTRIB
  5
2E76
330
2E72
100
AcDbEntity
 67
     1
  8
APL_BORDER
100
AcDbText
 10
31.59500000000003
 20
263.3566666666665
 30
0.0
 40
2.5
  1
FPBA09-0
  7
ARIAL-REGULAR
100
AcDbAttribute
  2
AW123-456
 70
     0
  0
ATTRIB
  5
2E77
330
2E72
100
AcDbEntity
 67
     1
  8
APL_BORDER
100
AcDbText
 10
67.59499999999997
 20
251.8566666666665
 30
0.0
 40
2.5
  1
01.11.09
  7
ARIAL-REGULAR
100
AcDbAttribute
  2
20.09.02
 70
     0
  0
ATTRIB
  5
2E78
330
2E72
100
AcDbEntity
 67
     1
  8
APL_BORDER
100
AcDbText
 10
97.09499999999998
 20
251.8566666666665
 30
0.0
 40
2.5
  1
1:4
  7
ARIAL-REGULAR
100
AcDbAttribute
  2
1:2
 70
     0
  0
ATTRIB
  5
2E79
330
2E72
100
AcDbEntity
 67
     1
  8
APL_BORDER
100
AcDbText
 10
11.59500000000001
 20
1.189999999999997
 30
0.0
 40
4.0
  1

  7
ARIAL-BOLD
100
AcDbAttribute
  2
1.2.34
 70
     0
  0
ATTRIB
  5
2E7A
330
2E72
100
AcDbEntity
 67
     1
  8
APL_BORDER
100
AcDbText
 10
189.595
 20
1.190000000000007
 30
0.0
 40
4.0
  1

  7
ARIAL-BOLD
 72
     2
 11
189.595
 21
1.190000000000007
 31
0.0
100
AcDbAttribute
  2
1.2.34
 70
     0
  0
SEQEND
  5
2E73
330
2E72
100
AcDbEntity
 67
     1
  8
APL_BORDER
  6
CONTINUOUS
 62
     7
  0
ENDSEC
  0
SECTION
  2
OBJECTS
  0
DICTIONARY
  5
C
330
0
100
AcDbDictionary
  3
ACAD_COLOR
350
2AF6
  3
ACAD_GROUP
350
D
  3
ACAD_LAYOUT
350
1A
  3
ACAD_MATERIAL
350
2AF5
  3
ACAD_MLEADERSTYLE
350
2D0B
  3
ACAD_MLINESTYLE
350
17
  3
ACAD_PLOTSETTINGS
350
19
  3
ACAD_PLOTSTYLENAME
350
E
  3
ACAD_SCALELIST
350
2CE9
  3
ACAD_TABLESTYLE
350
2AF7
  3
ACAD_VISUALSTYLE
350
2CD8
  3
ACDB_RECOMPOSE_DATA
350
2F2D
  3
ACDBHEADERROUNDTRIPXREC
350
330A
  3
ACDBVARIABLEDICTIONARY
350
6D
  3
DWGPROPS
350
32FD
  0
DICTIONARY
  5
2F2F
330
8
100
AcDbDictionary
280
     1
  3
ACAD_XREC_ROUNDTRIP
360
32CE
  0
DICTIONARY
  5
A4F
330
2
100
AcDbDictionary
280
     1
  3
ACAD_LAYERFILTERS
360
A50
  3
ACAD_LAYERSTATES
360
C9F
  0
DICTIONARY
  5
2D43
330
10
100
AcDbDictionary
280
     1
  3
ACAD_XREC_ROUNDTRIP
360
32CF
  3
ADSK_XREC_LAYER_RECONCILED
360
2D44
  0
DICTIONARY
  5
2D45
330
41
100
AcDbDictionary
280
     1
  3
ACAD_XREC_ROUNDTRIP
360
32D7
  3
ADSK_XREC_LAYER_RECONCILED
360
2D46
  0
DICTIONARY
  5
2D47
330
42
100
AcDbDictionary
280
     1
  3
ACAD_XREC_ROUNDTRIP
360
32D8
  3
ADSK_XREC_LAYER_RECONCILED
360
2D48
  0
DICTIONARY
  5
2D49
330
11C
100
AcDbDictionary
280
     1
  3
ACAD_XREC_ROUNDTRIP
360
32D9
  3
ADSK_XREC_LAYER_RECONCILED
360
2D4A
  0
DICTIONARY
  5
32DA
330
965
100
AcDbDictionary
280
     1
  3
ACAD_XREC_ROUNDTRIP
360
32DB
  0
DICTIONARY
  5
2D4B
330
2C4D
100
AcDbDictionary
280
     1
  3
ACAD_XREC_ROUNDTRIP
360
32E7
  3
ADSK_XREC_LAYER_RECONCILED
360
2D4C
  0
DICTIONARY
  5
2D55
330
2C52
100
AcDbDictionary
280
     1
  3
ACAD_XREC_ROUNDTRIP
360
32EA
  3
ADSK_XREC_LAYER_RECONCILED
360
2D56
  0
DICTIONARY
  5
2D57
330
2C53
100
AcDbDictionary
280
     1
  3
ACAD_XREC_ROUNDTRIP
360
32EB
  3
ADSK_XREC_LAYER_RECONCILED
360
2D58
  0
DICTIONARY
  5
2D59
330
2C54
100
AcDbDictionary
280
     1
  3
ACAD_XREC_ROUNDTRIP
360
32EC
  3
ADSK_XREC_LAYER_RECONCILED
360
2D5A
  0
DICTIONARY
  5
2D5B
330
2C55
100
AcDbDictionary
280
     1
  3
ACAD_XREC_ROUNDTRIP
360
32ED
  3
ADSK_XREC_LAYER_RECONCILED
360
2D5C
  0
DICTIONARY
  5
2D5D
330
2C56
100
AcDbDictionary
280
     1
  3
ACAD_XREC_ROUNDTRIP
360
32EE
  3
ADSK_XREC_LAYER_RECONCILED
360
2D5E
  0
DICTIONARY
  5
2D5F
330
2C57
100
AcDbDictionary
280
     1
  3
ACAD_XREC_ROUNDTRIP
360
32EF
  3
ADSK_XREC_LAYER_RECONCILED
360
2D60
  0
DICTIONARY
  5
2C8E
330
1F
100
AcDbDictionary
280
     1
  3
ACAD_LAYOUTSELFREF
360
332A
  3
ACAD_SORTENTS
360
2C8F
  0
DICTIONARY
  5
332B
330
2B
100
AcDbDictionary
280
     1
  3
ACAD_LAYOUTSELFREF
360
332C
  0
DICTIONARY
  5
332D
330
52
100
AcDbDictionary
280
     1
  3
ACAD_BLKREFS
360
332E
  0
DICTIONARY
  5
332F
330
1D30
100
AcDbDictionary
280
     1
  3
ACAD_BLKREFS
360
3330
  0
DICTIONARY
  5
3331
330
1D36
100
AcDbDictionary
280
     1
  3
ACAD_BLKREFS
360
3332
  0
DICTIONARY
  5
3333
330
1D3C
100
AcDbDictionary
280
     1
  3
ACAD_BLKREFS
360
3334
  0
DICTIONARY
  5
2E6E
330
2E66
100
AcDbDictionary
280
     1
  3
ACAD_SORTENTS
360
2E6F
  0
DICTIONARY
  5
23D7
330
23D6
100
AcDbDictionary
280
     1
  3
ACAD_DIMASSOC
360
23D8
  0
DICTIONARY
  5
2676
330
2669
100
AcDbDictionary
280
     1
  3
ACAD_DIMASSOC
360
2680
  0
DICTIONARY
  5
32D3
330
3E
100
AcDbDictionary
280
     1
  3
ACAD_XREC_ROUNDTRIP
360
32D4
  0
DICTIONARY
  5
32D5
330
40
100
AcDbDictionary
280
     1
  3
ACAD_XREC_ROUNDTRIP
360
32D6
  0
DICTIONARY
  5
2AF6
102
{ACAD_REACTORS
330
C
102
}
330
C
100
AcDbDictionary
  0
DICTIONARY
  5
D
102
{ACAD_REACTORS
330
C
102
}
330
C
100
AcDbDictionary
  3
*A1
350
C3
  3
*A2
350
8E7
  3
*A3
350
94F
  3
*A4
350
950
  0
DICTIONARY
  5
1A
102
{ACAD_REACTORS
330
C
102
}
330
C
100
AcDbDictionary
  0
DICTIONARY
  5
2AF5
102
{ACAD_REACTORS
330
C
102
}
330
C
100
AcDbDictionary
  3
BYBLOCK
350
2CC8
  3
BYLAYER
350
2CC0
  3
GLOBAL
350
2CD0
  0
DICTIONARY
  5
2D0B
102
{ACAD_REACTORS
330
C
102
}
330
C
100
AcDbDictionary
  3
STANDARD
350
2E1B
  0
DICTIONARY
  5
17
102
{ACAD_REACTORS
330
C
102
}
330
C
100
AcDbDictionary
  3
STANDARD
350
18
  0
DICTIONARY
  5
19
102
{ACAD_REACTORS
330
C
102
}
330
C
100
AcDbDictionary
  0
ACDBDICTIONARYWDFLT
  5
E
102
{ACAD_REACTORS
330
C
102
}
330
C
100
AcDbDictionary
281
     1
  3
Normal
350
F
100
AcDbDictionaryWithDefault
340
F
  0
DICTIONARY
  5
2CE9
102
{ACAD_REACTORS
330
C
102
}
330
C
100
AcDbDictionary
  3
A0
350
2CEA
  3
A1
350
2CEB
  3
A2
350
2CEC
  3
A3
350
2CED
  3
A4
350
2CEE
  3
A5
350
2CEF
  3
A6
350
2CF0
  3
A7
350
2CF1
  3
A8
350
2CF2
  3
A9
350
2CF3
  3
B0
350
2CF4
  3
B1
350
2CF5
  3
B2
350
2CF6
  3
B3
350
2CF7
  3
B4
350
2CF8
  3
B5
350
2CF9
  3
B6
350
2CFA
  3
B7
350
2CFB
  3
B8
350
2CFC
  3
B9
350
2CFD
  3
C0
350
2CFE
  3
C1
350
2CFF
  3
C2
350
2D00
  3
C3
350
2D01
  3
C4
350
2D02
  3
C5
350
2D03
  3
C6
350
2D04
  3
C7
350
2D05
  3
C8
350
2D06
  3
C9
350
2D07
  3
D0
350
2D08
  3
D1
350
2D09
  3
D2
350
2D0A
  0
DICTIONARY
  5
2AF7
102
{ACAD_REACTORS
330
C
102
}
330
C
100
AcDbDictionary
  3
STANDARD
350
2AF8
  0
DICTIONARY
  5
2CD8
102
{ACAD_REACTORS
330
C
102
}
330
C
100
AcDbDictionary
  3
2DWIREFRAME
350
2CDE
  3
3D_HIDDEN
350
2CE0
  3
3DWIREFRAME
350
2CDF
  3
BASIC
350
2CDD
  3
BRIGHTEN
350
2CE4
  3
COLORCHANGE
350
2CE8
  3
CONCEPTUAL
350
2CE1
  3
DIM
350
2CE3
  3
FACEPATTERN
350
2CE7
  3
FLAT
350
2CD9
  3
FLATWITHEDGES
350
2CDA
  3
GOURAUD
350
2CDB
  3
GOURAUDWITHEDGES
350
2CDC
  3
LINEPATTERN
350
2CE6
  3
REALISTIC
350
2CE2
  3
THICKEN
350
2CE5
  0
XRECORD
  5
2F2D
102
{ACAD_REACTORS
330
C
102
}
330
C
100
AcDbXrecord
 90
        1
330
2AF8
  0
DICTIONARY
  5
330A
102
{ACAD_REACTORS
330
C
102
}
330
C
100
AcDbDictionary
  3
CEPSNTYPE
350
3314
  3
FINGERPRINTGUID
350
3315
  3
HYPERLINKBASE
350
330D
  3
INSUNITS
350
3313
  3
LAYOUTDICT
350
330F
  3
LWETCUNION
350
3312
  3
PLOTSETDICT
350
3310
  3
PLOTSTYLNAMDICT
350
3311
  3
PSVPSCALE
350
3317
  3
PUCSBASE
350
331A
  3
PUCSORGBACK
350
3320
  3
PUCSORGBOTTOM
350
331C
  3
PUCSORGFRONT
350
331F
  3
PUCSORGLEFT
350
331D
  3
PUCSORGRIGHT
350
331E
  3
PUCSORGTOP
350
331B
  3
PUCSORTHOREF
350
3318
  3
PUCSORTHOVIEW
350
3319
  3
STYLESHEET
350
330E
  3
TSTACKALIGN
350
330B
  3
TSTACKSIZE
350
330C
  3
UCSBASE
350
3323
  3
UCSORGBACK
350
3329
  3
UCSORGBOTTOM
350
3325
  3
UCSORGFRONT
350
3328
  3
UCSORGLEFT
350
3326
  3
UCSORGRIGHT
350
3327
  3
UCSORGTOP
350
3324
  3
UCSORTHOREF
350
3321
  3
UCSORTHOVIEW
350
3322
  3
VERSIONGUID
350
3316
  0
DICTIONARY
  5
6D
102
{ACAD_REACTORS
330
C
102
}
330
C
100
AcDbDictionary
  3
CANNOSCALE
350
2F57
  3
CMLEADERSTYLE
350
3003
  3
CTABLESTYLE
350
2B18
  3
DIMASSOC
350
6F
  3
HIDETEXT
350
6E
  3
INDEXCTL
350
2F59
  3
PROJECTNAME
350
2B19
  3
SORTENTS
350
2F58
  0
XRECORD
  5
32FD
102
{ACAD_REACTORS
330
C
102
}
330
C
100
AcDbXrecord
  1
DWGPROPS COOKIE
  2

  3

  4

  6

  7

  8
homer
  9

300
=
301
=
302
=
303
=
304
=
305
=
306
=
307
=
308
=
309
=
 40
1.281137581018518
 41
2452682.378968784
 42
2455226.661690312
  1

 90
        0
  0
XRECORD
  5
32CE
102
{ACAD_REACTORS
330
2F2F
102
}
330
2F2F
100
AcDbXrecord
102
VTR_0.000_0.000_1.000_1.000_VISUALSTYLE
340
2CDE
102
VTR_0.000_0.000_1.000_1.000_GRIDDISPLAY
 70
     3
102
VTR_0.000_0.000_1.000_1.000_GRIDMAJOR
 70
     5
102
VTR_0.000_0.000_1.000_1.000_DEFAULTLIGHTING
280
     1
102
VTR_0.000_0.000_1.000_1.000_DEFAULTLIGHTINGTYPE
 70
     1
102
VTR_0.000_0.000_1.000_1.000_BRIGHTNESS
141
0.0
102
VTR_0.000_0.000_1.000_1.000_CONTRAST
142
0.0
  0
DICTIONARY
  5
A50
102
{ACAD_REACTORS
330
A4F
102
}
330
A4F
100
AcDbDictionary
280
     1
  3
$0$
360
A51
  3
-100
360
A52
  3
-DEMO
360
A53
  3
0-_LAYERS
360
A54
  3
00-DIMS
360
A56
  3
00-GRD
360
A57
  3
005
360
A58
  3
010
360
A59
  3
018
360
A5A
  3
025
360
A5B
  3
035
360
A5C
  3
050
360
A5D
  3
070
360
A5E
  3
08
360
A5F
  3
09
360
A60
  3
0_0M_LEVEL
360
A55
  3
1
360
A61
  3
10
360
A63
  3
100
360
A64
  3
100S
360
A65
  3
100TEXT
360
A66
  3
12_0M_LEVEL
360
A67
  3
15
360
A68
  3
166
360
A69
  3
17
360
A6A
  3
18
360
A6B
  3
1_0
360
A62
  3
1ST
360
A6C
  3
1STFLOOR
360
A6D
  3
2
360
A6E
  3
2-_LAYERS
360
A6F
  3
20-COL
360
A72
  3
20COL
360
A73
  3
22
360
A74
  3
25
360
A75
  3
250
360
A76
  3
250_ON
360
A77
  3
250TEXT
360
A78
  3
2_0
360
A70
  3
2_6M_LEVEL
360
A71
  3
2NDFLOOR
360
A79
  3
3
360
A7A
  3
35
360
A7B
  3
35-TXT
360
A7C
  3
37
360
A7D
  3
3D
360
A7E
  3
3D_LAYERS
360
A7F
  3
3DSTUFF
360
A80
  3
4
360
A81
  3
44
360
A84
  3
44-MCAFE
360
A85
  3
44MCAFE
360
A86
  3
4_0M_LEVEL
360
A82
  3
4_6M_LEVEL
360
A83
  3
5
360
A87
  3
50
360
A89
  3
57
360
A8A
  3
5_1M_LEVEL
360
A88
  3
6
360
A8B
  3
61
360
A8C
  3
610
360
A8D
  3
63
360
A8E
  3
70
360
A8F
  3
72
360
A90
  3
72-MCAFE
360
A91
  3
8
360
A92
  3
8-
360
A93
  3
84
360
A96
  3
8_0M_LEVEL
360
A94
  3
8_6M_LEVEL
360
A95
  3
8M_LEVEL
360
A97
  3
9
360
A98
  3
A
360
A99
  3
A-_ARCH_LAYERS
360
A9A
  3
A-ELVPREDET
360
A9B
  3
A-FLOR
360
A9C
  3
A0-EXTG
360
A9D
  3
A00
360
A9E
  3
A06
360
A9F
  3
A06P00L0
360
AA0
  3
A06POOLO
360
AA1
  3
A1-NEW
360
AA2
  3
A2-MEZZ
360
AA3
  3
A3-ROOF
360
AA4
  3
A4-DEMO
360
AA5
  3
ADF
360
AA6
  3
AK_0NLY
360
AA7
  3
ALL
360
AA8
  3
ALL_FROZEN
360
AA9
  3
ALL_NON_XREF_LAYERS
360
AAA
  3
AMENDMENTS
360
AAB
  3
ANCHORS
360
AAC
  3
AQ
360
AAD
  3
AQ-
360
AAE
  3
ARCH
360
AAF
  3
ARCHITECTURAL
360
AB0
  3
AREA
360
AB1
  3
AREAS
360
AB2
  3
ARR
360
AB3
  3
ASD
360
AB4
  3
AZ
360
AB5
  3
B
360
AB6
  3
BAG
360
AB7
  3
BAG-DUST
360
AB8
  3
BAL
360
AB9
  3
BASE
360
ABA
  3
BASE_PLAN_XREF
360
ABB
  3
BASEMENT
360
ABC
  3
BCHF
360
ABD
  3
BDY
360
ABE
  3
BEAMS
360
ABF
  3
BLA
360
AC0
  3
BLOCK
360
AC1
  3
BLUE
360
AC2
  3
BORDERS
360
AC3
  3
BOUNDARYS
360
AC4
  3
BOUNDRY
360
AC5
  3
BREWING_WATER
360
AC6
  3
BUILDING_TWIST
360
AC7
  3
BUILDINGS
360
AC8
  3
BUILDINGS_00
360
AC9
  3
C
360
ACA
  3
C5
360
ACB
  3
C6
360
ACC
  3
C7
360
ACD
  3
CAL
360
ACE
  3
CANOPY
360
ACF
  3
CC
360
AD0
  3
CD
360
AD1
  3
CD-HT
360
AD2
  3
CEIL
360
AD3
  3
CEILING
360
AD4
  3
CEILING_BULKHEAD
360
AD5
  3
CENTER
360
AD6
  3
CENTRE
360
AD7
  3
CENTROID
360
AD8
  3
CIP-R
360
AD9
  3
CIP-S
360
ADA
  3
CIP-S_-R
360
ADB
  3
CIVIL
360
ADC
  3
CIVIL_GF_BASE
360
ADD
  3
CL
360
ADE
  3
CLG
360
ADF
  3
CODES
360
AE0
  3
COL
360
AE1
  3
COL8
360
AE2
  3
COLD_WATER
360
AE3
  3
COLOR2
360
AE4
  3
COLOR8
360
AE5
  3
COLOR90
360
AE6
  3
COLORMEGEN
360
AE7
  3
COLOUR
360
AE8
  3
COLOUR_11
360
AE9
  3
COLS
360
AEA
  3
COLUMNS
360
AEB
  3
COMBO
360
AEC
  3
CONC
360
AED
  3
CONCRETE_DETAILS
360
AEE
  3
CONTINOUS
360
AEF
  3
CONTOUR
360
AF0
  3
CONTOURS1
360
AF1
  3
CONTS
360
AF2
  3
COVERAGE
360
AF3
  3
CUBICAL
360
AF4
  3
CUR-FROZ
360
AF6
  3
CUR-FROZEN
360
AF7
  3
CUR_FROZEN
360
AF5
  3
CURRENT
360
AF8
  3
CUTOUTS___HOLES
360
AF9
  3
CYAN
360
AFA
  3
D
360
AFB
  3
D34
360
AFC
  3
DASHDOT
360
AFD
  3
DATE
360
AFE
  3
DD
360
AFF
  3
DEF
360
B00
  3
DEFAULT
360
B01
  3
DEFPOINT
360
B02
  3
DEM
360
B03
  3
DEMO
360
B04
  3
DEMOLITION
360
B05
  3
DES
360
B06
  3
DESIG
360
B07
  3
DESIGN
360
B08
  3
DET
360
B09
  3
DET1
360
B0A
  3
DETAIL
360
B0B
  3
DETAIL_Z
360
B0C
  3
DETAILS
360
B0D
  3
DIFFUSER
360
B0E
  3
DIM
360
B0F
  3
DIM-TEXT
360
B10
  3
DIMENSION_LAYERS
360
B11
  3
DIMENSIONS
360
B12
  3
DIMS
360
B13
  3
DIMTEXT
360
B14
  3
DOOR
360
B15
  3
DOROUTLX
360
B16
  3
DP
360
B17
  3
DRAINAGE
360
B18
  3
DRAINS
360
B19
  3
DRAWING_02_04
360
B1A
  3
DUCT30
360
B1B
  3
DUST-COLLECTOR
360
B1C
  3
EDG
360
B1D
  3
ELEC
360
B1E
  3
ELECT
360
B1F
  3
ELECTRICAL
360
B20
  3
ELEV
360
B21
  3
ELEVATION
360
B22
  3
ELEVATIONS
360
B23
  3
EQ
360
B24
  3
EQU
360
B25
  3
EW
360
B26
  3
EX
360
B27
  3
EXISTING
360
B28
  3
EXISTING___REMOVED
360
B29
  3
EXP
360
B2A
  3
EXTG
360
B2B
  3
EXTG-_
360
B2C
  3
F1-AREA
360
B2D
  3
FARM
360
B2E
  3
FENCE
360
B2F
  3
FENCES
360
B30
  3
FIC
360
B31
  3
FILL
360
B32
  3
FIN
360
B33
  3
FIRE
360
B34
  3
FIRST_FLOOR
360
B36
  3
FIRST_FLOOR0
360
B35
  3
FIX
360
B37
  3
FLOOR
360
B38
  3
FLOOR_FINISHES
360
B39
  3
FLOOR_LOADINGS
360
B3A
  3
FLOOR_TILES
360
B3B
  3
FLOOR_WASTE
360
B3C
  3
FLOORFIN
360
B3D
  3
FOOTING
360
B3E
  3
FR
360
B3F
  3
FREEZE
360
B40
  3
FREEZER
360
B41
  3
FREZ
360
B42
  3
FRO
360
B43
  3
FROZ
360
B44
  3
FROZEN
360
B45
  3
FROZEN___ON
360
B46
  3
FROZEN_IN_VPORT
360
B47
  3
FROZEN_LAYERS
360
B48
  3
FROZEN_LAYERS_-CURRENT_VIEWPORT
360
B49
  3
FROZEN_ON
360
B4B
  3
FROZEN_ONLY
360
B4A
  3
FS
360
B4C
  3
FSW
360
B4D
  3
FURN
360
B4E
  3
FURNITURE
360
B4F
  3
FUTURE
360
B50
  3
G
360
B51
  3
G00P00L1
360
B52
  3
GARDEN
360
B53
  3
GENERAL
360
B54
  3
GFA
360
B55
  3
GOOP
360
B56
  3
GP1
360
B57
  3
GP2
360
B58
  3
GP3
360
B59
  3
GP4
360
B5A
  3
GP5
360
B5B
  3
GP6
360
B5C
  3
GP7
360
B5D
  3
GRAPHICAL
360
B5E
  3
GREEN
360
B5F
  3
GRID
360
B60
  3
GRIDS
360
B61
  3
GROUND
360
B62
  3
GROUND_FLOOR
360
B63
  3
GROUNGFLOOR
360
B64
  3
H
360
B65
  3
HA
360
B66
  3
HAND
360
B67
  3
HATCH
360
B68
  3
HATCH_BOUNDARIES
360
B69
  3
HB
360
B6A
  3
HEAVY-LINES
360
B6B
  3
HIDDEN
360
B6C
  3
HIGH
360
B6D
  3
HOLES
360
B6E
  3
HOT_WATER
360
B6F
  3
HYDRANT
360
B70
  3
IAN
360
B71
  3
IL
360
B72
  3
IN_USE
360
B73
  3
INSUL
360
B74
  3
INTWALL
360
B75
  3
JAMES
360
B76
  3
JOINERY
360
B77
  3
KEG
360
B78
  3
KERB
360
B79
  3
KEY
360
B7A
  3
KEY_PLAN
360
B7B
  3
KITCHEN
360
B7C
  3
KP
360
B7D
  3
L
360
B7E
  3
L0
360
B7F
  3
L1
360
B80
  3
L2
360
B81
  3
L3
360
B82
  3
L4
360
B83
  3
L_
360
B84
  3
L_02_04
360
B85
  3
LABEL
360
B86
  3
LABLUE
360
B87
  3
LADDER
360
B88
  3
LAGREEN
360
B89
  3
LANA
360
B8A
  3
LANGLEY
360
B8B
  3
LAP_RING
360
B8C
  3
LARED
360
B8D
  3
LAY
360
B8E
  3
LAYER_ON_ONLY
360
B8F
  3
LAYOUT
360
B90
  3
LEADER
360
B91
  3
LEVEL00
360
B9F
  3
LEVEL01
360
BA0
  3
LEVEL_0
360
B92
  3
LEVEL_1
360
B93
  3
LEVEL_10
360
B94
  3
LEVEL_1A
360
B95
  3
LEVEL_2
360
B96
  3
LEVEL_3
360
B97
  3
LEVEL_4
360
B98
  3
LEVEL_4-11
360
B99
  3
LEVEL_5
360
B9A
  3
LEVEL_6
360
B9B
  3
LEVEL_6A
360
B9C
  3
LEVEL_7
360
B9D
  3
LEVEL_8
360
B9E
  3
LEVELS
360
BA1
  3
LIGHT
360
BA2
  3
LIGHT-LINES
360
BA3
  3
LIGHTING
360
BA4
  3
LIGHTS
360
BA5
  3
LMAN101
360
BA6
  3
LOCKED
360
BA7
  3
LOCKER
360
BA8
  3
LOT
360
BA9
  3
LOW
360
BAA
  3
M_
360
BAB
  3
MAGENTA
360
BAC
  3
MARK
360
BAD
  3
MBLDRAIN
360
BAE
  3
MECH
360
BAF
  3
MECH0
360
BB0
  3
MECH1
360
BB1
  3
MECH2
360
BB2
  3
MECH3
360
BB3
  3
MED-LINES
360
BB4
  3
MER
360
BB5
  3
MEZZ
360
BB6
  3
MEZZANINE
360
BB7
  3
MILL
360
BB8
  3
MLAYER
360
BB9
  3
MODEL_SPACE
360
BBA
  3
MOVE
360
BBB
  3
MY
360
BBC
  3
N
360
BBD
  3
N_
360
BBE
  3
NAME
360
BBF
  3
NEW
360
BC0
  3
NEW_LAYERS
360
BC1
  3
NEW_WORK
360
BC2
  3
NEWCULVERT
360
BC3
  3
NO_XREF
360
BC4
  3
NONXREF
360
BC5
  3
NORTH
360
BC6
  3
NOTC7
360
BC7
  3
NOTE
360
BC8
  3
NOTES
360
BC9
  3
NOTXREF
360
BCA
  3
OFF
360
BCB
  3
OFF___F
360
BCC
  3
OFF_LAYERS
360
BCD
  3
OFFICE
360
BCE
  3
OFFICE-CARPARK
360
BCF
  3
ON
360
BD0
  3
ONE
360
BD1
  3
ONLY
360
BD2
  3
OPTION_1
360
BD5
  3
OPTION_10
360
BD3
  3
OPTION_2
360
BD6
  3
OPTION_20
360
BD4
  3
OUT1
360
BD7
  3
OUTLINE
360
BD8
  3
OVR
360
BD9
  3
P0
360
BDA
  3
P1
360
BDB
  3
P2
360
BDC
  3
P3
360
BDD
  3
P4
360
BDE
  3
P7
360
BDF
  3
PACKAGING
360
BE0
  3
PAPERSPACE
360
BE1
  3
PARKING
360
BE2
  3
PATHS
360
BE3
  3
PATT
360
BE4
  3
PAVING
360
BE5
  3
PD_CLARKE
360
BE6
  3
PEN
360
BE7
  3
PENETRATIONS
360
BE8
  3
PENETRATIONS_DWG
360
BE9
  3
PFD
360
BEA
  3
PHANTOM
360
BEB
  3
PICTORIAL
360
BEC
  3
PIPE
360
BED
  3
PIPE_RACK
360
BEE
  3
PIPES
360
BEF
  3
PIPES1
360
BF0
  3
PIPING
360
BF1
  3
PLAN
360
BF2
  3
PLANS
360
BF3
  3
PLANT
360
BF4
  3
PLATES
360
BF5
  3
PLATS
360
BF6
  3
PLD
360
BF7
  3
PLOT
360
BF8
  3
PLUMB
360
BF9
  3
PLUMBING
360
BFA
  3
POD
360
BFB
  3
POOL
360
BFC
  3
PRA1
360
BFD
  3
PRESSTOOL
360
BFE
  3
PROCESSDEVELOPMENTS
360
BFF
  3
PROJECT-A
360
C02
  3
PROJECT-B
360
C03
  3
PROJECT__ALL_
360
C00
  3
PROJECT__NO_XREF_
360
C01
  3
PROPOSED
360
C04
  3
PROPSW
360
C05
  3
PROSTEEL_LAYERS
360
C06
  3
PS-LAYERS
360
C07
  3
R
360
C08
  3
RACK
360
C09
  3
RACKING
360
C0A
  3
RAIL
360
C0B
  3
RCP
360
C0C
  3
RED
360
C0D
  3
REDDASH
360
C0E
  3
REDUNDANT
360
C0F
  3
REDUNDANT_DRAINS
360
C10
  3
REF
360
C11
  3
REMOVED
360
C12
  3
RETAINED
360
C13
  3
RETAINING_WALL
360
C14
  3
REVISION
360
C15
  3
RMTAGS
360
C16
  3
ROAD
360
C17
  3
ROCUT
360
C18
  3
ROOF
360
C19
  3
ROOF_LEVEL
360
C1A
  3
ROOM
360
C1B
  3
S2
360
C1D
  3
S200_ONLY
360
C1F
  3
S24_L0
360
C20
  3
S2_ONLY
360
C1E
  3
S_ONLY
360
C1C
  3
SANITARY_SEWER
360
C21
  3
SCALE10
360
C22
  3
SCALE20
360
C23
  3
SCALE25
360
C24
  3
SCALE50
360
C25
  3
SCW
360
C26
  3
SD
360
C27
  3
SECTION
360
C28
  3
SELECTED_ON
360
C29
  3
SERVICES
360
C2A
  3
SERVICES-L1
360
C2B
  3
SERVICES-L2
360
C2C
  3
SETOUT
360
C2D
  3
SHADE
360
C2E
  3
SHADOW
360
C2F
  3
SHIT1
360
C30
  3
SHOW_ALL_FROZEN_LAYERS
360
C31
  3
SHOW_ALL_NON_XREF_LAYERS
360
C32
  3
SHOW_ALL_ON
360
C33
  3
SHOW_ALL_ON_THAWED_LAYERS
360
C34
  3
SHOW_ALL_THAWED_LAYERS
360
C35
  3
SHOW_ALL_THAWED_NO_XREF
360
C36
  3
SHOW_NO_XREF_LAYERS
360
C37
  3
SHW
360
C38
  3
SITE_GATE
360
C39
  3
SITE_SERVICES
360
C3A
  3
SITEBDY
360
C3B
  3
SITERD
360
C3C
  3
SITROAD
360
C3D
  3
SOL
360
C3E
  3
SOLIDS
360
C3F
  3
SONLY
360
C40
  3
SPACE
360
C41
  3
SPACE-050
360
C42
  3
SPECKERS
360
C43
  3
SS
360
C44
  3
STAGE
360
C45
  3
STAGES
360
C46
  3
STAIR
360
C47
  3
STEEL
360
C48
  3
STEEL_DETAILS
360
C49
  3
STEP-1
360
C4A
  3
STEP-5
360
C4B
  3
STORAGE
360
C4C
  3
STREET
360
C4D
  3
STRUCT
360
C4E
  3
STUART
360
C4F
  3
SV-
360
C50
  3
SV-STEAM
360
C51
  3
SW
360
C52
  3
SYRUP_PLANT
360
C53
  3
T25
360
C54
  3
T35
360
C55
  3
TANK
360
C56
  3
TED
360
C57
  3
TEMP
360
C58
  3
TENANCY
360
C59
  3
TEST
360
C5A
  3
TEXT
360
C5B
  3
TEXT500
360
C5E
  3
TEXT___DIMS
360
C5C
  3
TEXT_DIMS
360
C5D
  3
THAW
360
C5F
  3
THAWED
360
C60
  3
THAWED_OFF
360
C61
  3
THRES
360
C62
  3
TIC
360
C63
  3
TILE
360
C64
  3
TILES
360
C65
  3
TILT
360
C66
  3
TIP
360
C67
  3
TIP_DIE
360
C68
  3
TONE
360
C69
  3
TR
360
C6A
  3
TRANSITION
360
C6B
  3
TREAD
360
C6C
  3
TREE_LAYERS
360
C6D
  3
TRENCH
360
C6E
  3
TRUCK
360
C6F
  3
TWEEKER
360
C70
  3
TX
360
C71
  3
TXT
360
C72
  3
U
360
C73
  3
UCS
360
C74
  3
URS
360
C75
  3
V01
360
C76
  3
V02
360
C77
  3
V03
360
C78
  3
V04
360
C79
  3
VINC
360
C7A
  3
VOID
360
C7B
  3
WAITAKERE
360
C7C
  3
WALK
360
C7D
  3
WALKWAY
360
C7E
  3
WALL
360
C7F
  3
WALLS
360
C80
  3
WALLS-FOOTINGS
360
C81
  3
WALLS-FOOTINGS-FLOORS
360
C82
  3
WAREHOUSE
360
C83
  3
WATER
360
C84
  3
WDW
360
C85
  3
WHITE
360
C86
  3
WINDOW
360
C87
  3
WORKING_LAYERS
360
C88
  3
X
360
C89
  3
X-SITE
360
C8A
  3
X02DATES
360
C8B
  3
XC12
360
C8C
  3
XEQUIP
360
C8D
  3
XLAN
360
C8E
  3
XMBL
360
C8F
  3
XR
360
C90
  3
XRD
360
C91
  3
XREF
360
C92
  3
XREF-INSERT-LAYERS
360
C93
  3
XREF-MASTERS
360
C94
  3
XREF-OFF
360
C95
  3
XREFB
360
C96
  3
XREFON
360
C97
  3
XREFS
360
C98
  3
XREFS-CHANGED
360
C99
  3
XSURV
360
C9A
  3
YELLOW
360
C9B
  3
Z0
360
C9C
  0
DICTIONARY
  5
C9F
102
{ACAD_REACTORS
330
A4F
102
}
330
A4F
100
AcDbDictionary
  0
XRECORD
  5
32CF
102
{ACAD_REACTORS
330
2D43
102
}
330
2D43
100
AcDbXrecord
102
MATERIAL
340
2CD0
  0
XRECORD
  5
2D44
102
{ACAD_REACTORS
330
2D43
102
}
330
2D43
100
AcDbXrecord
290
     1
  0
XRECORD
  5
32D7
102
{ACAD_REACTORS
330
2D45
102
}
330
2D45
100
AcDbXrecord
102
MATERIAL
340
2CD0
  0
XRECORD
  5
2D46
102
{ACAD_REACTORS
330
2D45
102
}
330
2D45
100
AcDbXrecord
290
     1
  0
XRECORD
  5
32D8
102
{ACAD_REACTORS
330
2D47
102
}
330
2D47
100
AcDbXrecord
102
MATERIAL
340
2CD0
  0
XRECORD
  5
2D48
102
{ACAD_REACTORS
330
2D47
102
}
330
2D47
100
AcDbXrecord
290
     1
  0
XRECORD
  5
32D9
102
{ACAD_REACTORS
330
2D49
102
}
330
2D49
100
AcDbXrecord
102
MATERIAL
340
2CD0
  0
XRECORD
  5
2D4A
102
{ACAD_REACTORS
330
2D49
102
}
330
2D49
100
AcDbXrecord
290
     1
  0
XRECORD
  5
32DB
102
{ACAD_REACTORS
330
32DA
102
}
330
32DA
100
AcDbXrecord
102
MATERIAL
340
2CD0
  0
XRECORD
  5
32E7
102
{ACAD_REACTORS
330
2D4B
102
}
330
2D4B
100
AcDbXrecord
102
MATERIAL
340
2CD0
  0
XRECORD
  5
2D4C
102
{ACAD_REACTORS
330
2D4B
102
}
330
2D4B
100
AcDbXrecord
290
     1
  0
XRECORD
  5
32EA
102
{ACAD_REACTORS
330
2D55
102
}
330
2D55
100
AcDbXrecord
102
MATERIAL
340
2CD0
  0
XRECORD
  5
2D56
102
{ACAD_REACTORS
330
2D55
102
}
330
2D55
100
AcDbXrecord
290
     1
  0
XRECORD
  5
32EB
102
{ACAD_REACTORS
330
2D57
102
}
330
2D57
100
AcDbXrecord
102
MATERIAL
340
2CD0
  0
XRECORD
  5
2D58
102
{ACAD_REACTORS
330
2D57
102
}
330
2D57
100
AcDbXrecord
290
     1
  0
XRECORD
  5
32EC
102
{ACAD_REACTORS
330
2D59
102
}
330
2D59
100
AcDbXrecord
102
MATERIAL
340
2CD0
  0
XRECORD
  5
2D5A
102
{ACAD_REACTORS
330
2D59
102
}
330
2D59
100
AcDbXrecord
290
     1
  0
XRECORD
  5
32ED
102
{ACAD_REACTORS
330
2D5B
102
}
330
2D5B
100
AcDbXrecord
102
MATERIAL
340
2CD0
  0
XRECORD
  5
2D5C
102
{ACAD_REACTORS
330
2D5B
102
}
330
2D5B
100
AcDbXrecord
290
     1
  0
XRECORD
  5
32EE
102
{ACAD_REACTORS
330
2D5D
102
}
330
2D5D
100
AcDbXrecord
102
MATERIAL
340
2CD0
  0
XRECORD
  5
2D5E
102
{ACAD_REACTORS
330
2D5D
102
}
330
2D5D
100
AcDbXrecord
290
     1
  0
XRECORD
  5
32EF
102
{ACAD_REACTORS
330
2D5F
102
}
330
2D5F
100
AcDbXrecord
102
MATERIAL
340
2CD0
  0
XRECORD
  5
2D60
102
{ACAD_REACTORS
330
2D5F
102
}
330
2D5F
100
AcDbXrecord
290
     1
  0
XRECORD
  5
332A
102
{ACAD_REACTORS
330
2C8E
102
}
330
2C8E
100
AcDbXrecord
340
1F
  0
SORTENTSTABLE
  5
2C8F
102
{ACAD_REACTORS
330
2C8E
102
}
330
2C8E
100
AcDbSortentsTable
330
1F
331
257B
  5
25A2
331
26D2
  5
2829
331
25A3
  5
25C9
331
22FE
  5
22FE
331
238D
  5
238D
331
25CB
  5
264B
331
2A5D
  5
2C9B
331
2306
  5
2306
331
24AC
  5
24AC
331
231E
  5
231E
331
23D5
  5
23D5
331
2C83
  5
2B8A
331
24CC
  5
24CC
331
295E
  5
2C91
331
2829
  5
299C
331
276A
  5
2892
331
264B
  5
276A
331
2C8B
  5
2B9A
331
2326
  5
2326
331
2C93
  5
2C7F
331
232E
  5
232E
331
2574
  5
2574
331
299E
  5
2C99
331
2C9B
  5
2C87
331
301F
  5
25A0
331
2CA3
  5
3022
331
22F7
  5
22F7
331
2386
  5
2386
331
257C
  5
25A3
331
2CAB
  5
3023
331
22FF
  5
22FF
331
238E
  5
238E
331
2307
  5
2307
331
2A5E
  5
2C9C
331
2C7C
  5
2A5D
331
23D6
  5
23D6
331
24AD
  5
24AD
331
2C84
  5
2B93
331
295F
  5
2C92
331
282A
  5
299D
331
276B
  5
28B4
331
264C
  5
276B
331
2C8C
  5
2B9B
331
2327
  5
2327
331
2C94
  5
2C80
331
2C9C
  5
2C88
331
237F
  5
237F
331
29EF
  5
2C9A
331
2387
  5
2387
331
1B6
  5
1B6
331
22F8
  5
22F8
331
2300
  5
2300
331
238F
  5
238F
331
25C5
  5
25CA
331
24AE
  5
24AE
331
2C7D
  5
2A5E
331
2C85
  5
2B94
331
24CE
  5
24CE
331
2320
  5
2320
331
2960
  5
2C93
331
2328
  5
2328
331
27A4
  5
28E1
331
2C8D
  5
2B9C
331
2C95
  5
2C81
331
2380
  5
2380
331
2C9D
  5
2C89
331
257E
  5
25C5
331
22F9
  5
22F9
331
2388
  5
2388
331
2301
  5
2301
331
2390
  5
2390
331
25C6
  5
25CB
331
2892
  5
299E
331
2C86
  5
2B95
331
24CF
  5
24CF
331
2329
  5
2329
331
2C96
  5
2C82
331
301A
  5
295E
331
2381
  5
2381
331
2C9E
  5
2C8A
331
257F
  5
25C6
331
22FA
  5
22FA
331
2389
  5
2389
331
2302
  5
2302
331
2391
  5
2391
331
27D5
  5
2960
331
25C7
  5
2647
331
23D9
  5
23D9
331
2C7F
  5
2B82
331
2C87
  5
2B96
331
2647
  5
264C
331
24D0
  5
24D0
331
232A
  5
232A
331
299A
  5
2C96
331
2C97
  5
2C83
331
22F3
  5
22F3
331
2382
  5
2382
331
2C9F
  5
2C8B
331
A37
  5
A37
331
25A0
  5
25C7
331
22FB
  5
22FB
331
238A
  5
238A
331
2303
  5
2303
331
25C8
  5
2648
331
27D6
  5
2961
331
2C80
  5
2B84
331
24C9
  5
24C9
331
2648
  5
2669
331
2323
  5
2323
331
2C88
  5
2B97
331
232B
  5
232B
331
2C90
  5
2C7C
331
28B4
  5
29EF
331
2C98
  5
2C84
331
22F4
  5
22F4
331
2383
  5
2383
331
2CA0
  5
2C8C
331
22FC
  5
22FC
331
238B
  5
238B
331
2304
  5
2304
331
25C9
  5
2649
331
27D7
  5
2982
331
2C81
  5
2B88
331
24CA
  5
24CA
331
2768
  5
282A
331
2649
  5
26D2
331
2C89
  5
2B98
331
2669
  5
27A4
331
2522
  5
2522
331
2324
  5
2324
331
2C91
  5
2C7D
331
2572
  5
2572
331
299C
  5
2C97
331
232C
  5
232C
331
2C99
  5
2C85
331
2CA1
  5
2C8D
331
22F5
  5
22F5
331
2384
  5
2384
331
25A2
  5
25C8
331
22FD
  5
22FD
331
238C
  5
238C
331
27D8
  5
299A
331
25CA
  5
264A
331
2305
  5
2305
331
24AB
  5
24AB
331
231D
  5
231D
331
2C82
  5
2B89
331
264A
  5
2768
331
2C8A
  5
2B99
331
2325
  5
2325
331
2C92
  5
2C7E
331
2573
  5
2573
331
299D
  5
2C98
331
232D
  5
232D
331
2C9A
  5
2C86
331
2CA2
  5
2C90
331
6D3
  5
6D3
331
22F6
  5
22F6
331
2385
  5
2385
  0
XRECORD
  5
332C
102
{ACAD_REACTORS
330
332B
102
}
330
332B
100
AcDbXrecord
340
2B
  0
IDBUFFER
  5
332E
102
{ACAD_REACTORS
330
332D
102
}
330
332D
100
AcDbIdBuffer
330
56
  0
IDBUFFER
  5
3330
102
{ACAD_REACTORS
330
332F
102
}
330
332F
100
AcDbIdBuffer
330
24AC
330
25C5
  0
IDBUFFER
  5
3332
102
{ACAD_REACTORS
330
3331
102
}
330
3331
100
AcDbIdBuffer
330
24AD
330
25C8
  0
IDBUFFER
  5
3334
102
{ACAD_REACTORS
330
3333
102
}
330
3333
100
AcDbIdBuffer
330
24AE
330
25C7
  0
SORTENTSTABLE
  5
2E6F
102
{ACAD_REACTORS
330
2E6E
102
}
330
2E6E
100
AcDbSortentsTable
330
2E66
  0
DIMASSOC
  5
23D8
102
{ACAD_REACTORS
330
23D7
102
}
330
23D7
100
AcDbDimAssoc
330
23D6
 90
        1
 70
     0
 71
     0
  1
AcDbOsnapPointRef
 72
    13
331
232C
 73
     2
 91
        0
 40
0.0
 10
638.1599729168693
 20
241.1988262092347
 30
0.0
 75
     0
  0
DIMASSOC
  5
2680
102
{ACAD_REACTORS
330
2676
102
}
330
2676
100
AcDbDimAssoc
330
2669
 90
        3
 70
     0
 71
     0
  1
AcDbOsnapPointRef
 72
     1
331
24CE
 73
     2
 91
        0
 40
1.0
 10
493.1599729168692
 20
84.03734870869357
 30
0.0
 75
     0
  1
AcDbOsnapPointRef
 72
     1
331
24CF
 73
     2
 91
        0
 40
1.0
 10
643.1599729168692
 20
84.03734870869357
 30
0.0
 75
     0
  0
XRECORD
  5
32D4
102
{ACAD_REACTORS
330
32D3
102
}
330
32D3
100
AcDbXrecord
102
VISUALSTYLE
340
2CDE
102
GRIDDISPLAY
 70
     0
102
GRIDMAJOR
 70
     5
102
DEFAULTLIGHTING
280
     1
102
DEFAULTLIGHTINGTYPE
 70
     1
102
BRIGHTNESS
141
0.0
102
CONTRAST
142
0.0
102
SHADEPLOT
 70
     0
  0
XRECORD
  5
32D6
102
{ACAD_REACTORS
330
32D5
102
}
330
32D5
100
AcDbXrecord
102
VISUALSTYLE
340
2CDE
102
GRIDDISPLAY
 70
     0
102
GRIDMAJOR
 70
     5
102
DEFAULTLIGHTING
280
     1
102
DEFAULTLIGHTINGTYPE
 70
     1
102
BRIGHTNESS
141
0.0
102
CONTRAST
142
0.0
102
SHADEPLOT
 70
     0
  0
GROUP
  5
C3
102
{ACAD_REACTORS
330
D
102
}
330
D
100
AcDbGroup
300

 70
     1
 71
     1
  0
GROUP
  5
8E7
102
{ACAD_REACTORS
330
D
102
}
330
D
100
AcDbGroup
300

 70
     1
 71
     1
  0
GROUP
  5
94F
102
{ACAD_REACTORS
330
D
102
}
330
D
100
AcDbGroup
300

 70
     1
 71
     1
  0
GROUP
  5
950
102
{ACAD_REACTORS
330
D
102
}
330
D
100
AcDbGroup
300

 70
     1
 71
     1
  0
ACAD_PROXY_OBJECT
  5
2CC8
102
{ACAD_XDICTIONARY
360
2CC9
102
}
102
{ACAD_REACTORS
330
2AF5
102
}
330
2AF5
100
AcDbProxyObject
 90
      499
 91
      516
 93
     1332
310
41D09E509B1BD8DAE004014080404B906AE816BE04A3FAA2E41ABA05AF8128FEA9AA400014080404B906AE816BE04A3FAA2E41ABA05AF8128FEA9AA400000000000000E03F4080404B906AE816BE04A3FAA2E41ABA05AF8128FEA9AA4014080404B906AE816BE04A3FAA2E41ABA05AF8128FEA9AA4010201012E41ABA05AF8
310
128FEA8B906AE816BE04A3FAA6A90050201012E41ABA05AF8128FEA8B906AE816BE04A3FAA6A900F
 94
        0
1001
ACAD
1000
AcadProxyRoundTripData
1071
      507
1071
   917527
1070
     0
  0
ACAD_PROXY_OBJECT
  5
2CC0
102
{ACAD_XDICTIONARY
360
2CC1
102
}
102
{ACAD_REACTORS
330
2AF5
102
}
330
2AF5
100
AcDbProxyObject
 90
      499
 91
      516
 93
     1332
310
41D09E53185E595CA004014080404B906AE816BE04A3FAA2E41ABA05AF8128FEA9AA400014080404B906AE816BE04A3FAA2E41ABA05AF8128FEA9AA400000000000000E03F4080404B906AE816BE04A3FAA2E41ABA05AF8128FEA9AA4014080404B906AE816BE04A3FAA2E41ABA05AF8128FEA9AA4010201012E41ABA05AF8
310
128FEA8B906AE816BE04A3FAA6A90050201012E41ABA05AF8128FEA8B906AE816BE04A3FAA6A900F
 94
        0
1001
ACAD
1000
AcadProxyRoundTripData
1071
      507
1071
   917527
1070
     0
  0
ACAD_PROXY_OBJECT
  5
2CD0
102
{ACAD_XDICTIONARY
360
2CD1
102
}
102
{ACAD_REACTORS
330
2AF5
102
}
330
2AF5
100
AcDbProxyObject
 90
      499
 91
      516
 93
     1324
310
4191DB1BD8985B2004014080404B906AE816BE04A3FAA2E41ABA05AF8128FEA9AA400014080404B906AE816BE04A3FAA2E41ABA05AF8128FEA9AA400000000000000E03F4080404B906AE816BE04A3FAA2E41ABA05AF8128FEA9AA4014080404B906AE816BE04A3FAA2E41ABA05AF8128FEA9AA4010201012E41ABA05AF812
310
8FEA8B906AE816BE04A3FAA6A90050201012E41ABA05AF8128FEA8B906AE816BE04A3FAA6A9000
 94
        0
1001
ACAD
1000
AcadProxyRoundTripData
1071
      507
1071
   917527
1070
     0
  0
ACAD_PROXY_OBJECT
  5
2E1B
102
{ACAD_REACTORS
330
2D0B
102
}
330
2D0B
100
AcDbProxyObject
 90
      499
 91
      516
 93
      618
310
40901902A4063FBFFFFFE000000000000002040AD7A3703D0AD73F4254DD185B99185C99000000000000000104090141901A00000000000004100000000000000041025764000000000000300FC4
340
14
340
0
340
11
340
0
 94
        0
1001
ACAD_MLEADERVER
1070
     2
1001
ACAD
1000
AcRTDxfName
1000
MLEADERSTYLE
1000
AcRTDxfName
1000
MLEADERSTYLE
1000
AcadProxyRoundTripData
1071
      510
1071
   917527
1070
     0
  0
MLINESTYLE
  5
18
102
{ACAD_REACTORS
330
17
102
}
330
17
100
AcDbMlineStyle
  2
STANDARD
 70
     0
  3

 62
   256
 51
90.0
 52
90.0
 71
     2
 49
0.5
 62
   256
  6
BYLAYER
 49
-0.5
 62
   256
  6
BYLAYER
  0
ACDBPLACEHOLDER
  5
F
102
{ACAD_REACTORS
330
E
102
}
330
E
100
AcDbPlaceHolder
280
     0
  0
ACAD_PROXY_OBJECT
  5
2CEA
102
{ACAD_REACTORS
330
2CE9
102
}
330
2CE9
100
AcDbProxyObject
 90
      499
 91
      516
 93
       49
310
904313A3100590
 94
        0
1001
ACAD
1000
AcRTDxfName
1000
SCALE
1000
AcRTDxfName
1000
SCALE
1000
AcadProxyRoundTripData
1071
      509
1071
   917527
1070
     0
  0
ACAD_PROXY_OBJECT
  5
2CEB
102
{ACAD_REACTORS
330
2CE9
102
}
330
2CE9
100
AcDbProxyObject
 90
      499
 91
      516
 93
      113
310
904313A32004000000000000004004
 94
        0
1001
ACAD
1000
AcRTDxfName
1000
SCALE
1000
AcRTDxfName
1000
SCALE
1000
AcadProxyRoundTripData
1071
      509
1071
   917527
1070
     0
  0
ACAD_PROXY_OBJECT
  5
2CEC
102
{ACAD_REACTORS
330
2CE9
102
}
330
2CE9
100
AcDbProxyObject
 90
      499
 91
      516
 93
      113
310
904313A34004000000000000104004
 94
        0
1001
ACAD
1000
AcRTDxfName
1000
SCALE
1000
AcRTDxfName
1000
SCALE
1000
AcadProxyRoundTripData
1071
      509
1071
   917527
1070
     0
  0
ACAD_PROXY_OBJECT
  5
2CED
102
{ACAD_REACTORS
330
2CE9
102
}
330
2CE9
100
AcDbProxyObject
 90
      499
 91
      516
 93
      113
310
904313A35004000000000000144004
 94
        0
1001
ACAD
1000
AcRTDxfName
1000
SCALE
1000
AcRTDxfName
1000
SCALE
1000
AcadProxyRoundTripData
1071
      509
1071
   917527
1070
     0
  0
ACAD_PROXY_OBJECT
  5
2CEE
102
{ACAD_REACTORS
330
2CE9
102
}
330
2CE9
100
AcDbProxyObject
 90
      499
 91
      516
 93
      113
310
904313A38004000000000000204004
 94
        0
1001
ACAD
1000
AcRTDxfName
1000
SCALE
1000
AcRTDxfName
1000
SCALE
1000
AcadProxyRoundTripData
1071
      509
1071
   917527
1070
     0
  0
ACAD_PROXY_OBJECT
  5
2CEF
102
{ACAD_REACTORS
330
2CE9
102
}
330
2CE9
100
AcDbProxyObject
 90
      499
 91
      516
 93
      121
310
905313A3130004000000000000244009
 94
        0
1001
ACAD
1000
AcRTDxfName
1000
SCALE
1000
AcRTDxfName
1000
SCALE
1000
AcadProxyRoundTripData
1071
      509
1071
   917527
1070
     0
  0
ACAD_PROXY_OBJECT
  5
2CF0
102
{ACAD_REACTORS
330
2CE9
102
}
330
2CE9
100
AcDbProxyObject
 90
      499
 91
      516
 93
      121
310
905313A3136004000000000000304009
 94
        0
1001
ACAD
1000
AcRTDxfName
1000
SCALE
1000
AcRTDxfName
1000
SCALE
1000
AcadProxyRoundTripData
1071
      509
1071
   917527
1070
     0
  0
ACAD_PROXY_OBJECT
  5
2CF1
102
{ACAD_REACTORS
330
2CE9
102
}
330
2CE9
100
AcDbProxyObject
 90
      499
 91
      516
 93
      121
310
905313A3230004000000000000344009
 94
        0
1001
ACAD
1000
AcRTDxfName
1000
SCALE
1000
AcRTDxfName
1000
SCALE
1000
AcadProxyRoundTripData
1071
      509
1071
   917527
1070
     0
  0
ACAD_PROXY_OBJECT
  5
2CF2
102
{ACAD_REACTORS
330
2CE9
102
}
330
2CE9
100
AcDbProxyObject
 90
      499
 91
      516
 93
      121
310
905313A33300040000000000003E4009
 94
        0
1001
ACAD
1000
AcRTDxfName
1000
SCALE
1000
AcRTDxfName
1000
SCALE
1000
AcadProxyRoundTripData
1071
      509
1071
   917527
1070
     0
  0
ACAD_PROXY_OBJECT
  5
2CF3
102
{ACAD_REACTORS
330
2CE9
102
}
330
2CE9
100
AcDbProxyObject
 90
      499
 91
      516
 93
      121
310
905313A3430004000000000000444009
 94
        0
1001
ACAD
1000
AcRTDxfName
1000
SCALE
1000
AcRTDxfName
1000
SCALE
1000
AcadProxyRoundTripData
1071
      509
1071
   917527
1070
     0
  0
ACAD_PROXY_OBJECT
  5
2CF4
102
{ACAD_REACTORS
330
2CE9
102
}
330
2CE9
100
AcDbProxyObject
 90
      499
 91
      516
 93
      121
310
905313A3530004000000000000494009
 94
        0
1001
ACAD
1000
AcRTDxfName
1000
SCALE
1000
AcRTDxfName
1000
SCALE
1000
AcadProxyRoundTripData
1071
      509
1071
   917527
1070
     0
  0
ACAD_PROXY_OBJECT
  5
2CF5
102
{ACAD_REACTORS
330
2CE9
102
}
330
2CE9
100
AcDbProxyObject
 90
      499
 91
      516
 93
      129
310
906313A313030004000000000000594002
 94
        0
1001
ACAD
1000
AcRTDxfName
1000
SCALE
1000
AcRTDxfName
1000
SCALE
1000
AcadProxyRoundTripData
1071
      509
1071
   917527
1070
     0
  0
ACAD_PROXY_OBJECT
  5
2CF6
102
{ACAD_REACTORS
330
2CE9
102
}
330
2CE9
100
AcDbProxyObject
 90
      499
 91
      516
 93
      113
310
904323A31000000000000000010159
 94
        0
1001
ACAD
1000
AcRTDxfName
1000
SCALE
1000
AcRTDxfName
1000
SCALE
1000
AcadProxyRoundTripData
1071
      509
1071
   917527
1070
     0
  0
ACAD_PROXY_OBJECT
  5
2CF7
102
{ACAD_REACTORS
330
2CE9
102
}
330
2CE9
100
AcDbProxyObject
 90
      499
 91
      516
 93
      113
310
904343A31000000000000000410159
 94
        0
1001
ACAD
1000
AcRTDxfName
1000
SCALE
1000
AcRTDxfName
1000
SCALE
1000
AcadProxyRoundTripData
1071
      509
1071
   917527
1070
     0
  0
ACAD_PROXY_OBJECT
  5
2CF8
102
{ACAD_REACTORS
330
2CE9
102
}
330
2CE9
100
AcDbProxyObject
 90
      499
 91
      516
 93
      113
310
904383A31000000000000000810159
 94
        0
1001
ACAD
1000
AcRTDxfName
1000
SCALE
1000
AcRTDxfName
1000
SCALE
1000
AcadProxyRoundTripData
1071
      509
1071
   917527
1070
     0
  0
ACAD_PROXY_OBJECT
  5
2CF9
102
{ACAD_REACTORS
330
2CE9
102
}
330
2CE9
100
AcDbProxyObject
 90
      499
 91
      516
 93
      121
310
90531303A31000000000000000910140
 94
        0
1001
ACAD
1000
AcRTDxfName
1000
SCALE
1000
AcRTDxfName
1000
SCALE
1000
AcadProxyRoundTripData
1071
      509
1071
   917527
1070
     0
  0
ACAD_PROXY_OBJECT
  5
2CFA
102
{ACAD_REACTORS
330
2CE9
102
}
330
2CE9
100
AcDbProxyObject
 90
      499
 91
      516
 93
      129
310
9063130303A31000000000000001650102
 94
        0
1001
ACAD
1000
AcRTDxfName
1000
SCALE
1000
AcRTDxfName
1000
SCALE
1000
AcadProxyRoundTripData
1071
      509
1071
   917527
1070
     0
  0
ACAD_PROXY_OBJECT
  5
2CFB
102
{ACAD_REACTORS
330
2CE9
102
}
330
2CE9
100
AcDbProxyObject
 90
      499
 91
      516
 93
      265
310
90F312F31323822203D2031272D302200000000000000200FC00000000000028407B
 94
        0
1001
ACAD
1000
AcRTDxfName
1000
SCALE
1000
AcRTDxfName
1000
SCALE
1000
AcadProxyRoundTripData
1071
      509
1071
   917527
1070
     0
  0
ACAD_PROXY_OBJECT
  5
2CFC
102
{ACAD_REACTORS
330
2CE9
102
}
330
2CE9
100
AcDbProxyObject
 90
      499
 91
      516
 93
      257
310
90E312F363422203D2031272D302200000000000000240FC000000000000284040
 94
        0
1001
ACAD
1000
AcRTDxfName
1000
SCALE
1000
AcRTDxfName
1000
SCALE
1000
AcadProxyRoundTripData
1071
      509
1071
   917527
1070
     0
  0
ACAD_PROXY_OBJECT
  5
2CFD
102
{ACAD_REACTORS
330
2CE9
102
}
330
2CE9
100
AcDbProxyObject
 90
      499
 91
      516
 93
      257
310
90E312F333222203D2031272D302200000000000000280FC000000000000284040
 94
        0
1001
ACAD
1000
AcRTDxfName
1000
SCALE
1000
AcRTDxfName
1000
SCALE
1000
AcadProxyRoundTripData
1071
      509
1071
   917527
1070
     0
  0
ACAD_PROXY_OBJECT
  5
2CFE
102
{ACAD_REACTORS
330
2CE9
102
}
330
2CE9
100
AcDbProxyObject
 90
      499
 91
      516
 93
      257
310
90E312F313622203D2031272D3022000000000000002C0FC000000000000284040
 94
        0
1001
ACAD
1000
AcRTDxfName
1000
SCALE
1000
AcRTDxfName
1000
SCALE
1000
AcadProxyRoundTripData
1071
      509
1071
   917527
1070
     0
  0
ACAD_PROXY_OBJECT
  5
2CFF
102
{ACAD_REACTORS
330
2CE9
102
}
330
2CE9
100
AcDbProxyObject
 90
      499
 91
      516
 93
      257
310
90E332F333222203D2031272D3022000000000000002E0FC000000000000284040
 94
        0
1001
ACAD
1000
AcRTDxfName
1000
SCALE
1000
AcRTDxfName
1000
SCALE
1000
AcadProxyRoundTripData
1071
      509
1071
   917527
1070
     0
  0
ACAD_PROXY_OBJECT
  5
2D00
102
{ACAD_REACTORS
330
2CE9
102
}
330
2CE9
100
AcDbProxyObject
 90
      499
 91
      516
 93
      249
310
90D312F3822203D2031272D302200000000000000300FC000000000000284040
 94
        0
1001
ACAD
1000
AcRTDxfName
1000
SCALE
1000
AcRTDxfName
1000
SCALE
1000
AcadProxyRoundTripData
1071
      509
1071
   917527
1070
     0
  0
ACAD_PROXY_OBJECT
  5
2D01
102
{ACAD_REACTORS
330
2CE9
102
}
330
2CE9
100
AcDbProxyObject
 90
      499
 91
      516
 93
      257
310
90E332F313622203D2031272D302200000000000000320FC000000000000284040
 94
        0
1001
ACAD
1000
AcRTDxfName
1000
SCALE
1000
AcRTDxfName
1000
SCALE
1000
AcadProxyRoundTripData
1071
      509
1071
   917527
1070
     0
  0
ACAD_PROXY_OBJECT
  5
2D02
102
{ACAD_REACTORS
330
2CE9
102
}
330
2CE9
100
AcDbProxyObject
 90
      499
 91
      516
 93
      249
310
90D312F3422203D2031272D302200000000000000340FC000000000000284040
 94
        0
1001
ACAD
1000
AcRTDxfName
1000
SCALE
1000
AcRTDxfName
1000
SCALE
1000
AcadProxyRoundTripData
1071
      509
1071
   917527
1070
     0
  0
ACAD_PROXY_OBJECT
  5
2D03
102
{ACAD_REACTORS
330
2CE9
102
}
330
2CE9
100
AcDbProxyObject
 90
      499
 91
      516
 93
      249
310
90D332F3822203D2031272D302200000000000000360FC000000000000284040
 94
        0
1001
ACAD
1000
AcRTDxfName
1000
SCALE
1000
AcRTDxfName
1000
SCALE
1000
AcadProxyRoundTripData
1071
      509
1071
   917527
1070
     0
  0
ACAD_PROXY_OBJECT
  5
2D04
102
{ACAD_REACTORS
330
2CE9
102
}
330
2CE9
100
AcDbProxyObject
 90
      499
 91
      516
 93
      249
310
90D312F3222203D2031272D302200000000000000380FC000000000000284040
 94
        0
1001
ACAD
1000
AcRTDxfName
1000
SCALE
1000
AcRTDxfName
1000
SCALE
1000
AcadProxyRoundTripData
1071
      509
1071
   917527
1070
     0
  0
ACAD_PROXY_OBJECT
  5
2D05
102
{ACAD_REACTORS
330
2CE9
102
}
330
2CE9
100
AcDbProxyObject
 90
      499
 91
      516
 93
      249
310
90D332F3422203D2031272D3022000000000000003A0FC000000000000284040
 94
        0
1001
ACAD
1000
AcRTDxfName
1000
SCALE
1000
AcRTDxfName
1000
SCALE
1000
AcadProxyRoundTripData
1071
      509
1071
   917527
1070
     0
  0
ACAD_PROXY_OBJECT
  5
2D06
102
{ACAD_REACTORS
330
2CE9
102
}
330
2CE9
100
AcDbProxyObject
 90
      499
 91
      516
 93
      169
310
90B3122203D2031272D3022004000000000000284020
 94
        0
1001
ACAD
1000
AcRTDxfName
1000
SCALE
1000
AcRTDxfName
1000
SCALE
1000
AcadProxyRoundTripData
1071
      509
1071
   917527
1070
     0
  0
ACAD_PROXY_OBJECT
  5
2D07
102
{ACAD_REACTORS
330
2CE9
102
}
330
2CE9
100
AcDbProxyObject
 90
      499
 91
      516
 93
      265
310
90F312D312F3222203D2031272D3022000000000000003E0FC00000000000028407B
 94
        0
1001
ACAD
1000
AcRTDxfName
1000
SCALE
1000
AcRTDxfName
1000
SCALE
1000
AcadProxyRoundTripData
1071
      509
1071
   917527
1070
     0
  0
ACAD_PROXY_OBJECT
  5
2D08
102
{ACAD_REACTORS
330
2CE9
102
}
330
2CE9
100
AcDbProxyObject
 90
      499
 91
      516
 93
      233
310
90B3322203D2031272D30220000000000000002100000000000000284000
 94
        0
1001
ACAD
1000
AcRTDxfName
1000
SCALE
1000
AcRTDxfName
1000
SCALE
1000
AcadProxyRoundTripData
1071
      509
1071
   917527
1070
     0
  0
ACAD_PROXY_OBJECT
  5
2D09
102
{ACAD_REACTORS
330
2CE9
102
}
330
2CE9
100
AcDbProxyObject
 90
      499
 91
      516
 93
      233
310
90B3622203D2031272D30220000000000000006100000000000000284000
 94
        0
1001
ACAD
1000
AcRTDxfName
1000
SCALE
1000
AcRTDxfName
1000
SCALE
1000
AcadProxyRoundTripData
1071
      509
1071
   917527
1070
     0
  0
ACAD_PROXY_OBJECT
  5
2D0A
102
{ACAD_REACTORS
330
2CE9
102
}
330
2CE9
100
AcDbProxyObject
 90
      499
 91
      516
 93
      257
310
90E31272D3022203D2031272D3022000000000000000A100000000000000284040
 94
        0
1001
ACAD
1000
AcRTDxfName
1000
SCALE
1000
AcRTDxfName
1000
SCALE
1000
AcadProxyRoundTripData
1071
      509
1071
   917527
1070
     0
  0
ACAD_PROXY_OBJECT
  5
2AF8
102
{ACAD_XDICTIONARY
360
2F2B
102
}
102
{ACAD_REACTORS
330
2AF7
102
}
330
2AF7
100
AcDbProxyObject
 90
      499
 91
      516
 93
     1841
310
4214DD185B99185C9928000000000000F83F0000000000003E0FC00000000000004901028000000C1008070000C3001FDFF8000000C1003FBFF000000182007F7FE00000030400FEFFC00000060801FDFF8000000C1003FBFF000000182000000000000000C2020B0000001820100E000186003FBFF000000182007F7FE000
310
00030400FEFFC00000060801FDFF8000000C1003FBFF000000182007F7FE0000003040000000000000012404160000003040201C00030C007F7FE00000030400FEFFC00000060801FDFF8000000C1003FBFF000000182007F7FE00000030400FEFFC000000608000
340
11
340
11
340
11
 94
        0
1001
ACAD
1000
AcadProxyRoundTripData
1071
      505
1071
   917527
1070
     0
  0
ACAD_PROXY_OBJECT
  5
2CDE
102
{ACAD_REACTORS
330
2CD8
102
}
330
2CD8
100
AcDbProxyObject
 90
      499
 91
      516
 93
      444
310
430C9915DA5C99599C985B59401049028333333333333E3BF0000000000000FB0107901411070040501600405405064090741402480A0340
 94
        0
1001
ACAD
1000
AcRTDxfName
1000
VISUALSTYLE
1000
AcDbSavedByObjectVersion
1070
     0
1000
AcRTDxfName
1000
VISUALSTYLE
1000
AcadProxyRoundTripData
1071
      508
1071
   917527
1070
     0
  0
ACAD_PROXY_OBJECT
  5
2CE0
102
{ACAD_REACTORS
330
2CD8
102
}
330
2CD8
100
AcDbProxyObject
 90
      499
 91
      516
 93
      508
310
428CD108121A5919195B8010640502408333333333333E3BF0000000000000FB01079024090700405020000000000001110200405405064090740C02480A0340
 94
        0
1001
ACAD
1000
AcRTDxfName
1000
VISUALSTYLE
1000
AcDbSavedByObjectVersion
1070
     0
1000
AcRTDxfName
1000
VISUALSTYLE
1000
AcadProxyRoundTripData
1071
      508
1071
   917527
1070
     0
  0
ACAD_PROXY_OBJECT
  5
2CDF
102
{ACAD_REACTORS
330
2CD8
102
}
330
2CD8
100
AcDbProxyObject
 90
      499
 91
      516
 93
      444
310
430CD915DA5C99599C985B59401059028333333333333E3BF0000000000000FB0107901411070040501600405405064090741402480A0340
 94
        0
1001
ACAD
1000
AcRTDxfName
1000
VISUALSTYLE
1000
AcDbSavedByObjectVersion
1070
     0
1000
AcRTDxfName
1000
VISUALSTYLE
1000
AcadProxyRoundTripData
1071
      508
1071
   917527
1070
     0
  0
ACAD_PROXY_OBJECT
  5
2CDD
102
{ACAD_REACTORS
330
2CD8
102
}
330
2CD8
100
AcDbProxyObject
 90
      499
 91
      516
 93
      396
310
4190985CDA58C0107406404333333333333E3BF0000000000000FB0107A41107004050150841D405064090741402480A0356
 94
        0
1001
ACAD
1000
AcRTDxfName
1000
VISUALSTYLE
1000
AcDbSavedByObjectVersion
1070
     0
1000
AcRTDxfName
1000
VISUALSTYLE
1000
AcadProxyRoundTripData
1071
      508
1071
   917527
1070
     0
  0
ACAD_PROXY_OBJECT
  5
2CE4
102
{ACAD_REACTORS
330
2CD8
102
}
330
2CD8
100
AcDbProxyObject
 90
      499
 91
      516
 93
      436
310
42509C9A59DA1D195B8010C409028333333333333E3BF0000000000000FB010790141107004050150841D405064090741402480A029956
 94
        0
1001
ACAD
1000
AcRTDxfName
1000
VISUALSTYLE
1000
AcDbSavedByObjectVersion
1070
     0
1000
AcRTDxfName
1000
VISUALSTYLE
1000
AcadProxyRoundTripData
1071
      508
1071
   917527
1070
     0
  0
ACAD_PROXY_OBJECT
  5
2CE8
102
{ACAD_REACTORS
330
2CD8
102
}
330
2CD8
100
AcDbProxyObject
 90
      499
 91
      516
 93
      460
310
4310DBDB1BDC90DA185B99D9401104090240C333333333333E3BF0000000000000FB0108901411070040501508421405064090741402480A0354
 94
        0
1001
ACAD
1000
AcRTDxfName
1000
VISUALSTYLE
1000
AcDbSavedByObjectVersion
1070
     0
1000
AcRTDxfName
1000
VISUALSTYLE
1000
AcadProxyRoundTripData
1071
      508
1071
   917527
1070
     0
  0
ACAD_PROXY_OBJECT
  5
2CE1
102
{ACAD_REACTORS
330
2CD8
102
}
330
2CD8
100
AcDbProxyObject
 90
      499
 91
      516
 93
      508
310
42D0DBDB98D95C1D1D585B0010940D028333333333333E3BF0000000000000FB0107902409070040501000000000000111010841D405064090740C02480A0340
 94
        0
1001
ACAD
1000
AcRTDxfName
1000
VISUALSTYLE
1000
AcDbSavedByObjectVersion
1070
     0
1000
AcRTDxfName
1000
VISUALSTYLE
1000
AcadProxyRoundTripData
1071
      508
1071
   917527
1070
     0
  0
ACAD_PROXY_OBJECT
  5
2CE3
102
{ACAD_REACTORS
330
2CD8
102
}
330
2CD8
100
AcDbProxyObject
 90
      499
 91
      516
 93
      420
310
41111A5B4010B409028333333333333E3BF0000000000000FB010790141107004050150841D405064090741402480A02677FFFFFDB
 94
        0
1001
ACAD
1000
AcRTDxfName
1000
VISUALSTYLE
1000
AcDbSavedByObjectVersion
1070
     0
1000
AcRTDxfName
1000
VISUALSTYLE
1000
AcadProxyRoundTripData
1071
      508
1071
   917527
1070
     0
  0
ACAD_PROXY_OBJECT
  5
2CE7
102
{ACAD_REACTORS
330
2CD8
102
}
330
2CD8
100
AcDbProxyObject
 90
      499
 91
      516
 93
      452
310
43119858D95C185D1D195C9B8010F409028333333333333E3BF0000000000000FB010790141107004050150841D405064090741402480A0350
 94
        0
1001
ACAD
1000
AcRTDxfName
1000
VISUALSTYLE
1000
AcDbSavedByObjectVersion
1070
     0
1000
AcRTDxfName
1000
VISUALSTYLE
1000
AcadProxyRoundTripData
1071
      508
1071
   917527
1070
     0
  0
ACAD_PROXY_OBJECT
  5
2CD9
102
{ACAD_REACTORS
330
2CD8
102
}
330
2CD8
100
AcDbProxyObject
 90
      499
 91
      516
 93
      396
310
41519B185D00240901404333333333333E3BF0000000000000F9010740A41107004050150841D405064090741402480A1B51
 94
        0
1001
ACAD
1000
AcRTDxfName
1000
VISUALSTYLE
1000
AcDbSavedByObjectVersion
1070
     0
1000
AcRTDxfName
1000
VISUALSTYLE
1000
AcadProxyRoundTripData
1071
      508
1071
   917527
1070
     0
  0
ACAD_PROXY_OBJECT
  5
2CDA
102
{ACAD_REACTORS
330
2CD8
102
}
330
2CD8
100
AcDbProxyObject
 90
      499
 91
      516
 93
      484
310
43919B185D15DA5D1A115919D95CC010140901404333333333333E3BF0000000000000F9010740901411070040501600405405064090741402480A1B50
 94
        0
1001
ACAD
1000
AcRTDxfName
1000
VISUALSTYLE
1000
AcDbSavedByObjectVersion
1070
     0
1000
AcRTDxfName
1000
VISUALSTYLE
1000
AcadProxyRoundTripData
1071
      508
1071
   917527
1070
     0
  0
ACAD_PROXY_OBJECT
  5
2CDB
102
{ACAD_REACTORS
330
2CD8
102
}
330
2CD8
100
AcDbProxyObject
 90
      499
 91
      516
 93
      420
310
4211DBDD5C985D590010240902404333333333333E3BF0000000000000F9010740A411070040501641D405064090741402480A1B50
 94
        0
1001
ACAD
1000
AcRTDxfName
1000
VISUALSTYLE
1000
AcDbSavedByObjectVersion
1070
     0
1000
AcRTDxfName
1000
VISUALSTYLE
1000
AcadProxyRoundTripData
1071
      508
1071
   917527
1070
     0
  0
ACAD_PROXY_OBJECT
  5
2CDC
102
{ACAD_REACTORS
330
2CD8
102
}
330
2CD8
100
AcDbProxyObject
 90
      499
 91
      516
 93
      508
310
4451DBDD5C985D5915DA5D1A115919D95CC010340902404333333333333E3BF0000000000000F9010740901411070040501600405405064090741402480A1B50
 94
        0
1001
ACAD
1000
AcRTDxfName
1000
VISUALSTYLE
1000
AcDbSavedByObjectVersion
1070
     0
1000
AcRTDxfName
1000
VISUALSTYLE
1000
AcadProxyRoundTripData
1071
      508
1071
   917527
1070
     0
  0
ACAD_PROXY_OBJECT
  5
2CE6
102
{ACAD_REACTORS
330
2CD8
102
}
330
2CD8
100
AcDbProxyObject
 90
      499
 91
      516
 93
      452
310
43131A5B995C185D1D195C9B8010E409028333333333333E3BF0000000000000FB010790141107004050750841D405064090741402483A0350
 94
        0
1001
ACAD
1000
AcRTDxfName
1000
VISUALSTYLE
1000
AcDbSavedByObjectVersion
1070
     0
1000
AcRTDxfName
1000
VISUALSTYLE
1000
AcadProxyRoundTripData
1071
      508
1071
   917527
1070
     0
  0
ACAD_PROXY_OBJECT
  5
2CE2
102
{ACAD_REACTORS
330
2CD8
102
}
330
2CD8
100
AcDbProxyObject
 90
      499
 91
      516
 93
      428
310
429499585B1A5CDD1A58C0108409028333333333333E3BF0000000000000FB01079019070040501508421405064090741402480A1B45
 94
        0
1001
ACAD
1000
AcRTDxfName
1000
VISUALSTYLE
1000
AcDbSavedByObjectVersion
1070
     0
1000
AcRTDxfName
1000
VISUALSTYLE
1000
AcadProxyRoundTripData
1071
      508
1071
   917527
1070
     0
  0
ACAD_PROXY_OBJECT
  5
2CE5
102
{ACAD_REACTORS
330
2CD8
102
}
330
2CD8
100
AcDbProxyObject
 90
      499
 91
      516
 93
      420
310
42151A1A58DAD95B8010D409028333333333333E3BF0000000000000FB010790141107004050150C41D405064090741402480A0352
 94
        0
1001
ACAD
1000
AcRTDxfName
1000
VISUALSTYLE
1000
AcDbSavedByObjectVersion
1070
     0
1000
AcRTDxfName
1000
VISUALSTYLE
1000
AcadProxyRoundTripData
1071
      508
1071
   917527
1070
     0
  0
XRECORD
  5
3314
102
{ACAD_REACTORS
330
330A
102
}
330
330A
100
AcDbXrecord
 90
        0
  0
XRECORD
  5
3315
102
{ACAD_REACTORS
330
330A
102
}
330
330A
100
AcDbXrecord
  1
{5C5B7ED4-663B-48E1-9F7A-5A0E9EDC2DBF}
  0
XRECORD
  5
330D
102
{ACAD_REACTORS
330
330A
102
}
330
330A
100
AcDbXrecord
  1

  0
XRECORD
  5
3313
102
{ACAD_REACTORS
330
330A
102
}
330
330A
100
AcDbXrecord
 90
        4
  0
XRECORD
  5
330F
102
{ACAD_REACTORS
330
330A
102
}
330
330A
100
AcDbXrecord
340
1A
  0
XRECORD
  5
3312
102
{ACAD_REACTORS
330
330A
102
}
330
330A
100
AcDbXrecord
 90
    10781
  0
XRECORD
  5
3310
102
{ACAD_REACTORS
330
330A
102
}
330
330A
100
AcDbXrecord
340
19
  0
XRECORD
  5
3311
102
{ACAD_REACTORS
330
330A
102
}
330
330A
100
AcDbXrecord
340
E
  0
XRECORD
  5
3317
102
{ACAD_REACTORS
330
330A
102
}
330
330A
100
AcDbXrecord
 40
0.0
  0
XRECORD
  5
331A
102
{ACAD_REACTORS
330
330A
102
}
330
330A
100
AcDbXrecord
340
0
  0
XRECORD
  5
3320
102
{ACAD_REACTORS
330
330A
102
}
330
330A
100
AcDbXrecord
 10
0.0
 20
0.0
 30
0.0
  0
XRECORD
  5
331C
102
{ACAD_REACTORS
330
330A
102
}
330
330A
100
AcDbXrecord
 10
0.0
 20
0.0
 30
0.0
  0
XRECORD
  5
331F
102
{ACAD_REACTORS
330
330A
102
}
330
330A
100
AcDbXrecord
 10
0.0
 20
0.0
 30
0.0
  0
XRECORD
  5
331D
102
{ACAD_REACTORS
330
330A
102
}
330
330A
100
AcDbXrecord
 10
0.0
 20
0.0
 30
0.0
  0
XRECORD
  5
331E
102
{ACAD_REACTORS
330
330A
102
}
330
330A
100
AcDbXrecord
 10
0.0
 20
0.0
 30
0.0
  0
XRECORD
  5
331B
102
{ACAD_REACTORS
330
330A
102
}
330
330A
100
AcDbXrecord
 10
0.0
 20
0.0
 30
0.0
  0
XRECORD
  5
3318
102
{ACAD_REACTORS
330
330A
102
}
330
330A
100
AcDbXrecord
340
0
  0
XRECORD
  5
3319
102
{ACAD_REACTORS
330
330A
102
}
330
330A
100
AcDbXrecord
 70
     0
  0
XRECORD
  5
330E
102
{ACAD_REACTORS
330
330A
102
}
330
330A
100
AcDbXrecord
  1
A4 Specifier Manual.ctb
  0
XRECORD
  5
330B
102
{ACAD_REACTORS
330
330A
102
}
330
330A
100
AcDbXrecord
 90
        1
  0
XRECORD
  5
330C
102
{ACAD_REACTORS
330
330A
102
}
330
330A
100
AcDbXrecord
 90
       70
  0
XRECORD
  5
3323
102
{ACAD_REACTORS
330
330A
102
}
330
330A
100
AcDbXrecord
340
0
  0
XRECORD
  5
3329
102
{ACAD_REACTORS
330
330A
102
}
330
330A
100
AcDbXrecord
 10
0.0
 20
0.0
 30
0.0
  0
XRECORD
  5
3325
102
{ACAD_REACTORS
330
330A
102
}
330
330A
100
AcDbXrecord
 10
0.0
 20
0.0
 30
0.0
  0
XRECORD
  5
3328
102
{ACAD_REACTORS
330
330A
102
}
330
330A
100
AcDbXrecord
 10
0.0
 20
0.0
 30
0.0
  0
XRECORD
  5
3326
102
{ACAD_REACTORS
330
330A
102
}
330
330A
100
AcDbXrecord
 10
0.0
 20
0.0
 30
0.0
  0
XRECORD
  5
3327
102
{ACAD_REACTORS
330
330A
102
}
330
330A
100
AcDbXrecord
 10
0.0
 20
0.0
 30
0.0
  0
XRECORD
  5
3324
102
{ACAD_REACTORS
330
330A
102
}
330
330A
100
AcDbXrecord
 10
0.0
 20
0.0
 30
0.0
  0
XRECORD
  5
3321
102
{ACAD_REACTORS
330
330A
102
}
330
330A
100
AcDbXrecord
340
0
  0
XRECORD
  5
3322
102
{ACAD_REACTORS
330
330A
102
}
330
330A
100
AcDbXrecord
 70
     0
  0
XRECORD
  5
3316
102
{ACAD_REACTORS
330
330A
102
}
330
330A
100
AcDbXrecord
  1
{7D756E74-471F-452C-B63A-91C862605D1D}
  0
DICTIONARYVAR
  5
2F57
102
{ACAD_REACTORS
330
6D
102
}
330
6D
100
DictionaryVariables
280
     0
  1
1:1
  0
DICTIONARYVAR
  5
3003
102
{ACAD_REACTORS
330
6D
102
}
330
6D
100
DictionaryVariables
280
     0
  1
STANDARD
  0
DICTIONARYVAR
  5
2B18
102
{ACAD_REACTORS
330
6D
102
}
330
6D
100
DictionaryVariables
280
     0
  1
STANDARD
  0
DICTIONARYVAR
  5
6F
102
{ACAD_REACTORS
330
6D
102
}
330
6D
100
DictionaryVariables
280
     0
  1
2
  0
DICTIONARYVAR
  5
6E
102
{ACAD_REACTORS
330
6D
102
}
330
6D
100
DictionaryVariables
280
     0
  1
1
  0
DICTIONARYVAR
  5
2F59
102
{ACAD_REACTORS
330
6D
102
}
330
6D
100
DictionaryVariables
280
     0
  1
0
  0
DICTIONARYVAR
  5
2B19
102
{ACAD_REACTORS
330
6D
102
}
330
6D
100
DictionaryVariables
280
     0
  1

  0
DICTIONARYVAR
  5
2F58
102
{ACAD_REACTORS
330
6D
102
}
330
6D
100
DictionaryVariables
280
     0
  1
127
  0
XRECORD
  5
A51
102
{ACAD_REACTORS
330
A50
102
}
330
A50
100
AcDbXrecord
  1
$0$
  1
*$0$*
  1
*
  1
*
 70
     0
  1
*
  1
*
  0
XRECORD
  5
A52
102
{ACAD_REACTORS
330
A50
102
}
330
A50
100
AcDbXrecord
  1
-100
  1
*-100
  1
*
  1
*
 70
     0
  1
*
  1
*
  0
XRECORD
  5
A53
102
{ACAD_REACTORS
330
A50
102
}
330
A50
100
AcDbXrecord
  1
-demo
  1
*
  1
*
  1
*
 70
     0
  1
*
  1
*
  0
XRECORD
  5
A54
102
{ACAD_REACTORS
330
A50
102
}
330
A50
100
AcDbXrecord
  1
0- Layers
  1
0-*
  1
*
  1
*
 70
     0
  1
*
  1
*
  0
XRECORD
  5
A56
102
{ACAD_REACTORS
330
A50
102
}
330
A50
100
AcDbXrecord
  1
00-dims
  1
*00-dims*
  1
*
  1
*
 70
     0
  1
*
  1
*
  0
XRECORD
  5
A57
102
{ACAD_REACTORS
330
A50
102
}
330
A50
100
AcDbXrecord
  1
00-GRD
  1
*00-GRD*
  1
*
  1
*
 70
     0
  1
*
  1
*
  0
XRECORD
  5
A58
102
{ACAD_REACTORS
330
A50
102
}
330
A50
100
AcDbXrecord
  1
005
  1
*005*
  1
*
  1
*
 70
     0
  1
*
  1
*
  0
XRECORD
  5
A59
102
{ACAD_REACTORS
330
A50
102
}
330
A50
100
AcDbXrecord
  1
010
  1
*
  1
8,51,114,142
  1
*
 70
     1
  1
*
  1
*
  0
XRECORD
  5
A5A
102
{ACAD_REACTORS
330
A50
102
}
330
A50
100
AcDbXrecord
  1
018
  1
*
  1
9,13,191
  1
*
 70
     1
  1
*
  1
*
  0
XRECORD
  5
A5B
102
{ACAD_REACTORS
330
A50
102
}
330
A50
100
AcDbXrecord
  1
025
  1
*
  1
5,11,141
  1
*
 70
     1
  1
*
  1
*
  0
XRECORD
  5
A5C
102
{ACAD_REACTORS
330
A50
102
}
330
A50
100
AcDbXrecord
  1
035
  1
*
  1
1,42,101
  1
*
 70
     1
  1
*
  1
*
  0
XRECORD
  5
A5D
102
{ACAD_REACTORS
330
A50
102
}
330
A50
100
AcDbXrecord
  1
050
  1
*
  1
2,3,4
  1
*
 70
     1
  1
*
  1
*
  0
XRECORD
  5
A5E
102
{ACAD_REACTORS
330
A50
102
}
330
A50
100
AcDbXrecord
  1
070
  1
*
  1
6,7
  1
*
 70
     1
  1
*
  1
*
  0
XRECORD
  5
A5F
102
{ACAD_REACTORS
330
A50
102
}
330
A50
100
AcDbXrecord
  1
08
  1
08*
  1
*
  1
*
 70
     0
  1
*
  1
*
  0
XRECORD
  5
A60
102
{ACAD_REACTORS
330
A50
102
}
330
A50
100
AcDbXrecord
  1
09
  1
09*
  1
*
  1
*
 70
     0
  1
*
  1
*
  0
XRECORD
  5
A55
102
{ACAD_REACTORS
330
A50
102
}
330
A50
100
AcDbXrecord
  1
0.0m LEVEL
  1
*00
  1
*
  1
*
 70
     0
  1
*
  1
*
  0
XRECORD
  5
A61
102
{ACAD_REACTORS
330
A50
102
}
330
A50
100
AcDbXrecord
  1
1
  1
*A008G2*
  1
*
  1
*
 70
     0
  1
*
  1
*
  0
XRECORD
  5
A63
102
{ACAD_REACTORS
330
A50
102
}
330
A50
100
AcDbXrecord
  1
10
  1
*
  1
8,51,114,142
  1
*
 70
     1
  1
*
  1
*
  0
XRECORD
  5
A64
102
{ACAD_REACTORS
330
A50
102
}
330
A50
100
AcDbXrecord
  1
100
  1
*
  1
32
  1
*
 70
     1
  1
*
  1
*
  0
XRECORD
  5
A65
102
{ACAD_REACTORS
330
A50
102
}
330
A50
100
AcDbXrecord
  1
100s
  1
*.*100
  1
*
  1
*
 70
     0
  1
*
  1
*
  0
XRECORD
  5
A66
102
{ACAD_REACTORS
330
A50
102
}
330
A50
100
AcDbXrecord
  1
100TEXT
  1
S***T****P0
  1
*
  1
*
 70
     0
  1
*
  1
*
  0
XRECORD
  5
A67
102
{ACAD_REACTORS
330
A50
102
}
330
A50
100
AcDbXrecord
  1
12.0m LEVEL
  1
*12*
  1
*
  1
*
 70
     0
  1
*
  1
*
  0
XRECORD
  5
A68
102
{ACAD_REACTORS
330
A50
102
}
330
A50
100
AcDbXrecord
  1
15
  1
*
  1
15
  1
*
 70
     0
  1
*
  1
*
  0
XRECORD
  5
A69
102
{ACAD_REACTORS
330
A50
102
}
330
A50
100
AcDbXrecord
  1
166
  1
*
  1
166
  1
*
 70
     0
  1
*
  1
*
  0
XRECORD
  5
A6A
102
{ACAD_REACTORS
330
A50
102
}
330
A50
100
AcDbXrecord
  1
17
  1
*17
  1
*
  1
*
 70
     0
  1
*
  1
*
  0
XRECORD
  5
A6B
102
{ACAD_REACTORS
330
A50
102
}
330
A50
100
AcDbXrecord
  1
18
  1
*
  1
9,13,191
  1
*
 70
     1
  1
*
  1
*
  0
XRECORD
  5
A62
102
{ACAD_REACTORS
330
A50
102
}
330
A50
100
AcDbXrecord
  1
1.0
  1
1.0*
  1
*
  1
*
 70
     0
  1
*
  1
*
  0
XRECORD
  5
A6C
102
{ACAD_REACTORS
330
A50
102
}
330
A50
100
AcDbXrecord
  1
1ST
  1
1-*
  1
*
  1
*
 70
     0
  1
*
  1
*
  0
XRECORD
  5
A6D
102
{ACAD_REACTORS
330
A50
102
}
330
A50
100
AcDbXrecord
  1
1stFloor
  1
*F1
  1
*
  1
*
 70
     0
  1
*
  1
*
  0
XRECORD
  5
A6E
102
{ACAD_REACTORS
330
A50
102
}
330
A50
100
AcDbXrecord
  1
2
  1
*TILT*
  1
*
  1
*
 70
     0
  1
*
  1
*
  0
XRECORD
  5
A6F
102
{ACAD_REACTORS
330
A50
102
}
330
A50
100
AcDbXrecord
  1
2- Layers
  1
2-*
  1
*
  1
*
 70
     0
  1
*
  1
*
  0
XRECORD
  5
A72
102
{ACAD_REACTORS
330
A50
102
}
330
A50
100
AcDbXrecord
  1
20-COL
  1
*20-COL*
  1
*
  1
*
 70
     0
  1
*
  1
*
  0
XRECORD
  5
A73
102
{ACAD_REACTORS
330
A50
102
}
330
A50
100
AcDbXrecord
  1
20COL
  1
*20-COL*
  1
*
  1
*
 70
     0
  1
*
  1
*
  0
XRECORD
  5
A74
102
{ACAD_REACTORS
330
A50
102
}
330
A50
100
AcDbXrecord
  1
22
  1
x22*
  1
*
  1
*
 70
    12
  1
*
  1
*
  0
XRECORD
  5
A75
102
{ACAD_REACTORS
330
A50
102
}
330
A50
100
AcDbXrecord
  1
25
  1
*
  1
5,11,141
  1
*
 70
     1
  1
*
  1
*
  0
XRECORD
  5
A76
102
{ACAD_REACTORS
330
A50
102
}
330
A50
100
AcDbXrecord
  1
250
  1
*250*
  1
*
  1
*
 70
     0
  1
*
  1
*
  0
XRECORD
  5
A77
102
{ACAD_REACTORS
330
A50
102
}
330
A50
100
AcDbXrecord
  1
250 ON
  1
S*
  1
*
  1
*
 70
   781
  1
*
  1
*
  0
XRECORD
  5
A78
102
{ACAD_REACTORS
330
A50
102
}
330
A50
100
AcDbXrecord
  1
250TEXT
  1
S***T****S0
  1
*
  1
*
 70
     0
  1
*
  1
*
  0
XRECORD
  5
A70
102
{ACAD_REACTORS
330
A50
102
}
330
A50
100
AcDbXrecord
  1
2.0
  1
2.0*
  1
*
  1
*
 70
     0
  1
*
  1
*
  0
XRECORD
  5
A71
102
{ACAD_REACTORS
330
A50
102
}
330
A50
100
AcDbXrecord
  1
2.6m LEVEL
  1
*26*
  1
*
  1
*
 70
     0
  1
*
  1
*
  0
XRECORD
  5
A79
102
{ACAD_REACTORS
330
A50
102
}
330
A50
100
AcDbXrecord
  1
2ndFloor
  1
*F2
  1
*
  1
*
 70
     0
  1
*
  1
*
  0
XRECORD
  5
A7A
102
{ACAD_REACTORS
330
A50
102
}
330
A50
100
AcDbXrecord
  1
3
  1
*BUND*
  1
*
  1
*
 70
     0
  1
*
  1
*
  0
XRECORD
  5
A7B
102
{ACAD_REACTORS
330
A50
102
}
330
A50
100
AcDbXrecord
  1
35
  1
*35
  1
*
  1
*
 70
     0
  1
*
  1
*
  0
XRECORD
  5
A7C
102
{ACAD_REACTORS
330
A50
102
}
330
A50
100
AcDbXrecord
  1
35-TXT
  1
*35*
  1
*
  1
*
 70
     0
  1
*
  1
*
  0
XRECORD
  5
A7D
102
{ACAD_REACTORS
330
A50
102
}
330
A50
100
AcDbXrecord
  1
37
  1
*37
  1
*
  1
*
 70
     0
  1
*
  1
*
  0
XRECORD
  5
A7E
102
{ACAD_REACTORS
330
A50
102
}
330
A50
100
AcDbXrecord
  1
3D
  1
*3D
  1
*
  1
*
 70
     0
  1
*
  1
*
  0
XRECORD
  5
A7F
102
{ACAD_REACTORS
330
A50
102
}
330
A50
100
AcDbXrecord
  1
3D LAYERS
  1
A3D*,0*,a-const*
  1
*
  1
*
 70
     0
  1
*
  1
*
  0
XRECORD
  5
A80
102
{ACAD_REACTORS
330
A50
102
}
330
A50
100
AcDbXrecord
  1
3dstuff
  1
*
  1
*
  1
*
 70
     1
  1
*
  1
*
  0
XRECORD
  5
A81
102
{ACAD_REACTORS
330
A50
102
}
330
A50
100
AcDbXrecord
  1
4
  1
*TRENCH*
  1
*
  1
*
 70
     0
  1
*
  1
*
  0
XRECORD
  5
A84
102
{ACAD_REACTORS
330
A50
102
}
330
A50
100
AcDbXrecord
  1
44
  1
*44
  1
*
  1
*
 70
     0
  1
*
  1
*
  0
XRECORD
  5
A85
102
{ACAD_REACTORS
330
A50
102
}
330
A50
100
AcDbXrecord
  1
44-MCAFE
  1
*44-MCAFE*
  1
*
  1
*
 70
     0
  1
*
  1
*
  0
XRECORD
  5
A86
102
{ACAD_REACTORS
330
A50
102
}
330
A50
100
AcDbXrecord
  1
44MCAFE
  1
*44-MCAFE
  1
*
  1
*
 70
     0
  1
*
  1
*
  0
XRECORD
  5
A82
102
{ACAD_REACTORS
330
A50
102
}
330
A50
100
AcDbXrecord
  1
4.0m LEVEL
  1
*40*
  1
*
  1
*
 70
     0
  1
*
  1
*
  0
XRECORD
  5
A83
102
{ACAD_REACTORS
330
A50
102
}
330
A50
100
AcDbXrecord
  1
4.6m LEVEL
  1
*46
  1
*
  1
*
 70
     0
  1
*
  1
*
  0
XRECORD
  5
A87
102
{ACAD_REACTORS
330
A50
102
}
330
A50
100
AcDbXrecord
  1
5
  1
*EQ-L*
  1
*
  1
*
 70
     0
  1
*
  1
*
  0
XRECORD
  5
A89
102
{ACAD_REACTORS
330
A50
102
}
330
A50
100
AcDbXrecord
  1
50
  1
*
  1
2,3,4
  1
*
 70
     1
  1
*
  1
*
  0
XRECORD
  5
A8A
102
{ACAD_REACTORS
330
A50
102
}
330
A50
100
AcDbXrecord
  1
57
  1
*57
  1
*
  1
*
 70
     0
  1
*
  1
*
  0
XRECORD
  5
A88
102
{ACAD_REACTORS
330
A50
102
}
330
A50
100
AcDbXrecord
  1
5.1m LEVEL
  1
*51*
  1
*
  1
*
 70
     0
  1
*
  1
*
  0
XRECORD
  5
A8B
102
{ACAD_REACTORS
330
A50
102
}
330
A50
100
AcDbXrecord
  1
6
  1
*DETAIL3*
  1
*
  1
*
 70
     0
  1
*
  1
*
  0
XRECORD
  5
A8C
102
{ACAD_REACTORS
330
A50
102
}
330
A50
100
AcDbXrecord
  1
61
  1
*61
  1
*
  1
*
 70
     0
  1
*
  1
*
  0
XRECORD
  5
A8D
102
{ACAD_REACTORS
330
A50
102
}
330
A50
100
AcDbXrecord
  1
610
  1
*610*
  1
*
  1
*
 70
     0
  1
*
  1
*
  0
XRECORD
  5
A8E
102
{ACAD_REACTORS
330
A50
102
}
330
A50
100
AcDbXrecord
  1
63
  1
*
  1
63
  1
*
 70
     0
  1
*
  1
*
  0
XRECORD
  5
A8F
102
{ACAD_REACTORS
330
A50
102
}
330
A50
100
AcDbXrecord
  1
70
  1
*
  1
6,7
  1
*
 70
     1
  1
*
  1
*
  0
XRECORD
  5
A90
102
{ACAD_REACTORS
330
A50
102
}
330
A50
100
AcDbXrecord
  1
72
  1
*72
  1
*
  1
*
 70
     0
  1
*
  1
*
  0
XRECORD
  5
A91
102
{ACAD_REACTORS
330
A50
102
}
330
A50
100
AcDbXrecord
  1
72-MCAFE
  1
*72-MCAFE*
  1
*
  1
*
 70
     0
  1
*
  1
*
  0
XRECORD
  5
A92
102
{ACAD_REACTORS
330
A50
102
}
330
A50
100
AcDbXrecord
  1
8
  1
*
  1
*8
  1
*
 70
     0
  1
*
  1
*
  0
XRECORD
  5
A93
102
{ACAD_REACTORS
330
A50
102
}
330
A50
100
AcDbXrecord
  1
8-
  1
*8-
  1
*
  1
*
 70
     0
  1
*
  1
*
  0
XRECORD
  5
A96
102
{ACAD_REACTORS
330
A50
102
}
330
A50
100
AcDbXrecord
  1
84
  1
*84*
  1
*
  1
*
 70
     0
  1
*
  1
*
  0
XRECORD
  5
A94
102
{ACAD_REACTORS
330
A50
102
}
330
A50
100
AcDbXrecord
  1
8.0m LEVEL
  1
*80*
  1
*
  1
*
 70
     0
  1
*
  1
*
  0
XRECORD
  5
A95
102
{ACAD_REACTORS
330
A50
102
}
330
A50
100
AcDbXrecord
  1
8.6m LEVEL
  1
*86*
  1
*
  1
*
 70
     0
  1
*
  1
*
  0
XRECORD
  5
A97
102
{ACAD_REACTORS
330
A50
102
}
330
A50
100
AcDbXrecord
  1
8m LEVEL
  1
*80*
  1
*
  1
*
 70
     0
  1
*
  1
*
  0
XRECORD
  5
A98
102
{ACAD_REACTORS
330
A50
102
}
330
A50
100
AcDbXrecord
  1
9
  1
*
  1
*9*
  1
*
 70
     0
  1
*
  1
*
  0
XRECORD
  5
A99
102
{ACAD_REACTORS
330
A50
102
}
330
A50
100
AcDbXrecord
  1
A
  1
A*
  1
*
  1
*
 70
     0
  1
*
  1
*
  0
XRECORD
  5
A9A
102
{ACAD_REACTORS
330
A50
102
}
330
A50
100
AcDbXrecord
  1
A- ARCH LAYERS
  1
A*
  1
*
  1
*
 70
     0
  1
*
  1
*
  0
XRECORD
  5
A9B
102
{ACAD_REACTORS
330
A50
102
}
330
A50
100
AcDbXrecord
  1
a-elvpredet
  1
a-elvpredet
  1
*
  1
*
 70
     0
  1
*
  1
*
  0
XRECORD
  5
A9C
102
{ACAD_REACTORS
330
A50
102
}
330
A50
100
AcDbXrecord
  1
A-Flor
  1
*|A-Flor*
  1
*
  1
*
 70
     0
  1
*
  1
*
  0
XRECORD
  5
A9D
102
{ACAD_REACTORS
330
A50
102
}
330
A50
100
AcDbXrecord
  1
A0-EXTG
  1
A0-*
  1
*
  1
*
 70
    13
  1
*
  1
*
  0
XRECORD
  5
A9E
102
{ACAD_REACTORS
330
A50
102
}
330
A50
100
AcDbXrecord
  1
a00
  1
a00*
  1
*
  1
*
 70
     0
  1
*
  1
*
  0
XRECORD
  5
A9F
102
{ACAD_REACTORS
330
A50
102
}
330
A50
100
AcDbXrecord
  1
A06
  1
A06*
  1
*
  1
*
 70
     0
  1
*
  1
*
  0
XRECORD
  5
AA0
102
{ACAD_REACTORS
330
A50
102
}
330
A50
100
AcDbXrecord
  1
A06P00L0
  1
A06P00L0**
  1
*
  1
*
 70
     0
  1
*
  1
*
  0
XRECORD
  5
AA1
102
{ACAD_REACTORS
330
A50
102
}
330
A50
100
AcDbXrecord
  1
A06POOLO
  1
A06POOLO*
  1
*
  1
*
 70
     0
  1
*
  1
*
  0
XRECORD
  5
AA2
102
{ACAD_REACTORS
330
A50
102
}
330
A50
100
AcDbXrecord
  1
A1-NEW
  1
A1-*
  1
*
  1
*
 70
    13
  1
*
  1
*
  0
XRECORD
  5
AA3
102
{ACAD_REACTORS
330
A50
102
}
330
A50
100
AcDbXrecord
  1
A2-MEZZ
  1
A2-*
  1
*
  1
*
 70
     0
  1
*
  1
*
  0
XRECORD
  5
AA4
102
{ACAD_REACTORS
330
A50
102
}
330
A50
100
AcDbXrecord
  1
A3-ROOF
  1
A3-*
  1
*
  1
*
 70
     0
  1
*
  1
*
  0
XRECORD
  5
AA5
102
{ACAD_REACTORS
330
A50
102
}
330
A50
100
AcDbXrecord
  1
A4-DEMO
  1
A4-*
  1
*
  1
*
 70
     0
  1
*
  1
*
  0
XRECORD
  5
AA6
102
{ACAD_REACTORS
330
A50
102
}
330
A50
100
AcDbXrecord
  1
adf
  1
*
  1
*
  1
*
 70
     0
  1
*
  1
*
  0
XRECORD
  5
AA7
102
{ACAD_REACTORS
330
A50
102
}
330
A50
100
AcDbXrecord
  1
AK 0NLY
  1
*-AK
  1
*
  1
*
 70
     0
  1
*
  1
*
  0
XRECORD
  5
AA8
102
{ACAD_REACTORS
330
A50
102
}
330
A50
100
AcDbXrecord
  1
ALL
  1
*
  1
*
  1
*
 70
     0
  1
*
  1
*
  0
XRECORD
  5
AA9
102
{ACAD_REACTORS
330
A50
102
}
330
A50
100
AcDbXrecord
  1
all frozen
  1
*
  1
*
  1
*
 70
     4
  1
*
  1
*
  0
XRECORD
  5
AAA
102
{ACAD_REACTORS
330
A50
102
}
330
A50
100
AcDbXrecord
  1
all non xref layers
  1
*
  1
*
  1
*
 70
     0
  1
*
  1
*
  0
XRECORD
  5
AAB
102
{ACAD_REACTORS
330
A50
102
}
330
A50
100
AcDbXrecord
  1
AMENDMENTS
  1
*
  1
*
  1
*
 70
     0
  1
*
  1
*
  0
XRECORD
  5
AAC
102
{ACAD_REACTORS
330
A50
102
}
330
A50
100
AcDbXrecord
  1
ANCHORS
  1
*|ANCHOR*
  1
*
  1
*
 70
     0
  1
*
  1
*
  0
XRECORD
  5
AAD
102
{ACAD_REACTORS
330
A50
102
}
330
A50
100
AcDbXrecord
  1
aq
  1
aq*
  1
*
  1
*
 70
     0
  1
*
  1
*
  0
XRECORD
  5
AAE
102
{ACAD_REACTORS
330
A50
102
}
330
A50
100
AcDbXrecord
  1
aq-
  1
aq-*
  1
*
  1
*
 70
     0
  1
*
  1
*
  0
XRECORD
  5
AAF
102
{ACAD_REACTORS
330
A50
102
}
330
A50
100
AcDbXrecord
  1
arch
  1
*$-cc*
  1
*
  1
*
 70
     0
  1
*
  1
*
  0
XRECORD
  5
AB0
102
{ACAD_REACTORS
330
A50
102
}
330
A50
100
AcDbXrecord
  1
ARCHITECTURAL
  1
*ARCH*
  1
*
  1
*
 70
     0
  1
*
  1
*
  0
XRECORD
  5
AB1
102
{ACAD_REACTORS
330
A50
102
}
330
A50
100
AcDbXrecord
  1
area
  1
pal3
  1
*
  1
*
 70
     0
  1
*
  1
*
  0
XRECORD
  5
AB2
102
{ACAD_REACTORS
330
A50
102
}
330
A50
100
AcDbXrecord
  1
AREAS
  1
*AREA*
  1
*
  1
*
 70
     0
  1
*
  1
*
  0
XRECORD
  5
AB3
102
{ACAD_REACTORS
330
A50
102
}
330
A50
100
AcDbXrecord
  1
ARR
  1
*ARR*
  1
*
  1
*
 70
     0
  1
*
  1
*
  0
XRECORD
  5
AB4
102
{ACAD_REACTORS
330
A50
102
}
330
A50
100
AcDbXrecord
  1
asd
  1
1389p00|*
  1
*
  1
*
 70
     0
  1
*
  1
*
  0
XRECORD
  5
AB5
102
{ACAD_REACTORS
330
A50
102
}
330
A50
100
AcDbXrecord
  1
AZ
  1
*
  1
*
  1
*
 70
    16
  1
*
  1
*
  0
XRECORD
  5
AB6
102
{ACAD_REACTORS
330
A50
102
}
330
A50
100
AcDbXrecord
  1
B
  1
B-*
  1
*
  1
*
 70
     0
  1
*
  1
*
  0
XRECORD
  5
AB7
102
{ACAD_REACTORS
330
A50
102
}
330
A50
100
AcDbXrecord
  1
BAG
  1
*BAG*
  1
*
  1
*
 70
     0
  1
*
  1
*
  0
XRECORD
  5
AB8
102
{ACAD_REACTORS
330
A50
102
}
330
A50
100
AcDbXrecord
  1
BAG-DUST
  1
*BAG*,*DUST-COLLECTOR*
  1
*
  1
*
 70
     0
  1
*
  1
*
  0
XRECORD
  5
AB9
102
{ACAD_REACTORS
330
A50
102
}
330
A50
100
AcDbXrecord
  1
bal
  1
*bal*
  1
*
  1
*
 70
     0
  1
*
  1
*
  0
XRECORD
  5
ABA
102
{ACAD_REACTORS
330
A50
102
}
330
A50
100
AcDbXrecord
  1
BASE
  1
SUB-BASE*
  1
*
  1
*
 70
     0
  1
*
  1
*
  0
XRECORD
  5
ABB
102
{ACAD_REACTORS
330
A50
102
}
330
A50
100
AcDbXrecord
  1
Base Plan XREF
  1
BNPLAN|N_*
  1
*
  1
*
 70
     0
  1
*
  1
*
  0
XRECORD
  5
ABC
102
{ACAD_REACTORS
330
A50
102
}
330
A50
100
AcDbXrecord
  1
BASEMENT
  1
A0*
  1
*
  1
*
 70
     0
  1
*
  1
*
  0
XRECORD
  5
ABD
102
{ACAD_REACTORS
330
A50
102
}
330
A50
100
AcDbXrecord
  1
bchf
  1
s004*
  1
*
  1
*
 70
     0
  1
*
  1
*
  0
XRECORD
  5
ABE
102
{ACAD_REACTORS
330
A50
102
}
330
A50
100
AcDbXrecord
  1
BDY
  1
*BDT*
  1
*
  1
*
 70
     0
  1
*
  1
*
  0
XRECORD
  5
ABF
102
{ACAD_REACTORS
330
A50
102
}
330
A50
100
AcDbXrecord
  1
BEAMS
  1
*BMS*
  1
*
  1
*
 70
     0
  1
*
  1
*
  0
XRECORD
  5
AC0
102
{ACAD_REACTORS
330
A50
102
}
330
A50
100
AcDbXrecord
  1
BLA
  1
*LEADER-3*
  1
*
  1
*
 70
     0
  1
*
  1
*
  0
XRECORD
  5
AC1
102
{ACAD_REACTORS
330
A50
102
}
330
A50
100
AcDbXrecord
  1
BLOCK
  1
*BLOCK*
  1
*
  1
*
 70
     0
  1
*
  1
*
  0
XRECORD
  5
AC2
102
{ACAD_REACTORS
330
A50
102
}
330
A50
100
AcDbXrecord
  1
blue
  1
*
  1
blue
  1
*
 70
     0
  1
*
  1
*
  0
XRECORD
  5
AC3
102
{ACAD_REACTORS
330
A50
102
}
330
A50
100
AcDbXrecord
  1
Borders
  1
*-bor
  1
*
  1
*
 70
     3
  1
*
  1
*
  0
XRECORD
  5
AC4
102
{ACAD_REACTORS
330
A50
102
}
330
A50
100
AcDbXrecord
  1
BOUNDARYS
  1
*BOUND*
  1
*
  1
*
 70
     0
  1
*
  1
*
  0
XRECORD
  5
AC5
102
{ACAD_REACTORS
330
A50
102
}
330
A50
100
AcDbXrecord
  1
boundry
  1
*
  1
*1
  1
*
 70
     0
  1
*
  1
*
  0
XRECORD
  5
AC6
102
{ACAD_REACTORS
330
A50
102
}
330
A50
100
AcDbXrecord
  1
BREWING WATER
  1
*BREW*
  1
*
  1
*
 70
     0
  1
*
  1
*
  0
XRECORD
  5
AC7
102
{ACAD_REACTORS
330
A50
102
}
330
A50
100
AcDbXrecord
  1
building twist
  1
*
  1
*
  1
*
 70
     0
  1
*
  1
*
  0
XRECORD
  5
AC8
102
{ACAD_REACTORS
330
A50
102
}
330
A50
100
AcDbXrecord
  1
BUILDINGS
  1
*BUILD*,*BLD*,BLDG*
  1
*
  1
*
 70
     0
  1
*
  1
*
  0
XRECORD
  5
AC9
102
{ACAD_REACTORS
330
A50
102
}
330
A50
100
AcDbXrecord
  1
BUILDINGS 00
  1
*BLDG*00,*BUILD*00
  1
*
  1
*
 70
     0
  1
*
  1
*
  0
XRECORD
  5
ACA
102
{ACAD_REACTORS
330
A50
102
}
330
A50
100
AcDbXrecord
  1
C
  1
*
  1
*
  1
CENTER2
 70
     0
  1
*
  1
*
  0
XRECORD
  5
ACB
102
{ACAD_REACTORS
330
A50
102
}
330
A50
100
AcDbXrecord
  1
c5
  1
*
  1
5
  1
*
 70
     0
  1
*
  1
*
  0
XRECORD
  5
ACC
102
{ACAD_REACTORS
330
A50
102
}
330
A50
100
AcDbXrecord
  1
c6
  1
*
  1
6
  1
*
 70
     0
  1
*
  1
*
  0
XRECORD
  5
ACD
102
{ACAD_REACTORS
330
A50
102
}
330
A50
100
AcDbXrecord
  1
c7
  1
*
  1
7
  1
*
 70
     0
  1
*
  1
*
  0
XRECORD
  5
ACE
102
{ACAD_REACTORS
330
A50
102
}
330
A50
100
AcDbXrecord
  1
cal
  1
75X75 ANG,20x20 ANG,bracket,10,tweeker,DIMC
  1
*
  1
*
 70
     0
  1
*
  1
*
  0
XRECORD
  5
ACF
102
{ACAD_REACTORS
330
A50
102
}
330
A50
100
AcDbXrecord
  1
canopy
  1
1-can*
  1
*
  1
*
 70
     0
  1
*
  1
*
  0
XRECORD
  5
AD0
102
{ACAD_REACTORS
330
A50
102
}
330
A50
100
AcDbXrecord
  1
CC
  1
*CC*
  1
*
  1
*
 70
     0
  1
*
  1
*
  0
XRECORD
  5
AD1
102
{ACAD_REACTORS
330
A50
102
}
330
A50
100
AcDbXrecord
  1
cd
  1
cd_*
  1
*
  1
*
 70
     0
  1
*
  1
*
  0
XRECORD
  5
AD2
102
{ACAD_REACTORS
330
A50
102
}
330
A50
100
AcDbXrecord
  1
cd-ht
  1
??_*
  1
*
  1
*
 70
     0
  1
*
  1
*
  0
XRECORD
  5
AD3
102
{ACAD_REACTORS
330
A50
102
}
330
A50
100
AcDbXrecord
  1
Ceil
  1
*ceil*
  1
*
  1
*
 70
     0
  1
*
  1
*
  0
XRECORD
  5
AD4
102
{ACAD_REACTORS
330
A50
102
}
330
A50
100
AcDbXrecord
  1
CEILING
  1
*CEILING*
  1
*
  1
*
 70
     0
  1
*
  1
*
  0
XRECORD
  5
AD5
102
{ACAD_REACTORS
330
A50
102
}
330
A50
100
AcDbXrecord
  1
ceiling bulkhead
  1
*rcp*
  1
*
  1
*
 70
     0
  1
*
  1
*
  0
XRECORD
  5
AD6
102
{ACAD_REACTORS
330
A50
102
}
330
A50
100
AcDbXrecord
  1
CENTER
  1
*???C??????
  1
*
  1
*
 70
     0
  1
*
  1
*
  0
XRECORD
  5
AD7
102
{ACAD_REACTORS
330
A50
102
}
330
A50
100
AcDbXrecord
  1
centre
  1
*
  1
*
  1
center
 70
     0
  1
*
  1
*
  0
XRECORD
  5
AD8
102
{ACAD_REACTORS
330
A50
102
}
330
A50
100
AcDbXrecord
  1
CENTROID
  1
*CENTROID
  1
*
  1
*
 70
     0
  1
*
  1
*
  0
XRECORD
  5
AD9
102
{ACAD_REACTORS
330
A50
102
}
330
A50
100
AcDbXrecord
  1
CIP-R
  1
*CIP-R*
  1
*
  1
*
 70
     0
  1
*
  1
*
  0
XRECORD
  5
ADA
102
{ACAD_REACTORS
330
A50
102
}
330
A50
100
AcDbXrecord
  1
CIP-S
  1
*CIP-S*
  1
*
  1
*
 70
     0
  1
*
  1
*
  0
XRECORD
  5
ADB
102
{ACAD_REACTORS
330
A50
102
}
330
A50
100
AcDbXrecord
  1
CIP-S+-R
  1
PIPING-CIP*
  1
*
  1
*
 70
     0
  1
*
  1
*
  0
XRECORD
  5
ADC
102
{ACAD_REACTORS
330
A50
102
}
330
A50
100
AcDbXrecord
  1
CIVIL
  1
C_*
  1
*
  1
*
 70
     0
  1
*
  1
*
  0
XRECORD
  5
ADD
102
{ACAD_REACTORS
330
A50
102
}
330
A50
100
AcDbXrecord
  1
CIVIL&GF BASE
  1
GF*,C_*
  1
*
  1
*
 70
     0
  1
*
  1
*
  0
XRECORD
  5
ADE
102
{ACAD_REACTORS
330
A50
102
}
330
A50
100
AcDbXrecord
  1
CL
  1
*CL*
  1
*
  1
*
 70
     0
  1
*
  1
*
  0
XRECORD
  5
ADF
102
{ACAD_REACTORS
330
A50
102
}
330
A50
100
AcDbXrecord
  1
clg
  1
*clg*
  1
*
  1
*
 70
     0
  1
*
  1
*
  0
XRECORD
  5
AE0
102
{ACAD_REACTORS
330
A50
102
}
330
A50
100
AcDbXrecord
  1
CODES
  1
*CODE*
  1
*
  1
*
 70
     0
  1
*
  1
*
  0
XRECORD
  5
AE1
102
{ACAD_REACTORS
330
A50
102
}
330
A50
100
AcDbXrecord
  1
col
  1
*col*
  1
*
  1
*
 70
     0
  1
*
  1
*
  0
XRECORD
  5
AE2
102
{ACAD_REACTORS
330
A50
102
}
330
A50
100
AcDbXrecord
  1
COL8
  1
*
  1
*8
  1
*
 70
     0
  1
*
  1
*
  0
XRECORD
  5
AE3
102
{ACAD_REACTORS
330
A50
102
}
330
A50
100
AcDbXrecord
  1
COLD WATER
  1
*COLD*,*SCW*
  1
*
  1
*
 70
     0
  1
*
  1
*
  0
XRECORD
  5
AE4
102
{ACAD_REACTORS
330
A50
102
}
330
A50
100
AcDbXrecord
  1
color2
  1
*
  1
2
  1
*
 70
     0
  1
*
  1
*
  0
XRECORD
  5
AE5
102
{ACAD_REACTORS
330
A50
102
}
330
A50
100
AcDbXrecord
  1
COLOR8
  1
*
  1
*8
  1
*
 70
     0
  1
*
  1
*
  0
XRECORD
  5
AE6
102
{ACAD_REACTORS
330
A50
102
}
330
A50
100
AcDbXrecord
  1
COLOR90
  1
*
  1
90
  1
*
 70
     0
  1
*
  1
*
  0
XRECORD
  5
AE7
102
{ACAD_REACTORS
330
A50
102
}
330
A50
100
AcDbXrecord
  1
COLORMEGEN
  1
*
  1
*MAGENTA
  1
*
 70
     0
  1
*
  1
*
  0
XRECORD
  5
AE8
102
{ACAD_REACTORS
330
A50
102
}
330
A50
100
AcDbXrecord
  1
colour
  1
a-col*
  1
*
  1
*
 70
     0
  1
*
  1
*
  0
XRECORD
  5
AE9
102
{ACAD_REACTORS
330
A50
102
}
330
A50
100
AcDbXrecord
  1
colour 11
  1
*
  1
11
  1
*
 70
     0
  1
*
  1
*
  0
XRECORD
  5
AEA
102
{ACAD_REACTORS
330
A50
102
}
330
A50
100
AcDbXrecord
  1
cols
  1
*cols
  1
*
  1
*
 70
     0
  1
*
  1
*
  0
XRECORD
  5
AEB
102
{ACAD_REACTORS
330
A50
102
}
330
A50
100
AcDbXrecord
  1
columns
  1
s281g600000
  1
*
  1
*
 70
     0
  1
*
  1
*
  0
XRECORD
  5
AEC
102
{ACAD_REACTORS
330
A50
102
}
330
A50
100
AcDbXrecord
  1
Combo
  1
*Fc
  1
*
  1
*
 70
     0
  1
*
  1
*
  0
XRECORD
  5
AED
102
{ACAD_REACTORS
330
A50
102
}
330
A50
100
AcDbXrecord
  1
CONC
  1
CONC*
  1
*
  1
*
 70
     0
  1
*
  1
*
  0
XRECORD
  5
AEE
102
{ACAD_REACTORS
330
A50
102
}
330
A50
100
AcDbXrecord
  1
CONCRETE DETAILS
  1
D-RC-*
  1
*
  1
*
 70
     0
  1
*
  1
*
  0
XRECORD
  5
AEF
102
{ACAD_REACTORS
330
A50
102
}
330
A50
100
AcDbXrecord
  1
continous
  1
*
  1
*
  1
continuous
 70
     0
  1
*
  1
*
  0
XRECORD
  5
AF0
102
{ACAD_REACTORS
330
A50
102
}
330
A50
100
AcDbXrecord
  1
CONTOUR
  1
*CONTOUR
  1
*44
  1
*
 70
     0
  1
*
  1
*
  0
XRECORD
  5
AF1
102
{ACAD_REACTORS
330
A50
102
}
330
A50
100
AcDbXrecord
  1
contours1
  1
*con*
  1
*
  1
*
 70
     0
  1
*
  1
*
  0
XRECORD
  5
AF2
102
{ACAD_REACTORS
330
A50
102
}
330
A50
100
AcDbXrecord
  1
conts
  1
*cont*
  1
*
  1
*
 70
     0
  1
*
  1
*
  0
XRECORD
  5
AF3
102
{ACAD_REACTORS
330
A50
102
}
330
A50
100
AcDbXrecord
  1
coverage
  1
*cov*
  1
*
  1
*
 70
     0
  1
*
  1
*
  0
XRECORD
  5
AF4
102
{ACAD_REACTORS
330
A50
102
}
330
A50
100
AcDbXrecord
  1
CUBICAL
  1
*CUB*
  1
*
  1
*
 70
     0
  1
*
  1
*
  0
XRECORD
  5
AF6
102
{ACAD_REACTORS
330
A50
102
}
330
A50
100
AcDbXrecord
  1
cur-froz
  1
*
  1
*
  1
*
 70
    16
  1
*
  1
*
  0
XRECORD
  5
AF7
102
{ACAD_REACTORS
330
A50
102
}
330
A50
100
AcDbXrecord
  1
CUR-FROZEN
  1
*
  1
*
  1
*
 70
    16
  1
*
  1
*
  0
XRECORD
  5
AF5
102
{ACAD_REACTORS
330
A50
102
}
330
A50
100
AcDbXrecord
  1
CUR FROZEN
  1
*
  1
*
  1
*
 70
    16
  1
*
  1
*
  0
XRECORD
  5
AF8
102
{ACAD_REACTORS
330
A50
102
}
330
A50
100
AcDbXrecord
  1
current
  1
*
  1
*
  1
*
 70
    12
  1
*
  1
*
  0
XRECORD
  5
AF9
102
{ACAD_REACTORS
330
A50
102
}
330
A50
100
AcDbXrecord
  1
Cutouts & Holes
  1
*cut*,*hole*
  1
*
  1
*
 70
     0
  1
*
  1
*
  0
XRECORD
  5
AFA
102
{ACAD_REACTORS
330
A50
102
}
330
A50
100
AcDbXrecord
  1
cyan
  1
*
  1
4
  1
*
 70
     0
  1
*
  1
*
  0
XRECORD
  5
AFB
102
{ACAD_REACTORS
330
A50
102
}
330
A50
100
AcDbXrecord
  1
D
  1
**D*
  1
*
  1
*
 70
     0
  1
*
  1
*
  0
XRECORD
  5
AFC
102
{ACAD_REACTORS
330
A50
102
}
330
A50
100
AcDbXrecord
  1
D34
  1
*D34*
  1
*
  1
*
 70
     0
  1
*
  1
*
  0
XRECORD
  5
AFD
102
{ACAD_REACTORS
330
A50
102
}
330
A50
100
AcDbXrecord
  1
DASHDOT
  1
*
  1
*
  1
DASHDOT
 70
     0
  1
*
  1
*
  0
XRECORD
  5
AFE
102
{ACAD_REACTORS
330
A50
102
}
330
A50
100
AcDbXrecord
  1
date
  1
*date
  1
*
  1
*
 70
     0
  1
*
  1
*
  0
XRECORD
  5
AFF
102
{ACAD_REACTORS
330
A50
102
}
330
A50
100
AcDbXrecord
  1
dd
  1
*sum*
  1
*
  1
*
 70
     0
  1
*
  1
*
  0
XRECORD
  5
B00
102
{ACAD_REACTORS
330
A50
102
}
330
A50
100
AcDbXrecord
  1
def
  1
*def*
  1
*
  1
*
 70
     0
  1
*
  1
*
  0
XRECORD
  5
B01
102
{ACAD_REACTORS
330
A50
102
}
330
A50
100
AcDbXrecord
  1
default
  1
*
  1
*
  1
*
 70
     0
  1
default
  1
*
  0
XRECORD
  5
B02
102
{ACAD_REACTORS
330
A50
102
}
330
A50
100
AcDbXrecord
  1
DEFPOINT
  1
*DEF*
  1
*
  1
*
 70
     0
  1
*
  1
*
  0
XRECORD
  5
B03
102
{ACAD_REACTORS
330
A50
102
}
330
A50
100
AcDbXrecord
  1
DEM
  1
*DEM*
  1
*
  1
*
 70
     0
  1
*
  1
*
  0
XRECORD
  5
B04
102
{ACAD_REACTORS
330
A50
102
}
330
A50
100
AcDbXrecord
  1
demo
  1
*dem
  1
*
  1
*
 70
     0
  1
*
  1
*
  0
XRECORD
  5
B05
102
{ACAD_REACTORS
330
A50
102
}
330
A50
100
AcDbXrecord
  1
Demolition
  1
*-D-*
  1
*
  1
*
 70
     0
  1
*
  1
*
  0
XRECORD
  5
B06
102
{ACAD_REACTORS
330
A50
102
}
330
A50
100
AcDbXrecord
  1
des
  1
*des*
  1
*
  1
*
 70
     0
  1
*
  1
*
  0
XRECORD
  5
B07
102
{ACAD_REACTORS
330
A50
102
}
330
A50
100
AcDbXrecord
  1
desig
  1
*des*
  1
*
  1
*
 70
     0
  1
*
  1
*
  0
XRECORD
  5
B08
102
{ACAD_REACTORS
330
A50
102
}
330
A50
100
AcDbXrecord
  1
Design
  1
DESIGN,DDF,200,DDIM,HATCH,APP,POC,VPORTS
  1
*
  1
*
 70
     0
  1
*
  1
*
  0
XRECORD
  5
B09
102
{ACAD_REACTORS
330
A50
102
}
330
A50
100
AcDbXrecord
  1
det
  1
det*
  1
*
  1
*
 70
     0
  1
*
  1
*
  0
XRECORD
  5
B0A
102
{ACAD_REACTORS
330
A50
102
}
330
A50
100
AcDbXrecord
  1
DET1
  1
DET1*
  1
*
  1
*
 70
     0
  1
*
  1
*
  0
XRECORD
  5
B0B
102
{ACAD_REACTORS
330
A50
102
}
330
A50
100
AcDbXrecord
  1
DETAIL
  1
DET*
  1
*
  1
*
 70
     0
  1
*
  1
*
  0
XRECORD
  5
B0C
102
{ACAD_REACTORS
330
A50
102
}
330
A50
100
AcDbXrecord
  1
DETAIL Z
  1
DET-Z*
  1
*
  1
*
 70
    16
  1
*
  1
*
  0
XRECORD
  5
B0D
102
{ACAD_REACTORS
330
A50
102
}
330
A50
100
AcDbXrecord
  1
DETAILS
  1
D-*
  1
*
  1
*
 70
     0
  1
*
  1
*
  0
XRECORD
  5
B0E
102
{ACAD_REACTORS
330
A50
102
}
330
A50
100
AcDbXrecord
  1
Diffuser
  1
*dif*,*flex*
  1
*
  1
*
 70
     0
  1
*
  1
*
  0
XRECORD
  5
B0F
102
{ACAD_REACTORS
330
A50
102
}
330
A50
100
AcDbXrecord
  1
DIM
  1
*DIM
  1
*
  1
*
 70
     0
  1
*
  1
*
  0
XRECORD
  5
B10
102
{ACAD_REACTORS
330
A50
102
}
330
A50
100
AcDbXrecord
  1
DIM-TEXT
  1
DIM*,TEXT*
  1
*
  1
*
 70
     0
  1
*
  1
*
  0
XRECORD
  5
B11
102
{ACAD_REACTORS
330
A50
102
}
330
A50
100
AcDbXrecord
  1
Dimension Layers
  1
*-DM
  1
*
  1
*
 70
     0
  1
*
  1
*
  0
XRECORD
  5
B12
102
{ACAD_REACTORS
330
A50
102
}
330
A50
100
AcDbXrecord
  1
dimensions
  1
*dmn*
  1
*
  1
*
 70
     0
  1
*
  1
*
  0
XRECORD
  5
B13
102
{ACAD_REACTORS
330
A50
102
}
330
A50
100
AcDbXrecord
  1
DIMS
  1
**D*
  1
*
  1
*
 70
     0
  1
*
  1
*
  0
XRECORD
  5
B14
102
{ACAD_REACTORS
330
A50
102
}
330
A50
100
AcDbXrecord
  1
DIMTEXT
  1
*DIMTEXT*
  1
*
  1
*
 70
     0
  1
*
  1
*
  0
XRECORD
  5
B15
102
{ACAD_REACTORS
330
A50
102
}
330
A50
100
AcDbXrecord
  1
DOOR
  1
*DO*
  1
*
  1
*
 70
     0
  1
*
  1
*
  0
XRECORD
  5
B16
102
{ACAD_REACTORS
330
A50
102
}
330
A50
100
AcDbXrecord
  1
DOROUTLX
  1
*DOROUT*
  1
*
  1
*
 70
     0
  1
*
  1
*
  0
XRECORD
  5
B17
102
{ACAD_REACTORS
330
A50
102
}
330
A50
100
AcDbXrecord
  1
DP
  1
*DOWN*
  1
*
  1
*
 70
     0
  1
*
  1
*
  0
XRECORD
  5
B18
102
{ACAD_REACTORS
330
A50
102
}
330
A50
100
AcDbXrecord
  1
drainage
  1
p*,e*
  1
*
  1
*
 70
     0
  1
*
  1
*
  0
XRECORD
  5
B19
102
{ACAD_REACTORS
330
A50
102
}
330
A50
100
AcDbXrecord
  1
DRAINS
  1
*DRA*
  1
*
  1
*
 70
     0
  1
*
  1
*
  0
XRECORD
  5
B1A
102
{ACAD_REACTORS
330
A50
102
}
330
A50
100
AcDbXrecord
  1
DRAWING 02_04
  1
*
  1
*
  1
*
 70
     0
  1
*
  1
*
  0
XRECORD
  5
B1B
102
{ACAD_REACTORS
330
A50
102
}
330
A50
100
AcDbXrecord
  1
DUCT30
  1
*DUCT*
  1
*
  1
*
 70
     0
  1
*
  1
*
  0
XRECORD
  5
B1C
102
{ACAD_REACTORS
330
A50
102
}
330
A50
100
AcDbXrecord
  1
DUST-COLLECTOR
  1
*DUST-COLLECTOR*
  1
*
  1
*
 70
     0
  1
*
  1
*
  0
XRECORD
  5
B1D
102
{ACAD_REACTORS
330
A50
102
}
330
A50
100
AcDbXrecord
  1
EDG
  1
*EDG*
  1
*
  1
*
 70
     0
  1
*
  1
*
  0
XRECORD
  5
B1E
102
{ACAD_REACTORS
330
A50
102
}
330
A50
100
AcDbXrecord
  1
elec
  1
*63*
  1
*
  1
*
 70
     0
  1
*
  1
*
  0
XRECORD
  5
B1F
102
{ACAD_REACTORS
330
A50
102
}
330
A50
100
AcDbXrecord
  1
elect
  1
*electrical*
  1
*
  1
*
 70
     0
  1
*
  1
*
  0
XRECORD
  5
B20
102
{ACAD_REACTORS
330
A50
102
}
330
A50
100
AcDbXrecord
  1
Electrical
  1
E*
  1
*
  1
*
 70
     0
  1
*
  1
*
  0
XRECORD
  5
B21
102
{ACAD_REACTORS
330
A50
102
}
330
A50
100
AcDbXrecord
  1
elev
  1
a-elev*
  1
*
  1
*
 70
     0
  1
*
  1
*
  0
XRECORD
  5
B22
102
{ACAD_REACTORS
330
A50
102
}
330
A50
100
AcDbXrecord
  1
ELEVATION
  1
E*
  1
*
  1
*
 70
     1
  1
*
  1
*
  0
XRECORD
  5
B23
102
{ACAD_REACTORS
330
A50
102
}
330
A50
100
AcDbXrecord
  1
Elevations
  1
*
  1
*
  1
*
 70
     0
  1
*
  1
*
  0
XRECORD
  5
B24
102
{ACAD_REACTORS
330
A50
102
}
330
A50
100
AcDbXrecord
  1
EQ
  1
*EQ*
  1
*
  1
*
 70
     0
  1
*
  1
*
  0
XRECORD
  5
B25
102
{ACAD_REACTORS
330
A50
102
}
330
A50
100
AcDbXrecord
  1
EQU
  1
*EQ*
  1
*
  1
*
 70
     0
  1
*
  1
*
  0
XRECORD
  5
B26
102
{ACAD_REACTORS
330
A50
102
}
330
A50
100
AcDbXrecord
  1
ew
  1
ew*
  1
*
  1
*
 70
     0
  1
*
  1
*
  0
XRECORD
  5
B27
102
{ACAD_REACTORS
330
A50
102
}
330
A50
100
AcDbXrecord
  1
EX
  1
*EX*
  1
*
  1
*
 70
     0
  1
*
  1
*
  0
XRECORD
  5
B28
102
{ACAD_REACTORS
330
A50
102
}
330
A50
100
AcDbXrecord
  1
Existing
  1
e_*
  1
*
  1
*
 70
     0
  1
*
  1
*
  0
XRECORD
  5
B29
102
{ACAD_REACTORS
330
A50
102
}
330
A50
100
AcDbXrecord
  1
Existing & Removed
  1
*
  1
*
  1
*
 70
     0
  1
*
  1
*
  0
XRECORD
  5
B2A
102
{ACAD_REACTORS
330
A50
102
}
330
A50
100
AcDbXrecord
  1
EXP
  1
*
  1
*
  1
*
 70
     0
  1
*
  1
*
  0
XRECORD
  5
B2B
102
{ACAD_REACTORS
330
A50
102
}
330
A50
100
AcDbXrecord
  1
EXTG
  1
*EXTG*
  1
*
  1
*
 70
     0
  1
*
  1
*
  0
XRECORD
  5
B2C
102
{ACAD_REACTORS
330
A50
102
}
330
A50
100
AcDbXrecord
  1
EXTG-~
  1
*
  1
*
  1
*
 70
   256
  1
*
  1
*
  0
XRECORD
  5
B2D
102
{ACAD_REACTORS
330
A50
102
}
330
A50
100
AcDbXrecord
  1
f1-area
  1
*
  1
*
  1
*
 70
     0
  1
*
  1
*
  0
XRECORD
  5
B2E
102
{ACAD_REACTORS
330
A50
102
}
330
A50
100
AcDbXrecord
  1
farm
  1
*
  1
*
  1
*
 70
     0
  1
*
  1
*
  0
XRECORD
  5
B2F
102
{ACAD_REACTORS
330
A50
102
}
330
A50
100
AcDbXrecord
  1
FENCE
  1
*FEN*
  1
*
  1
*
 70
     0
  1
*
  1
*
  0
XRECORD
  5
B30
102
{ACAD_REACTORS
330
A50
102
}
330
A50
100
AcDbXrecord
  1
fences
  1
*fence*
  1
*
  1
*
 70
     0
  1
*
  1
*
  0
XRECORD
  5
B31
102
{ACAD_REACTORS
330
A50
102
}
330
A50
100
AcDbXrecord
  1
fic
  1
2*
  1
*
  1
*
 70
    16
  1
*
  1
*
  0
XRECORD
  5
B32
102
{ACAD_REACTORS
330
A50
102
}
330
A50
100
AcDbXrecord
  1
FILL
  1
*FILL,*HTH
  1
*
  1
*
 70
     0
  1
*
  1
*
  0
XRECORD
  5
B33
102
{ACAD_REACTORS
330
A50
102
}
330
A50
100
AcDbXrecord
  1
FIN
  1
*FIN*
  1
*
  1
*
 70
     0
  1
*
  1
*
  0
XRECORD
  5
B34
102
{ACAD_REACTORS
330
A50
102
}
330
A50
100
AcDbXrecord
  1
FIRE
  1
*FIR*
  1
*
  1
*
 70
     0
  1
*
  1
*
  0
XRECORD
  5
B36
102
{ACAD_REACTORS
330
A50
102
}
330
A50
100
AcDbXrecord
  1
FIRST_FLOOR
  1
*0*
  1
*
  1
*
 70
     0
  1
*
  1
*
  0
XRECORD
  5
B35
102
{ACAD_REACTORS
330
A50
102
}
330
A50
100
AcDbXrecord
  1
First Floor
  1
1*
  1
*
  1
*
 70
     0
  1
*
  1
*
  0
XRECORD
  5
B37
102
{ACAD_REACTORS
330
A50
102
}
330
A50
100
AcDbXrecord
  1
fix
  1
*fix*
  1
*
  1
*
 70
     0
  1
*
  1
*
  0
XRECORD
  5
B38
102
{ACAD_REACTORS
330
A50
102
}
330
A50
100
AcDbXrecord
  1
Floor
  1
floor*
  1
*
  1
*
 70
     0
  1
*
  1
*
  0
XRECORD
  5
B39
102
{ACAD_REACTORS
330
A50
102
}
330
A50
100
AcDbXrecord
  1
FLOOR FINISHES
  1
*-FF-*
  1
*
  1
*
 70
     0
  1
*
  1
*
  0
XRECORD
  5
B3A
102
{ACAD_REACTORS
330
A50
102
}
330
A50
100
AcDbXrecord
  1
FLOOR LOADINGS
  1
*FL-*
  1
*
  1
*
 70
     0
  1
*
  1
*
  0
XRECORD
  5
B3B
102
{ACAD_REACTORS
330
A50
102
}
330
A50
100
AcDbXrecord
  1
Floor tiles
  1
*floor tiles*
  1
*
  1
*
 70
     0
  1
*
  1
*
  0
XRECORD
  5
B3C
102
{ACAD_REACTORS
330
A50
102
}
330
A50
100
AcDbXrecord
  1
floor waste
  1
*floor waste*
  1
*
  1
*
 70
     0
  1
*
  1
*
  0
XRECORD
  5
B3D
102
{ACAD_REACTORS
330
A50
102
}
330
A50
100
AcDbXrecord
  1
FLOORFIN
  1
*FLOOR*
  1
*
  1
*
 70
     0
  1
*
  1
*
  0
XRECORD
  5
B3E
102
{ACAD_REACTORS
330
A50
102
}
330
A50
100
AcDbXrecord
  1
FOOTING
  1
*FOOT*
  1
*
  1
*
 70
     0
  1
*
  1
*
  0
XRECORD
  5
B3F
102
{ACAD_REACTORS
330
A50
102
}
330
A50
100
AcDbXrecord
  1
FR
  1
*
  1
*
  1
*
 70
     4
  1
*
  1
*
  0
XRECORD
  5
B40
102
{ACAD_REACTORS
330
A50
102
}
330
A50
100
AcDbXrecord
  1
freeze
  1
*LEV*,*node*,*coor*,*date*,*point*,*text*
  1
*
  1
*
 70
     0
  1
*
  1
*
  0
XRECORD
  5
B41
102
{ACAD_REACTORS
330
A50
102
}
330
A50
100
AcDbXrecord
  1
FREEZER
  1
*FREEZER*
  1
*
  1
*
 70
     0
  1
*
  1
*
  0
XRECORD
  5
B42
102
{ACAD_REACTORS
330
A50
102
}
330
A50
100
AcDbXrecord
  1
Frez
  1
*Frez
  1
*
  1
*
 70
     0
  1
*
  1
*
  0
XRECORD
  5
B43
102
{ACAD_REACTORS
330
A50
102
}
330
A50
100
AcDbXrecord
  1
FRO
  1
*
  1
*
  1
*
 70
     4
  1
*
  1
*
  0
XRECORD
  5
B44
102
{ACAD_REACTORS
330
A50
102
}
330
A50
100
AcDbXrecord
  1
froz
  1
*
  1
*
  1
*
 70
     4
  1
*
  1
*
  0
XRECORD
  5
B45
102
{ACAD_REACTORS
330
A50
102
}
330
A50
100
AcDbXrecord
  1
FROZEN
  1
*
  1
*
  1
*
 70
     4
  1
*
  1
*
  0
XRECORD
  5
B46
102
{ACAD_REACTORS
330
A50
102
}
330
A50
100
AcDbXrecord
  1
FROZEN + ON
  1
*
  1
*
  1
*
 70
     5
  1
*
  1
*
  0
XRECORD
  5
B47
102
{ACAD_REACTORS
330
A50
102
}
330
A50
100
AcDbXrecord
  1
FROZEN IN VPORT
  1
*
  1
*
  1
*
 70
    20
  1
*
  1
*
  0
XRECORD
  5
B48
102
{ACAD_REACTORS
330
A50
102
}
330
A50
100
AcDbXrecord
  1
Frozen Layers
  1
*
  1
*
  1
*
 70
     4
  1
*
  1
*
  0
XRECORD
  5
B49
102
{ACAD_REACTORS
330
A50
102
}
330
A50
100
AcDbXrecord
  1
Frozen Layers -Current Viewport
  1
*
  1
*
  1
*
 70
    16
  1
*
  1
*
  0
XRECORD
  5
B4B
102
{ACAD_REACTORS
330
A50
102
}
330
A50
100
AcDbXrecord
  1
FROZEN+ON
  1
*
  1
*
  1
*
 70
     5
  1
*
  1
*
  0
XRECORD
  5
B4A
102
{ACAD_REACTORS
330
A50
102
}
330
A50
100
AcDbXrecord
  1
Frozen only
  1
*
  1
*
  1
*
 70
     4
  1
*
  1
*
  0
XRECORD
  5
B4C
102
{ACAD_REACTORS
330
A50
102
}
330
A50
100
AcDbXrecord
  1
FS
  1
*
  1
*
  1
*
 70
     0
  1
*
  1
*
  0
XRECORD
  5
B4D
102
{ACAD_REACTORS
330
A50
102
}
330
A50
100
AcDbXrecord
  1
FSW
  1
FSW*
  1
*
  1
*
 70
     0
  1
*
  1
*
  0
XRECORD
  5
B4E
102
{ACAD_REACTORS
330
A50
102
}
330
A50
100
AcDbXrecord
  1
furn
  1
*furn*
  1
*
  1
*
 70
     0
  1
*
  1
*
  0
XRECORD
  5
B4F
102
{ACAD_REACTORS
330
A50
102
}
330
A50
100
AcDbXrecord
  1
Furniture
  1
*fur*
  1
*
  1
*
 70
     0
  1
*
  1
*
  0
XRECORD
  5
B50
102
{ACAD_REACTORS
330
A50
102
}
330
A50
100
AcDbXrecord
  1
FUTURE
  1
*F??
  1
*
  1
*
 70
     0
  1
*
  1
*
  0
XRECORD
  5
B51
102
{ACAD_REACTORS
330
A50
102
}
330
A50
100
AcDbXrecord
  1
G
  1
G-*
  1
*
  1
*
 70
     0
  1
*
  1
*
  0
XRECORD
  5
B52
102
{ACAD_REACTORS
330
A50
102
}
330
A50
100
AcDbXrecord
  1
G00P00L1
  1
G00P00L1**
  1
*
  1
*
 70
     0
  1
*
  1
*
  0
XRECORD
  5
B53
102
{ACAD_REACTORS
330
A50
102
}
330
A50
100
AcDbXrecord
  1
GARDEN
  1
,TREE,COMPASS,LAWN,GARDEN,PATH,FRONTIER
  1
*
  1
*
 70
     0
  1
*
  1
*
  0
XRECORD
  5
B54
102
{ACAD_REACTORS
330
A50
102
}
330
A50
100
AcDbXrecord
  1
General
  1
*G-S*
  1
*
  1
*
 70
     0
  1
*
  1
*
  0
XRECORD
  5
B55
102
{ACAD_REACTORS
330
A50
102
}
330
A50
100
AcDbXrecord
  1
GFA
  1
*
  1
*
  1
*
 70
     0
  1
*
  1
*
  0
XRECORD
  5
B56
102
{ACAD_REACTORS
330
A50
102
}
330
A50
100
AcDbXrecord
  1
GOOP
  1
GOOP*
  1
*
  1
*
 70
     0
  1
*
  1
*
  0
XRECORD
  5
B57
102
{ACAD_REACTORS
330
A50
102
}
330
A50
100
AcDbXrecord
  1
gp1
  1
gp1*
  1
*
  1
*
 70
     0
  1
*
  1
*
  0
XRECORD
  5
B58
102
{ACAD_REACTORS
330
A50
102
}
330
A50
100
AcDbXrecord
  1
gp2
  1
gp2*
  1
*
  1
*
 70
     0
  1
*
  1
*
  0
XRECORD
  5
B59
102
{ACAD_REACTORS
330
A50
102
}
330
A50
100
AcDbXrecord
  1
gp3
  1
gp3*
  1
*
  1
*
 70
     0
  1
*
  1
*
  0
XRECORD
  5
B5A
102
{ACAD_REACTORS
330
A50
102
}
330
A50
100
AcDbXrecord
  1
gp4
  1
gp4*
  1
*
  1
*
 70
     0
  1
*
  1
*
  0
XRECORD
  5
B5B
102
{ACAD_REACTORS
330
A50
102
}
330
A50
100
AcDbXrecord
  1
gp5
  1
gp5*
  1
*
  1
*
 70
     0
  1
*
  1
*
  0
XRECORD
  5
B5C
102
{ACAD_REACTORS
330
A50
102
}
330
A50
100
AcDbXrecord
  1
gp6
  1
gp6*
  1
*
  1
*
 70
     0
  1
*
  1
*
  0
XRECORD
  5
B5D
102
{ACAD_REACTORS
330
A50
102
}
330
A50
100
AcDbXrecord
  1
gp7
  1
gp7*
  1
*
  1
*
 70
     0
  1
*
  1
*
  0
XRECORD
  5
B5E
102
{ACAD_REACTORS
330
A50
102
}
330
A50
100
AcDbXrecord
  1
Graphical
  1
*-G-*
  1
*
  1
*
 70
     0
  1
*
  1
*
  0
XRECORD
  5
B5F
102
{ACAD_REACTORS
330
A50
102
}
330
A50
100
AcDbXrecord
  1
green
  1
*
  1
green
  1
*
 70
     0
  1
*
  1
*
  0
XRECORD
  5
B60
102
{ACAD_REACTORS
330
A50
102
}
330
A50
100
AcDbXrecord
  1
GRID
  1
*GRID*
  1
*
  1
*
 70
     0
  1
*
  1
*
  0
XRECORD
  5
B61
102
{ACAD_REACTORS
330
A50
102
}
330
A50
100
AcDbXrecord
  1
GRIDS
  1
*GRID*
  1
1
  1
*
 70
     0
  1
*
  1
*
  0
XRECORD
  5
B62
102
{ACAD_REACTORS
330
A50
102
}
330
A50
100
AcDbXrecord
  1
ground
  1
a-1-*
  1
*
  1
*
 70
     0
  1
*
  1
*
  0
XRECORD
  5
B63
102
{ACAD_REACTORS
330
A50
102
}
330
A50
100
AcDbXrecord
  1
GROUND FLOOR
  1
G*
  1
*
  1
*
 70
     0
  1
*
  1
*
  0
XRECORD
  5
B64
102
{ACAD_REACTORS
330
A50
102
}
330
A50
100
AcDbXrecord
  1
Groungfloor
  1
Ground*
  1
*
  1
*
 70
     0
  1
*
  1
*
  0
XRECORD
  5
B65
102
{ACAD_REACTORS
330
A50
102
}
330
A50
100
AcDbXrecord
  1
H
  1
*
  1
*
  1
HIDDEN
 70
     0
  1
*
  1
*
  0
XRECORD
  5
B66
102
{ACAD_REACTORS
330
A50
102
}
330
A50
100
AcDbXrecord
  1
HA
  1
*HA
  1
*
  1
*
 70
     0
  1
*
  1
*
  0
XRECORD
  5
B67
102
{ACAD_REACTORS
330
A50
102
}
330
A50
100
AcDbXrecord
  1
hand
  1
*hand*
  1
*
  1
*
 70
     0
  1
*
  1
*
  0
XRECORD
  5
B68
102
{ACAD_REACTORS
330
A50
102
}
330
A50
100
AcDbXrecord
  1
HATCH
  1
*HATCH*
  1
*
  1
*
 70
     0
  1
*
  1
*
  0
XRECORD
  5
B69
102
{ACAD_REACTORS
330
A50
102
}
330
A50
100
AcDbXrecord
  1
hatch boundaries
  1
*hab*
  1
*
  1
*
 70
     0
  1
*
  1
*
  0
XRECORD
  5
B6A
102
{ACAD_REACTORS
330
A50
102
}
330
A50
100
AcDbXrecord
  1
HB
  1
*HB*
  1
*
  1
*
 70
     0
  1
*
  1
*
  0
XRECORD
  5
B6B
102
{ACAD_REACTORS
330
A50
102
}
330
A50
100
AcDbXrecord
  1
Heavy-lines
  1
*
  1
@@@@@
  1
*
 70
     0
  1
*
  1
*
  0
XRECORD
  5
B6C
102
{ACAD_REACTORS
330
A50
102
}
330
A50
100
AcDbXrecord
  1
Hidden
  1
*
  1
*
  1
hidden
 70
     0
  1
*
  1
*
  0
XRECORD
  5
B6D
102
{ACAD_REACTORS
330
A50
102
}
330
A50
100
AcDbXrecord
  1
HIGH
  1
*HIGH*
  1
*
  1
*
 70
     0
  1
*
  1
*
  0
XRECORD
  5
B6E
102
{ACAD_REACTORS
330
A50
102
}
330
A50
100
AcDbXrecord
  1
Holes
  1
*hol*,*cut*
  1
*
  1
*
 70
     0
  1
*
  1
*
  0
XRECORD
  5
B6F
102
{ACAD_REACTORS
330
A50
102
}
330
A50
100
AcDbXrecord
  1
HOT WATER
  1
*HOT*,*SHW*
  1
*
  1
*
 70
     0
  1
*
  1
*
  0
XRECORD
  5
B70
102
{ACAD_REACTORS
330
A50
102
}
330
A50
100
AcDbXrecord
  1
HYDRANT
  1
*HYD*
  1
*
  1
*
 70
     0
  1
*
  1
*
  0
XRECORD
  5
B71
102
{ACAD_REACTORS
330
A50
102
}
330
A50
100
AcDbXrecord
  1
IAN
  1
*
  1
*
  1
*
 70
     0
  1
*
  1
*
  0
XRECORD
  5
B72
102
{ACAD_REACTORS
330
A50
102
}
330
A50
100
AcDbXrecord
  1
il
  1
*
  1
*
  1
*
 70
    48
  1
*
  1
*
  0
XRECORD
  5
B73
102
{ACAD_REACTORS
330
A50
102
}
330
A50
100
AcDbXrecord
  1
in use
  1
*
  1
*
  1
*
 70
    13
  1
*
  1
*
  0
XRECORD
  5
B74
102
{ACAD_REACTORS
330
A50
102
}
330
A50
100
AcDbXrecord
  1
INSUL
  1
*INS*
  1
*
  1
*
 70
     0
  1
*
  1
*
  0
XRECORD
  5
B75
102
{ACAD_REACTORS
330
A50
102
}
330
A50
100
AcDbXrecord
  1
intwall
  1
*int*
  1
*
  1
*
 70
     0
  1
*
  1
*
  0
XRECORD
  5
B76
102
{ACAD_REACTORS
330
A50
102
}
330
A50
100
AcDbXrecord
  1
JAMES
  1
*
  1
*
  1
*
 70
    16
  1
*
  1
*
  0
XRECORD
  5
B77
102
{ACAD_REACTORS
330
A50
102
}
330
A50
100
AcDbXrecord
  1
JOINERY
  1
*JO
  1
*
  1
*
 70
     0
  1
*
  1
*
  0
XRECORD
  5
B78
102
{ACAD_REACTORS
330
A50
102
}
330
A50
100
AcDbXrecord
  1
KEG
  1
*KEG*
  1
*
  1
*
 70
     0
  1
*
  1
*
  0
XRECORD
  5
B79
102
{ACAD_REACTORS
330
A50
102
}
330
A50
100
AcDbXrecord
  1
KERB
  1
*KERB
  1
*
  1
*
 70
     0
  1
*
  1
*
  0
XRECORD
  5
B7A
102
{ACAD_REACTORS
330
A50
102
}
330
A50
100
AcDbXrecord
  1
KEY
  1
*KEY*
  1
*
  1
*
 70
     0
  1
*
  1
*
  0
XRECORD
  5
B7B
102
{ACAD_REACTORS
330
A50
102
}
330
A50
100
AcDbXrecord
  1
KEY PLAN
  1
BLOCK-*
  1
*
  1
*
 70
     0
  1
*
  1
*
  0
XRECORD
  5
B7C
102
{ACAD_REACTORS
330
A50
102
}
330
A50
100
AcDbXrecord
  1
KITCHEN
  1
PAntry,FRIDGEL,HOUSEPLAN2,BENCH3,VIEWPORT,BENCH1,BENCH2,HOUSEPLAN,FRIDGE,STOVE,CUPBOARDS,
  1
*
  1
*
 70
     0
  1
*
  1
*
  0
XRECORD
  5
B7D
102
{ACAD_REACTORS
330
A50
102
}
330
A50
100
AcDbXrecord
  1
kp
  1
*kp*
  1
*
  1
*
 70
     0
  1
*
  1
*
  0
XRECORD
  5
B7E
102
{ACAD_REACTORS
330
A50
102
}
330
A50
100
AcDbXrecord
  1
l
  1
*
  1
1
  1
*
 70
     0
  1
*
  1
*
  0
XRECORD
  5
B7F
102
{ACAD_REACTORS
330
A50
102
}
330
A50
100
AcDbXrecord
  1
L0
  1
L0*
  1
*
  1
*
 70
     0
  1
*
  1
*
  0
XRECORD
  5
B80
102
{ACAD_REACTORS
330
A50
102
}
330
A50
100
AcDbXrecord
  1
L1
  1
L1*
  1
*
  1
*
 70
     0
  1
*
  1
*
  0
XRECORD
  5
B81
102
{ACAD_REACTORS
330
A50
102
}
330
A50
100
AcDbXrecord
  1
L2
  1
L2*
  1
*
  1
*
 70
     0
  1
*
  1
*
  0
XRECORD
  5
B82
102
{ACAD_REACTORS
330
A50
102
}
330
A50
100
AcDbXrecord
  1
l3
  1
3*
  1
*
  1
*
 70
     0
  1
*
  1
*
  0
XRECORD
  5
B83
102
{ACAD_REACTORS
330
A50
102
}
330
A50
100
AcDbXrecord
  1
L4
  1
4*
  1
*
  1
*
 70
     0
  1
*
  1
*
  0
XRECORD
  5
B84
102
{ACAD_REACTORS
330
A50
102
}
330
A50
100
AcDbXrecord
  1
L_
  1
*L_*
  1
*
  1
*
 70
     0
  1
*
  1
*
  0
XRECORD
  5
B85
102
{ACAD_REACTORS
330
A50
102
}
330
A50
100
AcDbXrecord
  1
L_02_04
  1
*
  1
*
  1
*
 70
    48
  1
*
  1
*
  0
XRECORD
  5
B86
102
{ACAD_REACTORS
330
A50
102
}
330
A50
100
AcDbXrecord
  1
LABEL
  1
*
  1
C*
  1
*
 70
     3
  1
*
  1
*
  0
XRECORD
  5
B87
102
{ACAD_REACTORS
330
A50
102
}
330
A50
100
AcDbXrecord
  1
lablue
  1
*
  1
*blue
  1
*
 70
     0
  1
*
  1
*
  0
XRECORD
  5
B88
102
{ACAD_REACTORS
330
A50
102
}
330
A50
100
AcDbXrecord
  1
ladder
  1
*ladder*
  1
*
  1
*
 70
     0
  1
*
  1
*
  0
XRECORD
  5
B89
102
{ACAD_REACTORS
330
A50
102
}
330
A50
100
AcDbXrecord
  1
lagreen
  1
*
  1
green
  1
*
 70
     0
  1
*
  1
*
  0
XRECORD
  5
B8A
102
{ACAD_REACTORS
330
A50
102
}
330
A50
100
AcDbXrecord
  1
lana
  1
*
  1
magenta
  1
*
 70
     0
  1
*
  1
*
  0
XRECORD
  5
B8B
102
{ACAD_REACTORS
330
A50
102
}
330
A50
100
AcDbXrecord
  1
LANGLEY
  1
*LANG*
  1
*
  1
*
 70
     0
  1
*
  1
*
  0
XRECORD
  5
B8C
102
{ACAD_REACTORS
330
A50
102
}
330
A50
100
AcDbXrecord
  1
LAP RING
  1
LAP_RING*
  1
*
  1
*
 70
     0
  1
*
  1
*
  0
XRECORD
  5
B8D
102
{ACAD_REACTORS
330
A50
102
}
330
A50
100
AcDbXrecord
  1
LARED
  1
*
  1
*RED
  1
*
 70
     0
  1
*
  1
*
  0
XRECORD
  5
B8E
102
{ACAD_REACTORS
330
A50
102
}
330
A50
100
AcDbXrecord
  1
lay
  1
aux pull floor0$0*
  1
*
  1
*
 70
     0
  1
*
  1
*
  0
XRECORD
  5
B8F
102
{ACAD_REACTORS
330
A50
102
}
330
A50
100
AcDbXrecord
  1
Layer On only
  1
*
  1
*
  1
*
 70
    13
  1
*
  1
*
  0
XRECORD
  5
B90
102
{ACAD_REACTORS
330
A50
102
}
330
A50
100
AcDbXrecord
  1
LAYOUT
  1
*
  1
*
  1
*
 70
     0
  1
*
  1
*
  0
XRECORD
  5
B91
102
{ACAD_REACTORS
330
A50
102
}
330
A50
100
AcDbXrecord
  1
leader
  1
*leader
  1
*
  1
*
 70
     0
  1
*
  1
*
  0
XRECORD
  5
B9F
102
{ACAD_REACTORS
330
A50
102
}
330
A50
100
AcDbXrecord
  1
Level00
  1
*00
  1
*
  1
*
 70
     0
  1
*
  1
*
  0
XRECORD
  5
BA0
102
{ACAD_REACTORS
330
A50
102
}
330
A50
100
AcDbXrecord
  1
Level01
  1
*01
  1
*
  1
*
 70
     0
  1
*
  1
*
  0
XRECORD
  5
B92
102
{ACAD_REACTORS
330
A50
102
}
330
A50
100
AcDbXrecord
  1
Level 0
  1
L0_*,grid1,grid2
  1
*
  1
*
 70
     0
  1
*
  1
*
  0
XRECORD
  5
B93
102
{ACAD_REACTORS
330
A50
102
}
330
A50
100
AcDbXrecord
  1
LEVEL 1
  1
1_*
  1
*
  1
*
 70
     0
  1
*
  1
*
  0
XRECORD
  5
B94
102
{ACAD_REACTORS
330
A50
102
}
330
A50
100
AcDbXrecord
  1
Level 10
  1
L10_*,grid1,grid2
  1
*
  1
*
 70
     0
  1
*
  1
*
  0
XRECORD
  5
B95
102
{ACAD_REACTORS
330
A50
102
}
330
A50
100
AcDbXrecord
  1
Level 1a
  1
L1a_*,grid1,grid2
  1
*
  1
*
 70
     0
  1
*
  1
*
  0
XRECORD
  5
B96
102
{ACAD_REACTORS
330
A50
102
}
330
A50
100
AcDbXrecord
  1
LEVEL 2
  1
2_*
  1
*
  1
*
 70
     0
  1
*
  1
*
  0
XRECORD
  5
B97
102
{ACAD_REACTORS
330
A50
102
}
330
A50
100
AcDbXrecord
  1
LEVEL 3
  1
3_*
  1
*
  1
*
 70
     0
  1
*
  1
*
  0
XRECORD
  5
B98
102
{ACAD_REACTORS
330
A50
102
}
330
A50
100
AcDbXrecord
  1
LEVEL 4
  1
4_*
  1
*
  1
*
 70
     0
  1
*
  1
*
  0
XRECORD
  5
B99
102
{ACAD_REACTORS
330
A50
102
}
330
A50
100
AcDbXrecord
  1
LEVEL 4-11
  1
*LEVEL 4-11*
  1
*
  1
*
 70
     0
  1
*
  1
*
  0
XRECORD
  5
B9A
102
{ACAD_REACTORS
330
A50
102
}
330
A50
100
AcDbXrecord
  1
Level 5
  1
L5_*,grid1,grid2
  1
*
  1
*
 70
     0
  1
*
  1
*
  0
XRECORD
  5
B9B
102
{ACAD_REACTORS
330
A50
102
}
330
A50
100
AcDbXrecord
  1
Level 6
  1
L6_*,grid1,grid2
  1
*
  1
*
 70
     0
  1
*
  1
*
  0
XRECORD
  5
B9C
102
{ACAD_REACTORS
330
A50
102
}
330
A50
100
AcDbXrecord
  1
Level 6a
  1
L6a_*,grid1,grid2
  1
*
  1
*
 70
     0
  1
*
  1
*
  0
XRECORD
  5
B9D
102
{ACAD_REACTORS
330
A50
102
}
330
A50
100
AcDbXrecord
  1
LEVEL 7
  1
7*
  1
*
  1
*
 70
     0
  1
*
  1
*
  0
XRECORD
  5
B9E
102
{ACAD_REACTORS
330
A50
102
}
330
A50
100
AcDbXrecord
  1
LEVEL 8
  1
8*
  1
*
  1
*
 70
     0
  1
*
  1
*
  0
XRECORD
  5
BA1
102
{ACAD_REACTORS
330
A50
102
}
330
A50
100
AcDbXrecord
  1
levels
  1
*levels
  1
*
  1
*
 70
     0
  1
*
  1
*
  0
XRECORD
  5
BA2
102
{ACAD_REACTORS
330
A50
102
}
330
A50
100
AcDbXrecord
  1
LIGHT
  1
*LIGH*
  1
*
  1
*
 70
     0
  1
*
  1
*
  0
XRECORD
  5
BA3
102
{ACAD_REACTORS
330
A50
102
}
330
A50
100
AcDbXrecord
  1
Light-lines
  1
*
  1
###
  1
*
 70
     0
  1
*
  1
*
  0
XRECORD
  5
BA4
102
{ACAD_REACTORS
330
A50
102
}
330
A50
100
AcDbXrecord
  1
LIGHTING
  1
*LIGHT*,*LUX*
  1
*
  1
*
 70
     0
  1
*
  1
*
  0
XRECORD
  5
BA5
102
{ACAD_REACTORS
330
A50
102
}
330
A50
100
AcDbXrecord
  1
Lights
  1
*pod*
  1
*
  1
*
 70
     0
  1
*
  1
*
  0
XRECORD
  5
BA6
102
{ACAD_REACTORS
330
A50
102
}
330
A50
100
AcDbXrecord
  1
LMAN101
  1
*
  1
*
  1
*
 70
     3
  1
*
  1
*
  0
XRECORD
  5
BA7
102
{ACAD_REACTORS
330
A50
102
}
330
A50
100
AcDbXrecord
  1
locked
  1
*
  1
*
  1
*
 70
   256
  1
*
  1
*
  0
XRECORD
  5
BA8
102
{ACAD_REACTORS
330
A50
102
}
330
A50
100
AcDbXrecord
  1
LOCKER
  1
*LOCKER*
  1
*
  1
*
 70
     0
  1
*
  1
*
  0
XRECORD
  5
BA9
102
{ACAD_REACTORS
330
A50
102
}
330
A50
100
AcDbXrecord
  1
lot
  1
p*lot*
  1
*
  1
*
 70
     0
  1
*
  1
*
  0
XRECORD
  5
BAA
102
{ACAD_REACTORS
330
A50
102
}
330
A50
100
AcDbXrecord
  1
low
  1
*low*
  1
*
  1
*
 70
     0
  1
*
  1
*
  0
XRECORD
  5
BAB
102
{ACAD_REACTORS
330
A50
102
}
330
A50
100
AcDbXrecord
  1
M_
  1
*M_*
  1
*
  1
*
 70
     0
  1
*
  1
*
  0
XRECORD
  5
BAC
102
{ACAD_REACTORS
330
A50
102
}
330
A50
100
AcDbXrecord
  1
magenta
  1
*
  1
magenta
  1
*
 70
     0
  1
*
  1
*
  0
XRECORD
  5
BAD
102
{ACAD_REACTORS
330
A50
102
}
330
A50
100
AcDbXrecord
  1
MARK
  1
*MARKINGS
  1
*
  1
*
 70
     0
  1
*
  1
*
  0
XRECORD
  5
BAE
102
{ACAD_REACTORS
330
A50
102
}
330
A50
100
AcDbXrecord
  1
MBLDRAIN
  1
*DRAIN*
  1
*
  1
*
 70
     0
  1
*
  1
*
  0
XRECORD
  5
BAF
102
{ACAD_REACTORS
330
A50
102
}
330
A50
100
AcDbXrecord
  1
MECH
  1
M-N-*
  1
*
  1
*
 70
     0
  1
*
  1
*
  0
XRECORD
  5
BB0
102
{ACAD_REACTORS
330
A50
102
}
330
A50
100
AcDbXrecord
  1
MECH0
  1
M*LEV0
  1
*
  1
*
 70
     0
  1
*
  1
*
  0
XRECORD
  5
BB1
102
{ACAD_REACTORS
330
A50
102
}
330
A50
100
AcDbXrecord
  1
MECH1
  1
M*LEV1
  1
*
  1
*
 70
     0
  1
*
  1
*
  0
XRECORD
  5
BB2
102
{ACAD_REACTORS
330
A50
102
}
330
A50
100
AcDbXrecord
  1
MECH2
  1
M*LEV2
  1
*
  1
*
 70
     0
  1
*
  1
*
  0
XRECORD
  5
BB3
102
{ACAD_REACTORS
330
A50
102
}
330
A50
100
AcDbXrecord
  1
MECH3
  1
M*LEV3
  1
*
  1
*
 70
     0
  1
*
  1
*
  0
XRECORD
  5
BB4
102
{ACAD_REACTORS
330
A50
102
}
330
A50
100
AcDbXrecord
  1
Med-lines
  1
*
  1
1#
  1
*
 70
     0
  1
*
  1
*
  0
XRECORD
  5
BB5
102
{ACAD_REACTORS
330
A50
102
}
330
A50
100
AcDbXrecord
  1
MER
  1
*MER*
  1
*
  1
*
 70
     0
  1
*
  1
*
  0
XRECORD
  5
BB6
102
{ACAD_REACTORS
330
A50
102
}
330
A50
100
AcDbXrecord
  1
mezz
  1
a-2-*
  1
*
  1
*
 70
     0
  1
*
  1
*
  0
XRECORD
  5
BB7
102
{ACAD_REACTORS
330
A50
102
}
330
A50
100
AcDbXrecord
  1
MEZZANINE
  1
M*
  1
*
  1
*
 70
     0
  1
*
  1
*
  0
XRECORD
  5
BB8
102
{ACAD_REACTORS
330
A50
102
}
330
A50
100
AcDbXrecord
  1
mill
  1
*mill*
  1
*
  1
*
 70
     0
  1
*
  1
*
  0
XRECORD
  5
BB9
102
{ACAD_REACTORS
330
A50
102
}
330
A50
100
AcDbXrecord
  1
MLAYER
  1
M*LEV*
  1
*
  1
*
 70
     0
  1
*
  1
*
  0
XRECORD
  5
BBA
102
{ACAD_REACTORS
330
A50
102
}
330
A50
100
AcDbXrecord
  1
Model Space
  1
MS*
  1
*
  1
*
 70
     0
  1
*
  1
*
  0
XRECORD
  5
BBB
102
{ACAD_REACTORS
330
A50
102
}
330
A50
100
AcDbXrecord
  1
MOVE
  1
*MOVE*
  1
*
  1
*
 70
     0
  1
*
  1
*
  0
XRECORD
  5
BBC
102
{ACAD_REACTORS
330
A50
102
}
330
A50
100
AcDbXrecord
  1
my
  1
2*
  1
*
  1
*
 70
     0
  1
*
  1
*
  0
XRECORD
  5
BBD
102
{ACAD_REACTORS
330
A50
102
}
330
A50
100
AcDbXrecord
  1
N
  1
**N*
  1
*
  1
*
 70
     0
  1
*
  1
*
  0
XRECORD
  5
BBE
102
{ACAD_REACTORS
330
A50
102
}
330
A50
100
AcDbXrecord
  1
n_
  1
*
  1
*
  1
*
 70
     0
  1
*
  1
*
  0
XRECORD
  5
BBF
102
{ACAD_REACTORS
330
A50
102
}
330
A50
100
AcDbXrecord
  1
NAME
  1
*RM*
  1
*
  1
*
 70
     0
  1
*
  1
*
  0
XRECORD
  5
BC0
102
{ACAD_REACTORS
330
A50
102
}
330
A50
100
AcDbXrecord
  1
New
  1
*-N-*
  1
*
  1
*
 70
     0
  1
*
  1
*
  0
XRECORD
  5
BC1
102
{ACAD_REACTORS
330
A50
102
}
330
A50
100
AcDbXrecord
  1
New Layers
  1
n_*
  1
*
  1
*
 70
     0
  1
*
  1
*
  0
XRECORD
  5
BC2
102
{ACAD_REACTORS
330
A50
102
}
330
A50
100
AcDbXrecord
  1
New Work
  1
n_*
  1
*
  1
*
 70
     0
  1
*
  1
*
  0
XRECORD
  5
BC3
102
{ACAD_REACTORS
330
A50
102
}
330
A50
100
AcDbXrecord
  1
NEWCULVERT
  1
*NEW_CULVERT
  1
*
  1
*
 70
     0
  1
*
  1
*
  0
XRECORD
  5
BC4
102
{ACAD_REACTORS
330
A50
102
}
330
A50
100
AcDbXrecord
  1
no xref
  1
~*|*
  1
*
  1
*
 70
     0
  1
*
  1
*
  0
XRECORD
  5
BC5
102
{ACAD_REACTORS
330
A50
102
}
330
A50
100
AcDbXrecord
  1
NonXref
  1
x-*
  1
*
  1
*
 70
     0
  1
*
  1
*
  0
XRECORD
  5
BC6
102
{ACAD_REACTORS
330
A50
102
}
330
A50
100
AcDbXrecord
  1
north
  1
*north*
  1
*
  1
*
 70
     0
  1
*
  1
*
  0
XRECORD
  5
BC7
102
{ACAD_REACTORS
330
A50
102
}
330
A50
100
AcDbXrecord
  1
notc7
  1
*
  1
1,2,3,4
  1
*
 70
     0
  1
*
  1
*
  0
XRECORD
  5
BC8
102
{ACAD_REACTORS
330
A50
102
}
330
A50
100
AcDbXrecord
  1
NOTE
  1
*NOTE*
  1
*
  1
*
 70
     0
  1
*
  1
*
  0
XRECORD
  5
BC9
102
{ACAD_REACTORS
330
A50
102
}
330
A50
100
AcDbXrecord
  1
NOTES
  1
**N*
  1
*
  1
*
 70
     0
  1
*
  1
*
  0
XRECORD
  5
BCA
102
{ACAD_REACTORS
330
A50
102
}
330
A50
100
AcDbXrecord
  1
NotXref
  1
x-*
  1
*
  1
*
 70
     0
  1
*
  1
*
  0
XRECORD
  5
BCB
102
{ACAD_REACTORS
330
A50
102
}
330
A50
100
AcDbXrecord
  1
off
  1
*
  1
*
  1
*
 70
     3
  1
*
  1
*
  0
XRECORD
  5
BCC
102
{ACAD_REACTORS
330
A50
102
}
330
A50
100
AcDbXrecord
  1
off & f
  1
*
  1
*
  1
*
 70
     7
  1
*
  1
*
  0
XRECORD
  5
BCD
102
{ACAD_REACTORS
330
A50
102
}
330
A50
100
AcDbXrecord
  1
Off Layers
  1
*
  1
*
  1
*
 70
     3
  1
*
  1
*
  0
XRECORD
  5
BCE
102
{ACAD_REACTORS
330
A50
102
}
330
A50
100
AcDbXrecord
  1
OFFICE
  1
*OF*
  1
*
  1
*
 70
     0
  1
*
  1
*
  0
XRECORD
  5
BCF
102
{ACAD_REACTORS
330
A50
102
}
330
A50
100
AcDbXrecord
  1
OFFICE-CARPARK
  1
*OFFICE*,*KERB*
  1
*
  1
*
 70
     0
  1
*
  1
*
  0
XRECORD
  5
BD0
102
{ACAD_REACTORS
330
A50
102
}
330
A50
100
AcDbXrecord
  1
on
  1
*
  1
*
  1
*
 70
     1
  1
*
  1
*
  0
XRECORD
  5
BD1
102
{ACAD_REACTORS
330
A50
102
}
330
A50
100
AcDbXrecord
  1
ONE
  1
*VP*
  1
*
  1
*
 70
     0
  1
*
  1
*
  0
XRECORD
  5
BD2
102
{ACAD_REACTORS
330
A50
102
}
330
A50
100
AcDbXrecord
  1
only
  1
*only*
  1
*
  1
*
 70
     0
  1
*
  1
*
  0
XRECORD
  5
BD5
102
{ACAD_REACTORS
330
A50
102
}
330
A50
100
AcDbXrecord
  1
OPTION_1
  1
*OPTION_1*
  1
*
  1
*
 70
     0
  1
*
  1
*
  0
XRECORD
  5
BD3
102
{ACAD_REACTORS
330
A50
102
}
330
A50
100
AcDbXrecord
  1
OPTION 1
  1
*OP1
  1
*
  1
*
 70
     0
  1
*
  1
*
  0
XRECORD
  5
BD6
102
{ACAD_REACTORS
330
A50
102
}
330
A50
100
AcDbXrecord
  1
OPTION_2
  1
*OPTION_2*
  1
*
  1
*
 70
     0
  1
*
  1
*
  0
XRECORD
  5
BD4
102
{ACAD_REACTORS
330
A50
102
}
330
A50
100
AcDbXrecord
  1
OPTION 2
  1
*OP2
  1
*
  1
*
 70
     0
  1
*
  1
*
  0
XRECORD
  5
BD7
102
{ACAD_REACTORS
330
A50
102
}
330
A50
100
AcDbXrecord
  1
out1
  1
*
  1
*
  1
*
 70
     0
  1
*
  1
*
  0
XRECORD
  5
BD8
102
{ACAD_REACTORS
330
A50
102
}
330
A50
100
AcDbXrecord
  1
OUTLINE
  1
*OUTL*
  1
*
  1
*
 70
     0
  1
*
  1
*
  0
XRECORD
  5
BD9
102
{ACAD_REACTORS
330
A50
102
}
330
A50
100
AcDbXrecord
  1
OVR
  1
*.*OVR
  1
*
  1
*
 70
     0
  1
*
  1
*
  0
XRECORD
  5
BDA
102
{ACAD_REACTORS
330
A50
102
}
330
A50
100
AcDbXrecord
  1
P0
  1
LSP-PLN|0*
  1
*
  1
*
 70
     0
  1
*
  1
*
  0
XRECORD
  5
BDB
102
{ACAD_REACTORS
330
A50
102
}
330
A50
100
AcDbXrecord
  1
P1
  1
LSP-PLN|1*
  1
*
  1
*
 70
     0
  1
*
  1
*
  0
XRECORD
  5
BDC
102
{ACAD_REACTORS
330
A50
102
}
330
A50
100
AcDbXrecord
  1
P2
  1
LSP-PLN|2*
  1
*
  1
*
 70
     0
  1
*
  1
*
  0
XRECORD
  5
BDD
102
{ACAD_REACTORS
330
A50
102
}
330
A50
100
AcDbXrecord
  1
P3
  1
LSP-PLN|3*
  1
*
  1
*
 70
     0
  1
*
  1
*
  0
XRECORD
  5
BDE
102
{ACAD_REACTORS
330
A50
102
}
330
A50
100
AcDbXrecord
  1
P4
  1
LSP-PLN|4*
  1
*
  1
*
 70
     0
  1
*
  1
*
  0
XRECORD
  5
BDF
102
{ACAD_REACTORS
330
A50
102
}
330
A50
100
AcDbXrecord
  1
p7
  1
p7*
  1
*
  1
*
 70
     0
  1
*
  1
*
  0
XRECORD
  5
BE0
102
{ACAD_REACTORS
330
A50
102
}
330
A50
100
AcDbXrecord
  1
PACKAGING
  1
*PKG*,*PACK*
  1
*
  1
*
 70
     0
  1
*
  1
*
  0
XRECORD
  5
BE1
102
{ACAD_REACTORS
330
A50
102
}
330
A50
100
AcDbXrecord
  1
PAPERSPACE
  1
PS*
  1
*
  1
*
 70
     0
  1
*
  1
*
  0
XRECORD
  5
BE2
102
{ACAD_REACTORS
330
A50
102
}
330
A50
100
AcDbXrecord
  1
PARKING
  1
*PAR*
  1
*
  1
*
 70
     0
  1
*
  1
*
  0
XRECORD
  5
BE3
102
{ACAD_REACTORS
330
A50
102
}
330
A50
100
AcDbXrecord
  1
PATHS
  1
*PATH*,*KERB*
  1
*
  1
*
 70
     0
  1
*
  1
*
  0
XRECORD
  5
BE4
102
{ACAD_REACTORS
330
A50
102
}
330
A50
100
AcDbXrecord
  1
patt
  1
*patt*
  1
*
  1
*
 70
     0
  1
*
  1
*
  0
XRECORD
  5
BE5
102
{ACAD_REACTORS
330
A50
102
}
330
A50
100
AcDbXrecord
  1
PAVING
  1
*PAV**
  1
*
  1
*
 70
     0
  1
*
  1
*
  0
XRECORD
  5
BE6
102
{ACAD_REACTORS
330
A50
102
}
330
A50
100
AcDbXrecord
  1
PD_CLARKE
  1
091-DUCT*
  1
*
  1
*
 70
     0
  1
*
  1
*
  0
XRECORD
  5
BE7
102
{ACAD_REACTORS
330
A50
102
}
330
A50
100
AcDbXrecord
  1
PEN
  1
*PEN
  1
*
  1
*
 70
     0
  1
*
  1
*
  0
XRECORD
  5
BE8
102
{ACAD_REACTORS
330
A50
102
}
330
A50
100
AcDbXrecord
  1
penetrations
  1
*
  1
*
  1
*
 70
     0
  1
*
  1
*
  0
XRECORD
  5
BE9
102
{ACAD_REACTORS
330
A50
102
}
330
A50
100
AcDbXrecord
  1
penetrations dwg
  1
*
  1
*
  1
*
 70
     0
  1
*
  1
*
  0
XRECORD
  5
BEA
102
{ACAD_REACTORS
330
A50
102
}
330
A50
100
AcDbXrecord
  1
PFD
  1
*
  1
6
  1
*
 70
     0
  1
*
  1
*
  0
XRECORD
  5
BEB
102
{ACAD_REACTORS
330
A50
102
}
330
A50
100
AcDbXrecord
  1
Phantom
  1
*
  1
*
  1
phantom
 70
     0
  1
*
  1
*
  0
XRECORD
  5
BEC
102
{ACAD_REACTORS
330
A50
102
}
330
A50
100
AcDbXrecord
  1
pictorial
  1
*pictorial*
  1
*
  1
*
 70
     0
  1
*
  1
*
  0
XRECORD
  5
BED
102
{ACAD_REACTORS
330
A50
102
}
330
A50
100
AcDbXrecord
  1
pipe
  1
*pipe*
  1
*
  1
*
 70
     0
  1
*
  1
*
  0
XRECORD
  5
BEE
102
{ACAD_REACTORS
330
A50
102
}
330
A50
100
AcDbXrecord
  1
PIPE RACK
  1
*PIPE-RACK*
  1
*
  1
*
 70
     0
  1
*
  1
*
  0
XRECORD
  5
BEF
102
{ACAD_REACTORS
330
A50
102
}
330
A50
100
AcDbXrecord
  1
pipes
  1
pipe*
  1
*
  1
*
 70
     0
  1
*
  1
*
  0
XRECORD
  5
BF0
102
{ACAD_REACTORS
330
A50
102
}
330
A50
100
AcDbXrecord
  1
Pipes1
  1
pipes1*
  1
*
  1
*
 70
     0
  1
*
  1
*
  0
XRECORD
  5
BF1
102
{ACAD_REACTORS
330
A50
102
}
330
A50
100
AcDbXrecord
  1
PIPING
  1
PIPING*
  1
*
  1
*
 70
     0
  1
*
  1
*
  0
XRECORD
  5
BF2
102
{ACAD_REACTORS
330
A50
102
}
330
A50
100
AcDbXrecord
  1
Plan
  1
P*
  1
*
  1
*
 70
     0
  1
*
  1
*
  0
XRECORD
  5
BF3
102
{ACAD_REACTORS
330
A50
102
}
330
A50
100
AcDbXrecord
  1
PLANS
  1
P*
  1
*
  1
*
 70
     1
  1
*
  1
*
  0
XRECORD
  5
BF4
102
{ACAD_REACTORS
330
A50
102
}
330
A50
100
AcDbXrecord
  1
PLANT
  1
M*
  1
*
  1
*
 70
     0
  1
*
  1
*
  0
XRECORD
  5
BF5
102
{ACAD_REACTORS
330
A50
102
}
330
A50
100
AcDbXrecord
  1
plates
  1
*plat*
  1
*
  1
*
 70
     0
  1
*
  1
*
  0
XRECORD
  5
BF6
102
{ACAD_REACTORS
330
A50
102
}
330
A50
100
AcDbXrecord
  1
plats
  1
*platform*
  1
*
  1
*
 70
     0
  1
*
  1
*
  0
XRECORD
  5
BF7
102
{ACAD_REACTORS
330
A50
102
}
330
A50
100
AcDbXrecord
  1
pld
  1
*pld*
  1
*
  1
*
 70
     0
  1
*
  1
*
  0
XRECORD
  5
BF8
102
{ACAD_REACTORS
330
A50
102
}
330
A50
100
AcDbXrecord
  1
PLOT
  1
UNIT*COL*
  1
*
  1
*
 70
     0
  1
*
  1
*
  0
XRECORD
  5
BF9
102
{ACAD_REACTORS
330
A50
102
}
330
A50
100
AcDbXrecord
  1
PLUMB
  1
*PLUMB*
  1
*
  1
*
 70
     0
  1
*
  1
*
  0
XRECORD
  5
BFA
102
{ACAD_REACTORS
330
A50
102
}
330
A50
100
AcDbXrecord
  1
PLUMBING
  1
*PLUMBING*
  1
*
  1
*
 70
     0
  1
*
  1
*
  0
XRECORD
  5
BFB
102
{ACAD_REACTORS
330
A50
102
}
330
A50
100
AcDbXrecord
  1
POD
  1
*POD*
  1
*
  1
*
 70
     0
  1
*
  1
*
  0
XRECORD
  5
BFC
102
{ACAD_REACTORS
330
A50
102
}
330
A50
100
AcDbXrecord
  1
POOL
  1
A-POOL*
  1
*
  1
*
 70
     0
  1
*
  1
*
  0
XRECORD
  5
BFD
102
{ACAD_REACTORS
330
A50
102
}
330
A50
100
AcDbXrecord
  1
PRA1
  1
PRA1*
  1
*
  1
*
 70
     0
  1
*
  1
*
  0
XRECORD
  5
BFE
102
{ACAD_REACTORS
330
A50
102
}
330
A50
100
AcDbXrecord
  1
PRESSTOOL
  1
PLATTERNPLATE1,PUNCH,DIESCREW,SAMPLE,20,DIE,STRIPPER,PUNCH1,PUNCH2,PLATTEN,DIESET,SCREW,PUNCHHOLDER,PUNCHHOLDERPACKER,
  1
*
  1
*
 70
     0
  1
*
  1
*
  0
XRECORD
  5
BFF
102
{ACAD_REACTORS
330
A50
102
}
330
A50
100
AcDbXrecord
  1
ProcessDevelopments
  1
prodev*
  1
*
  1
*
 70
     0
  1
*
  1
*
  0
XRECORD
  5
C02
102
{ACAD_REACTORS
330
A50
102
}
330
A50
100
AcDbXrecord
  1
PROJECT-A
  1
*PRA*
  1
*
  1
*
 70
     0
  1
*
  1
*
  0
XRECORD
  5
C03
102
{ACAD_REACTORS
330
A50
102
}
330
A50
100
AcDbXrecord
  1
PROJECT-B
  1
*PRB*
  1
*
  1
*
 70
     0
  1
*
  1
*
  0
XRECORD
  5
C00
102
{ACAD_REACTORS
330
A50
102
}
330
A50
100
AcDbXrecord
  1
PROJECT (ALL)
  1
*PRA*,PRB*,(XR*)
  1
*
  1
*
 70
     0
  1
*
  1
*
  0
XRECORD
  5
C01
102
{ACAD_REACTORS
330
A50
102
}
330
A50
100
AcDbXrecord
  1
PROJECT (NO XREF)
  1
PR?-*
  1
*
  1
*
 70
     0
  1
*
  1
*
  0
XRECORD
  5
C04
102
{ACAD_REACTORS
330
A50
102
}
330
A50
100
AcDbXrecord
  1
proposed
  1
p*
  1
*
  1
*
 70
     0
  1
*
  1
*
  0
XRECORD
  5
C05
102
{ACAD_REACTORS
330
A50
102
}
330
A50
100
AcDbXrecord
  1
propsw
  1
*prop_sw
  1
*
  1
*
 70
     0
  1
*
  1
*
  0
XRECORD
  5
C06
102
{ACAD_REACTORS
330
A50
102
}
330
A50
100
AcDbXrecord
  1
Prosteel layers
  1
PS_*
  1
*
  1
*
 70
     1
  1
*
  1
*
  0
XRECORD
  5
C07
102
{ACAD_REACTORS
330
A50
102
}
330
A50
100
AcDbXrecord
  1
PS-LAYERS
  1
PS*
  1
*
  1
*
 70
     0
  1
*
  1
*
  0
XRECORD
  5
C08
102
{ACAD_REACTORS
330
A50
102
}
330
A50
100
AcDbXrecord
  1
r
  1
*r*
  1
*
  1
*
 70
     0
  1
*
  1
*
  0
XRECORD
  5
C09
102
{ACAD_REACTORS
330
A50
102
}
330
A50
100
AcDbXrecord
  1
RACK
  1
*RACK*
  1
*
  1
*
 70
     0
  1
*
  1
*
  0
XRECORD
  5
C0A
102
{ACAD_REACTORS
330
A50
102
}
330
A50
100
AcDbXrecord
  1
RACKING
  1
*RACK*
  1
*
  1
*
 70
     0
  1
*
  1
*
  0
XRECORD
  5
C0B
102
{ACAD_REACTORS
330
A50
102
}
330
A50
100
AcDbXrecord
  1
RAIL
  1
*RAIL*
  1
*
  1
*
 70
     0
  1
*
  1
*
  0
XRECORD
  5
C0C
102
{ACAD_REACTORS
330
A50
102
}
330
A50
100
AcDbXrecord
  1
rcp
  1
*rcp*
  1
*
  1
*
 70
     0
  1
*
  1
*
  0
XRECORD
  5
C0D
102
{ACAD_REACTORS
330
A50
102
}
330
A50
100
AcDbXrecord
  1
red
  1
*
  1
red
  1
*
 70
     0
  1
*
  1
*
  0
XRECORD
  5
C0E
102
{ACAD_REACTORS
330
A50
102
}
330
A50
100
AcDbXrecord
  1
REDDASH
  1
*RED*
  1
*
  1
*
 70
     0
  1
*
  1
*
  0
XRECORD
  5
C0F
102
{ACAD_REACTORS
330
A50
102
}
330
A50
100
AcDbXrecord
  1
REDUNDANT
  1
*REDUN*
  1
*
  1
*
 70
     0
  1
*
  1
*
  0
XRECORD
  5
C10
102
{ACAD_REACTORS
330
A50
102
}
330
A50
100
AcDbXrecord
  1
REDUNDANT DRAINS
  1
*REDUN*
  1
*
  1
*
 70
     0
  1
*
  1
*
  0
XRECORD
  5
C11
102
{ACAD_REACTORS
330
A50
102
}
330
A50
100
AcDbXrecord
  1
ref
  1
*ref*
  1
*
  1
*
 70
     0
  1
*
  1
*
  0
XRECORD
  5
C12
102
{ACAD_REACTORS
330
A50
102
}
330
A50
100
AcDbXrecord
  1
REMOVED
  1
*REMOVED
  1
*
  1
*
 70
     0
  1
*
  1
*
  0
XRECORD
  5
C13
102
{ACAD_REACTORS
330
A50
102
}
330
A50
100
AcDbXrecord
  1
RETAINED
  1
*RETAIN*
  1
*
  1
*
 70
     0
  1
*
  1
*
  0
XRECORD
  5
C14
102
{ACAD_REACTORS
330
A50
102
}
330
A50
100
AcDbXrecord
  1
Retaining Wall
  1
*q-92-ret*
  1
*
  1
*
 70
     0
  1
*
  1
*
  0
XRECORD
  5
C15
102
{ACAD_REACTORS
330
A50
102
}
330
A50
100
AcDbXrecord
  1
REVISION
  1
REV-*
  1
*
  1
*
 70
     0
  1
*
  1
*
  0
XRECORD
  5
C16
102
{ACAD_REACTORS
330
A50
102
}
330
A50
100
AcDbXrecord
  1
RMTAGS
  1
R*
  1
*
  1
*
 70
     0
  1
*
  1
*
  0
XRECORD
  5
C17
102
{ACAD_REACTORS
330
A50
102
}
330
A50
100
AcDbXrecord
  1
ROAD
  1
*ROAD*
  1
*
  1
*
 70
     0
  1
*
  1
*
  0
XRECORD
  5
C18
102
{ACAD_REACTORS
330
A50
102
}
330
A50
100
AcDbXrecord
  1
ROCUT
  1
,guide rail,knotch die,20,BLADE,PROFILE,BLADE CLAMP,KNOTCH BLADE,ROCUT DIE,ROCUT ARM,ROCUT GUIDE,ROCUT DIE*
  1
*
  1
*
 70
     0
  1
*
  1
*
  0
XRECORD
  5
C19
102
{ACAD_REACTORS
330
A50
102
}
330
A50
100
AcDbXrecord
  1
ROOF
  1
*ROOF*
  1
*
  1
*
 70
     0
  1
*
  1
*
  0
XRECORD
  5
C1A
102
{ACAD_REACTORS
330
A50
102
}
330
A50
100
AcDbXrecord
  1
ROOF LEVEL
  1
R*
  1
*
  1
*
 70
     0
  1
*
  1
*
  0
XRECORD
  5
C1B
102
{ACAD_REACTORS
330
A50
102
}
330
A50
100
AcDbXrecord
  1
ROOM
  1
*RM*
  1
*
  1
*
 70
     0
  1
*
  1
*
  0
XRECORD
  5
C1D
102
{ACAD_REACTORS
330
A50
102
}
330
A50
100
AcDbXrecord
  1
S2
  1
*
  1
*
  1
*
 70
     0
  1
*
  1
*
  0
XRECORD
  5
C1F
102
{ACAD_REACTORS
330
A50
102
}
330
A50
100
AcDbXrecord
  1
S200 ONLY
  1
S200*
  1
*
  1
*
 70
     0
  1
*
  1
*
  0
XRECORD
  5
C20
102
{ACAD_REACTORS
330
A50
102
}
330
A50
100
AcDbXrecord
  1
S24_L0
  1
S24_L0$*
  1
*
  1
*
 70
     3
  1
*
  1
*
  0
XRECORD
  5
C1E
102
{ACAD_REACTORS
330
A50
102
}
330
A50
100
AcDbXrecord
  1
S2 ONLY
  1
S2*
  1
*
  1
*
 70
     0
  1
*
  1
*
  0
XRECORD
  5
C1C
102
{ACAD_REACTORS
330
A50
102
}
330
A50
100
AcDbXrecord
  1
S ONLY
  1
S*
  1
*
  1
*
 70
     0
  1
*
  1
*
  0
XRECORD
  5
C21
102
{ACAD_REACTORS
330
A50
102
}
330
A50
100
AcDbXrecord
  1
SANITARY SEWER
  1
*SAN*
  1
*
  1
*
 70
     0
  1
*
  1
*
  0
XRECORD
  5
C22
102
{ACAD_REACTORS
330
A50
102
}
330
A50
100
AcDbXrecord
  1
SCALE10
  1
*10
  1
*
  1
*
 70
     0
  1
*
  1
*
  0
XRECORD
  5
C23
102
{ACAD_REACTORS
330
A50
102
}
330
A50
100
AcDbXrecord
  1
SCALE20
  1
*20*
  1
*
  1
*
 70
     0
  1
*
  1
*
  0
XRECORD
  5
C24
102
{ACAD_REACTORS
330
A50
102
}
330
A50
100
AcDbXrecord
  1
SCALE25
  1
*25*
  1
*
  1
*
 70
     0
  1
*
  1
*
  0
XRECORD
  5
C25
102
{ACAD_REACTORS
330
A50
102
}
330
A50
100
AcDbXrecord
  1
SCALE50
  1
*50*
  1
*
  1
*
 70
     0
  1
*
  1
*
  0
XRECORD
  5
C26
102
{ACAD_REACTORS
330
A50
102
}
330
A50
100
AcDbXrecord
  1
SCW
  1
*SCW*,*COLD*
  1
*
  1
*
 70
     0
  1
*
  1
*
  0
XRECORD
  5
C27
102
{ACAD_REACTORS
330
A50
102
}
330
A50
100
AcDbXrecord
  1
sd
  1
*des*
  1
*
  1
*
 70
     0
  1
*
  1
*
  0
XRECORD
  5
C28
102
{ACAD_REACTORS
330
A50
102
}
330
A50
100
AcDbXrecord
  1
Section
  1
*-*-sec
  1
*
  1
*
 70
     0
  1
*
  1
*
  0
XRECORD
  5
C29
102
{ACAD_REACTORS
330
A50
102
}
330
A50
100
AcDbXrecord
  1
selected on
  1
*
  1
*
  1
*
 70
    13
  1
*
  1
*
  0
XRECORD
  5
C2A
102
{ACAD_REACTORS
330
A50
102
}
330
A50
100
AcDbXrecord
  1
Services
  1
*6*,*5*
  1
*
  1
*
 70
     0
  1
*
  1
*
  0
XRECORD
  5
C2B
102
{ACAD_REACTORS
330
A50
102
}
330
A50
100
AcDbXrecord
  1
SERVICES-L1
  1
PIPING-SERVICES-L1*
  1
*
  1
*
 70
     0
  1
*
  1
*
  0
XRECORD
  5
C2C
102
{ACAD_REACTORS
330
A50
102
}
330
A50
100
AcDbXrecord
  1
SERVICES-L2
  1
PIPING-SERVICES-L2*
  1
*
  1
*
 70
     0
  1
*
  1
*
  0
XRECORD
  5
C2D
102
{ACAD_REACTORS
330
A50
102
}
330
A50
100
AcDbXrecord
  1
Setout
  1
Grid2,Setout*
  1
*
  1
*
 70
     0
  1
*
  1
*
  0
XRECORD
  5
C2E
102
{ACAD_REACTORS
330
A50
102
}
330
A50
100
AcDbXrecord
  1
SHADE
  1
*SHADE*
  1
*
  1
*
 70
     0
  1
*
  1
*
  0
XRECORD
  5
C2F
102
{ACAD_REACTORS
330
A50
102
}
330
A50
100
AcDbXrecord
  1
SHADOW
  1
*SHAD*
  1
*
  1
*
 70
     0
  1
*
  1
*
  0
XRECORD
  5
C30
102
{ACAD_REACTORS
330
A50
102
}
330
A50
100
AcDbXrecord
  1
shit1
  1
*timb*,*plumb,*equip*,*elec*,*hand*,*join*,*venee*,*duct*,*boll*,*grat*,*plum*,*furn*,*stair*
  1
*
  1
*
 70
     0
  1
*
  1
*
  0
XRECORD
  5
C31
102
{ACAD_REACTORS
330
A50
102
}
330
A50
100
AcDbXrecord
  1
Show all frozen layers
  1
*
  1
*
  1
*
 70
     4
  1
*
  1
*
  0
XRECORD
  5
C32
102
{ACAD_REACTORS
330
A50
102
}
330
A50
100
AcDbXrecord
  1
show all non xref layers
  1
*
  1
*
  1
*
 70
     0
  1
*
  1
*
  0
XRECORD
  5
C33
102
{ACAD_REACTORS
330
A50
102
}
330
A50
100
AcDbXrecord
  1
Show all on
  1
*
  1
*
  1
*
 70
     1
  1
*
  1
*
  0
XRECORD
  5
C34
102
{ACAD_REACTORS
330
A50
102
}
330
A50
100
AcDbXrecord
  1
Show all on thawed layers
  1
*
  1
*
  1
*
 70
    13
  1
*
  1
*
  0
XRECORD
  5
C35
102
{ACAD_REACTORS
330
A50
102
}
330
A50
100
AcDbXrecord
  1
Show all Thawed Layers
  1
*
  1
*
  1
*
 70
    12
  1
*
  1
*
  0
XRECORD
  5
C36
102
{ACAD_REACTORS
330
A50
102
}
330
A50
100
AcDbXrecord
  1
show all thawed no xref
  1
~###*
  1
*
  1
*
 70
    12
  1
*
  1
*
  0
XRECORD
  5
C37
102
{ACAD_REACTORS
330
A50
102
}
330
A50
100
AcDbXrecord
  1
Show No xref layers
  1
~####*
  1
*
  1
*
 70
     0
  1
*
  1
*
  0
XRECORD
  5
C38
102
{ACAD_REACTORS
330
A50
102
}
330
A50
100
AcDbXrecord
  1
SHW
  1
*SHW*,*HOT*
  1
*
  1
*
 70
     0
  1
*
  1
*
  0
XRECORD
  5
C39
102
{ACAD_REACTORS
330
A50
102
}
330
A50
100
AcDbXrecord
  1
SITE GATE
  1
*SITE*
  1
*
  1
*
 70
     0
  1
*
  1
*
  0
XRECORD
  5
C3A
102
{ACAD_REACTORS
330
A50
102
}
330
A50
100
AcDbXrecord
  1
Site Services
  1
S_*
  1
*
  1
*
 70
     0
  1
*
  1
*
  0
XRECORD
  5
C3B
102
{ACAD_REACTORS
330
A50
102
}
330
A50
100
AcDbXrecord
  1
SITEBDY
  1
*SIT*
  1
*
  1
*
 70
     0
  1
*
  1
*
  0
XRECORD
  5
C3C
102
{ACAD_REACTORS
330
A50
102
}
330
A50
100
AcDbXrecord
  1
SITERD
  1
*SIT*
  1
*
  1
*
 70
     0
  1
*
  1
*
  0
XRECORD
  5
C3D
102
{ACAD_REACTORS
330
A50
102
}
330
A50
100
AcDbXrecord
  1
SITROAD
  1
*SIT*
  1
*
  1
*
 70
     0
  1
*
  1
*
  0
XRECORD
  5
C3E
102
{ACAD_REACTORS
330
A50
102
}
330
A50
100
AcDbXrecord
  1
sol
  1
*b-s*
  1
*
  1
*
 70
     0
  1
*
  1
*
  0
XRECORD
  5
C3F
102
{ACAD_REACTORS
330
A50
102
}
330
A50
100
AcDbXrecord
  1
SOLIDS
  1
*FIL*
  1
*
  1
*
 70
     0
  1
*
  1
*
  0
XRECORD
  5
C40
102
{ACAD_REACTORS
330
A50
102
}
330
A50
100
AcDbXrecord
  1
SONLY
  1
S*
  1
*
  1
*
 70
     0
  1
*
  1
*
  0
XRECORD
  5
C41
102
{ACAD_REACTORS
330
A50
102
}
330
A50
100
AcDbXrecord
  1
space
  1
*space*
  1
*
  1
*
 70
     0
  1
*
  1
*
  0
XRECORD
  5
C42
102
{ACAD_REACTORS
330
A50
102
}
330
A50
100
AcDbXrecord
  1
space-050
  1
*space-050*
  1
*
  1
*
 70
     0
  1
*
  1
*
  0
XRECORD
  5
C43
102
{ACAD_REACTORS
330
A50
102
}
330
A50
100
AcDbXrecord
  1
Speckers
  1
*64*
  1
*
  1
*
 70
     0
  1
*
  1
*
  0
XRECORD
  5
C44
102
{ACAD_REACTORS
330
A50
102
}
330
A50
100
AcDbXrecord
  1
SS
  1
*SS_EXTNG
  1
*
  1
*
 70
     0
  1
*
  1
*
  0
XRECORD
  5
C45
102
{ACAD_REACTORS
330
A50
102
}
330
A50
100
AcDbXrecord
  1
STAGE
  1
STAGE*
  1
*
  1
*
 70
     0
  1
*
  1
*
  0
XRECORD
  5
C46
102
{ACAD_REACTORS
330
A50
102
}
330
A50
100
AcDbXrecord
  1
STAGES
  1
S*
  1
*
  1
*
 70
     0
  1
*
  1
*
  0
XRECORD
  5
C47
102
{ACAD_REACTORS
330
A50
102
}
330
A50
100
AcDbXrecord
  1
STAIR
  1
*ST*
  1
*
  1
*
 70
     0
  1
*
  1
*
  0
XRECORD
  5
C48
102
{ACAD_REACTORS
330
A50
102
}
330
A50
100
AcDbXrecord
  1
STEEL
  1
*STEEL*
  1
*
  1
*
 70
     0
  1
*
  1
*
  0
XRECORD
  5
C49
102
{ACAD_REACTORS
330
A50
102
}
330
A50
100
AcDbXrecord
  1
STEEL DETAILS
  1
D-ST-*
  1
*
  1
*
 70
     0
  1
*
  1
*
  0
XRECORD
  5
C4A
102
{ACAD_REACTORS
330
A50
102
}
330
A50
100
AcDbXrecord
  1
STEP-1
  1
*S10*
  1
*
  1
*
 70
     0
  1
*
  1
*
  0
XRECORD
  5
C4B
102
{ACAD_REACTORS
330
A50
102
}
330
A50
100
AcDbXrecord
  1
STEP-5
  1
*S50*
  1
*
  1
*
 70
     0
  1
*
  1
*
  0
XRECORD
  5
C4C
102
{ACAD_REACTORS
330
A50
102
}
330
A50
100
AcDbXrecord
  1
STORAGE
  1
*STOR*
  1
*
  1
*
 70
     0
  1
*
  1
*
  0
XRECORD
  5
C4D
102
{ACAD_REACTORS
330
A50
102
}
330
A50
100
AcDbXrecord
  1
STREET
  1
*STR*
  1
*
  1
*
 70
     0
  1
*
  1
*
  0
XRECORD
  5
C4E
102
{ACAD_REACTORS
330
A50
102
}
330
A50
100
AcDbXrecord
  1
STRUCT
  1
0,S0*,S1*,S2*
  1
*
  1
*
 70
     0
  1
*
  1
*
  0
XRECORD
  5
C4F
102
{ACAD_REACTORS
330
A50
102
}
330
A50
100
AcDbXrecord
  1
STUART
  1
*
  1
*
  1
*
 70
    16
  1
*
  1
*
  0
XRECORD
  5
C50
102
{ACAD_REACTORS
330
A50
102
}
330
A50
100
AcDbXrecord
  1
SV-
  1
*SV-*
  1
*
  1
*
 70
     0
  1
*
  1
*
  0
XRECORD
  5
C51
102
{ACAD_REACTORS
330
A50
102
}
330
A50
100
AcDbXrecord
  1
SV-STEAM
  1
*STEAM*
  1
*
  1
*
 70
     0
  1
*
  1
*
  0
XRECORD
  5
C52
102
{ACAD_REACTORS
330
A50
102
}
330
A50
100
AcDbXrecord
  1
sw
  1
sw*
  1
*
  1
*
 70
     0
  1
*
  1
*
  0
XRECORD
  5
C53
102
{ACAD_REACTORS
330
A50
102
}
330
A50
100
AcDbXrecord
  1
SYRUP PLANT
  1
*SYR*
  1
*
  1
*
 70
     0
  1
*
  1
*
  0
XRECORD
  5
C54
102
{ACAD_REACTORS
330
A50
102
}
330
A50
100
AcDbXrecord
  1
t25
  1
*t25*
  1
*
  1
*
 70
     0
  1
*
  1
*
  0
XRECORD
  5
C55
102
{ACAD_REACTORS
330
A50
102
}
330
A50
100
AcDbXrecord
  1
t35
  1
*t35*
  1
*
  1
*
 70
     0
  1
*
  1
*
  0
XRECORD
  5
C56
102
{ACAD_REACTORS
330
A50
102
}
330
A50
100
AcDbXrecord
  1
TANK
  1
*TANK*
  1
*
  1
*
 70
     0
  1
*
  1
*
  0
XRECORD
  5
C57
102
{ACAD_REACTORS
330
A50
102
}
330
A50
100
AcDbXrecord
  1
TED
  1
*
  1
*
  1
*
 70
     0
  1
*
  1
*
  0
XRECORD
  5
C58
102
{ACAD_REACTORS
330
A50
102
}
330
A50
100
AcDbXrecord
  1
TEMP
  1
*GR*
  1
*
  1
*
 70
     0
  1
*
  1
*
  0
XRECORD
  5
C59
102
{ACAD_REACTORS
330
A50
102
}
330
A50
100
AcDbXrecord
  1
Tenancy
  1
T-*
  1
*
  1
*
 70
     0
  1
*
  1
*
  0
XRECORD
  5
C5A
102
{ACAD_REACTORS
330
A50
102
}
330
A50
100
AcDbXrecord
  1
test
  1
*
  1
*
  1
*
 70
     1
  1
*
  1
*
  0
XRECORD
  5
C5B
102
{ACAD_REACTORS
330
A50
102
}
330
A50
100
AcDbXrecord
  1
TEXT
  1
*TEXT*
  1
*
  1
*
 70
     0
  1
*
  1
*
  0
XRECORD
  5
C5E
102
{ACAD_REACTORS
330
A50
102
}
330
A50
100
AcDbXrecord
  1
text500
  1
s282t4000d0
  1
*
  1
*
 70
     0
  1
*
  1
*
  0
XRECORD
  5
C5C
102
{ACAD_REACTORS
330
A50
102
}
330
A50
100
AcDbXrecord
  1
TEXT & DIMS
  1
*TEXT*,*DIM*,*ref*
  1
*
  1
*
 70
     0
  1
*
  1
*
  0
XRECORD
  5
C5D
102
{ACAD_REACTORS
330
A50
102
}
330
A50
100
AcDbXrecord
  1
text&dims
  1
*text*,*dim*,*txt*,*ref*
  1
*
  1
*
 70
     0
  1
*
  1
*
  0
XRECORD
  5
C5F
102
{ACAD_REACTORS
330
A50
102
}
330
A50
100
AcDbXrecord
  1
THAW
  1
*
  1
*
  1
*
 70
    12
  1
*
  1
*
  0
XRECORD
  5
C60
102
{ACAD_REACTORS
330
A50
102
}
330
A50
100
AcDbXrecord
  1
THAWED
  1
*
  1
*
  1
*
 70
    12
  1
*
  1
*
  0
XRECORD
  5
C61
102
{ACAD_REACTORS
330
A50
102
}
330
A50
100
AcDbXrecord
  1
thawed off
  1
*
  1
*
  1
*
 70
    15
  1
*
  1
*
  0
XRECORD
  5
C62
102
{ACAD_REACTORS
330
A50
102
}
330
A50
100
AcDbXrecord
  1
THRES
  1
*THRES*
  1
*
  1
*
 70
     0
  1
*
  1
*
  0
XRECORD
  5
C63
102
{ACAD_REACTORS
330
A50
102
}
330
A50
100
AcDbXrecord
  1
TIC
  1
*
  1
*
  1
*
 70
    48
  1
*
  1
*
  0
XRECORD
  5
C64
102
{ACAD_REACTORS
330
A50
102
}
330
A50
100
AcDbXrecord
  1
TILE
  1
*TILE*
  1
*
  1
*
 70
     0
  1
*
  1
*
  0
XRECORD
  5
C65
102
{ACAD_REACTORS
330
A50
102
}
330
A50
100
AcDbXrecord
  1
tiles
  1
*tiles*
  1
*
  1
*
 70
     0
  1
*
  1
*
  0
XRECORD
  5
C66
102
{ACAD_REACTORS
330
A50
102
}
330
A50
100
AcDbXrecord
  1
TILT
  1
*TILT*
  1
*
  1
*
 70
     0
  1
*
  1
*
  0
XRECORD
  5
C67
102
{ACAD_REACTORS
330
A50
102
}
330
A50
100
AcDbXrecord
  1
TIP
  1
*21*,*22*,*GLA*
  1
*
  1
*
 70
     0
  1
*
  1
*
  0
XRECORD
  5
C68
102
{ACAD_REACTORS
330
A50
102
}
330
A50
100
AcDbXrecord
  1
Tip&die
  1
20,die,diedim,tip,tipdim,geodie,geotip,geotipinsert,vports
  1
*
  1
*
 70
     0
  1
*
  1
*
  0
XRECORD
  5
C69
102
{ACAD_REACTORS
330
A50
102
}
330
A50
100
AcDbXrecord
  1
TONE
  1
*TONE*
  1
*
  1
*
 70
     0
  1
*
  1
*
  0
XRECORD
  5
C6A
102
{ACAD_REACTORS
330
A50
102
}
330
A50
100
AcDbXrecord
  1
TR
  1
TR*
  1
*
  1
*
 70
     0
  1
*
  1
*
  0
XRECORD
  5
C6B
102
{ACAD_REACTORS
330
A50
102
}
330
A50
100
AcDbXrecord
  1
TRANSITION
  1
*TRANS*
  1
*
  1
*
 70
     0
  1
*
  1
*
  0
XRECORD
  5
C6C
102
{ACAD_REACTORS
330
A50
102
}
330
A50
100
AcDbXrecord
  1
TREAD
  1
*TREAD*
  1
*
  1
*
 70
     0
  1
*
  1
*
  0
XRECORD
  5
C6D
102
{ACAD_REACTORS
330
A50
102
}
330
A50
100
AcDbXrecord
  1
Tree Layers
  1
tree*
  1
*
  1
*
 70
     0
  1
*
  1
*
  0
XRECORD
  5
C6E
102
{ACAD_REACTORS
330
A50
102
}
330
A50
100
AcDbXrecord
  1
TRENCH
  1
*TRENCH*
  1
*
  1
*
 70
     0
  1
*
  1
*
  0
XRECORD
  5
C6F
102
{ACAD_REACTORS
330
A50
102
}
330
A50
100
AcDbXrecord
  1
TRUCK
  1
*TRUCK*
  1
*
  1
*
 70
     0
  1
*
  1
*
  0
XRECORD
  5
C70
102
{ACAD_REACTORS
330
A50
102
}
330
A50
100
AcDbXrecord
  1
tweeker
  1
tweekerA,tweekerB,base,20,1,nosecap,
  1
*
  1
*
 70
     0
  1
*
  1
*
  0
XRECORD
  5
C71
102
{ACAD_REACTORS
330
A50
102
}
330
A50
100
AcDbXrecord
  1
TX
  1
*TX*
  1
*
  1
*
 70
     0
  1
*
  1
*
  0
XRECORD
  5
C72
102
{ACAD_REACTORS
330
A50
102
}
330
A50
100
AcDbXrecord
  1
TXT
  1
*TXT*
  1
*
  1
*
 70
     0
  1
*
  1
*
  0
XRECORD
  5
C73
102
{ACAD_REACTORS
330
A50
102
}
330
A50
100
AcDbXrecord
  1
u
  1
*c*
  1
*
  1
*
 70
     0
  1
*
  1
*
  0
XRECORD
  5
C74
102
{ACAD_REACTORS
330
A50
102
}
330
A50
100
AcDbXrecord
  1
UCS
  1
*UCS*
  1
*
  1
*
 70
     0
  1
*
  1
*
  0
XRECORD
  5
C75
102
{ACAD_REACTORS
330
A50
102
}
330
A50
100
AcDbXrecord
  1
URS
  1
URS*
  1
*
  1
*
 70
     1
  1
*
  1
*
  0
XRECORD
  5
C76
102
{ACAD_REACTORS
330
A50
102
}
330
A50
100
AcDbXrecord
  1
V01
  1
*01
  1
*
  1
*
 70
     0
  1
*
  1
*
  0
XRECORD
  5
C77
102
{ACAD_REACTORS
330
A50
102
}
330
A50
100
AcDbXrecord
  1
V02
  1
*02
  1
*
  1
*
 70
     0
  1
*
  1
*
  0
XRECORD
  5
C78
102
{ACAD_REACTORS
330
A50
102
}
330
A50
100
AcDbXrecord
  1
V03
  1
*03
  1
*
  1
*
 70
     0
  1
*
  1
*
  0
XRECORD
  5
C79
102
{ACAD_REACTORS
330
A50
102
}
330
A50
100
AcDbXrecord
  1
V04
  1
*04
  1
*
  1
*
 70
     0
  1
*
  1
*
  0
XRECORD
  5
C7A
102
{ACAD_REACTORS
330
A50
102
}
330
A50
100
AcDbXrecord
  1
vinc
  1
*ups
  1
*
  1
*
 70
     0
  1
*
  1
*
  0
XRECORD
  5
C7B
102
{ACAD_REACTORS
330
A50
102
}
330
A50
100
AcDbXrecord
  1
VOID
  1
*VOID*
  1
*
  1
*
 70
     0
  1
*
  1
*
  0
XRECORD
  5
C7C
102
{ACAD_REACTORS
330
A50
102
}
330
A50
100
AcDbXrecord
  1
waitakere
  1
wait*
  1
*
  1
*
 70
     0
  1
*
  1
*
  0
XRECORD
  5
C7D
102
{ACAD_REACTORS
330
A50
102
}
330
A50
100
AcDbXrecord
  1
walk
  1
*walk*
  1
*
  1
*
 70
     0
  1
*
  1
*
  0
XRECORD
  5
C7E
102
{ACAD_REACTORS
330
A50
102
}
330
A50
100
AcDbXrecord
  1
WALKWAY
  1
*WALKWAY*
  1
*
  1
*
 70
     0
  1
*
  1
*
  0
XRECORD
  5
C7F
102
{ACAD_REACTORS
330
A50
102
}
330
A50
100
AcDbXrecord
  1
WALL
  1
*A-WA-ST
  1
*
  1
*
 70
     0
  1
*
  1
*
  0
XRECORD
  5
C80
102
{ACAD_REACTORS
330
A50
102
}
330
A50
100
AcDbXrecord
  1
walls
  1
wall*
  1
*
  1
*
 70
     0
  1
*
  1
*
  0
XRECORD
  5
C81
102
{ACAD_REACTORS
330
A50
102
}
330
A50
100
AcDbXrecord
  1
walls-footings
  1
wall*,foot*
  1
*
  1
*
 70
     0
  1
*
  1
*
  0
XRECORD
  5
C82
102
{ACAD_REACTORS
330
A50
102
}
330
A50
100
AcDbXrecord
  1
walls-footings-floors
  1
wall*,foot*,*floor*,*Open*,*tun*
  1
*
  1
*
 70
     0
  1
*
  1
*
  0
XRECORD
  5
C83
102
{ACAD_REACTORS
330
A50
102
}
330
A50
100
AcDbXrecord
  1
WAREHOUSE
  1
WH*
  1
*
  1
*
 70
     0
  1
*
  1
*
  0
XRECORD
  5
C84
102
{ACAD_REACTORS
330
A50
102
}
330
A50
100
AcDbXrecord
  1
water
  1
*
  1
*green
  1
*
 70
     0
  1
*
  1
*
  0
XRECORD
  5
C85
102
{ACAD_REACTORS
330
A50
102
}
330
A50
100
AcDbXrecord
  1
WDW
  1
*WDW*
  1
*
  1
*
 70
     0
  1
*
  1
*
  0
XRECORD
  5
C86
102
{ACAD_REACTORS
330
A50
102
}
330
A50
100
AcDbXrecord
  1
WHITE
  1
*
  1
WHITE
  1
*
 70
     0
  1
*
  1
*
  0
XRECORD
  5
C87
102
{ACAD_REACTORS
330
A50
102
}
330
A50
100
AcDbXrecord
  1
WINDOW
  1
*WIN*
  1
*
  1
*
 70
     0
  1
*
  1
*
  0
XRECORD
  5
C88
102
{ACAD_REACTORS
330
A50
102
}
330
A50
100
AcDbXrecord
  1
working layers
  1
A-*
  1
*
  1
*
 70
     0
  1
*
  1
*
  0
XRECORD
  5
C89
102
{ACAD_REACTORS
330
A50
102
}
330
A50
100
AcDbXrecord
  1
X
  1
*GRID*
  1
*
  1
*
 70
     0
  1
*
  1
*
  0
XRECORD
  5
C8A
102
{ACAD_REACTORS
330
A50
102
}
330
A50
100
AcDbXrecord
  1
X-SITE
  1
X-SITE*
  1
*
  1
*
 70
     0
  1
*
  1
*
  0
XRECORD
  5
C8B
102
{ACAD_REACTORS
330
A50
102
}
330
A50
100
AcDbXrecord
  1
x02dates
  1
*date
  1
*
  1
*
 70
     0
  1
*
  1
*
  0
XRECORD
  5
C8C
102
{ACAD_REACTORS
330
A50
102
}
330
A50
100
AcDbXrecord
  1
XC12
  1
*XC12|*
  1
*
  1
*
 70
     0
  1
*
  1
*
  0
XRECORD
  5
C8D
102
{ACAD_REACTORS
330
A50
102
}
330
A50
100
AcDbXrecord
  1
XEQUIP
  1
*XEQ*
  1
*
  1
*
 70
     0
  1
*
  1
*
  0
XRECORD
  5
C8E
102
{ACAD_REACTORS
330
A50
102
}
330
A50
100
AcDbXrecord
  1
XLAN
  1
*XLAN*
  1
*
  1
*
 70
     0
  1
*
  1
*
  0
XRECORD
  5
C8F
102
{ACAD_REACTORS
330
A50
102
}
330
A50
100
AcDbXrecord
  1
XMBL
  1
*XMBL*
  1
*
  1
*
 70
     0
  1
*
  1
*
  0
XRECORD
  5
C90
102
{ACAD_REACTORS
330
A50
102
}
330
A50
100
AcDbXrecord
  1
XR
  1
*XR*
  1
*
  1
*
 70
     0
  1
*
  1
*
  0
XRECORD
  5
C91
102
{ACAD_REACTORS
330
A50
102
}
330
A50
100
AcDbXrecord
  1
XRD
  1
*XRD*
  1
*
  1
*
 70
     0
  1
*
  1
*
  0
XRECORD
  5
C92
102
{ACAD_REACTORS
330
A50
102
}
330
A50
100
AcDbXrecord
  1
xref
  1
a-*
  1
*
  1
*
 70
     0
  1
*
  1
*
  0
XRECORD
  5
C93
102
{ACAD_REACTORS
330
A50
102
}
330
A50
100
AcDbXrecord
  1
XREF-INSERT-LAYERS
  1
X*
  1
*
  1
*
 70
     0
  1
*
  1
*
  0
XRECORD
  5
C94
102
{ACAD_REACTORS
330
A50
102
}
330
A50
100
AcDbXrecord
  1
XREF-MASTERS
  1
XREF*
  1
*
  1
*
 70
     0
  1
*
  1
*
  0
XRECORD
  5
C95
102
{ACAD_REACTORS
330
A50
102
}
330
A50
100
AcDbXrecord
  1
XREF-OFF
  1
07201*
  1
*
  1
*
 70
     0
  1
*
  1
*
  0
XRECORD
  5
C96
102
{ACAD_REACTORS
330
A50
102
}
330
A50
100
AcDbXrecord
  1
XREFB
  1
6742BASE\B*
  1
*
  1
*
 70
     0
  1
*
  1
*
  0
XRECORD
  5
C97
102
{ACAD_REACTORS
330
A50
102
}
330
A50
100
AcDbXrecord
  1
XREFON
  1
X_BASE*
  1
*
  1
*
 70
     1
  1
*
  1
*
  0
XRECORD
  5
C98
102
{ACAD_REACTORS
330
A50
102
}
330
A50
100
AcDbXrecord
  1
XREFS
  1
*XREF*
  1
*
  1
*
 70
     0
  1
*
  1
*
  0
XRECORD
  5
C99
102
{ACAD_REACTORS
330
A50
102
}
330
A50
100
AcDbXrecord
  1
XREFS-CHANGED
  1
A*|*
  1
~9
  1
*
 70
     0
  1
*
  1
*
  0
XRECORD
  5
C9A
102
{ACAD_REACTORS
330
A50
102
}
330
A50
100
AcDbXrecord
  1
xsurv
  1
*xsurv*
  1
*
  1
*
 70
     0
  1
*
  1
*
  0
XRECORD
  5
C9B
102
{ACAD_REACTORS
330
A50
102
}
330
A50
100
AcDbXrecord
  1
yellow
  1
*
  1
yellow
  1
*
 70
     0
  1
*
  1
*
  0
XRECORD
  5
C9C
102
{ACAD_REACTORS
330
A50
102
}
330
A50
100
AcDbXrecord
  1
z0
  1
*z0*
  1
*
  1
*
 70
     0
  1
*
  1
*
  0
DICTIONARY
  5
2CC9
330
2CC8
100
AcDbDictionary
280
     1
  3
ACAD_XREC_ROUNDTRIP
360
32F1
  3
BUMPTILE
360
2CCB
  3
DIFFUSETILE
360
2CCA
  3
OPACITYTILE
360
2CCE
  3
REFLECTIONTILE
360
2CCD
  3
REFRACTIONTILE
360
2CCF
  3
SPECULARTILE
360
2CCC
  0
DICTIONARY
  5
2CC1
330
2CC0
100
AcDbDictionary
280
     1
  3
ACAD_XREC_ROUNDTRIP
360
32F0
  3
BUMPTILE
360
2CC3
  3
DIFFUSETILE
360
2CC2
  3
OPACITYTILE
360
2CC6
  3
REFLECTIONTILE
360
2CC5
  3
REFRACTIONTILE
360
2CC7
  3
SPECULARTILE
360
2CC4
  0
DICTIONARY
  5
2CD1
330
2CD0
100
AcDbDictionary
280
     1
  3
ACAD_XREC_ROUNDTRIP
360
32F2
  3
BUMPTILE
360
2CD3
  3
DIFFUSETILE
360
2CD2
  3
OPACITYTILE
360
2CD6
  3
REFLECTIONTILE
360
2CD5
  3
REFRACTIONTILE
360
2CD7
  3
SPECULARTILE
360
2CD4
  0
DICTIONARY
  5
2F2B
330
2AF8
100
AcDbDictionary
280
     1
  3
ACAD_ROUNDTRIP_2008_TABLES
360
32CC
  3
ACAD_XREC_ROUNDTRIP
360
32E6
  0
XRECORD
  5
32F1
102
{ACAD_REACTORS
330
2CC9
102
}
330
2CC9
100
AcDbXrecord
102
MATERIAL
148
0.0
149
0.0
149
0.0
 93
        0
 94
      127
282
     0
 72
     0
 77
     0
171
     0
175
     0
179
     0
273
     0
  0
XRECORD
  5
2CCB
102
{ACAD_REACTORS
330
2CC9
102
}
330
2CC9
100
AcDbXrecord
270
     1
271
     1
  0
XRECORD
  5
2CCA
102
{ACAD_REACTORS
330
2CC9
102
}
330
2CC9
100
AcDbXrecord
270
     1
271
     1
  0
XRECORD
  5
2CCE
102
{ACAD_REACTORS
330
2CC9
102
}
330
2CC9
100
AcDbXrecord
270
     1
271
     1
  0
XRECORD
  5
2CCD
102
{ACAD_REACTORS
330
2CC9
102
}
330
2CC9
100
AcDbXrecord
270
     1
271
     1
  0
XRECORD
  5
2CCF
102
{ACAD_REACTORS
330
2CC9
102
}
330
2CC9
100
AcDbXrecord
270
     1
271
     1
  0
XRECORD
  5
2CCC
102
{ACAD_REACTORS
330
2CC9
102
}
330
2CC9
100
AcDbXrecord
270
     1
271
     1
  0
XRECORD
  5
32F0
102
{ACAD_REACTORS
330
2CC1
102
}
330
2CC1
100
AcDbXrecord
102
MATERIAL
148
0.0
149
0.0
149
0.0
 93
        0
 94
      127
282
     0
 72
     0
 77
     0
171
     0
175
     0
179
     0
273
     0
  0
XRECORD
  5
2CC3
102
{ACAD_REACTORS
330
2CC1
102
}
330
2CC1
100
AcDbXrecord
270
     1
271
     1
  0
XRECORD
  5
2CC2
102
{ACAD_REACTORS
330
2CC1
102
}
330
2CC1
100
AcDbXrecord
270
     1
271
     1
  0
XRECORD
  5
2CC6
102
{ACAD_REACTORS
330
2CC1
102
}
330
2CC1
100
AcDbXrecord
270
     1
271
     1
  0
XRECORD
  5
2CC5
102
{ACAD_REACTORS
330
2CC1
102
}
330
2CC1
100
AcDbXrecord
270
     1
271
     1
  0
XRECORD
  5
2CC7
102
{ACAD_REACTORS
330
2CC1
102
}
330
2CC1
100
AcDbXrecord
270
     1
271
     1
  0
XRECORD
  5
2CC4
102
{ACAD_REACTORS
330
2CC1
102
}
330
2CC1
100
AcDbXrecord
270
     1
271
     1
  0
XRECORD
  5
32F2
102
{ACAD_REACTORS
330
2CD1
102
}
330
2CD1
100
AcDbXrecord
102
MATERIAL
148
0.0
149
0.0
149
0.0
 93
        0
 94
      127
282
     0
 72
     0
 77
     0
171
     0
175
     0
179
     0
273
     0
  0
XRECORD
  5
2CD3
102
{ACAD_REACTORS
330
2CD1
102
}
330
2CD1
100
AcDbXrecord
270
     1
271
     1
  0
XRECORD
  5
2CD2
102
{ACAD_REACTORS
330
2CD1
102
}
330
2CD1
100
AcDbXrecord
270
     1
271
     1
  0
XRECORD
  5
2CD6
102
{ACAD_REACTORS
330
2CD1
102
}
330
2CD1
100
AcDbXrecord
270
     1
271
     1
  0
XRECORD
  5
2CD5
102
{ACAD_REACTORS
330
2CD1
102
}
330
2CD1
100
AcDbXrecord
270
     1
271
     1
  0
XRECORD
  5
2CD7
102
{ACAD_REACTORS
330
2CD1
102
}
330
2CD1
100
AcDbXrecord
270
     1
271
     1
  0
XRECORD
  5
2CD4
102
{ACAD_REACTORS
330
2CD1
102
}
330
2CD1
100
AcDbXrecord
270
     1
271
     1
  0
ACAD_PROXY_OBJECT
  5
32CC
102
{ACAD_REACTORS
330
2F2B
102
}
330
2F2B
100
AcDbProxyObject
 90
      499
 91
      516
 93
     5232
310
40D054060020000020000003200101A412A5058000000C10000000000000006101010000000000003E0FC000000000000F83F0000000000003E0FC000000000000F83F02B5E8DC0F42B1CFC0AD7A3703D0AC73F419019018000000C1003FBFFFFFE02B5E8DC0F42A9CFD029018000000C1003FBFFFFFE02B5E8DC0F42A9CFD
310
049018000000C1003FBFFFFFE02B5E8DC0F42A9CFD089018000000C1003FBFFFFFE02B5E8DC0F42A9CFD109018000000C1003FBFFFFFE02B5E8DC0F42A9CFD209018000000C1003FBFFFFFE02B5E8DC0F42A9CFD01405075F5449544C450041501A8000000C800406904A94160000003040000000000000012404040000000
310
00000F83F0000000000003E0FC000000000000F83F0000000000003E0FC0AD7A3703D0AC73F02B5E8DC0F42B1CFD0640640600000030400FEFFFFFF80AD7A3703D0AA73F40A40600000030400FEFFFFFF80AD7A3703D0AA73F41240600000030400FEFFFFFF80AD7A3703D0AA73F42240600000030400FEFFFFFF80AD7A370
310
3D0AA73F44240600000030400FEFFFFFF80AD7A3703D0AA73F48240600000030400FEFFFFFF80AD7A3703D0AA73F409014217D2115051115480105406A0000003200101A412A5028000000C10000000000000004901010000000000003E0FC000000000000F83F0000000000003E0FC000000000000F83F02B5E8DC0F42B1C
310
FC0AD7A3703D0AC73F419019018000000C1003FBFFFFFE02B5E8DC0F42A9CFD029018000000C1003FBFFFFFE02B5E8DC0F42A9CFD049018000000C1003FBFFFFFE02B5E8DC0F42A9CFD089018000000C1003FBFFFFFE02B5E8DC0F42A9CFD109018000000C1003FBFFFFFE02B5E8DC0F42A9CFD209018000000C1003FBFFFF
310
FE02B5E8DC0F42A9CFD03409065F444154410022
340
11
340
0
340
0
340
0
340
0
340
0
340
0
340
11
340
0
340
0
340
0
340
0
340
0
340
0
340
11
340
0
340
0
340
0
340
0
340
0
340
0
 94
        0
1001
ACAD
1000
AcRTDxfName
1000
CELLSTYLEMAP
1000
AcadProxyRoundTripData
1071
      514
1071
   917527
1070
     0
  0
XRECORD
  5
32E6
102
{ACAD_REACTORS
330
2F2B
102
}
330
2F2B
100
AcDbXrecord
102
ACAD_ROUNDTRIP_PRE2007_TABLESTYLE
 90
        4
 91
        0
  1

 92
        4
 93
        0
  2

 94
        4
 95
        0
  3

  0
ENDSEC
  0
EOF
