  0
SECTION
  2
HEADER
  9
$ACADVER
  1
AC1024
  9
$ACADMAINTVER
 70
   226
  9
$DWGCODEPAGE
  3
ANSI_1252
  9
$LASTSAVEDBY
  1
leeh
  9
$INSBASE
 10
0.0
 20
0.0
 30
0.0
  9
$EXTMIN
 10
9.802720922639551
 20
19.73421474358974
 30
0.0
  9
$EXTMAX
 10
491.7915069706337
 20
712.7254173829138
 30
0.0
  9
$LIMMIN
 10
0.0
 20
0.0
  9
$LIMMAX
 10
420.0
 20
297.0
  9
$ORTHOMODE
 70
     0
  9
$REGENMODE
 70
     1
  9
$FILLMODE
 70
     1
  9
$QTEXTMODE
 70
     0
  9
$MIRRTEXT
 70
     0
  9
$LTSCALE
 40
1.0
  9
$ATTMODE
 70
     1
  9
$TEXTSIZE
 40
2.5
  9
$TRACEWID
 40
1.0
  9
$TEXTSTYLE
  7
Standard
  9
$CLAYER
  8
0
  9
$CELTYPE
  6
ByLayer
  9
$CECOLOR
 62
   256
  9
$CELTSCALE
 40
1.0
  9
$DISPSILH
 70
     0
  9
$DIMSCALE
 40
1.0
  9
$DIMASZ
 40
2.5
  9
$DIMEXO
 40
0.625
  9
$DIMDLI
 40
3.75
  9
$DIMRND
 40
0.0
  9
$DIMDLE
 40
0.0
  9
$DIMEXE
 40
1.25
  9
$DIMTP
 40
0.0
  9
$DIMTM
 40
0.0
  9
$DIMTXT
 40
2.5
  9
$DIMCEN
 40
2.5
  9
$DIMTSZ
 40
0.0
  9
$DIMTOL
 70
     0
  9
$DIMLIM
 70
     0
  9
$DIMTIH
 70
     0
  9
$DIMTOH
 70
     0
  9
$DIMSE1
 70
     0
  9
$DIMSE2
 70
     0
  9
$DIMTAD
 70
     1
  9
$DIMZIN
 70
     8
  9
$DIMBLK
  1

  9
$DIMASO
 70
     1
  9
$DIMSHO
 70
     1
  9
$DIMPOST
  1

  9
$DIMAPOST
  1

  9
$DIMALT
 70
     0
  9
$DIMALTD
 70
     3
  9
$DIMALTF
 40
0.03937007874016
  9
$DIMLFAC
 40
1.0
  9
$DIMTOFL
 70
     1
  9
$DIMTVP
 40
0.0
  9
$DIMTIX
 70
     0
  9
$DIMSOXD
 70
     0
  9
$DIMSAH
 70
     0
  9
$DIMBLK1
  1

  9
$DIMBLK2
  1

  9
$DIMSTYLE
  2
ISO-25
  9
$DIMCLRD
 70
     0
  9
$DIMCLRE
 70
     0
  9
$DIMCLRT
 70
     0
  9
$DIMTFAC
 40
1.0
  9
$DIMGAP
 40
0.625
  9
$DIMJUST
 70
     0
  9
$DIMSD1
 70
     0
  9
$DIMSD2
 70
     0
  9
$DIMTOLJ
 70
     0
  9
$DIMTZIN
 70
     8
  9
$DIMALTZ
 70
     0
  9
$DIMALTTZ
 70
     0
  9
$DIMUPT
 70
     0
  9
$DIMDEC
 70
     2
  9
$DIMTDEC
 70
     2
  9
$DIMALTU
 70
     2
  9
$DIMALTTD
 70
     3
  9
$DIMTXSTY
  7
Standard
  9
$DIMAUNIT
 70
     0
  9
$DIMADEC
 70
     0
  9
$DIMALTRND
 40
0.0
  9
$DIMAZIN
 70
     0
  9
$DIMDSEP
 70
    44
  9
$DIMATFIT
 70
     3
  9
$DIMFRAC
 70
     0
  9
$DIMLDRBLK
  1

  9
$DIMLUNIT
 70
     2
  9
$DIMLWD
 70
    -2
  9
$DIMLWE
 70
    -2
  9
$DIMTMOVE
 70
     0
  9
$DIMFXL
 40
1.0
  9
$DIMFXLON
 70
     0
  9
$DIMJOGANG
 40
1.570796326794896
  9
$DIMTFILL
 70
     0
  9
$DIMTFILLCLR
 70
     0
  9
$DIMARCSYM
 70
     0
  9
$DIMLTYPE
  6

  9
$DIMLTEX1
  6

  9
$DIMLTEX2
  6

  9
$DIMTXTDIRECTION
 70
     0
  9
$LUNITS
 70
     2
  9
$LUPREC
 70
     4
  9
$SKETCHINC
 40
1.0
  9
$FILLETRAD
 40
0.0
  9
$AUNITS
 70
     0
  9
$AUPREC
 70
     0
  9
$MENU
  1
.
  9
$ELEVATION
 40
0.0
  9
$PELEVATION
 40
0.0
  9
$THICKNESS
 40
0.0
  9
$LIMCHECK
 70
     0
  9
$CHAMFERA
 40
0.0
  9
$CHAMFERB
 40
0.0
  9
$CHAMFERC
 40
0.0
  9
$CHAMFERD
 40
0.0
  9
$SKPOLY
 70
     0
  9
$TDCREATE
 40
2458995.574432870
  9
$TDUCREATE
 40
2458995.074432870
  9
$TDUPDATE
 40
2458995.578692130
  9
$TDUUPDATE
 40
2458995.078692130
  9
$TDINDWG
 40
0.0014236111
  9
$TDUSRTIMER
 40
0.0014236111
  9
$USRTIMER
 70
     1
  9
$ANGBASE
 50
0.0
  9
$ANGDIR
 70
     0
  9
$PDMODE
 70
     0
  9
$PDSIZE
 40
0.0
  9
$PLINEWID
 40
0.0
  9
$SPLFRAME
 70
     0
  9
$SPLINETYPE
 70
     6
  9
$SPLINESEGS
 70
     8
  9
$HANDSEED
  5
45A
  9
$SURFTAB1
 70
     6
  9
$SURFTAB2
 70
     6
  9
$SURFTYPE
 70
     6
  9
$SURFU
 70
     6
  9
$SURFV
 70
     6
  9
$UCSBASE
  2

  9
$UCSNAME
  2

  9
$UCSORG
 10
0.0
 20
0.0
 30
0.0
  9
$UCSXDIR
 10
1.0
 20
0.0
 30
0.0
  9
$UCSYDIR
 10
0.0
 20
1.0
 30
0.0
  9
$UCSORTHOREF
  2

  9
$UCSORTHOVIEW
 70
     0
  9
$UCSORGTOP
 10
0.0
 20
0.0
 30
0.0
  9
$UCSORGBOTTOM
 10
0.0
 20
0.0
 30
0.0
  9
$UCSORGLEFT
 10
0.0
 20
0.0
 30
0.0
  9
$UCSORGRIGHT
 10
0.0
 20
0.0
 30
0.0
  9
$UCSORGFRONT
 10
0.0
 20
0.0
 30
0.0
  9
$UCSORGBACK
 10
0.0
 20
0.0
 30
0.0
  9
$PUCSBASE
  2

  9
$PUCSNAME
  2

  9
$PUCSORG
 10
0.0
 20
0.0
 30
0.0
  9
$PUCSXDIR
 10
1.0
 20
0.0
 30
0.0
  9
$PUCSYDIR
 10
0.0
 20
1.0
 30
0.0
  9
$PUCSORTHOREF
  2

  9
$PUCSORTHOVIEW
 70
     0
  9
$PUCSORGTOP
 10
0.0
 20
0.0
 30
0.0
  9
$PUCSORGBOTTOM
 10
0.0
 20
0.0
 30
0.0
  9
$PUCSORGLEFT
 10
0.0
 20
0.0
 30
0.0
  9
$PUCSORGRIGHT
 10
0.0
 20
0.0
 30
0.0
  9
$PUCSORGFRONT
 10
0.0
 20
0.0
 30
0.0
  9
$PUCSORGBACK
 10
0.0
 20
0.0
 30
0.0
  9
$USERI1
 70
     0
  9
$USERI2
 70
     0
  9
$USERI3
 70
     0
  9
$USERI4
 70
     0
  9
$USERI5
 70
     0
  9
$USERR1
 40
0.0
  9
$USERR2
 40
0.0
  9
$USERR3
 40
0.0
  9
$USERR4
 40
0.0
  9
$USERR5
 40
0.0
  9
$WORLDVIEW
 70
     1
  9
$SHADEDGE
 70
     3
  9
$SHADEDIF
 70
    70
  9
$TILEMODE
 70
     1
  9
$MAXACTVP
 70
    64
  9
$PINSBASE
 10
0.0
 20
0.0
 30
0.0
  9
$PLIMCHECK
 70
     0
  9
$PEXTMIN
 10
1.000000000000000E+20
 20
1.000000000000000E+20
 30
1.000000000000000E+20
  9
$PEXTMAX
 10
-1.000000000000000E+20
 20
-1.000000000000000E+20
 30
-1.000000000000000E+20
  9
$PLIMMIN
 10
0.0
 20
0.0
  9
$PLIMMAX
 10
420.0
 20
297.0
  9
$UNITMODE
 70
     0
  9
$VISRETAIN
 70
     1
  9
$PLINEGEN
 70
     0
  9
$PSLTSCALE
 70
     1
  9
$TREEDEPTH
 70
  3020
  9
$CMLSTYLE
  2
Standard
  9
$CMLJUST
 70
     0
  9
$CMLSCALE
 40
20.0
  9
$PROXYGRAPHICS
 70
     1
  9
$MEASUREMENT
 70
     1
  9
$CELWEIGHT
370
    -1
  9
$ENDCAPS
280
     0
  9
$JOINSTYLE
280
     0
  9
$LWDISPLAY
290
     0
  9
$INSUNITS
 70
     4
  9
$HYPERLINKBASE
  1

  9
$STYLESHEET
  1

  9
$XEDIT
290
     1
  9
$CEPSNTYPE
380
     0
  9
$PSTYLEMODE
290
     1
  9
$FINGERPRINTGUID
  2
{60F2FC91-CC62-E24D-8E96-0F7BCC75D301}
  9
$VERSIONGUID
  2
{21F6F91F-C898-F74A-AE64-4A2AC38906C2}
  9
$EXTNAMES
290
     1
  9
$PSVPSCALE
 40
0.0
  9
$OLESTARTUP
290
     0
  9
$SORTENTS
280
   127
  9
$INDEXCTL
280
     0
  9
$HIDETEXT
280
     1
  9
$XCLIPFRAME
280
     2
  9
$HALOGAP
280
     0
  9
$OBSCOLOR
 70
   257
  9
$OBSLTYPE
280
     0
  9
$INTERSECTIONDISPLAY
280
     0
  9
$INTERSECTIONCOLOR
 70
   257
  9
$DIMASSOC
280
     2
  9
$PROJECTNAME
  1

  9
$CAMERADISPLAY
290
     0
  9
$LENSLENGTH
 40
50.0
  9
$CAMERAHEIGHT
 40
0.0
  9
$STEPSPERSEC
 40
2.0
  9
$STEPSIZE
 40
6.0
  9
$3DDWFPREC
 40
2.0
  9
$PSOLWIDTH
 40
0.25
  9
$PSOLHEIGHT
 40
4.0
  9
$LOFTANG1
 40
1.570796326794896
  9
$LOFTANG2
 40
1.570796326794896
  9
$LOFTMAG1
 40
0.0
  9
$LOFTMAG2
 40
0.0
  9
$LOFTPARAM
 70
     7
  9
$LOFTNORMALS
280
     1
  9
$LATITUDE
 40
37.795
  9
$LONGITUDE
 40
-122.394
  9
$NORTHDIRECTION
 40
0.0
  9
$TIMEZONE
 70
 -8000
  9
$LIGHTGLYPHDISPLAY
280
     1
  9
$TILEMODELIGHTSYNCH
280
     1
  9
$CMATERIAL
347
11
  9
$SOLIDHIST
280
     0
  9
$SHOWHIST
280
     1
  9
$DWFFRAME
280
     2
  9
$DGNFRAME
280
     0
  9
$REALWORLDSCALE
290
     1
  9
$INTERFERECOLOR
 62
     1
  9
$INTERFEREOBJVS
345
33
  9
$INTERFEREVPVS
346
30
  9
$CSHADOW
280
     0
  9
$SHADOWPLANELOCATION
 40
0.0
  0
ENDSEC
  0
SECTION
  2
CLASSES
  0
CLASS
  1
ACDBDICTIONARYWDFLT
  2
AcDbDictionaryWithDefault
  3
ObjectDBX Classes
 90
        0
 91
        1
280
     0
281
     0
  0
CLASS
  1
MATERIAL
  2
AcDbMaterial
  3
ObjectDBX Classes
 90
     1153
 91
        3
280
     0
281
     0
  0
CLASS
  1
VISUALSTYLE
  2
AcDbVisualStyle
  3
ObjectDBX Classes
 90
     4095
 91
       24
280
     0
281
     0
  0
CLASS
  1
SCALE
  2
AcDbScale
  3
ObjectDBX Classes
 90
     1153
 91
       17
280
     0
281
     0
  0
CLASS
  1
TABLESTYLE
  2
AcDbTableStyle
  3
ObjectDBX Classes
 90
     4095
 91
        1
280
     0
281
     0
  0
CLASS
  1
MLEADERSTYLE
  2
AcDbMLeaderStyle
  3
ACDB_MLEADERSTYLE_CLASS
 90
     4095
 91
        1
280
     0
281
     0
  0
CLASS
  1
ACDBSECTIONVIEWSTYLE
  2
AcDbSectionViewStyle
  3
ObjectDBX Classes
 90
     1025
 91
        1
280
     0
281
     0
  0
CLASS
  1
ACDBDETAILVIEWSTYLE
  2
AcDbDetailViewStyle
  3
ObjectDBX Classes
 90
     1025
 91
        1
280
     0
281
     0
  0
CLASS
  1
DICTIONARYVAR
  2
AcDbDictionaryVar
  3
ObjectDBX Classes
 90
        0
 91
        7
280
     0
281
     0
  0
CLASS
  1
ACDB_HATCHVIEWCONTEXTDATA_CLASS
  2
AcDbHatchViewContextData
  3
ObjectDBX Classes
 90
     1153
 91
        0
280
     0
281
     0
  0
CLASS
  1
ACDB_HATCHSCALECONTEXTDATA_CLASS
  2
AcDbHatchScaleContextData
  3
ObjectDBX Classes
 90
     1153
 91
        0
280
     0
281
     0
  0
CLASS
  1
DIMASSOC
  2
AcDbDimAssoc
  3
"AcDbDimAssoc|Product Desc:     AcDim ARX App For Dimension|Company:          Autodesk, Inc.|WEB Address:      www.autodesk.com"
 90
        0
 91
        2
280
     0
281
     0
  0
CLASS
  1
SORTENTSTABLE
  2
AcDbSortentsTable
  3
ObjectDBX Classes
 90
        0
 91
        0
280
     0
281
     0
  0
CLASS
  1
CELLSTYLEMAP
  2
AcDbCellStyleMap
  3
ObjectDBX Classes
 90
     1152
 91
        2
280
     0
281
     0
  0
ENDSEC
  0
SECTION
  2
TABLES
  0
TABLE
  2
VPORT
  5
8
330
0
100
AcDbSymbolTable
 70
     1
  0
VPORT
  5
57
330
8
100
AcDbSymbolTableRecord
100
AcDbViewportTableRecord
  2
*Active
 70
     0
 10
0.0
 20
0.0
 11
1.0
 21
1.0
 12
250.8073435546915
 22
366.2332315358022
 13
0.0
 23
0.0
 14
10.0
 24
10.0
 15
10.0
 25
10.0
 16
0.0
 26
0.0
 36
1.0
 17
0.0
 27
0.0
 37
0.0
 40
698.556182105332
 41
2.393858477970627
 42
50.0
 43
0.0
 44
0.0
 50
0.0
 51
0.0
 71
     0
 72
  1000
 73
     1
 74
     3
 75
     0
 76
     0
 77
     0
 78
     0
281
     0
 65
     1
110
0.0
120
0.0
130
0.0
111
1.0
121
0.0
131
0.0
112
0.0
122
1.0
132
0.0
 79
     0
146
0.0
348
2F
 60
     2
 61
     5
292
     1
282
     1
141
0.0
142
0.0
 63
   250
421
  3355443
1001
ACAD_NAV_VCDISPLAY
1070
     1
  0
ENDTAB
  0
TABLE
  2
LTYPE
  5
5
330
0
100
AcDbSymbolTable
 70
     4
  0
LTYPE
  5
5B
330
5
100
AcDbSymbolTableRecord
100
AcDbLinetypeTableRecord
  2
ByBlock
 70
     0
  3

 72
    65
 73
     0
 40
0.0
  0
LTYPE
  5
5C
330
5
100
AcDbSymbolTableRecord
100
AcDbLinetypeTableRecord
  2
ByLayer
 70
     0
  3

 72
    65
 73
     0
 40
0.0
  0
LTYPE
  5
5D
330
5
100
AcDbSymbolTableRecord
100
AcDbLinetypeTableRecord
  2
Continuous
 70
     0
  3
Solid line
 72
    65
 73
     0
 40
0.0
  0
LTYPE
  5
D6
330
5
100
AcDbSymbolTableRecord
100
AcDbLinetypeTableRecord
  2
CENTER
 70
     0
  3
Center ____ _ ____ _ ____ _ ____ _ ____ _ ____
 72
    65
 73
     4
 40
50.8
 49
31.75
 74
     0
 49
-6.349999999999999
 74
     0
 49
6.349999999999999
 74
     0
 49
-6.349999999999999
 74
     0
  0
LTYPE
  5
D7
330
5
100
AcDbSymbolTableRecord
100
AcDbLinetypeTableRecord
  2
DASHED
 70
     0
  3
Dashed __ __ __ __ __ __ __ __ __ __ __ __ __ _
 72
    65
 73
     2
 40
19.05
 49
12.7
 74
     0
 49
-6.349999999999999
 74
     0
  0
LTYPE
  5
D8
330
5
100
AcDbSymbolTableRecord
100
AcDbLinetypeTableRecord
  2
HIDDEN
 70
     0
  3
__ __ __ __ __ __ __ __ __ __ __ __ __ __ __ __
 72
    65
 73
     2
 40
0.375
 49
0.25
 74
     4
 75
     0
340
0
 46
1.0
 50
0.0
 44
0.0
 45
0.0
 49
-0.125
 74
     4
 75
     0
340
0
 46
1.0
 50
0.0
 44
0.0
 45
0.0
  0
ENDTAB
  0
TABLE
  2
LAYER
  5
2
102
{ACAD_XDICTIONARY
360
FE
102
}
330
0
100
AcDbSymbolTable
 70
    14
  0
LAYER
  5
54
330
2
100
AcDbSymbolTableRecord
100
AcDbLayerTableRecord
  2
0
 70
     0
 62
     7
  6
Continuous
370
    -3
390
F
347
21
  0
LAYER
  5
D9
102
{ACAD_XDICTIONARY
360
DA
102
}
330
2
100
AcDbSymbolTableRecord
100
AcDbLayerTableRecord
  2
Viewport
 70
     0
 62
     1
  6
Continuous
290
     0
370
    -3
390
F
347
21
  0
LAYER
  5
DB
102
{ACAD_XDICTIONARY
360
DC
102
}
330
2
100
AcDbSymbolTableRecord
100
AcDbLayerTableRecord
  2
dim
 70
     0
 62
     7
  6
Continuous
370
     5
390
F
347
21
  0
LAYER
  5
DD
330
2
100
AcDbSymbolTableRecord
100
AcDbLayerTableRecord
  2
Defpoints
 70
     0
 62
     7
  6
Continuous
290
     0
370
    -3
390
F
347
21
  0
LAYER
  5
DE
102
{ACAD_XDICTIONARY
360
DF
102
}
330
2
100
AcDbSymbolTableRecord
100
AcDbLayerTableRecord
  2
fixing
 70
     0
 62
     4
  6
Continuous
370
     5
390
F
347
21
1001
AcAecLayerStandard
1000

1000

  0
LAYER
  5
E0
102
{ACAD_XDICTIONARY
360
E1
102
}
330
2
100
AcDbSymbolTableRecord
100
AcDbLayerTableRecord
  2
shade 8
 70
     0
 62
     8
  6
Continuous
370
     9
390
F
347
21
  0
LAYER
  5
E2
102
{ACAD_XDICTIONARY
360
E3
102
}
330
2
100
AcDbSymbolTableRecord
100
AcDbLayerTableRecord
  2
Object
 70
     0
 62
     5
  6
Continuous
370
    -3
390
F
347
21
1001
AcAecLayerStandard
1000

1000

  0
LAYER
  5
E4
102
{ACAD_XDICTIONARY
360
E5
102
}
330
2
100
AcDbSymbolTableRecord
100
AcDbLayerTableRecord
  2
shade 9
 70
     0
 62
     9
  6
Continuous
370
    -3
390
F
347
21
1001
AcAecLayerStandard
1000

1000

  0
LAYER
  5
E6
102
{ACAD_XDICTIONARY
360
E7
102
}
330
2
100
AcDbSymbolTableRecord
100
AcDbLayerTableRecord
  2
ctrl
 70
     0
 62
   220
  6
CENTER
370
     5
390
F
347
21
1001
AcAecLayerStandard
1000

1000

  0
LAYER
  5
E8
102
{ACAD_XDICTIONARY
360
E9
102
}
330
2
100
AcDbSymbolTableRecord
100
AcDbLayerTableRecord
  2
title
 70
     0
 62
     7
  6
Continuous
370
     0
390
F
347
21
  0
LAYER
  5
EA
102
{ACAD_XDICTIONARY
360
EB
102
}
330
2
100
AcDbSymbolTableRecord
100
AcDbLayerTableRecord
  2
channel
 70
     0
 62
     1
  6
Continuous
370
    -3
390
F
347
21
1001
AcAecLayerStandard
1000

1000

  0
LAYER
  5
EC
102
{ACAD_XDICTIONARY
360
ED
102
}
330
2
100
AcDbSymbolTableRecord
100
AcDbLayerTableRecord
  2
glass
 70
     0
 62
     5
  6
Continuous
370
    18
390
F
347
21
1001
AcAecLayerStandard
1000

1000

  0
LAYER
  5
EE
102
{ACAD_XDICTIONARY
360
EF
102
}
330
2
100
AcDbSymbolTableRecord
100
AcDbLayerTableRecord
  2
capping
 70
     0
 62
     6
  6
Continuous
370
    15
390
F
347
21
1001
AcAecLayerStandard
1000

1000

  0
LAYER
  5
F0
102
{ACAD_XDICTIONARY
360
F1
102
}
330
2
100
AcDbSymbolTableRecord
100
AcDbLayerTableRecord
  2
Handrail
 70
     0
 62
    37
  6
Continuous
370
    -3
390
F
347
21
  0
ENDTAB
  0
TABLE
  2
STYLE
  5
3
330
0
100
AcDbSymbolTable
 70
     3
  0
STYLE
  5
55
330
3
100
AcDbSymbolTableRecord
100
AcDbTextStyleTableRecord
  2
Standard
 70
     0
 40
0.0
 41
1.0
 50
0.0
 71
     0
 42
2.5
  3
txt
  4

  0
STYLE
  5
F2
330
3
100
AcDbSymbolTableRecord
100
AcDbTextStyleTableRecord
  2
Arial Narrow
 70
     0
 40
0.0
 41
1.0
 50
0.0
 71
     0
 42
2.5
  3
ARIALN.TTF
  4

1001
ACAD
1000
Arial Narrow
1071
       34
  0
STYLE
  5
F3
330
3
100
AcDbSymbolTableRecord
100
AcDbTextStyleTableRecord
  2
Calibri
 70
     0
 40
0.0
 41
1.0
 50
0.0
 71
     0
 42
15.0
  3
calibri.ttf
  4

1001
ACAD
1000
Calibri
1071
       34
  0
ENDTAB
  0
TABLE
  2
VIEW
  5
6
330
0
100
AcDbSymbolTable
 70
     0
  0
ENDTAB
  0
TABLE
  2
UCS
  5
7
330
0
100
AcDbSymbolTable
 70
     0
  0
ENDTAB
  0
TABLE
  2
APPID
  5
9
330
0
100
AcDbSymbolTable
 70
    10
  0
APPID
  5
56
330
9
100
AcDbSymbolTableRecord
100
AcDbRegAppTableRecord
  2
ACAD
 70
     0
  0
APPID
  5
5E
330
9
100
AcDbSymbolTableRecord
100
AcDbRegAppTableRecord
  2
AcadAnnotative
 70
     0
  0
APPID
  5
7D
330
9
100
AcDbSymbolTableRecord
100
AcDbRegAppTableRecord
  2
ACAD_NAV_VCDISPLAY
 70
     0
  0
APPID
  5
F7
330
9
100
AcDbSymbolTableRecord
100
AcDbRegAppTableRecord
  2
ACAD_PSEXT
 70
     0
  0
APPID
  5
F8
330
9
100
AcDbSymbolTableRecord
100
AcDbRegAppTableRecord
  2
AcAecLayerStandard
 70
     0
  0
APPID
  5
F9
330
9
100
AcDbSymbolTableRecord
100
AcDbRegAppTableRecord
  2
ACAD_DSTYLE_DIMJAG
 70
     0
  0
APPID
  5
FA
330
9
100
AcDbSymbolTableRecord
100
AcDbRegAppTableRecord
  2
ACAD_DSTYLE_DIMTALN
 70
     0
  0
APPID
  5
FB
330
9
100
AcDbSymbolTableRecord
100
AcDbRegAppTableRecord
  2
GradientColor1ACI
 70
     0
  0
APPID
  5
FC
330
9
100
AcDbSymbolTableRecord
100
AcDbRegAppTableRecord
  2
GradientColor2ACI
 70
     0
  0
APPID
  5
FD
330
9
100
AcDbSymbolTableRecord
100
AcDbRegAppTableRecord
  2
ACAD_DSTYLE_DIMBREAK
 70
     0
  0
ENDTAB
  0
TABLE
  2
DIMSTYLE
  5
A
330
0
100
AcDbSymbolTable
 70
     3
100
AcDbDimStyleTable
 71
     0
  0
DIMSTYLE
105
58
330
A
100
AcDbSymbolTableRecord
100
AcDbDimStyleTableRecord
  2
ISO-25
 70
     0
 41
2.5
 42
0.625
 43
3.75
 44
1.25
 50
90.0
 73
     0
 74
     0
 77
     1
 78
     8
140
2.5
141
2.5
143
0.03937007874016
147
0.625
171
     3
172
     1
271
     2
272
     2
274
     3
278
    44
283
     0
284
     8
340
55
  0
DIMSTYLE
105
F4
102
{ACAD_REACTORS
330
257
102
}
330
A
100
AcDbSymbolTableRecord
100
AcDbDimStyleTableRecord
  2
Spectrum 2
 70
     0
 40
2.0
 41
3.0
 42
1.0
 43
6.0
 44
2.0
 73
     0
 74
     0
 77
     1
 78
     8
140
2.25
141
0.0
143
0.03937007874016
147
1.0
171
     3
172
     1
271
     1
272
     1
274
     3
283
     0
284
     8
340
F3
1001
ACAD_DSTYLE_DIMJAG
1070
   388
1040
1.5
1001
ACAD_DSTYLE_DIMTALN
1070
   392
1070
     0
  0
DIMSTYLE
105
F5
102
{ACAD_REACTORS
330
2B8
330
2B9
330
2D4
330
255
330
256
330
2E2
102
}
330
A
100
AcDbSymbolTableRecord
100
AcDbDimStyleTableRecord
  2
Spectrum 2.5
 70
     0
 40
2.5
 41
3.0
 42
1.0
 43
6.0
 44
2.0
 73
     0
 74
     0
 77
     1
 78
     8
140
2.25
141
0.0
143
0.03937007874016
147
1.0
171
     3
172
     1
271
     1
272
     1
274
     3
283
     0
284
     8
340
F3
1001
ACAD_DSTYLE_DIMBREAK
1070
   391
1040
3.75
1001
ACAD_DSTYLE_DIMJAG
1070
   388
1040
1.5
1001
ACAD_DSTYLE_DIMTALN
1070
   392
1070
     0
  0
ENDTAB
  0
TABLE
  2
BLOCK_RECORD
  5
1
330
0
100
AcDbSymbolTable
 70
     8
  0
BLOCK_RECORD
  5
70
330
1
100
AcDbSymbolTableRecord
100
AcDbBlockTableRecord
  2
*Model_Space
340
73
 70
     0
280
     1
281
     0
  0
BLOCK_RECORD
  5
6C
330
1
100
AcDbSymbolTableRecord
100
AcDbBlockTableRecord
  2
*Paper_Space
340
6F
 70
     0
280
     1
281
     0
  0
BLOCK_RECORD
  5
74
330
1
100
AcDbSymbolTableRecord
100
AcDbBlockTableRecord
  2
*Paper_Space0
340
77
 70
     0
280
     1
281
     0
  0
BLOCK_RECORD
  5
2E7
330
1
100
AcDbSymbolTableRecord
100
AcDbBlockTableRecord
  2
*D1
340
0
 70
     0
280
     1
281
     0
  0
BLOCK_RECORD
  5
2F3
330
1
100
AcDbSymbolTableRecord
100
AcDbBlockTableRecord
  2
*D2
340
0
 70
     0
280
     1
281
     0
  0
BLOCK_RECORD
  5
300
330
1
100
AcDbSymbolTableRecord
100
AcDbBlockTableRecord
  2
*D3
340
0
 70
     0
280
     1
281
     0
  0
BLOCK_RECORD
  5
30C
330
1
100
AcDbSymbolTableRecord
100
AcDbBlockTableRecord
  2
*D4
340
0
 70
     0
280
     1
281
     0
  0
BLOCK_RECORD
  5
318
330
1
100
AcDbSymbolTableRecord
100
AcDbBlockTableRecord
  2
*D5
340
0
 70
     0
280
     1
281
     0
  0
BLOCK_RECORD
  5
337
330
1
100
AcDbSymbolTableRecord
100
AcDbBlockTableRecord
  2
*D6
340
0
 70
     0
280
     1
281
     0
  0
BLOCK_RECORD
  5
360
330
1
100
AcDbSymbolTableRecord
100
AcDbBlockTableRecord
  2
*D7
340
0
 70
     0
280
     1
281
     0
  0
ENDTAB
  0
ENDSEC
  0
SECTION
  2
BLOCKS
  0
BLOCK
  5
71
330
70
100
AcDbEntity
  8
0
100
AcDbBlockBegin
  2
*Model_Space
 70
     0
 10
0.0
 20
0.0
 30
0.0
  3
*Model_Space
  1

  0
ENDBLK
  5
72
330
70
100
AcDbEntity
  8
0
100
AcDbBlockEnd
  0
BLOCK
  5
6D
330
6C
100
AcDbEntity
 67
     1
  8
0
100
AcDbBlockBegin
  2
*Paper_Space
 70
     0
 10
0.0
 20
0.0
 30
0.0
  3
*Paper_Space
  1

  0
ENDBLK
  5
6E
330
6C
100
AcDbEntity
 67
     1
  8
0
100
AcDbBlockEnd
  0
BLOCK
  5
75
330
74
100
AcDbEntity
 67
     1
  8
0
100
AcDbBlockBegin
  2
*Paper_Space0
 70
     0
 10
0.0
 20
0.0
 30
0.0
  3
*Paper_Space0
  1

  0
ENDBLK
  5
76
330
74
100
AcDbEntity
 67
     1
  8
0
100
AcDbBlockEnd
  0
BLOCK
  5
2E8
330
2E7
100
AcDbEntity
  8
0
100
AcDbBlockBegin
  2
*D1
 70
     1
 10
0.0
 20
0.0
 30
0.0
  3
*D1
  1

  0
LINE
  5
387
330
2E7
100
AcDbEntity
  8
dim
 62
     0
440
 16777216
370
    -2
100
AcDbLine
 10
306.2927666625601
 20
407.996838219221
 30
0.0
 11
306.2927666625601
 21
363.6586157796391
 31
0.0
  0
LINE
  5
388
330
2E7
100
AcDbEntity
  8
dim
 62
     0
440
 16777216
370
    -2
100
AcDbLine
 10
418.7927666625601
 20
407.996838219221
 30
0.0
 11
418.7927666625601
 21
363.6586157796391
 31
0.0
  0
LINE
  5
389
330
2E7
100
AcDbEntity
  8
dim
 62
     0
440
 16777216
370
    -2
100
AcDbLine
 10
313.7927666625601
 20
368.6586157796392
 30
0.0
 11
411.29276666256
 21
368.6586157796392
 31
0.0
  0
SOLID
  5
38A
330
2E7
100
AcDbEntity
  8
dim
 62
     0
440
 16777216
100
AcDbTrace
 10
313.7927666625601
 20
369.9086157796391
 30
0.0
 11
313.7927666625601
 21
367.4086157796391
 31
0.0
 12
306.2927666625601
 22
368.6586157796392
 32
0.0
 13
306.2927666625601
 23
368.6586157796392
 33
0.0
  0
SOLID
  5
38B
330
2E7
100
AcDbEntity
  8
dim
 62
     0
440
 16777216
100
AcDbTrace
 10
411.29276666256
 20
369.9086157796391
 30
0.0
 11
411.29276666256
 21
367.4086157796391
 31
0.0
 12
418.7927666625601
 22
368.6586157796392
 32
0.0
 13
418.7927666625601
 23
368.6586157796392
 33
0.0
  0
MTEXT
  5
38C
330
2E7
100
AcDbEntity
  8
dim
 62
     0
440
 16777216
100
AcDbMText
 10
362.5427666625601
 20
374.0403465488699
 30
0.0
 40
5.625
 41
0.0
 46
0.0
 71
     5
 72
     1
  1
450 ctrs max
  7
Calibri
 73
     1
 44
1.0
  0
POINT
  5
38D
330
2E7
100
AcDbEntity
  8
Defpoints
 62
     0
440
 16777216
100
AcDbPoint
 10
306.2927666625601
 20
410.4968382192209
 30
0.0
  0
POINT
  5
38E
330
2E7
100
AcDbEntity
  8
Defpoints
 62
     0
440
 16777216
100
AcDbPoint
 10
418.7927666625601
 20
410.4968382192209
 30
0.0
  0
POINT
  5
38F
330
2E7
100
AcDbEntity
  8
Defpoints
 62
     0
440
 16777216
100
AcDbPoint
 10
418.7927666625601
 20
368.6586157796392
 30
0.0
  0
ENDBLK
  5
2E9
330
2E7
100
AcDbEntity
  8
0
100
AcDbBlockEnd
  0
BLOCK
  5
2F4
330
2F3
100
AcDbEntity
  8
0
100
AcDbBlockBegin
  2
*D2
 70
     1
 10
0.0
 20
0.0
 30
0.0
  3
*D2
  1

  0
LINE
  5
390
330
2F3
100
AcDbEntity
  8
dim
 62
     0
440
 16777216
370
    -2
100
AcDbLine
 10
281.2927666625746
 20
430.8424954887832
 30
0.0
 11
281.2927666625746
 21
454.315289004935
 31
0.0
  0
LINE
  5
391
330
2F3
100
AcDbEntity
  8
dim
 62
     0
440
 16777216
370
    -2
100
AcDbLine
 10
306.2927666625601
 20
418.0631527583472
 30
0.0
 11
306.2927666625601
 21
454.315289004935
 31
0.0
  0
LINE
  5
392
330
2F3
100
AcDbEntity
  8
dim
 62
     0
440
 16777216
370
    -2
100
AcDbLine
 10
288.7927666625746
 20
449.315289004935
 30
0.0
 11
298.7927666625601
 21
449.315289004935
 31
0.0
  0
LINE
  5
393
330
2F3
100
AcDbEntity
  8
dim
 62
     0
440
 16777216
370
    -2
100
AcDbLine
 10
306.2927666625601
 20
449.315289004935
 30
0.0
 11
348.4884397394834
 21
449.315289004935
 31
0.0
  0
SOLID
  5
394
330
2F3
100
AcDbEntity
  8
dim
 62
     0
440
 16777216
100
AcDbTrace
 10
288.7927666625746
 20
450.565289004935
 30
0.0
 11
288.7927666625746
 21
448.065289004935
 31
0.0
 12
281.2927666625746
 22
449.315289004935
 32
0.0
 13
281.2927666625746
 23
449.315289004935
 33
0.0
  0
SOLID
  5
395
330
2F3
100
AcDbEntity
  8
dim
 62
     0
440
 16777216
100
AcDbTrace
 10
298.7927666625601
 20
450.565289004935
 30
0.0
 11
298.7927666625601
 21
448.065289004935
 31
0.0
 12
306.2927666625601
 22
449.315289004935
 32
0.0
 13
306.2927666625601
 23
449.315289004935
 33
0.0
  0
MTEXT
  5
396
330
2F3
100
AcDbEntity
  8
dim
 62
     0
440
 16777216
100
AcDbMText
 10
331.1406032010218
 20
454.6970197741658
 30
0.0
 40
5.625
 41
0.0
 46
0.0
 71
     5
 72
     1
  1
100 max 
  7
Calibri
 73
     1
 44
1.0
  0
POINT
  5
397
330
2F3
100
AcDbEntity
  8
Defpoints
 62
     0
440
 16777216
100
AcDbPoint
 10
281.2927666625746
 20
428.3424954887832
 30
0.0
  0
POINT
  5
398
330
2F3
100
AcDbEntity
  8
Defpoints
 62
     0
440
 16777216
100
AcDbPoint
 10
306.2927666625601
 20
415.5631527583473
 30
0.0
  0
POINT
  5
399
330
2F3
100
AcDbEntity
  8
Defpoints
 62
     0
440
 16777216
100
AcDbPoint
 10
306.2927666625601
 20
449.315289004935
 30
0.0
  0
ENDBLK
  5
2F5
330
2F3
100
AcDbEntity
  8
0
100
AcDbBlockEnd
  0
BLOCK
  5
301
330
300
100
AcDbEntity
  8
0
100
AcDbBlockBegin
  2
*D3
 70
     1
 10
0.0
 20
0.0
 30
0.0
  3
*D3
  1

  0
LINE
  5
36C
330
300
100
AcDbEntity
  8
dim
 62
     0
440
 16777216
370
    -2
100
AcDbLine
 10
99.51566139564244
 20
148.9805903074385
 30
0.0
 11
41.47759371974821
 21
148.9805903074384
 31
0.0
  0
LINE
  5
36D
330
300
100
AcDbEntity
  8
dim
 62
     0
440
 16777216
370
    -2
100
AcDbLine
 10
76.05312972862887
 20
288.980421678608
 30
0.0
 11
41.47759371974818
 21
288.980421678608
 31
0.0
  0
LINE
  5
36E
330
300
100
AcDbEntity
  8
dim
 62
     0
440
 16777216
370
    -2
100
AcDbLine
 10
46.47759371974821
 20
156.4805903074384
 30
0.0
 11
46.47759371974818
 21
281.480421678608
 31
0.0
  0
SOLID
  5
36F
330
300
100
AcDbEntity
  8
dim
 62
     0
440
 16777216
100
AcDbTrace
 10
45.22759371974821
 20
156.4805903074384
 30
0.0
 11
47.72759371974821
 21
156.4805903074384
 31
0.0
 12
46.47759371974821
 22
148.9805903074384
 32
0.0
 13
46.47759371974821
 23
148.9805903074384
 33
0.0
  0
SOLID
  5
370
330
300
100
AcDbEntity
  8
dim
 62
     0
440
 16777216
100
AcDbTrace
 10
45.22759371974818
 20
281.480421678608
 30
0.0
 11
47.72759371974818
 21
281.480421678608
 31
0.0
 12
46.47759371974818
 22
288.980421678608
 32
0.0
 13
46.47759371974818
 23
288.980421678608
 33
0.0
  0
MTEXT
  5
371
330
300
100
AcDbEntity
  8
dim
 62
     0
440
 16777216
100
AcDbMText
 10
40.17639179667133
 20
218.9805059930322
 30
0.0
 40
5.625
 41
0.0
 46
0.0
 71
     5
 72
     1
  1
140 min section depth
  7
Calibri
 11
0.0000000000000001
 21
1.0
 31
0.0
 73
     1
 44
1.0
  0
POINT
  5
372
330
300
100
AcDbEntity
  8
Defpoints
 62
     0
440
 16777216
100
AcDbPoint
 10
102.0156613956424
 20
148.9805903074385
 30
0.0
  0
POINT
  5
373
330
300
100
AcDbEntity
  8
Defpoints
 62
     0
440
 16777216
100
AcDbPoint
 10
78.55312972862887
 20
288.980421678608
 30
0.0
  0
POINT
  5
374
330
300
100
AcDbEntity
  8
Defpoints
 62
     0
440
 16777216
100
AcDbPoint
 10
46.47759371974818
 20
288.980421678608
 30
0.0
  0
ENDBLK
  5
302
330
300
100
AcDbEntity
  8
0
100
AcDbBlockEnd
  0
BLOCK
  5
30D
330
30C
100
AcDbEntity
  8
0
100
AcDbBlockBegin
  2
*D4
 70
     1
 10
0.0
 20
0.0
 30
0.0
  3
*D4
  1

  0
LINE
  5
375
330
30C
100
AcDbEntity
  8
dim
 62
     0
440
 16777216
370
    -2
100
AcDbLine
 10
76.05312972862887
 20
288.980421678608
 30
0.0
 11
58.72759371974819
 21
288.980421678608
 31
0.0
  0
LINE
  5
376
330
30C
100
AcDbEntity
  8
dim
 62
     0
440
 16777216
370
    -2
100
AcDbLine
 10
74.51566139562785
 20
227.730421678608
 30
0.0
 11
58.72759371974821
 21
227.7304216786079
 31
0.0
  0
LINE
  5
377
330
30C
100
AcDbEntity
  8
dim
 62
     0
440
 16777216
370
    -2
100
AcDbLine
 10
63.72759371974819
 20
281.480421678608
 30
0.0
 11
63.72759371974821
 21
235.2304216786079
 31
0.0
  0
SOLID
  5
378
330
30C
100
AcDbEntity
  8
dim
 62
     0
440
 16777216
100
AcDbTrace
 10
62.47759371974819
 20
281.480421678608
 30
0.0
 11
64.9775937197482
 21
281.480421678608
 31
0.0
 12
63.72759371974819
 22
288.980421678608
 32
0.0
 13
63.72759371974819
 23
288.980421678608
 33
0.0
  0
SOLID
  5
379
330
30C
100
AcDbEntity
  8
dim
 62
     0
440
 16777216
100
AcDbTrace
 10
62.47759371974821
 20
235.2304216786079
 30
0.0
 11
64.9775937197482
 21
235.230421678608
 31
0.0
 12
63.72759371974821
 22
227.7304216786079
 32
0.0
 13
63.72759371974821
 23
227.7304216786079
 33
0.0
  0
MTEXT
  5
37A
330
30C
100
AcDbEntity
  8
dim
 62
     0
440
 16777216
100
AcDbMText
 10
58.31557448897902
 20
258.3554216786179
 30
0.0
 40
5.625
 41
0.0
 46
0.0
 71
     5
 72
     1
  1
60 min
  7
Calibri
 11
0.0000000000000001
 21
1.0
 31
0.0
 73
     1
 44
1.0
  0
POINT
  5
37B
330
30C
100
AcDbEntity
  8
Defpoints
 62
     0
440
 16777216
100
AcDbPoint
 10
78.55312972862887
 20
288.980421678608
 30
0.0
  0
POINT
  5
37C
330
30C
100
AcDbEntity
  8
Defpoints
 62
     0
440
 16777216
100
AcDbPoint
 10
77.01566139562785
 20
227.730421678608
 30
0.0
  0
POINT
  5
37D
330
30C
100
AcDbEntity
  8
Defpoints
 62
     0
440
 16777216
100
AcDbPoint
 10
63.72759371974821
 20
227.7304216786079
 30
0.0
  0
ENDBLK
  5
30E
330
30C
100
AcDbEntity
  8
0
100
AcDbBlockEnd
  0
BLOCK
  5
319
330
318
100
AcDbEntity
  8
0
100
AcDbBlockBegin
  2
*D5
 70
     1
 10
0.0
 20
0.0
 30
0.0
  3
*D5
  1

  0
LINE
  5
37E
330
318
100
AcDbEntity
  8
dim
 62
     0
440
 16777216
370
    -2
100
AcDbLine
 10
102.0156613956423
 20
292.9804216786079
 30
0.0
 11
102.0156613956423
 21
328.6396841209235
 31
0.0
  0
LINE
  5
37F
330
318
100
AcDbEntity
  8
dim
 62
     0
440
 16777216
370
    -2
100
AcDbLine
 10
192.0156613956424
 20
292.9804216786079
 30
0.0
 11
192.0156613956424
 21
328.6396841209235
 31
0.0
  0
LINE
  5
380
330
318
100
AcDbEntity
  8
dim
 62
     0
440
 16777216
370
    -2
100
AcDbLine
 10
108.0156613956424
 20
324.6396841209234
 30
0.0
 11
186.0156613956424
 21
324.6396841209234
 31
0.0
  0
SOLID
  5
381
330
318
100
AcDbEntity
  8
dim
 62
     0
440
 16777216
100
AcDbTrace
 10
108.0156613956424
 20
325.6396841209234
 30
0.0
 11
108.0156613956424
 21
323.6396841209235
 31
0.0
 12
102.0156613956423
 22
324.6396841209234
 32
0.0
 13
102.0156613956423
 23
324.6396841209234
 33
0.0
  0
SOLID
  5
382
330
318
100
AcDbEntity
  8
dim
 62
     0
440
 16777216
100
AcDbTrace
 10
186.0156613956424
 20
325.6396841209234
 30
0.0
 11
186.0156613956424
 21
323.6396841209235
 31
0.0
 12
192.0156613956424
 22
324.6396841209234
 32
0.0
 13
192.0156613956424
 23
324.6396841209234
 33
0.0
  0
MTEXT
  5
383
330
318
100
AcDbEntity
  8
dim
 62
     0
440
 16777216
100
AcDbMText
 10
147.0156613956424
 20
329.0835302747696
 30
0.0
 40
4.5
 41
0.0
 46
0.0
 71
     5
 72
     1
  1
90 min timber width
  7
Calibri
 73
     1
 44
1.0
  0
POINT
  5
384
330
318
100
AcDbEntity
  8
Defpoints
 62
     0
440
 16777216
100
AcDbPoint
 10
102.0156613956423
 20
288.9804216786079
 30
0.0
  0
POINT
  5
385
330
318
100
AcDbEntity
  8
Defpoints
 62
     0
440
 16777216
100
AcDbPoint
 10
192.0156613956424
 20
288.9804216786079
 30
0.0
  0
POINT
  5
386
330
318
100
AcDbEntity
  8
Defpoints
 62
     0
440
 16777216
100
AcDbPoint
 10
192.0156613956424
 20
324.6396841209234
 30
0.0
  0
ENDBLK
  5
31A
330
318
100
AcDbEntity
  8
0
100
AcDbBlockEnd
  0
BLOCK
  5
338
330
337
100
AcDbEntity
  8
0
100
AcDbBlockBegin
  2
*D6
 70
     1
 10
0.0
 20
0.0
 30
0.0
  3
*D6
  1

  0
LINE
  5
39A
330
337
100
AcDbEntity
  8
dim
 62
     0
440
 16777216
370
    -2
100
AcDbLine
 10
281.2927666625746
 20
430.8424954887832
 30
0.0
 11
281.2927666625746
 21
441.4854703638866
 31
0.0
  0
LINE
  5
39B
330
337
100
AcDbEntity
  8
dim
 62
     0
440
 16777216
370
    -2
100
AcDbLine
 10
293.7805767986465
 20
428.6256527583473
 30
0.0
 11
293.7805767986465
 21
441.4854703638866
 31
0.0
  0
LINE
  5
39C
330
337
100
AcDbEntity
  8
dim
 62
     0
440
 16777216
370
    -2
100
AcDbLine
 10
273.7927666625747
 20
436.4854703638866
 30
0.0
 11
266.2927666625746
 21
436.4854703638866
 31
0.0
  0
LINE
  5
39D
330
337
100
AcDbEntity
  8
dim
 62
     0
440
 16777216
370
    -2
100
AcDbLine
 10
301.2805767986465
 20
436.4854703638866
 30
0.0
 11
322.019038337108
 21
436.4854703638866
 31
0.0
  0
LINE
  5
39E
330
337
100
AcDbEntity
  8
dim
 62
     0
440
 16777216
370
    -2
100
AcDbLine
 10
281.2927666625746
 20
436.4854703638866
 30
0.0
 11
293.7805767986465
 21
436.4854703638866
 31
0.0
  0
SOLID
  5
39F
330
337
100
AcDbEntity
  8
dim
 62
     0
440
 16777216
100
AcDbTrace
 10
273.7927666625747
 20
437.7354703638866
 30
0.0
 11
273.7927666625747
 21
435.2354703638866
 31
0.0
 12
281.2927666625746
 22
436.4854703638866
 32
0.0
 13
281.2927666625746
 23
436.4854703638866
 33
0.0
  0
SOLID
  5
3A0
330
337
100
AcDbEntity
  8
dim
 62
     0
440
 16777216
100
AcDbTrace
 10
301.2805767986465
 20
437.7354703638866
 30
0.0
 11
301.2805767986465
 21
435.2354703638866
 31
0.0
 12
293.7805767986465
 22
436.4854703638866
 32
0.0
 13
293.7805767986465
 23
436.4854703638866
 33
0.0
  0
MTEXT
  5
3A1
330
337
100
AcDbEntity
  8
dim
 62
     0
440
 16777216
100
AcDbMText
 10
315.3998075678773
 20
441.8672011331174
 30
0.0
 40
5.625
 41
0.0
 46
0.0
 71
     5
 72
     1
  1
50
  7
Calibri
 73
     1
 44
1.0
  0
POINT
  5
3A2
330
337
100
AcDbEntity
  8
Defpoints
 62
     0
440
 16777216
100
AcDbPoint
 10
281.2927666625746
 20
428.3424954887832
 30
0.0
  0
POINT
  5
3A3
330
337
100
AcDbEntity
  8
Defpoints
 62
     0
440
 16777216
100
AcDbPoint
 10
293.7805767986465
 20
426.1256527583473
 30
0.0
  0
POINT
  5
3A4
330
337
100
AcDbEntity
  8
Defpoints
 62
     0
440
 16777216
100
AcDbPoint
 10
293.7805767986465
 20
436.4854703638866
 30
0.0
  0
ENDBLK
  5
339
330
337
100
AcDbEntity
  8
0
100
AcDbBlockEnd
  0
BLOCK
  5
361
330
360
100
AcDbEntity
  8
0
100
AcDbBlockBegin
  2
*D7
 70
     1
 10
0.0
 20
0.0
 30
0.0
  3
*D7
  1

  0
LINE
  5
3A5
330
360
100
AcDbEntity
  8
dim
 62
     0
440
 16777216
370
    -2
100
AcDbLine
 10
293.7805767986465
 20
402.059338219221
 30
0.0
 11
293.7805767986465
 21
379.4792452906713
 31
0.0
  0
LINE
  5
3A6
330
360
100
AcDbEntity
  8
dim
 62
     0
440
 16777216
370
    -2
100
AcDbLine
 10
368.7805767986465
 20
402.059338219221
 30
0.0
 11
368.7805767986465
 21
379.4792452906713
 31
0.0
  0
LINE
  5
3A7
330
360
100
AcDbEntity
  8
dim
 62
     0
440
 16777216
370
    -2
100
AcDbLine
 10
301.2805767986465
 20
384.4792452906713
 30
0.0
 11
361.2805767986465
 21
384.4792452906713
 31
0.0
  0
SOLID
  5
3A8
330
360
100
AcDbEntity
  8
dim
 62
     0
440
 16777216
100
AcDbTrace
 10
301.2805767986465
 20
385.7292452906713
 30
0.0
 11
301.2805767986465
 21
383.2292452906713
 31
0.0
 12
293.7805767986465
 22
384.4792452906713
 32
0.0
 13
293.7805767986465
 23
384.4792452906713
 33
0.0
  0
SOLID
  5
3A9
330
360
100
AcDbEntity
  8
dim
 62
     0
440
 16777216
100
AcDbTrace
 10
361.2805767986465
 20
385.7292452906713
 30
0.0
 11
361.2805767986465
 21
383.2292452906713
 31
0.0
 12
368.7805767986465
 22
384.4792452906713
 32
0.0
 13
368.7805767986465
 23
384.4792452906713
 33
0.0
  0
MTEXT
  5
3AA
330
360
100
AcDbEntity
  8
dim
 62
     0
440
 16777216
100
AcDbMText
 10
331.2805767986465
 20
389.8609760599021
 30
0.0
 40
5.625
 41
0.0
 46
0.0
 71
     5
 72
     1
  1
300 ctrs
  7
Calibri
 73
     1
 44
1.0
  0
POINT
  5
3AB
330
360
100
AcDbEntity
  8
Defpoints
 62
     0
440
 16777216
100
AcDbPoint
 10
293.7805767986465
 20
404.5593382192209
 30
0.0
  0
POINT
  5
3AC
330
360
100
AcDbEntity
  8
Defpoints
 62
     0
440
 16777216
100
AcDbPoint
 10
368.7805767986465
 20
404.5593382192209
 30
0.0
  0
POINT
  5
3AD
330
360
100
AcDbEntity
  8
Defpoints
 62
     0
440
 16777216
100
AcDbPoint
 10
368.7805767986465
 20
384.4792452906713
 30
0.0
  0
ENDBLK
  5
362
330
360
100
AcDbEntity
  8
0
100
AcDbBlockEnd
  0
ENDSEC
  0
SECTION
  2
ENTITIES
  0
LINE
  5
1FA
330
70
100
AcDbEntity
  8
Viewport
100
AcDbLine
 10
46.47759371975007
 20
288.980421678606
 30
0.0
 11
46.47759371975007
 21
321.8133384814428
 31
0.0
  0
LINE
  5
1FB
330
70
100
AcDbEntity
  8
Viewport
100
AcDbLine
 10
63.72759371975007
 20
288.980421678606
 30
0.0
 11
63.72759371975007
 21
321.8133384814428
 31
0.0
  0
HATCH
  5
1FC
330
70
100
AcDbEntity
  8
shade 9
100
AcDbHatch
 10
0.0
 20
0.0
 30
0.0
210
0.0
220
0.0
230
1.0
  2
SOLID
 70
     1
 71
     0
 91
        1
 92
        1
 93
       39
 72
     2
 10
203.0156613956715
 20
280.6962573172977
 40
0.4999999999854993
 50
0.0000000003126612
 51
3.717050179551423
 73
     1
 72
     2
 10
184.8708773318576
 20
279.5174645257175
 40
18.68303443233245
 50
3.717050178086622
 51
29.53332281814444
 73
     1
 72
     2
 10
200.6913748032602
 20
288.4804216786051
 40
0.500000000001819
 50
29.53332281719479
 51
90.0
 73
     1
 72
     1
 10
200.6913748032602
 20
288.9804216786069
 11
194.0156613956569
 21
288.9804216786069
 72
     2
 10
194.0156613956569
 20
288.4804216786069
 40
0.5
 50
90.0
 51
180.0
 73
     1
 72
     1
 10
193.5156613956569
 20
288.4804216786069
 11
193.5156613956715
 21
166.9804216786069
 72
     2
 10
194.0156613956715
 20
166.9804216786069
 40
0.5
 50
180.0
 51
270.0
 73
     1
 72
     1
 10
194.0156613956715
 20
166.4804216786069
 11
218.5515597805279
 21
166.4804216786069
 72
     2
 10
218.5515597805279
 20
166.9804216786069
 40
0.5
 50
270.0
 51
360.0
 73
     1
 72
     1
 10
219.0515597805279
 20
166.9804216786069
 11
219.0515597805279
 21
168.4804216786069
 72
     2
 10
219.5515597805279
 20
168.4804216786069
 40
0.5
 50
180.0
 51
270.0
 73
     0
 72
     1
 10
219.5515597805279
 20
168.9804216786069
 11
223.5156613956569
 21
168.9804216786069
 72
     2
 10
224.5156613956569
 20
168.9804216786069
 40
0.9999999999996882
 50
180.0
 51
300.0000000000103
 73
     1
 72
     1
 10
225.0156613956569
 20
168.1143962748229
 11
228.0156613956569
 21
169.846447082391
 72
     2
 10
225.5156613956569
 20
174.1765741013132
 40
5.0
 50
299.9999999999999
 51
360.0
 73
     1
 72
     1
 10
230.5156613956569
 20
174.1765741013132
 11
230.5156613956569
 21
201.4804216786069
 72
     1
 10
230.5156613956569
 20
201.4804216786069
 11
230.0156613956569
 21
201.980421678607
 72
     1
 10
230.0156613956569
 20
201.980421678607
 11
230.5156613956569
 21
202.480421678607
 72
     1
 10
230.5156613956569
 20
202.480421678607
 11
230.5156613956569
 21
256.480421678607
 72
     1
 10
230.5156613956569
 20
256.480421678607
 11
230.0156613956569
 21
256.9804216786069
 72
     1
 10
230.0156613956569
 20
256.9804216786069
 11
230.5156613956569
 21
257.4804216786069
 72
     1
 10
230.5156613956569
 20
257.4804216786069
 11
230.5156613956569
 21
271.4804216786069
 72
     1
 10
230.5156613956569
 20
271.4804216786069
 11
230.0156613956569
 21
271.9804216786069
 72
     1
 10
230.0156613956569
 20
271.9804216786069
 11
230.5156613956569
 21
272.4804216786069
 72
     1
 10
230.5156613956569
 20
272.4804216786069
 11
230.5156613956569
 21
288.4804216786069
 72
     2
 10
230.0156613956569
 20
288.4804216786069
 40
0.5
 50
0.0
 51
90.0
 73
     1
 72
     1
 10
230.0156613956569
 20
288.9804216786069
 11
227.0156613956569
 21
288.9804216786069
 72
     2
 10
227.0156613956569
 20
288.4804216786069
 40
0.5
 50
90.0
 51
180.0
 73
     1
 72
     1
 10
226.5156613956569
 20
288.4804216786069
 11
226.5156613956715
 21
285.980421678607
 72
     1
 10
226.5156613956715
 20
285.980421678607
 11
224.5156613956569
 21
285.980421678607
 72
     1
 10
224.5156613956569
 20
285.980421678607
 11
224.5156613956569
 21
288.4804216786069
 72
     2
 10
224.0156613956569
 20
288.4804216786069
 40
0.5
 50
0.0
 51
90.0
 73
     1
 72
     1
 10
224.0156613956569
 20
288.9804216786069
 11
221.015661395657
 21
288.9804216786069
 72
     2
 10
221.015661395657
 20
288.4804216786069
 40
0.5
 50
90.0
 51
180.0
 73
     1
 72
     1
 10
220.5156613956569
 20
288.4804216786069
 11
220.5156613956715
 21
181.9804216786069
 72
     2
 10
218.5156613956715
 20
181.9804216786069
 40
2.0
 50
360.0
 51
450.0
 73
     0
 72
     1
 10
218.5156613956715
 20
179.9804216786069
 11
205.5156613956569
 21
179.9804216786069
 72
     2
 10
205.5156613956569
 20
181.9804216786069
 40
2.0
 50
90.0
 51
180.0
 73
     0
 72
     1
 10
203.5156613956569
 20
181.9804216786069
 11
203.5156613956569
 21
280.6962573173005
 97
        0
 75
     0
 76
     1
 98
        1
 10
-66165.5372299406
 20
6021.506658177631
450
        0
451
        0
460
0.0
461
0.0
452
        0
462
0.0
453
        0
470

1001
ACAD
1010
0.0
1020
0.0
1030
0.0
  0
LWPOLYLINE
  5
1FD
330
70
100
AcDbEntity
  8
channel
100
AcDbPolyline
 90
       39
 70
     1
 43
0.0
 10
219.0515597805279
 20
168.4804216786069
 42
-0.4142135623730951
 10
219.5515597805279
 20
168.9804216786069
 10
223.5156613956569
 20
168.9804216786069
 42
0.5773502691897102
 10
225.0156613956569
 20
168.1143962748229
 10
228.0156613956569
 20
169.846447082391
 42
0.2679491924311233
 10
230.5156613956569
 20
174.1765741013132
 10
230.5156613956569
 20
201.4804216786069
 10
230.0156613956569
 20
201.980421678607
 10
230.5156613956569
 20
202.480421678607
 10
230.5156613956569
 20
256.480421678607
 10
230.0156613956569
 20
256.9804216786069
 10
230.5156613956569
 20
257.4804216786069
 10
230.5156613956569
 20
271.4804216786069
 10
230.0156613956569
 20
271.9804216786069
 10
230.5156613956569
 20
272.4804216786069
 10
230.5156613956569
 20
288.4804216786069
 42
0.4142135623730951
 10
230.0156613956569
 20
288.9804216786069
 10
227.0156613956569
 20
288.9804216786069
 42
0.4142135623730951
 10
226.5156613956569
 20
288.4804216786069
 10
226.5156613956715
 20
285.980421678607
 10
224.5156613956569
 20
285.980421678607
 10
224.5156613956569
 20
288.4804216786069
 42
0.4142135623730951
 10
224.0156613956569
 20
288.9804216786069
 10
221.015661395657
 20
288.9804216786069
 42
0.4142135623730951
 10
220.5156613956569
 20
288.4804216786069
 10
220.5156613956715
 20
181.9804216786069
 42
-0.4142135623730951
 10
218.5156613956715
 20
179.9804216786069
 10
205.5156613956569
 20
179.9804216786069
 42
-0.4142135623730951
 10
203.5156613956569
 20
181.9804216786069
 10
203.5156613956569
 20
280.6962573173005
 42
0.0162201132585007
 10
203.5146095808814
 20
280.7286719507411
 42
0.1131236138234191
 10
201.1264093826248
 20
288.7268865133401
 42
0.2701328473612116
 10
200.6913748032602
 20
288.9804216786069
 10
194.0156613956569
 20
288.9804216786069
 42
0.4142135623730951
 10
193.5156613956569
 20
288.4804216786069
 10
193.5156613956715
 20
166.9804216786069
 42
0.4142135623730951
 10
194.0156613956715
 20
166.4804216786069
 10
218.5515597805279
 20
166.4804216786069
 42
0.4142135623730951
 10
219.0515597805279
 20
166.9804216786069
  0
HATCH
  5
1FE
330
70
100
AcDbEntity
  8
shade 8
100
AcDbHatch
 10
0.0
 20
0.0
 30
0.0
210
0.0
220
0.0
230
1.0
  2
ANSI31
 70
     0
 71
     0
 91
        3
 92
        7
 72
     0
 73
     1
 93
        5
 10
220.5156613956569
 20
288.4804216786069
 10
220.5156613956569
 20
288.9804216786079
 10
217.5156613956569
 20
288.9804216786079
 10
217.5156613956424
 20
271.9804216786069
 10
220.5156613956569
 20
271.9804216786079
 97
        0
 92
        7
 72
     0
 73
     1
 93
        4
 10
220.5156613956715
 20
271.9804216786069
 10
217.5156613956569
 20
271.9804216786069
 10
217.5156613956569
 20
201.980421678607
 10
220.5156613956715
 20
201.980421678607
 97
        0
 92
        7
 72
     0
 73
     1
 93
        4
 10
220.5156613956715
 20
201.980421678607
 10
217.5156613956569
 20
201.980421678607
 10
217.5156613956569
 20
183.9804216786097
 10
220.5156613956715
 20
183.9804216786097
 97
        0
 75
     0
 76
     1
 52
0.0
 41
1.0
 77
     0
 78
     1
 53
45.0
 43
-66156.74193625427
 44
6621.506658177631
 45
-2.245064030267287
 46
2.245064030267288
 79
     0
 47
0.1951566019130073
 98
        3
 10
218.6856151433531
 20
275.0750189354931
 10
218.4903417744863
 20
264.9268686188425
 10
219.0761618810721
 20
191.7431442509241
1001
ACAD
1010
0.0
1020
0.0
1030
0.0
  0
LWPOLYLINE
  5
1FF
330
70
100
AcDbEntity
  8
shade 8
100
AcDbPolyline
 90
        4
 70
     1
 43
0.0
 10
217.5156613956569
 20
183.9804216786097
 10
220.5156613956569
 20
183.9804216786097
 10
220.5156613956569
 20
288.9804216786069
 10
217.5156613956569
 20
288.9804216786069
  0
LINE
  5
200
330
70
100
AcDbEntity
  8
glass
100
AcDbLine
 10
217.5156613956569
 20
183.980421678606
 30
0.0
 11
217.5156613956569
 21
379.4285122041838
 31
0.0
  0
LINE
  5
201
330
70
100
AcDbEntity
  8
glass
100
AcDbLine
 10
205.5156613956569
 20
183.9804216786097
 30
0.0
 11
205.5156613956569
 21
383.2919609662931
 31
0.0
  0
LINE
  5
202
330
70
100
AcDbEntity
  8
shade 8
370
     5
100
AcDbLine
 10
208.5156613956424
 20
183.9804216786097
 30
0.0
 11
208.5156613956424
 21
382.8047996531986
 31
0.0
  0
LINE
  5
203
330
70
100
AcDbEntity
  8
shade 8
370
     5
100
AcDbLine
 10
214.5156613956424
 20
183.980421678606
 30
0.0
 11
214.5156613956424
 21
380.066480289428
 31
0.0
  0
LINE
  5
204
330
70
100
AcDbEntity
  8
shade 8
370
     5
100
AcDbLine
 10
211.5156613956424
 20
183.9804216786078
 30
0.0
 11
211.5156613956424
 21
381.4690800637909
 31
0.0
  0
HATCH
  5
205
330
70
100
AcDbEntity
  8
shade 8
100
AcDbHatch
 10
0.0
 20
0.0
 30
0.0
210
0.0
220
0.0
230
1.0
  2
ANSI31
 70
     0
 71
     0
 91
        2
 92
        7
 72
     0
 73
     1
 93
        4
 10
205.5156613956569
 20
288.9804216786069
 10
203.5156613956569
 20
288.9804216786069
 10
203.5156613956424
 20
227.7304216786078
 10
205.5156613956424
 20
227.7304216786088
 97
        0
 92
        7
 72
     0
 73
     1
 93
        4
 10
203.5156613956569
 20
183.9804216786097
 10
205.5156613956569
 20
183.9804216786097
 10
205.5156613956424
 20
227.7304216786078
 10
203.5156613956424
 20
227.7304216786069
 97
        0
 75
     0
 76
     1
 52
0.0
 41
1.0
 77
     0
 78
     1
 53
45.0
 43
-66156.74193625427
 44
6621.506658177631
 45
-2.245064030267287
 46
2.245064030267288
 79
     0
 47
0.1205792818496184
 98
        2
 10
204.9563459422134
 20
279.9037324248256
 10
204.4732151473072
 20
220.1834503317787
1001
ACAD
1010
0.0
1020
0.0
1030
0.0
  0
LWPOLYLINE
  5
206
330
70
100
AcDbEntity
  8
shade 8
100
AcDbPolyline
 90
        4
 70
     1
 43
0.0
 10
205.5156613956569
 20
183.9804216786097
 10
203.5156613956569
 20
183.9804216786097
 10
203.5156613956569
 20
288.9804216786069
 10
205.5156613956569
 20
288.9804216786069
  0
LINE
  5
207
330
70
100
AcDbEntity
  8
0
100
AcDbLine
 10
192.0156613956424
 20
148.9805903074384
 30
0.0
 11
102.0156613956423
 21
148.9805903074384
 31
0.0
  0
HATCH
  5
208
330
70
100
AcDbEntity
  8
shade 8
100
AcDbHatch
 10
0.0
 20
0.0
 30
0.0
210
0.0
220
0.0
230
1.0
  2
HWOOD2E1
 70
     0
 71
     0
 91
        1
 92
        7
 72
     0
 73
     1
 93
        5
 10
201.8156613956598
 20
310.2804216786089
 10
183.0156613956569
 20
310.2804216786089
 10
78.73116425702028
 20
310.2804216786089
 10
78.73116425702028
 20
288.9804216786079
 10
201.8156613956598
 20
288.9804216786079
 97
        0
 75
     1
 76
     2
 52
0.0
 41
0.25
 77
     0
 78
   314
 53
4.085616590000012
 43
-67247.51884471556
 44
4005.312218502647
 45
-0.0000000115101622
 46
25.00000062409175
 79
     2
 49
3.508917092499999
 49
-347.3828125
 53
4.085616590000012
 43
-67222.51884471557
 44
4005.312218502647
 45
-0.0000000115101622
 46
25.00000062409175
 79
     2
 49
3.508917092499999
 49
-347.3828125
 53
4.085616590000012
 43
-67197.51884471556
 44
4005.312218502647
 45
-0.0000000115101622
 46
25.00000062409175
 79
     2
 49
3.508917092499999
 49
-347.3828125
 53
4.085616590000012
 43
-67172.51884471557
 44
4005.312218502647
 45
-0.0000000115101622
 46
25.00000062409175
 79
     2
 49
3.508917092499999
 49
-347.3828125
 53
4.085616590000012
 43
-67147.51884471557
 44
4005.312218502647
 45
-0.0000000115101622
 46
25.00000062409175
 79
     2
 49
3.508917092499999
 49
-347.3828125
 53
4.085616590000012
 43
-67122.51884471556
 44
4005.312218502647
 45
-0.0000000115101622
 46
25.00000062409175
 79
     2
 49
3.508917092499999
 49
-347.3828125
 53
4.085616590000012
 43
-67097.51884471557
 44
4005.312218502647
 45
-0.0000000115101622
 46
25.00000062409175
 79
     2
 49
3.508917092499999
 49
-347.3828125
 53
4.085616590000012
 43
-67072.51884471556
 44
4005.312218502647
 45
-0.0000000115101622
 46
25.00000062409175
 79
     2
 49
3.508917092499999
 49
-347.3828125
 53
4.085616590000012
 43
-67047.51884471557
 44
4005.312218502647
 45
-0.0000000115101622
 46
25.00000062409175
 79
     2
 49
3.508917092499999
 49
-347.3828125
 53
4.085616590000012
 43
-67022.51884471556
 44
4005.312218502647
 45
-0.0000000115101622
 46
25.00000062409175
 79
     2
 49
3.508917092499999
 49
-347.3828125
 53
4.085616590000012
 43
-66997.51884471557
 44
4005.312218502647
 45
-0.0000000115101622
 46
25.00000062409175
 79
     2
 49
3.508917092499999
 49
-347.3828125
 53
4.085616590000012
 43
-66972.51884471556
 44
4005.312218502647
 45
-0.0000000115101622
 46
25.00000062409175
 79
     2
 49
3.508917092499999
 49
-347.3828125
 53
4.085616590000012
 43
-66947.51884471557
 44
4005.312218502647
 45
-0.0000000115101622
 46
25.00000062409175
 79
     2
 49
3.508917092499999
 49
-347.3828125
 53
4.085616590000012
 43
-66922.51884471557
 44
4005.312218502647
 45
-0.0000000115101622
 46
25.00000062409175
 79
     2
 49
3.508917092499999
 49
-347.3828125
 53
0.0
 43
-67244.01884471556
 44
4005.562218502646
 45
0.0
 46
25.0
 79
     2
 49
2.0
 49
-23.0
 53
355.6012945
 43
-67242.01884471557
 44
4005.562218502646
 45
0.000000076692025
 46
25.0000008639759
 79
     2
 49
3.259601115
 49
-322.700531
 53
355.6012945
 43
-67217.01884471556
 44
4005.562218502646
 45
0.000000076692025
 46
25.0000008639759
 79
     2
 49
3.259601115
 49
-322.700531
 53
355.6012945
 43
-67192.01884471557
 44
4005.562218502646
 45
0.000000076692025
 46
25.0000008639759
 79
     2
 49
3.259601115
 49
-322.700531
 53
355.6012945
 43
-67167.01884471556
 44
4005.562218502646
 45
0.000000076692025
 46
25.0000008639759
 79
     2
 49
3.259601115
 49
-322.700531
 53
355.6012945
 43
-67142.01884471557
 44
4005.562218502646
 45
0.000000076692025
 46
25.0000008639759
 79
     2
 49
3.259601115
 49
-322.700531
 53
355.6012945
 43
-67117.01884471557
 44
4005.562218502646
 45
0.000000076692025
 46
25.0000008639759
 79
     2
 49
3.259601115
 49
-322.700531
 53
355.6012945
 43
-67092.01884471556
 44
4005.562218502646
 45
0.000000076692025
 46
25.0000008639759
 79
     2
 49
3.259601115
 49
-322.700531
 53
355.6012945
 43
-67067.01884471557
 44
4005.562218502646
 45
0.000000076692025
 46
25.0000008639759
 79
     2
 49
3.259601115
 49
-322.700531
 53
355.6012945
 43
-67042.01884471556
 44
4005.562218502646
 45
0.000000076692025
 46
25.0000008639759
 79
     2
 49
3.259601115
 49
-322.700531
 53
355.6012945
 43
-67017.01884471557
 44
4005.562218502646
 45
0.000000076692025
 46
25.0000008639759
 79
     2
 49
3.259601115
 49
-322.700531
 53
355.6012945
 43
-66992.01884471556
 44
4005.562218502646
 45
0.000000076692025
 46
25.0000008639759
 79
     2
 49
3.259601115
 49
-322.700531
 53
355.6012945
 43
-66967.01884471557
 44
4005.562218502646
 45
0.000000076692025
 46
25.0000008639759
 79
     2
 49
3.259601115
 49
-322.700531
 53
355.6012945
 43
-66942.01884471556
 44
4005.562218502646
 45
0.000000076692025
 46
25.0000008639759
 79
     2
 49
3.259601115
 49
-322.700531
 53
3.366460599999999
 43
-67238.76884471557
 44
4005.312218502647
 45
0.0000000629096855
 46
25.00000027316545
 79
     2
 49
4.257346629999999
 49
-421.4773254499999
 53
3.366460599999999
 43
-67213.76884471556
 44
4005.312218502647
 45
0.0000000629096855
 46
25.00000027316545
 79
     2
 49
4.257346629999999
 49
-421.4773254499999
 53
3.366460599999999
 43
-67188.76884471557
 44
4005.312218502647
 45
0.0000000629096855
 46
25.00000027316545
 79
     2
 49
4.257346629999999
 49
-421.4773254499999
 53
3.366460599999999
 43
-67163.76884471556
 44
4005.312218502647
 45
0.0000000629096855
 46
25.00000027316545
 79
     2
 49
4.257346629999999
 49
-421.4773254499999
 53
3.366460599999999
 43
-67138.76884471557
 44
4005.312218502647
 45
0.0000000629096855
 46
25.00000027316545
 79
     2
 49
4.257346629999999
 49
-421.4773254499999
 53
3.366460599999999
 43
-67113.76884471556
 44
4005.312218502647
 45
0.0000000629096855
 46
25.00000027316545
 79
     2
 49
4.257346629999999
 49
-421.4773254499999
 53
3.366460599999999
 43
-67088.76884471557
 44
4005.312218502647
 45
0.0000000629096855
 46
25.00000027316545
 79
     2
 49
4.257346629999999
 49
-421.4773254499999
 53
3.366460599999999
 43
-67063.76884471556
 44
4005.312218502647
 45
0.0000000629096855
 46
25.00000027316545
 79
     2
 49
4.257346629999999
 49
-421.4773254499999
 53
3.366460599999999
 43
-67038.76884471556
 44
4005.312218502647
 45
0.0000000629096855
 46
25.00000027316545
 79
     2
 49
4.257346629999999
 49
-421.4773254499999
 53
3.366460599999999
 43
-67013.76884471557
 44
4005.312218502647
 45
0.0000000629096855
 46
25.00000027316545
 79
     2
 49
4.257346629999999
 49
-421.4773254499999
 53
3.366460599999999
 43
-66988.76884471556
 44
4005.312218502647
 45
0.0000000629096855
 46
25.00000027316545
 79
     2
 49
4.257346629999999
 49
-421.4773254499999
 53
3.366460599999999
 43
-66963.76884471557
 44
4005.312218502647
 45
0.0000000629096855
 46
25.00000027316545
 79
     2
 49
4.257346629999999
 49
-421.4773254499999
 53
3.366460599999999
 43
-66938.76884471556
 44
4005.312218502647
 45
0.0000000629096855
 46
25.00000027316545
 79
     2
 49
4.257346629999999
 49
-421.4773254499999
 53
3.366460599999999
 43
-66913.76884471557
 44
4005.312218502647
 45
0.0000000629096855
 46
25.00000027316545
 79
     2
 49
4.257346629999999
 49
-421.4773254499999
 53
3.366460599999999
 43
-66888.76884471556
 44
4005.312218502647
 45
0.0000000629096855
 46
25.00000027316545
 79
     2
 49
4.257346629999999
 49
-421.4773254499999
 53
3.366460599999999
 43
-66863.76884471557
 44
4005.312218502647
 45
0.0000000629096855
 46
25.00000027316545
 79
     2
 49
4.257346629999999
 49
-421.4773254499999
 53
3.366460599999999
 43
-66838.76884471557
 44
4005.312218502647
 45
0.0000000629096855
 46
25.00000027316545
 79
     2
 49
4.257346629999999
 49
-421.4773254499999
 53
0.0
 43
-67234.51884471557
 44
4005.562218502646
 45
0.0
 46
25.0
 79
     2
 49
2.25
 49
-22.75
 53
354.2894068000001
 43
-67232.26884471556
 44
4005.562218502646
 45
-0.00000001004297
 46
24.99999911909136
 79
     2
 49
2.512468815
 49
-248.734420775
 53
354.2894068000001
 43
-67207.26884471557
 44
4005.562218502646
 45
-0.00000001004297
 46
24.99999911909136
 79
     2
 49
2.512468815
 49
-248.734420775
 53
354.2894068000001
 43
-67182.26884471556
 44
4005.562218502646
 45
-0.00000001004297
 46
24.99999911909136
 79
     2
 49
2.512468815
 49
-248.734420775
 53
354.2894068000001
 43
-67157.26884471557
 44
4005.562218502646
 45
-0.00000001004297
 46
24.99999911909136
 79
     2
 49
2.512468815
 49
-248.734420775
 53
354.2894068000001
 43
-67132.26884471557
 44
4005.562218502646
 45
-0.00000001004297
 46
24.99999911909136
 79
     2
 49
2.512468815
 49
-248.734420775
 53
354.2894068000001
 43
-67107.26884471556
 44
4005.562218502646
 45
-0.00000001004297
 46
24.99999911909136
 79
     2
 49
2.512468815
 49
-248.734420775
 53
354.2894068000001
 43
-67082.26884471557
 44
4005.562218502646
 45
-0.00000001004297
 46
24.99999911909136
 79
     2
 49
2.512468815
 49
-248.734420775
 53
354.2894068000001
 43
-67057.26884471556
 44
4005.562218502646
 45
-0.00000001004297
 46
24.99999911909136
 79
     2
 49
2.512468815
 49
-248.734420775
 53
354.2894068000001
 43
-67032.26884471557
 44
4005.562218502646
 45
-0.00000001004297
 46
24.99999911909136
 79
     2
 49
2.512468815
 49
-248.734420775
 53
354.2894068000001
 43
-67007.26884471556
 44
4005.562218502646
 45
-0.00000001004297
 46
24.99999911909136
 79
     2
 49
2.512468815
 49
-248.734420775
 53
354.2894068000001
 43
-67229.76884471557
 44
4005.312218502647
 45
-0.00000001004297
 46
24.99999911909136
 79
     2
 49
2.512468815
 49
-248.734420775
 53
354.2894068000001
 43
-67204.76884471556
 44
4005.312218502647
 45
-0.00000001004297
 46
24.99999911909136
 79
     2
 49
2.512468815
 49
-248.734420775
 53
354.2894068000001
 43
-67179.76884471556
 44
4005.312218502647
 45
-0.00000001004297
 46
24.99999911909136
 79
     2
 49
2.512468815
 49
-248.734420775
 53
354.2894068000001
 43
-67154.76884471557
 44
4005.312218502647
 45
-0.00000001004297
 46
24.99999911909136
 79
     2
 49
2.512468815
 49
-248.734420775
 53
354.2894068000001
 43
-67129.76884471556
 44
4005.312218502647
 45
-0.00000001004297
 46
24.99999911909136
 79
     2
 49
2.512468815
 49
-248.734420775
 53
354.2894068000001
 43
-67104.76884471557
 44
4005.312218502647
 45
-0.00000001004297
 46
24.99999911909136
 79
     2
 49
2.512468815
 49
-248.734420775
 53
354.2894068000001
 43
-67079.76884471556
 44
4005.312218502647
 45
-0.00000001004297
 46
24.99999911909136
 79
     2
 49
2.512468815
 49
-248.734420775
 53
354.2894068000001
 43
-67054.76884471557
 44
4005.312218502647
 45
-0.00000001004297
 46
24.99999911909136
 79
     2
 49
2.512468815
 49
-248.734420775
 53
354.2894068000001
 43
-67029.76884471556
 44
4005.312218502647
 45
-0.00000001004297
 46
24.99999911909136
 79
     2
 49
2.512468815
 49
-248.734420775
 53
354.2894068000001
 43
-67004.76884471557
 44
4005.312218502647
 45
-0.00000001004297
 46
24.99999911909136
 79
     2
 49
2.512468815
 49
-248.734420775
 53
0.0
 43
-67227.26884471557
 44
4005.062218502646
 45
0.0
 46
25.0
 79
     2
 49
2.25
 49
-22.75
 53
8.130102199999999
 43
-67225.01884471556
 44
4005.062218502646
 45
0.0000000637277005
 46
24.99999998279795
 79
     2
 49
1.767766952499999
 49
-175.0089263925
 53
8.130102199999999
 43
-67200.01884471557
 44
4005.062218502646
 45
0.0000000637277005
 46
24.99999998279795
 79
     2
 49
1.767766952499999
 49
-175.0089263925
 53
8.130102199999999
 43
-67175.01884471556
 44
4005.062218502646
 45
0.0000000637277005
 46
24.99999998279795
 79
     2
 49
1.767766952499999
 49
-175.0089263925
 53
8.130102199999999
 43
-67150.01884471557
 44
4005.062218502646
 45
0.0000000637277005
 46
24.99999998279795
 79
     2
 49
1.767766952499999
 49
-175.0089263925
 53
8.130102199999999
 43
-67125.01884471556
 44
4005.062218502646
 45
0.0000000637277005
 46
24.99999998279795
 79
     2
 49
1.767766952499999
 49
-175.0089263925
 53
8.130102199999999
 43
-67100.01884471557
 44
4005.062218502646
 45
0.0000000637277005
 46
24.99999998279795
 79
     2
 49
1.767766952499999
 49
-175.0089263925
 53
8.130102199999999
 43
-67075.01884471557
 44
4005.062218502646
 45
0.0000000637277005
 46
24.99999998279795
 79
     2
 49
1.767766952499999
 49
-175.0089263925
 53
0.0
 43
-67223.26884471557
 44
4005.312218502647
 45
0.0
 46
25.0
 79
     2
 49
0.75
 49
-24.25
 53
0.0
 43
-67223.26884471557
 44
3998.312218502647
 45
0.0
 46
25.0
 79
     2
 49
0.75
 49
-24.25
 53
8.130102199999999
 43
-67225.01884471556
 44
3998.062218502646
 45
0.0000000637277005
 46
24.99999998279795
 79
     2
 49
1.767766952499999
 49
-175.0089263925
 53
8.130102199999999
 43
-67200.01884471557
 44
3998.062218502646
 45
0.0000000637277005
 46
24.99999998279795
 79
     2
 49
1.767766952499999
 49
-175.0089263925
 53
8.130102199999999
 43
-67175.01884471556
 44
3998.062218502646
 45
0.0000000637277005
 46
24.99999998279795
 79
     2
 49
1.767766952499999
 49
-175.0089263925
 53
8.130102199999999
 43
-67150.01884471557
 44
3998.062218502646
 45
0.0000000637277005
 46
24.99999998279795
 79
     2
 49
1.767766952499999
 49
-175.0089263925
 53
8.130102199999999
 43
-67125.01884471556
 44
3998.062218502646
 45
0.0000000637277005
 46
24.99999998279795
 79
     2
 49
1.767766952499999
 49
-175.0089263925
 53
8.130102199999999
 43
-67100.01884471557
 44
3998.062218502646
 45
0.0000000637277005
 46
24.99999998279795
 79
     2
 49
1.767766952499999
 49
-175.0089263925
 53
8.130102199999999
 43
-67075.01884471557
 44
3998.062218502646
 45
0.0000000637277005
 46
24.99999998279795
 79
     2
 49
1.767766952499999
 49
-175.0089263925
 53
0.0
 43
-67227.26884471557
 44
3998.062218502646
 45
0.0
 46
25.0
 79
     2
 49
2.25
 49
-22.75
 53
354.2894068000001
 43
-67229.76884471557
 44
3998.312218502647
 45
-0.00000001004297
 46
24.99999911909136
 79
     2
 49
2.512468815
 49
-248.734420775
 53
354.2894068000001
 43
-67204.76884471556
 44
3998.312218502647
 45
-0.00000001004297
 46
24.99999911909136
 79
     2
 49
2.512468815
 49
-248.734420775
 53
354.2894068000001
 43
-67179.76884471556
 44
3998.312218502647
 45
-0.00000001004297
 46
24.99999911909136
 79
     2
 49
2.512468815
 49
-248.734420775
 53
354.2894068000001
 43
-67154.76884471557
 44
3998.312218502647
 45
-0.00000001004297
 46
24.99999911909136
 79
     2
 49
2.512468815
 49
-248.734420775
 53
354.2894068000001
 43
-67129.76884471556
 44
3998.312218502647
 45
-0.00000001004297
 46
24.99999911909136
 79
     2
 49
2.512468815
 49
-248.734420775
 53
354.2894068000001
 43
-67104.76884471557
 44
3998.312218502647
 45
-0.00000001004297
 46
24.99999911909136
 79
     2
 49
2.512468815
 49
-248.734420775
 53
354.2894068000001
 43
-67079.76884471556
 44
3998.312218502647
 45
-0.00000001004297
 46
24.99999911909136
 79
     2
 49
2.512468815
 49
-248.734420775
 53
354.2894068000001
 43
-67054.76884471557
 44
3998.312218502647
 45
-0.00000001004297
 46
24.99999911909136
 79
     2
 49
2.512468815
 49
-248.734420775
 53
354.2894068000001
 43
-67029.76884471556
 44
3998.312218502647
 45
-0.00000001004297
 46
24.99999911909136
 79
     2
 49
2.512468815
 49
-248.734420775
 53
354.2894068000001
 43
-67004.76884471557
 44
3998.312218502647
 45
-0.00000001004297
 46
24.99999911909136
 79
     2
 49
2.512468815
 49
-248.734420775
 53
354.2894068000001
 43
-67232.26884471556
 44
3998.562218502647
 45
-0.00000001004297
 46
24.99999911909136
 79
     2
 49
2.512468815
 49
-248.734420775
 53
354.2894068000001
 43
-67207.26884471557
 44
3998.562218502647
 45
-0.00000001004297
 46
24.99999911909136
 79
     2
 49
2.512468815
 49
-248.734420775
 53
354.2894068000001
 43
-67182.26884471556
 44
3998.562218502647
 45
-0.00000001004297
 46
24.99999911909136
 79
     2
 49
2.512468815
 49
-248.734420775
 53
354.2894068000001
 43
-67157.26884471557
 44
3998.562218502647
 45
-0.00000001004297
 46
24.99999911909136
 79
     2
 49
2.512468815
 49
-248.734420775
 53
354.2894068000001
 43
-67132.26884471557
 44
3998.562218502647
 45
-0.00000001004297
 46
24.99999911909136
 79
     2
 49
2.512468815
 49
-248.734420775
 53
354.2894068000001
 43
-67107.26884471556
 44
3998.562218502647
 45
-0.00000001004297
 46
24.99999911909136
 79
     2
 49
2.512468815
 49
-248.734420775
 53
354.2894068000001
 43
-67082.26884471557
 44
3998.562218502647
 45
-0.00000001004297
 46
24.99999911909136
 79
     2
 49
2.512468815
 49
-248.734420775
 53
354.2894068000001
 43
-67057.26884471556
 44
3998.562218502647
 45
-0.00000001004297
 46
24.99999911909136
 79
     2
 49
2.512468815
 49
-248.734420775
 53
354.2894068000001
 43
-67032.26884471557
 44
3998.562218502647
 45
-0.00000001004297
 46
24.99999911909136
 79
     2
 49
2.512468815
 49
-248.734420775
 53
354.2894068000001
 43
-67007.26884471556
 44
3998.562218502647
 45
-0.00000001004297
 46
24.99999911909136
 79
     2
 49
2.512468815
 49
-248.734420775
 53
0.0
 43
-67234.51884471557
 44
3998.562218502647
 45
0.0
 46
25.0
 79
     2
 49
2.25
 49
-22.75
 53
3.366460599999999
 43
-67238.76884471557
 44
3998.312218502647
 45
0.0000000629096855
 46
25.00000027316545
 79
     2
 49
4.257346629999999
 49
-421.4773254499999
 53
3.366460599999999
 43
-67213.76884471556
 44
3998.312218502647
 45
0.0000000629096855
 46
25.00000027316545
 79
     2
 49
4.257346629999999
 49
-421.4773254499999
 53
3.366460599999999
 43
-67188.76884471557
 44
3998.312218502647
 45
0.0000000629096855
 46
25.00000027316545
 79
     2
 49
4.257346629999999
 49
-421.4773254499999
 53
3.366460599999999
 43
-67163.76884471556
 44
3998.312218502647
 45
0.0000000629096855
 46
25.00000027316545
 79
     2
 49
4.257346629999999
 49
-421.4773254499999
 53
3.366460599999999
 43
-67138.76884471557
 44
3998.312218502647
 45
0.0000000629096855
 46
25.00000027316545
 79
     2
 49
4.257346629999999
 49
-421.4773254499999
 53
3.366460599999999
 43
-67113.76884471556
 44
3998.312218502647
 45
0.0000000629096855
 46
25.00000027316545
 79
     2
 49
4.257346629999999
 49
-421.4773254499999
 53
3.366460599999999
 43
-67088.76884471557
 44
3998.312218502647
 45
0.0000000629096855
 46
25.00000027316545
 79
     2
 49
4.257346629999999
 49
-421.4773254499999
 53
3.366460599999999
 43
-67063.76884471556
 44
3998.312218502647
 45
0.0000000629096855
 46
25.00000027316545
 79
     2
 49
4.257346629999999
 49
-421.4773254499999
 53
3.366460599999999
 43
-67038.76884471556
 44
3998.312218502647
 45
0.0000000629096855
 46
25.00000027316545
 79
     2
 49
4.257346629999999
 49
-421.4773254499999
 53
3.366460599999999
 43
-67013.76884471557
 44
3998.312218502647
 45
0.0000000629096855
 46
25.00000027316545
 79
     2
 49
4.257346629999999
 49
-421.4773254499999
 53
3.366460599999999
 43
-66988.76884471556
 44
3998.312218502647
 45
0.0000000629096855
 46
25.00000027316545
 79
     2
 49
4.257346629999999
 49
-421.4773254499999
 53
3.366460599999999
 43
-66963.76884471557
 44
3998.312218502647
 45
0.0000000629096855
 46
25.00000027316545
 79
     2
 49
4.257346629999999
 49
-421.4773254499999
 53
3.366460599999999
 43
-66938.76884471556
 44
3998.312218502647
 45
0.0000000629096855
 46
25.00000027316545
 79
     2
 49
4.257346629999999
 49
-421.4773254499999
 53
3.366460599999999
 43
-66913.76884471557
 44
3998.312218502647
 45
0.0000000629096855
 46
25.00000027316545
 79
     2
 49
4.257346629999999
 49
-421.4773254499999
 53
3.366460599999999
 43
-66888.76884471556
 44
3998.312218502647
 45
0.0000000629096855
 46
25.00000027316545
 79
     2
 49
4.257346629999999
 49
-421.4773254499999
 53
3.366460599999999
 43
-66863.76884471557
 44
3998.312218502647
 45
0.0000000629096855
 46
25.00000027316545
 79
     2
 49
4.257346629999999
 49
-421.4773254499999
 53
3.366460599999999
 43
-66838.76884471557
 44
3998.312218502647
 45
0.0000000629096855
 46
25.00000027316545
 79
     2
 49
4.257346629999999
 49
-421.4773254499999
 53
355.6012945
 43
-67242.01884471557
 44
3998.562218502647
 45
0.000000076692025
 46
25.0000008639759
 79
     2
 49
3.259601115
 49
-322.700531
 53
355.6012945
 43
-67217.01884471556
 44
3998.562218502647
 45
0.000000076692025
 46
25.0000008639759
 79
     2
 49
3.259601115
 49
-322.700531
 53
355.6012945
 43
-67192.01884471557
 44
3998.562218502647
 45
0.000000076692025
 46
25.0000008639759
 79
     2
 49
3.259601115
 49
-322.700531
 53
355.6012945
 43
-67167.01884471556
 44
3998.562218502647
 45
0.000000076692025
 46
25.0000008639759
 79
     2
 49
3.259601115
 49
-322.700531
 53
355.6012945
 43
-67142.01884471557
 44
3998.562218502647
 45
0.000000076692025
 46
25.0000008639759
 79
     2
 49
3.259601115
 49
-322.700531
 53
355.6012945
 43
-67117.01884471557
 44
3998.562218502647
 45
0.000000076692025
 46
25.0000008639759
 79
     2
 49
3.259601115
 49
-322.700531
 53
355.6012945
 43
-67092.01884471556
 44
3998.562218502647
 45
0.000000076692025
 46
25.0000008639759
 79
     2
 49
3.259601115
 49
-322.700531
 53
355.6012945
 43
-67067.01884471557
 44
3998.562218502647
 45
0.000000076692025
 46
25.0000008639759
 79
     2
 49
3.259601115
 49
-322.700531
 53
355.6012945
 43
-67042.01884471556
 44
3998.562218502647
 45
0.000000076692025
 46
25.0000008639759
 79
     2
 49
3.259601115
 49
-322.700531
 53
355.6012945
 43
-67017.01884471557
 44
3998.562218502647
 45
0.000000076692025
 46
25.0000008639759
 79
     2
 49
3.259601115
 49
-322.700531
 53
355.6012945
 43
-66992.01884471556
 44
3998.562218502647
 45
0.000000076692025
 46
25.0000008639759
 79
     2
 49
3.259601115
 49
-322.700531
 53
355.6012945
 43
-66967.01884471557
 44
3998.562218502647
 45
0.000000076692025
 46
25.0000008639759
 79
     2
 49
3.259601115
 49
-322.700531
 53
355.6012945
 43
-66942.01884471556
 44
3998.562218502647
 45
0.000000076692025
 46
25.0000008639759
 79
     2
 49
3.259601115
 49
-322.700531
 53
0.0
 43
-67244.01884471556
 44
3998.562218502647
 45
0.0
 46
25.0
 79
     2
 49
2.0
 49
-23.0
 53
4.085616590000012
 43
-67247.51884471556
 44
3998.312218502647
 45
-0.0000000115101622
 46
25.00000062409175
 79
     2
 49
3.508917092499999
 49
-347.3828125
 53
4.085616590000012
 43
-67222.51884471557
 44
3998.312218502647
 45
-0.0000000115101622
 46
25.00000062409175
 79
     2
 49
3.508917092499999
 49
-347.3828125
 53
4.085616590000012
 43
-67197.51884471556
 44
3998.312218502647
 45
-0.0000000115101622
 46
25.00000062409175
 79
     2
 49
3.508917092499999
 49
-347.3828125
 53
4.085616590000012
 43
-67172.51884471557
 44
3998.312218502647
 45
-0.0000000115101622
 46
25.00000062409175
 79
     2
 49
3.508917092499999
 49
-347.3828125
 53
4.085616590000012
 43
-67147.51884471557
 44
3998.312218502647
 45
-0.0000000115101622
 46
25.00000062409175
 79
     2
 49
3.508917092499999
 49
-347.3828125
 53
4.085616590000012
 43
-67122.51884471556
 44
3998.312218502647
 45
-0.0000000115101622
 46
25.00000062409175
 79
     2
 49
3.508917092499999
 49
-347.3828125
 53
4.085616590000012
 43
-67097.51884471557
 44
3998.312218502647
 45
-0.0000000115101622
 46
25.00000062409175
 79
     2
 49
3.508917092499999
 49
-347.3828125
 53
4.085616590000012
 43
-67072.51884471556
 44
3998.312218502647
 45
-0.0000000115101622
 46
25.00000062409175
 79
     2
 49
3.508917092499999
 49
-347.3828125
 53
4.085616590000012
 43
-67047.51884471557
 44
3998.312218502647
 45
-0.0000000115101622
 46
25.00000062409175
 79
     2
 49
3.508917092499999
 49
-347.3828125
 53
4.085616590000012
 43
-67022.51884471556
 44
3998.312218502647
 45
-0.0000000115101622
 46
25.00000062409175
 79
     2
 49
3.508917092499999
 49
-347.3828125
 53
4.085616590000012
 43
-66997.51884471557
 44
3998.312218502647
 45
-0.0000000115101622
 46
25.00000062409175
 79
     2
 49
3.508917092499999
 49
-347.3828125
 53
4.085616590000012
 43
-66972.51884471556
 44
3998.312218502647
 45
-0.0000000115101622
 46
25.00000062409175
 79
     2
 49
3.508917092499999
 49
-347.3828125
 53
4.085616590000012
 43
-66947.51884471557
 44
3998.312218502647
 45
-0.0000000115101622
 46
25.00000062409175
 79
     2
 49
3.508917092499999
 49
-347.3828125
 53
4.085616590000012
 43
-66922.51884471557
 44
3998.312218502647
 45
-0.0000000115101622
 46
25.00000062409175
 79
     2
 49
3.508917092499999
 49
-347.3828125
 53
0.0
 43
-67247.51884471556
 44
3986.812218502647
 45
0.0
 46
25.0
 79
     2
 49
6.25
 49
-18.75
 53
7.594643599999986
 43
-67241.26884471557
 44
3986.812218502647
 45
0.0000001055347854
 46
24.99999937978613
 79
     2
 49
3.783186424999999
 49
-374.535461425
 53
7.594643599999986
 43
-67216.26884471556
 44
3986.812218502647
 45
0.0000001055347854
 46
24.99999937978613
 79
     2
 49
3.783186424999999
 49
-374.535461425
 53
7.594643599999986
 43
-67191.26884471556
 44
3986.812218502647
 45
0.0000001055347854
 46
24.99999937978613
 79
     2
 49
3.783186424999999
 49
-374.535461425
 53
7.594643599999986
 43
-67166.26884471557
 44
3986.812218502647
 45
0.0000001055347854
 46
24.99999937978613
 79
     2
 49
3.783186424999999
 49
-374.535461425
 53
7.594643599999986
 43
-67141.26884471556
 44
3986.812218502647
 45
0.0000001055347854
 46
24.99999937978613
 79
     2
 49
3.783186424999999
 49
-374.535461425
 53
7.594643599999986
 43
-67116.26884471557
 44
3986.812218502647
 45
0.0000001055347854
 46
24.99999937978613
 79
     2
 49
3.783186424999999
 49
-374.535461425
 53
7.594643599999986
 43
-67091.26884471556
 44
3986.812218502647
 45
0.0000001055347854
 46
24.99999937978613
 79
     2
 49
3.783186424999999
 49
-374.535461425
 53
7.594643599999986
 43
-67066.26884471557
 44
3986.812218502647
 45
0.0000001055347854
 46
24.99999937978613
 79
     2
 49
3.783186424999999
 49
-374.535461425
 53
7.594643599999986
 43
-67041.26884471556
 44
3986.812218502647
 45
0.0000001055347854
 46
24.99999937978613
 79
     2
 49
3.783186424999999
 49
-374.535461425
 53
7.594643599999986
 43
-67016.26884471557
 44
3986.812218502647
 45
0.0000001055347854
 46
24.99999937978613
 79
     2
 49
3.783186424999999
 49
-374.535461425
 53
7.594643599999986
 43
-66991.26884471557
 44
3986.812218502647
 45
0.0000001055347854
 46
24.99999937978613
 79
     2
 49
3.783186424999999
 49
-374.535461425
 53
7.594643599999986
 43
-66966.26884471556
 44
3986.812218502647
 45
0.0000001055347854
 46
24.99999937978613
 79
     2
 49
3.783186424999999
 49
-374.535461425
 53
7.594643599999986
 43
-66941.26884471557
 44
3986.812218502647
 45
0.0000001055347854
 46
24.99999937978613
 79
     2
 49
3.783186424999999
 49
-374.535461425
 53
7.594643599999986
 43
-66916.26884471556
 44
3986.812218502647
 45
0.0000001055347854
 46
24.99999937978613
 79
     2
 49
3.783186424999999
 49
-374.535461425
 53
7.594643599999986
 43
-66891.26884471557
 44
3986.812218502647
 45
0.0000001055347854
 46
24.99999937978613
 79
     2
 49
3.783186424999999
 49
-374.535461425
 53
3.179830299999999
 43
-67237.51884471557
 44
3987.312218502647
 45
-0.0000000425435449
 46
25.00000087320912
 79
     2
 49
4.506938934999999
 49
-446.1869811999999
 53
3.179830299999999
 43
-67212.51884471556
 44
3987.312218502647
 45
-0.0000000425435449
 46
25.00000087320912
 79
     2
 49
4.506938934999999
 49
-446.1869811999999
 53
3.179830299999999
 43
-67187.51884471556
 44
3987.312218502647
 45
-0.0000000425435449
 46
25.00000087320912
 79
     2
 49
4.506938934999999
 49
-446.1869811999999
 53
3.179830299999999
 43
-67162.51884471557
 44
3987.312218502647
 45
-0.0000000425435449
 46
25.00000087320912
 79
     2
 49
4.506938934999999
 49
-446.1869811999999
 53
3.179830299999999
 43
-67137.51884471556
 44
3987.312218502647
 45
-0.0000000425435449
 46
25.00000087320912
 79
     2
 49
4.506938934999999
 49
-446.1869811999999
 53
3.179830299999999
 43
-67112.51884471557
 44
3987.312218502647
 45
-0.0000000425435449
 46
25.00000087320912
 79
     2
 49
4.506938934999999
 49
-446.1869811999999
 53
3.179830299999999
 43
-67087.51884471556
 44
3987.312218502647
 45
-0.0000000425435449
 46
25.00000087320912
 79
     2
 49
4.506938934999999
 49
-446.1869811999999
 53
3.179830299999999
 43
-67062.51884471557
 44
3987.312218502647
 45
-0.0000000425435449
 46
25.00000087320912
 79
     2
 49
4.506938934999999
 49
-446.1869811999999
 53
3.179830299999999
 43
-67037.51884471556
 44
3987.312218502647
 45
-0.0000000425435449
 46
25.00000087320912
 79
     2
 49
4.506938934999999
 49
-446.1869811999999
 53
3.179830299999999
 43
-67012.51884471557
 44
3987.312218502647
 45
-0.0000000425435449
 46
25.00000087320912
 79
     2
 49
4.506938934999999
 49
-446.1869811999999
 53
3.179830299999999
 43
-66987.51884471557
 44
3987.312218502647
 45
-0.0000000425435449
 46
25.00000087320912
 79
     2
 49
4.506938934999999
 49
-446.1869811999999
 53
3.179830299999999
 43
-66962.51884471556
 44
3987.312218502647
 45
-0.0000000425435449
 46
25.00000087320912
 79
     2
 49
4.506938934999999
 49
-446.1869811999999
 53
3.179830299999999
 43
-66937.51884471557
 44
3987.312218502647
 45
-0.0000000425435449
 46
25.00000087320912
 79
     2
 49
4.506938934999999
 49
-446.1869811999999
 53
3.179830299999999
 43
-66912.51884471556
 44
3987.312218502647
 45
-0.0000000425435449
 46
25.00000087320912
 79
     2
 49
4.506938934999999
 49
-446.1869811999999
 53
3.179830299999999
 43
-66887.51884471557
 44
3987.312218502647
 45
-0.0000000425435449
 46
25.00000087320912
 79
     2
 49
4.506938934999999
 49
-446.1869811999999
 53
3.179830299999999
 43
-66862.51884471556
 44
3987.312218502647
 45
-0.0000000425435449
 46
25.00000087320912
 79
     2
 49
4.506938934999999
 49
-446.1869811999999
 53
3.179830299999999
 43
-66837.51884471557
 44
3987.312218502647
 45
-0.0000000425435449
 46
25.00000087320912
 79
     2
 49
4.506938934999999
 49
-446.1869811999999
 53
3.179830299999999
 43
-66812.51884471556
 44
3987.312218502647
 45
-0.0000000425435449
 46
25.00000087320912
 79
     2
 49
4.506938934999999
 49
-446.1869811999999
 53
0.0
 43
-67233.01884471556
 44
3987.562218502647
 45
0.0
 46
25.0
 79
     2
 49
4.25
 49
-20.75
 53
351.2538376
 43
-67228.76884471556
 44
3987.562218502647
 45
0.0000003070645307
 46
25.00000090670576
 79
     2
 49
3.288236624999999
 49
-325.5354309
 53
351.2538376
 43
-67203.76884471557
 44
3987.562218502647
 45
0.0000003070645307
 46
25.00000090670576
 79
     2
 49
3.288236624999999
 49
-325.5354309
 53
351.2538376
 43
-67178.76884471556
 44
3987.562218502647
 45
0.0000003070645307
 46
25.00000090670576
 79
     2
 49
3.288236624999999
 49
-325.5354309
 53
351.2538376
 43
-67153.76884471557
 44
3987.562218502647
 45
0.0000003070645307
 46
25.00000090670576
 79
     2
 49
3.288236624999999
 49
-325.5354309
 53
351.2538376
 43
-67128.76884471556
 44
3987.562218502647
 45
0.0000003070645307
 46
25.00000090670576
 79
     2
 49
3.288236624999999
 49
-325.5354309
 53
351.2538376
 43
-67103.76884471557
 44
3987.562218502647
 45
0.0000003070645307
 46
25.00000090670576
 79
     2
 49
3.288236624999999
 49
-325.5354309
 53
351.2538376
 43
-67078.76884471557
 44
3987.562218502647
 45
0.0000003070645307
 46
25.00000090670576
 79
     2
 49
3.288236624999999
 49
-325.5354309
 53
351.2538376
 43
-67053.76884471556
 44
3987.562218502647
 45
0.0000003070645307
 46
25.00000090670576
 79
     2
 49
3.288236624999999
 49
-325.5354309
 53
351.2538376
 43
-67028.76884471557
 44
3987.562218502647
 45
0.0000003070645307
 46
25.00000090670576
 79
     2
 49
3.288236624999999
 49
-325.5354309
 53
351.2538376
 43
-67003.76884471556
 44
3987.562218502647
 45
0.0000003070645307
 46
25.00000090670576
 79
     2
 49
3.288236624999999
 49
-325.5354309
 53
351.2538376
 43
-66978.76884471557
 44
3987.562218502647
 45
0.0000003070645307
 46
25.00000090670576
 79
     2
 49
3.288236624999999
 49
-325.5354309
 53
351.2538376
 43
-66953.76884471556
 44
3987.562218502647
 45
0.0000003070645307
 46
25.00000090670576
 79
     2
 49
3.288236624999999
 49
-325.5354309
 53
351.2538376
 43
-66928.76884471557
 44
3987.562218502647
 45
0.0000003070645307
 46
25.00000090670576
 79
     2
 49
3.288236624999999
 49
-325.5354309
 53
352.8749838
 43
-67225.51884471556
 44
3987.062218502646
 45
-0.0000000773741422
 46
25.00000078979567
 79
     2
 49
2.0155644425
 49
-199.5408783
 53
352.8749838
 43
-67200.51884471557
 44
3987.062218502646
 45
-0.0000000773741422
 46
25.00000078979567
 79
     2
 49
2.0155644425
 49
-199.5408783
 53
352.8749838
 43
-67175.51884471556
 44
3987.062218502646
 45
-0.0000000773741422
 46
25.00000078979567
 79
     2
 49
2.0155644425
 49
-199.5408783
 53
352.8749838
 43
-67150.51884471557
 44
3987.062218502646
 45
-0.0000000773741422
 46
25.00000078979567
 79
     2
 49
2.0155644425
 49
-199.5408783
 53
352.8749838
 43
-67125.51884471556
 44
3987.062218502646
 45
-0.0000000773741422
 46
25.00000078979567
 79
     2
 49
2.0155644425
 49
-199.5408783
 53
352.8749838
 43
-67100.51884471557
 44
3987.062218502646
 45
-0.0000000773741422
 46
25.00000078979567
 79
     2
 49
2.0155644425
 49
-199.5408783
 53
352.8749838
 43
-67075.51884471556
 44
3987.062218502646
 45
-0.0000000773741422
 46
25.00000078979567
 79
     2
 49
2.0155644425
 49
-199.5408783
 53
352.8749838
 43
-67050.51884471557
 44
3987.062218502646
 45
-0.0000000773741422
 46
25.00000078979567
 79
     2
 49
2.0155644425
 49
-199.5408783
 53
0.0
 43
-67223.51884471557
 44
3986.812218502647
 45
0.0
 46
25.0
 79
     2
 49
1.0
 49
-24.0
 53
345.96375656
 43
-67224.76884471556
 44
3992.312218502647
 45
-0.0000000055154956
 46
25.00000043524436
 79
     2
 49
1.030776375
 49
-102.046867375
 53
345.96375656
 43
-67199.76884471557
 44
3992.312218502647
 45
-0.0000000055154956
 46
25.00000043524436
 79
     2
 49
1.030776375
 49
-102.046867375
 53
345.96375656
 43
-67174.76884471556
 44
3992.312218502647
 45
-0.0000000055154956
 46
25.00000043524436
 79
     2
 49
1.030776375
 49
-102.046867375
 53
345.96375656
 43
-67149.76884471557
 44
3992.312218502647
 45
-0.0000000055154956
 46
25.00000043524436
 79
     2
 49
1.030776375
 49
-102.046867375
 53
351.8698978
 43
-67226.51884471557
 44
3992.562218502646
 45
-0.0000000637277005
 46
24.99999998279795
 79
     2
 49
1.767766952499999
 49
-175.0089263925
 53
351.8698978
 43
-67201.51884471556
 44
3992.562218502646
 45
-0.0000000637277005
 46
24.99999998279795
 79
     2
 49
1.767766952499999
 49
-175.0089263925
 53
351.8698978
 43
-67176.51884471557
 44
3992.562218502646
 45
-0.0000000637277005
 46
24.99999998279795
 79
     2
 49
1.767766952499999
 49
-175.0089263925
 53
351.8698978
 43
-67151.51884471556
 44
3992.562218502646
 45
-0.0000000637277005
 46
24.99999998279795
 79
     2
 49
1.767766952499999
 49
-175.0089263925
 53
351.8698978
 43
-67126.51884471556
 44
3992.562218502646
 45
-0.0000000637277005
 46
24.99999998279795
 79
     2
 49
1.767766952499999
 49
-175.0089263925
 53
351.8698978
 43
-67101.51884471557
 44
3992.562218502646
 45
-0.0000000637277005
 46
24.99999998279795
 79
     2
 49
1.767766952499999
 49
-175.0089263925
 53
351.8698978
 43
-67076.51884471556
 44
3992.562218502646
 45
-0.0000000637277005
 46
24.99999998279795
 79
     2
 49
1.767766952499999
 49
-175.0089263925
 53
356.4236655
 43
-67230.51884471557
 44
3992.812218502647
 45
0.0000000623399818
 46
25.00000046334374
 79
     2
 49
4.00780487
 49
-396.77267456
 53
356.4236655
 43
-67205.51884471556
 44
3992.812218502647
 45
0.0000000623399818
 46
25.00000046334374
 79
     2
 49
4.00780487
 49
-396.77267456
 53
356.4236655
 43
-67180.51884471557
 44
3992.812218502647
 45
0.0000000623399818
 46
25.00000046334374
 79
     2
 49
4.00780487
 49
-396.77267456
 53
356.4236655
 43
-67155.51884471556
 44
3992.812218502647
 45
0.0000000623399818
 46
25.00000046334374
 79
     2
 49
4.00780487
 49
-396.77267456
 53
356.4236655
 43
-67130.51884471557
 44
3992.812218502647
 45
0.0000000623399818
 46
25.00000046334374
 79
     2
 49
4.00780487
 49
-396.77267456
 53
356.4236655
 43
-67105.51884471557
 44
3992.812218502647
 45
0.0000000623399818
 46
25.00000046334374
 79
     2
 49
4.00780487
 49
-396.77267456
 53
356.4236655
 43
-67080.51884471556
 44
3992.812218502647
 45
0.0000000623399818
 46
25.00000046334374
 79
     2
 49
4.00780487
 49
-396.77267456
 53
356.4236655
 43
-67055.51884471557
 44
3992.812218502647
 45
0.0000000623399818
 46
25.00000046334374
 79
     2
 49
4.00780487
 49
-396.77267456
 53
356.4236655
 43
-67030.51884471556
 44
3992.812218502647
 45
0.0000000623399818
 46
25.00000046334374
 79
     2
 49
4.00780487
 49
-396.77267456
 53
356.4236655
 43
-67005.51884471557
 44
3992.812218502647
 45
0.0000000623399818
 46
25.00000046334374
 79
     2
 49
4.00780487
 49
-396.77267456
 53
356.4236655
 43
-66980.51884471556
 44
3992.812218502647
 45
0.0000000623399818
 46
25.00000046334374
 79
     2
 49
4.00780487
 49
-396.77267456
 53
356.4236655
 43
-66955.51884471557
 44
3992.812218502647
 45
0.0000000623399818
 46
25.00000046334374
 79
     2
 49
4.00780487
 49
-396.77267456
 53
356.4236655
 43
-66930.51884471556
 44
3992.812218502647
 45
0.0000000623399818
 46
25.00000046334374
 79
     2
 49
4.00780487
 49
-396.77267456
 53
356.4236655
 43
-66905.51884471556
 44
3992.812218502647
 45
0.0000000623399818
 46
25.00000046334374
 79
     2
 49
4.00780487
 49
-396.77267456
 53
356.4236655
 43
-66880.51884471557
 44
3992.812218502647
 45
0.0000000623399818
 46
25.00000046334374
 79
     2
 49
4.00780487
 49
-396.77267456
 53
356.4236655
 43
-66855.51884471556
 44
3992.812218502647
 45
0.0000000623399818
 46
25.00000046334374
 79
     2
 49
4.00780487
 49
-396.77267456
 53
356.4236655
 43
-67234.51884471557
 44
3993.062218502647
 45
0.0000000623399818
 46
25.00000046334374
 79
     2
 49
4.00780487
 49
-396.77267456
 53
356.4236655
 43
-67209.51884471556
 44
3993.062218502647
 45
0.0000000623399818
 46
25.00000046334374
 79
     2
 49
4.00780487
 49
-396.77267456
 53
356.4236655
 43
-67184.51884471557
 44
3993.062218502647
 45
0.0000000623399818
 46
25.00000046334374
 79
     2
 49
4.00780487
 49
-396.77267456
 53
356.4236655
 43
-67159.51884471556
 44
3993.062218502647
 45
0.0000000623399818
 46
25.00000046334374
 79
     2
 49
4.00780487
 49
-396.77267456
 53
356.4236655
 43
-67134.51884471557
 44
3993.062218502647
 45
0.0000000623399818
 46
25.00000046334374
 79
     2
 49
4.00780487
 49
-396.77267456
 53
356.4236655
 43
-67109.51884471556
 44
3993.062218502647
 45
0.0000000623399818
 46
25.00000046334374
 79
     2
 49
4.00780487
 49
-396.77267456
 53
356.4236655
 43
-67084.51884471556
 44
3993.062218502647
 45
0.0000000623399818
 46
25.00000046334374
 79
     2
 49
4.00780487
 49
-396.77267456
 53
356.4236655
 43
-67059.51884471557
 44
3993.062218502647
 45
0.0000000623399818
 46
25.00000046334374
 79
     2
 49
4.00780487
 49
-396.77267456
 53
356.4236655
 43
-67034.51884471556
 44
3993.062218502647
 45
0.0000000623399818
 46
25.00000046334374
 79
     2
 49
4.00780487
 49
-396.77267456
 53
356.4236655
 43
-67009.51884471557
 44
3993.062218502647
 45
0.0000000623399818
 46
25.00000046334374
 79
     2
 49
4.00780487
 49
-396.77267456
 53
356.4236655
 43
-66984.51884471556
 44
3993.062218502647
 45
0.0000000623399818
 46
25.00000046334374
 79
     2
 49
4.00780487
 49
-396.77267456
 53
356.4236655
 43
-66959.51884471557
 44
3993.062218502647
 45
0.0000000623399818
 46
25.00000046334374
 79
     2
 49
4.00780487
 49
-396.77267456
 53
356.4236655
 43
-66934.51884471556
 44
3993.062218502647
 45
0.0000000623399818
 46
25.00000046334374
 79
     2
 49
4.00780487
 49
-396.77267456
 53
356.4236655
 43
-66909.51884471557
 44
3993.062218502647
 45
0.0000000623399818
 46
25.00000046334374
 79
     2
 49
4.00780487
 49
-396.77267456
 53
356.4236655
 43
-66884.51884471557
 44
3993.062218502647
 45
0.0000000623399818
 46
25.00000046334374
 79
     2
 49
4.00780487
 49
-396.77267456
 53
356.4236655
 43
-66859.51884471556
 44
3993.062218502647
 45
0.0000000623399818
 46
25.00000046334374
 79
     2
 49
4.00780487
 49
-396.77267456
 53
6.009005547000002
 43
-67239.26884471556
 44
3992.562218502646
 45
0.0000000901299604
 46
25.0000002439904
 79
     2
 49
4.776243199999999
 49
-472.8480835
 53
6.009005547000002
 43
-67214.26884471557
 44
3992.562218502646
 45
0.0000000901299604
 46
25.0000002439904
 79
     2
 49
4.776243199999999
 49
-472.8480835
 53
6.009005547000002
 43
-67189.26884471557
 44
3992.562218502646
 45
0.0000000901299604
 46
25.0000002439904
 79
     2
 49
4.776243199999999
 49
-472.8480835
 53
6.009005547000002
 43
-67164.26884471556
 44
3992.562218502646
 45
0.0000000901299604
 46
25.0000002439904
 79
     2
 49
4.776243199999999
 49
-472.8480835
 53
6.009005547000002
 43
-67139.26884471557
 44
3992.562218502646
 45
0.0000000901299604
 46
25.0000002439904
 79
     2
 49
4.776243199999999
 49
-472.8480835
 53
6.009005547000002
 43
-67114.26884471556
 44
3992.562218502646
 45
0.0000000901299604
 46
25.0000002439904
 79
     2
 49
4.776243199999999
 49
-472.8480835
 53
6.009005547000002
 43
-67089.26884471557
 44
3992.562218502646
 45
0.0000000901299604
 46
25.0000002439904
 79
     2
 49
4.776243199999999
 49
-472.8480835
 53
6.009005547000002
 43
-67064.26884471556
 44
3992.562218502646
 45
0.0000000901299604
 46
25.0000002439904
 79
     2
 49
4.776243199999999
 49
-472.8480835
 53
6.009005547000002
 43
-67039.26884471557
 44
3992.562218502646
 45
0.0000000901299604
 46
25.0000002439904
 79
     2
 49
4.776243199999999
 49
-472.8480835
 53
6.009005547000002
 43
-67014.26884471556
 44
3992.562218502646
 45
0.0000000901299604
 46
25.0000002439904
 79
     2
 49
4.776243199999999
 49
-472.8480835
 53
6.009005547000002
 43
-66989.26884471556
 44
3992.562218502646
 45
0.0000000901299604
 46
25.0000002439904
 79
     2
 49
4.776243199999999
 49
-472.8480835
 53
6.009005547000002
 43
-66964.26884471557
 44
3992.562218502646
 45
0.0000000901299604
 46
25.0000002439904
 79
     2
 49
4.776243199999999
 49
-472.8480835
 53
6.009005547000002
 43
-66939.26884471556
 44
3992.562218502646
 45
0.0000000901299604
 46
25.0000002439904
 79
     2
 49
4.776243199999999
 49
-472.8480835
 53
6.009005547000002
 43
-66914.26884471557
 44
3992.562218502646
 45
0.0000000901299604
 46
25.0000002439904
 79
     2
 49
4.776243199999999
 49
-472.8480835
 53
6.009005547000002
 43
-66889.26884471556
 44
3992.562218502646
 45
0.0000000901299604
 46
25.0000002439904
 79
     2
 49
4.776243199999999
 49
-472.8480835
 53
6.009005547000002
 43
-66864.26884471557
 44
3992.562218502646
 45
0.0000000901299604
 46
25.0000002439904
 79
     2
 49
4.776243199999999
 49
-472.8480835
 53
6.009005547000002
 43
-66839.26884471556
 44
3992.562218502646
 45
0.0000000901299604
 46
25.0000002439904
 79
     2
 49
4.776243199999999
 49
-472.8480835
 53
6.009005547000002
 43
-66814.26884471557
 44
3992.562218502646
 45
0.0000000901299604
 46
25.0000002439904
 79
     2
 49
4.776243199999999
 49
-472.8480835
 53
6.009005547000002
 43
-66789.26884471557
 44
3992.562218502646
 45
0.0000000901299604
 46
25.0000002439904
 79
     2
 49
4.776243199999999
 49
-472.8480835
 53
7.594643599999986
 43
-67243.01884471556
 44
3992.062218502647
 45
0.0000001055347854
 46
24.99999937978613
 79
     2
 49
3.783186424999999
 49
-374.535461425
 53
7.594643599999986
 43
-67218.01884471556
 44
3992.062218502647
 45
0.0000001055347854
 46
24.99999937978613
 79
     2
 49
3.783186424999999
 49
-374.535461425
 53
7.594643599999986
 43
-67193.01884471557
 44
3992.062218502647
 45
0.0000001055347854
 46
24.99999937978613
 79
     2
 49
3.783186424999999
 49
-374.535461425
 53
7.594643599999986
 43
-67168.01884471556
 44
3992.062218502647
 45
0.0000001055347854
 46
24.99999937978613
 79
     2
 49
3.783186424999999
 49
-374.535461425
 53
7.594643599999986
 43
-67143.01884471557
 44
3992.062218502647
 45
0.0000001055347854
 46
24.99999937978613
 79
     2
 49
3.783186424999999
 49
-374.535461425
 53
7.594643599999986
 43
-67118.01884471556
 44
3992.062218502647
 45
0.0000001055347854
 46
24.99999937978613
 79
     2
 49
3.783186424999999
 49
-374.535461425
 53
7.594643599999986
 43
-67093.01884471557
 44
3992.062218502647
 45
0.0000001055347854
 46
24.99999937978613
 79
     2
 49
3.783186424999999
 49
-374.535461425
 53
7.594643599999986
 43
-67068.01884471556
 44
3992.062218502647
 45
0.0000001055347854
 46
24.99999937978613
 79
     2
 49
3.783186424999999
 49
-374.535461425
 53
7.594643599999986
 43
-67043.01884471557
 44
3992.062218502647
 45
0.0000001055347854
 46
24.99999937978613
 79
     2
 49
3.783186424999999
 49
-374.535461425
 53
7.594643599999986
 43
-67018.01884471557
 44
3992.062218502647
 45
0.0000001055347854
 46
24.99999937978613
 79
     2
 49
3.783186424999999
 49
-374.535461425
 53
7.594643599999986
 43
-66993.01884471556
 44
3992.062218502647
 45
0.0000001055347854
 46
24.99999937978613
 79
     2
 49
3.783186424999999
 49
-374.535461425
 53
7.594643599999986
 43
-66968.01884471557
 44
3992.062218502647
 45
0.0000001055347854
 46
24.99999937978613
 79
     2
 49
3.783186424999999
 49
-374.535461425
 53
7.594643599999986
 43
-66943.01884471556
 44
3992.062218502647
 45
0.0000001055347854
 46
24.99999937978613
 79
     2
 49
3.783186424999999
 49
-374.535461425
 53
7.594643599999986
 43
-66918.01884471557
 44
3992.062218502647
 45
0.0000001055347854
 46
24.99999937978613
 79
     2
 49
3.783186424999999
 49
-374.535461425
 53
7.594643599999986
 43
-66893.01884471556
 44
3992.062218502647
 45
0.0000001055347854
 46
24.99999937978613
 79
     2
 49
3.783186424999999
 49
-374.535461425
 53
0.0
 43
-67247.51884471556
 44
3992.062218502647
 45
0.0
 46
25.0
 79
     2
 49
4.5
 49
-20.5
 53
0.0
 43
-67223.76884471557
 44
3992.062218502647
 45
0.0
 46
25.0
 79
     2
 49
1.25
 49
-23.75
 53
0.0
 43
-67245.26884471557
 44
3996.062218502647
 45
0.0
 46
25.0
 79
     2
 49
0.5
 49
-24.5
 53
0.0
 43
-67239.76884471556
 44
3993.812218502647
 45
0.0
 46
25.0
 79
     2
 49
0.5
 49
-24.5
 53
0.0
 43
-67234.51884471557
 44
3997.062218502647
 45
0.0
 46
25.0
 79
     2
 49
0.5
 49
-24.5
 53
0.0
 43
-67230.01884471557
 44
3994.562218502647
 45
0.0
 46
25.0
 79
     2
 49
0.5
 49
-24.5
 53
0.0
 43
-67225.76884471557
 44
3999.812218502647
 45
0.0
 46
25.0
 79
     2
 49
0.5
 49
-24.5
 53
0.0
 43
-67228.76884471556
 44
4003.062218502646
 45
0.0
 46
25.0
 79
     2
 49
0.5
 49
-24.5
 53
0.0
 43
-67233.01884471556
 44
4001.812218502646
 45
0.0
 46
25.0
 79
     2
 49
0.5
 49
-24.5
 53
0.0
 43
-67237.26884471557
 44
4000.062218502646
 45
0.0
 46
25.0
 79
     2
 49
0.5
 49
-24.5
 53
0.0
 43
-67239.26884471556
 44
4003.812218502647
 45
0.0
 46
25.0
 79
     2
 49
0.5
 49
-24.5
 53
0.0
 43
-67244.26884471556
 44
4003.812218502647
 45
0.0
 46
25.0
 79
     2
 49
0.5
 49
-24.5
 53
0.0
 43
-67245.51884471557
 44
4000.812218502646
 45
0.0
 46
25.0
 79
     2
 49
0.5
 49
-24.5
 53
0.0
 43
-67246.51884471557
 44
3990.312218502646
 45
0.0
 46
25.0
 79
     2
 49
0.5
 49
-24.5
 53
0.0
 43
-67243.76884471556
 44
3988.062218502647
 45
0.0
 46
25.0
 79
     2
 49
0.5
 49
-24.5
 53
0.0
 43
-67239.01884471557
 44
3991.562218502647
 45
0.0
 46
25.0
 79
     2
 49
0.5
 49
-24.5
 53
0.0
 43
-67236.76884471556
 44
3988.812218502647
 45
0.0
 46
25.0
 79
     2
 49
0.5
 49
-24.5
 53
0.0
 43
-67232.51884471556
 44
3992.062218502647
 45
0.0
 46
25.0
 79
     2
 49
0.5
 49
-24.5
 53
0.0
 43
-67232.01884471556
 44
3989.562218502646
 45
0.0
 46
25.0
 79
     2
 49
0.5
 49
-24.5
 53
0.0
 43
-67226.26884471557
 44
3991.312218502647
 45
0.0
 46
25.0
 79
     2
 49
0.5
 49
-24.5
 53
0.0
 43
-67224.26884471556
 44
3988.562218502647
 45
0.0
 46
25.0
 79
     2
 49
0.5
 49
-24.5
 53
0.0
 43
-67224.51884471556
 44
3984.312218502647
 45
0.0
 46
25.0
 79
     2
 49
0.5
 49
-24.5
 53
0.0
 43
-67229.01884471556
 44
3986.062218502647
 45
0.0
 46
25.0
 79
     2
 49
0.5
 49
-24.5
 53
0.0
 43
-67235.01884471557
 44
3984.062218502646
 45
0.0
 46
25.0
 79
     2
 49
0.5
 49
-24.5
 53
0.0
 43
-67240.01884471556
 44
3985.562218502646
 45
0.0
 46
25.0
 79
     2
 49
0.5
 49
-24.5
 53
0.0
 43
-67244.51884471556
 44
3985.062218502647
 45
0.0
 46
25.0
 79
     2
 49
0.5
 49
-24.5
 53
0.0
 43
-67228.51884471556
 44
4007.812218502646
 45
0.0
 46
25.0
 79
     2
 49
0.5
 49
-24.5
 53
0.0
 43
-67238.01884471557
 44
4006.312218502646
 45
0.0
 46
25.0
 79
     2
 49
0.5
 49
-24.5
 53
0.0
 43
-67244.01884471556
 44
4007.312218502646
 45
0.0
 46
25.0
 79
     2
 49
0.5
 49
-24.5
 53
0.0
 43
-67240.76884471556
 44
3997.062218502647
 45
0.0
 46
25.0
 79
     2
 49
0.5
 49
-24.5
 47
0.1895177439257438
 98
        1
 10
88.18292208981437
 20
304.4026527913802
1001
GradientColor1ACI
1070
     5
1001
GradientColor2ACI
1070
     2
1001
ACAD
1010
0.0
1020
0.0
1030
0.0
  0
LINE
  5
209
330
70
100
AcDbEntity
  8
0
100
AcDbLine
 10
201.8156613956598
 20
288.9804216786079
 30
0.0
 11
78.73116425702028
 21
288.9804216786079
 31
0.0
  0
LINE
  5
20A
330
70
100
AcDbEntity
  8
0
100
AcDbLine
 10
147.0156613956424
 20
148.9805903074384
 30
0.0
 11
147.0156613956424
 21
288.9804216786079
 31
0.0
  0
LINE
  5
20B
330
70
100
AcDbEntity
  8
0
100
AcDbLine
 10
102.0156613956423
 20
148.9805903074384
 30
0.0
 11
102.0156613956423
 21
288.9804216786079
 31
0.0
  0
LINE
  5
20C
330
70
100
AcDbEntity
  8
fixing
100
AcDbLine
 10
102.0156613956278
 20
252.7304216786078
 30
0.0
 11
99.01566139562783
 21
252.7304216786078
 31
0.0
  0
LINE
  5
20D
330
70
100
AcDbEntity
  8
fixing
100
AcDbLine
 10
99.01566139562783
 20
252.7304216786078
 30
0.0
 11
99.01566139562783
 21
202.7304216786078
 31
0.0
  0
LINE
  5
20E
330
70
100
AcDbEntity
  8
fixing
100
AcDbLine
 10
99.01566139562783
 20
252.7304216786078
 30
0.0
 11
102.0156613956278
 21
252.7304216786078
 31
0.0
  0
LINE
  5
20F
330
70
100
AcDbEntity
  8
fixing
100
AcDbLine
 10
102.0156613956278
 20
202.7304216786078
 30
0.0
 11
99.01566139562783
 21
202.7304216786078
 31
0.0
  0
LINE
  5
210
330
70
100
AcDbEntity
  8
fixing
100
AcDbLine
 10
102.0156613956278
 20
222.7304216786079
 30
0.0
 11
102.0156613956278
 21
232.7304216786079
 31
0.0
  0
LINE
  5
211
330
70
100
AcDbEntity
  8
shade 8
100
AcDbLine
 10
102.0156613956423
 20
148.9805903074384
 30
0.0
 11
147.0156613956424
 21
288.9804216786079
 31
0.0
  0
LINE
  5
212
330
70
100
AcDbEntity
  8
shade 8
100
AcDbLine
 10
147.0156613956424
 20
148.9805903074384
 30
0.0
 11
102.0156613956423
 21
288.9804216786079
 31
0.0
  0
LINE
  5
213
330
70
100
AcDbEntity
  8
shade 8
100
AcDbLine
 10
147.0156613956424
 20
148.9805903074384
 30
0.0
 11
192.0156613956569
 21
288.9804216786079
 31
0.0
  0
LINE
  5
214
330
70
100
AcDbEntity
  8
shade 8
100
AcDbLine
 10
192.0156613956424
 20
148.9805903074384
 30
0.0
 11
147.0156613956424
 21
288.9804216786079
 31
0.0
  0
LINE
  5
215
330
70
100
AcDbEntity
  8
0
100
AcDbLine
 10
201.8156613956598
 20
310.2804216786089
 30
0.0
 11
78.55312972862884
 21
310.2804216786089
 31
0.0
  0
LINE
  5
217
330
70
100
AcDbEntity
  8
0
100
AcDbLine
 10
201.8156613956598
 20
310.2804216786089
 30
0.0
 11
201.8156613956598
 21
288.9804216786079
 31
0.0
  0
HATCH
  5
218
330
70
100
AcDbEntity
  8
shade 8
100
AcDbHatch
 10
0.0
 20
0.0
 30
0.0
210
0.0
220
0.0
230
1.0
  2
SOLID
 70
     1
 71
     1
 91
        1
 92
        1
 93
       85
 72
     1
 10
224.5656613956598
 20
288.9804216786069
 11
224.7765528836244
 21
286.5699209410377
 72
     2
 10
225.4198784400855
 20
286.6262046341849
 40
0.6457829555743198
 50
185.0000000000337
 51
360.0000000000353
 73
     1
 72
     1
 10
226.0656613956598
 20
286.6262046341853
 11
226.0656613956598
 21
288.9804216786069
 72
     1
 10
226.0656613956598
 20
288.9804216786069
 11
230.6295602524697
 21
288.980421678606
 72
     2
 10
230.629560252427
 20
288.4804216786592
 40
0.4999999999468514
 50
270.0000000048853
 51
376.8820566740211
 73
     0
 72
     2
 10
231.7300005152295
 20
288.1464587647138
 40
0.6500000000043368
 50
163.1179433310379
 51
313.5840382981557
 73
     1
 72
     2
 10
233.3156613956623
 20
286.4804216786069
 40
1.649999999999673
 50
226.4159617020591
 51
493.5840382979408
 73
     0
 72
     2
 10
231.7300005152356
 20
284.8143845925015
 40
0.6499999999991397
 50
46.41596170214449
 51
226.4159617021445
 73
     1
 72
     2
 10
233.3156613956465
 20
286.4804216786055
 40
2.949999999985987
 50
226.4159617022992
 51
305.4301583606127
 73
     1
 72
     2
 10
235.3156613956608
 20
283.6692831192598
 40
0.4999999999990436
 50
234.5698416396532
 51
360.0000000000391
 73
     0
 72
     1
 10
235.8156613956599
 20
283.6692831192595
 11
235.8156613956599
 21
280.4804216786069
 72
     1
 10
235.8156613956599
 20
280.4804216786069
 11
233.8156613956599
 21
280.4804216786069
 72
     2
 10
233.8156613956599
 20
278.980421678607
 40
1.5
 50
90.0
 51
180.0
 73
     1
 72
     1
 10
232.3156613956598
 20
278.980421678607
 11
232.3156613956598
 21
277.7304216786069
 72
     2
 10
233.0656613956598
 20
277.7304216786069
 40
0.75
 50
180.0
 51
360.0
 73
     1
 72
     1
 10
233.8156613956599
 20
277.7304216786069
 11
233.8156613956599
 21
278.980421678607
 72
     1
 10
233.8156613956599
 20
278.980421678607
 11
235.8156613956599
 21
278.980421678607
 72
     1
 10
235.8156613956599
 20
278.980421678607
 11
235.8156613956599
 21
268.980421678607
 72
     2
 10
235.8156613956599
 20
268.4804216786069
 40
0.5
 50
90.0
 51
270.0
 73
     1
 72
     1
 10
235.8156613956599
 20
267.9804216786069
 11
235.8156613956599
 21
257.9804216786069
 72
     1
 10
235.8156613956599
 20
257.9804216786069
 11
233.8156613956599
 21
257.9804216786069
 72
     1
 10
233.8156613956599
 20
257.9804216786069
 11
233.8156613956599
 21
259.2304216786069
 72
     2
 10
233.0656613956598
 20
259.2304216786069
 40
0.75
 50
0.0
 51
180.0
 73
     1
 72
     1
 10
232.3156613956598
 20
259.2304216786069
 11
232.3156613956598
 21
257.9804216786069
 72
     1
 10
232.3156613956598
 20
257.9804216786069
 11
231.2656613956569
 21
257.9804216786069
 72
     2
 10
231.2656613956569
 20
257.2304216786069
 40
0.75
 50
90.0
 51
270.0
 73
     1
 72
     1
 10
231.2656613956569
 20
256.480421678607
 11
235.8156613956599
 21
256.480421678607
 72
     1
 10
235.8156613956599
 20
256.480421678607
 11
235.8156613956599
 21
190.4804216786069
 72
     1
 10
235.8156613956599
 20
190.4804216786069
 11
231.2656613956569
 21
190.4804216786069
 72
     2
 10
231.2656613956569
 20
189.7304216786069
 40
0.75
 50
90.0
 51
270.0
 73
     1
 72
     1
 10
231.2656613956569
 20
188.9804216786069
 11
232.3156613956598
 21
188.9804216786069
 72
     1
 10
232.3156613956598
 20
188.9804216786069
 11
232.3156613956598
 21
187.7304216786069
 72
     2
 10
233.0656613956598
 20
187.7304216786069
 40
0.75
 50
180.0
 51
360.0
 73
     1
 72
     1
 10
233.8156613956599
 20
187.7304216786069
 11
233.8156613956599
 21
188.9804216786069
 72
     1
 10
233.8156613956599
 20
188.9804216786069
 11
235.8156613956599
 21
188.9804216786069
 72
     1
 10
235.8156613956599
 20
188.9804216786069
 11
235.8156613956599
 21
178.9804216786069
 72
     2
 10
235.8156613956597
 20
178.4804216786069
 40
0.5
 50
89.99999999998697
 51
270.000000000013
 73
     1
 72
     1
 10
235.8156613956599
 20
177.9804216786069
 11
235.8156613956599
 21
167.9804216786069
 72
     1
 10
235.8156613956599
 20
167.9804216786069
 11
233.8156613956599
 21
167.9804216786069
 72
     1
 10
233.8156613956599
 20
167.9804216786069
 11
233.8156613956599
 21
169.2304216786069
 72
     2
 10
233.0656613956598
 20
169.2304216786069
 40
0.75
 50
0.0
 51
180.0
 73
     1
 72
     1
 10
232.3156613956598
 20
169.2304216786069
 11
232.3156613956598
 21
167.9804216786042
 72
     1
 10
232.3156613956598
 20
167.9804216786042
 11
223.5656613956598
 21
167.9804216786069
 72
     2
 10
222.56566139566
 20
167.9804216786068
 40
0.9999999999998863
 50
0.0000000000097707
 51
120.0000000000111
 73
     1
 72
     1
 10
222.0656613956598
 20
168.846447082391
 11
219.562376465452
 21
167.4011748540797
 72
     2
 10
219.8090915352534
 20
166.9738518182009
 40
0.4934301395940106
 50
120.0000000005907
 51
270.0000000006105
 73
     1
 72
     1
 10
219.8090915352586
 20
166.4804216786069
 11
233.8156613956599
 21
166.4804216786069
 72
     2
 10
233.8156613956598
 20
164.4804216786069
 40
2.000000000000028
 50
270.0000000000008
 51
359.9999999999992
 73
     0
 72
     1
 10
235.8156613956599
 20
164.4804216786069
 11
235.8156613956599
 21
152.1665228218007
 72
     2
 10
235.3156613956624
 20
152.1665228217989
 40
0.4999999999974421
 50
359.9999999997948
 51
466.8820566690341
 73
     0
 72
     2
 10
234.9816984817436
 20
151.0660825589907
 40
0.6499999999515355
 50
73.11794332958609
 51
223.5840382968091
 73
     1
 72
     2
 10
233.3156613956599
 20
149.4804216786009
 40
1.650000000006043
 50
316.4159617020557
 51
583.5840382979442
 73
     0
 72
     2
 10
231.6496243095535
 20
151.0660825590335
 40
0.6499999999974441
 50
316.4159617018328
 51
496.4159617018398
 73
     1
 72
     2
 10
233.315661395661
 20
149.4804216786038
 40
2.949999999999779
 50
136.4159617020154
 51
215.4301583602904
 73
     1
 72
     2
 10
230.5045228363045
 20
147.4804216785968
 40
0.4999999999899397
 50
324.5698416391588
 51
449.9999999995082
 73
     0
 72
     1
 10
230.5045228363088
 20
146.9804216786069
 11
224.9156613956657
 21
146.9804216786069
 72
     1
 10
224.9156613956657
 20
146.9804216786069
 11
224.9156613956657
 21
149.9804216786069
 72
     2
 10
224.4156613956657
 20
149.9804216786069
 40
0.5
 50
0.0
 51
90.0
 73
     1
 72
     1
 10
224.4156613956657
 20
150.4804216786069
 11
222.1656613956657
 21
150.4804216786069
 72
     2
 10
222.1656613956656
 20
149.7304216786069
 40
0.75
 50
89.99999999999131
 51
270.0000000000086
 73
     1
 72
     1
 10
222.1656613956657
 20
148.9804216786069
 11
223.4156613956657
 21
148.9804216786069
 72
     1
 10
223.4156613956657
 20
148.9804216786069
 11
223.4156613956657
 21
146.9804216786069
 72
     1
 10
223.4156613956657
 20
146.9804216786069
 11
213.4156613956657
 21
146.9804216786069
 72
     2
 10
212.9156613956657
 20
146.980421678607
 40
0.5
 50
359.999999999987
 51
540.000000000013
 73
     1
 72
     1
 10
212.4156613956657
 20
146.9804216786069
 11
202.4156613956657
 21
146.9804216786069
 72
     1
 10
202.4156613956657
 20
146.9804216786069
 11
202.4156613956657
 21
148.9804216786069
 72
     1
 10
202.4156613956657
 20
148.9804216786069
 11
203.6656613956657
 21
148.9804216786069
 72
     2
 10
203.6656613956657
 20
149.7304216786069
 40
0.75
 50
270.0
 51
450.0
 73
     1
 72
     1
 10
203.6656613956657
 20
150.4804216786069
 11
202.0909992129527
 21
150.4804216786069
 72
     2
 10
199.3156613956746
 20
149.4804216785904
 40
2.950000000007941
 50
19.81492814879166
 51
43.58403829819113
 73
     1
 72
     2
 10
200.9816984817735
 20
151.0660825590334
 40
0.6500000000027146
 50
43.58403829772508
 51
223.584038297718
 73
     1
 72
     2
 10
199.3156613956671
 20
149.4804216786078
 40
1.649999999995992
 50
316.415961702056
 51
583.5840382979439
 73
     0
 72
     2
 10
197.6496243095639
 20
151.0660825590332
 40
0.6500000000002735
 50
316.4159617021013
 51
466.8820566693248
 73
     1
 72
     2
 10
197.3156613956228
 20
152.1665228218345
 40
0.4999999999484782
 50
73.11794332688347
 51
179.9999999961308
 73
     0
 72
     1
 10
196.8156613956744
 20
152.1665228218007
 11
196.8156613956744
 21
159.7304216786069
 72
     2
 10
196.0656613956744
 20
159.7304216786068
 40
0.75
 50
0.000000000008685
 51
179.9999999999913
 73
     1
 72
     1
 10
195.3156613956744
 20
159.7304216786069
 11
195.3156613956744
 21
148.4804216786069
 72
     2
 10
198.3156613956745
 20
148.480421678607
 40
3.000000000000113
 50
180.0000000000021
 51
269.9999999999978
 73
     1
 72
     1
 10
198.3156613956744
 20
145.4804216786069
 11
234.3156613956598
 21
145.4804216786051
 72
     2
 10
234.31566139566
 20
148.480421678605
 40
2.999999999999886
 50
269.9999999999978
 51
360.0000000000022
 73
     1
 72
     1
 10
237.3156613956599
 20
148.4804216786051
 11
237.3156613956599
 21
287.480421678607
 72
     2
 10
234.3156613956598
 20
287.480421678607
 40
3.0
 50
0.0
 51
90.0
 73
     1
 72
     1
 10
234.3156613956598
 20
290.480421678607
 11
220.9043765380702
 21
290.480421678607
 72
     2
 10
220.904376538067
 20
289.8917065361979
 40
0.5887151424090576
 50
89.9999999996902
 51
264.9999999997015
 73
     1
 72
     1
 10
220.8530666325605
 20
289.3052316326439
 11
224.5656613956598
 21
288.9804216786069
 97
        1
330
21D
 75
     0
 76
     1
 98
        1
 10
-70490.10588053739
 20
-598.3050902610248
450
        0
451
        0
460
0.0
461
0.0
452
        0
462
0.0
453
        0
470

  0
HATCH
  5
219
330
70
100
AcDbEntity
  8
shade 8
100
AcDbHatch
 10
0.0
 20
0.0
 30
0.0
210
0.0
220
0.0
230
1.0
  2
SOLID
 70
     1
 71
     0
 91
        2
 92
        7
 72
     0
 73
     1
 93
        4
 10
193.5156613956569
 20
288.9804216786079
 10
192.0156613956569
 20
288.9804216786069
 10
192.0156613956569
 20
227.7304216786069
 10
193.5156613956569
 20
227.7304216786078
 97
        0
 92
        7
 72
     0
 73
     1
 93
        4
 10
193.5156613956715
 20
227.7304216786078
 10
192.0156613956569
 20
227.7304216786078
 10
192.0156613956424
 20
166.4804216786078
 10
193.5156613956424
 20
166.480421678606
 97
        0
 75
     0
 76
     1
 47
0.2312502357384924
 98
        2
 10
192.9610337274716
 20
263.693982999308
 10
192.9610337274716
 20
225.5376891271499
450
        0
451
        0
460
0.0
461
0.0
452
        0
462
0.0
453
        0
470

1001
ACAD
1010
0.0
1020
0.0
1030
0.0
  0
LINE
  5
21A
330
70
100
AcDbEntity
  8
Object
100
AcDbLine
 10
193.5156613956569
 20
288.9804216786069
 30
0.0
 11
193.5156613956424
 21
166.4804216786069
 31
0.0
  0
LINE
  5
21B
330
70
100
AcDbEntity
  8
Object
100
AcDbLine
 10
192.0156613956424
 20
166.4804216786069
 30
0.0
 11
193.5156613956424
 21
166.4804216786069
 31
0.0
  0
LINE
  5
21C
330
70
100
AcDbEntity
  8
glass
100
AcDbLine
 10
204.515661395657
 20
183.9804216786097
 30
0.0
 11
216.5156613956569
 21
183.980421678606
 31
0.0
  0
LWPOLYLINE
  5
21D
102
{ACAD_REACTORS
330
218
102
}
330
70
100
AcDbEntity
  8
capping
100
AcDbPolyline
 90
       85
 70
     1
 43
0.0
 10
224.5656613956598
 20
288.9804216786069
 10
224.7765528836244
 20
286.5699209410377
 42
0.9572917422548009
 10
226.0656613956598
 20
286.6262046341853
 10
226.0656613956598
 20
288.9804216786069
 10
230.6295602524697
 20
288.980421678606
 42
-0.5033962922895192
 10
231.1080125405642
 20
288.3352204117118
 42
0.7705632027763753
 10
232.1781220683988
 20
287.6756221968999
 42
-2.332277542219054
 10
232.1781220683988
 20
285.285221160314
 42
0.9999999999999998
 10
231.2818789620724
 20
284.343548024689
 42
0.3591066178546381
 10
235.0258063231958
 20
284.0766945046744
 42
-0.6093858750146401
 10
235.8156613956599
 20
283.6692831192595
 10
235.8156613956599
 20
280.4804216786069
 10
233.8156613956599
 20
280.4804216786069
 42
0.4142135623730951
 10
232.3156613956598
 20
278.980421678607
 10
232.3156613956598
 20
277.7304216786069
 42
0.9999999999999998
 10
233.8156613956599
 20
277.7304216786069
 10
233.8156613956599
 20
278.980421678607
 10
235.8156613956599
 20
278.980421678607
 10
235.8156613956599
 20
268.980421678607
 42
0.9999999999999998
 10
235.8156613956599
 20
267.9804216786069
 10
235.8156613956599
 20
257.9804216786069
 10
233.8156613956599
 20
257.9804216786069
 10
233.8156613956599
 20
259.2304216786069
 42
0.9999999999999998
 10
232.3156613956598
 20
259.2304216786069
 10
232.3156613956598
 20
257.9804216786069
 10
231.2656613956569
 20
257.9804216786069
 42
0.9999999999999998
 10
231.2656613956569
 20
256.480421678607
 10
235.8156613956599
 20
256.480421678607
 10
235.8156613956599
 20
190.4804216786069
 10
231.2656613956569
 20
190.4804216786069
 42
0.9999999999999998
 10
231.2656613956569
 20
188.9804216786069
 10
232.3156613956598
 20
188.9804216786069
 10
232.3156613956598
 20
187.7304216786069
 42
0.9999999999999998
 10
233.8156613956599
 20
187.7304216786069
 10
233.8156613956599
 20
188.9804216786069
 10
235.8156613956599
 20
188.9804216786069
 10
235.8156613956599
 20
178.9804216786069
 42
1.000000000000227
 10
235.8156613956599
 20
177.9804216786069
 10
235.8156613956599
 20
167.9804216786069
 10
233.8156613956599
 20
167.9804216786069
 10
233.8156613956599
 20
169.2304216786069
 42
0.9999999999999998
 10
232.3156613956598
 20
169.2304216786069
 10
232.3156613956598
 20
167.9804216786042
 10
223.5656613956598
 20
167.9804216786069
 42
0.577350269189629
 10
222.0656613956598
 20
168.846447082391
 10
219.562376465452
 20
167.4011748540797
 42
0.767326987979086
 10
219.8090915352586
 20
166.4804216786069
 10
233.8156613956599
 20
166.4804216786069
 42
-0.4142135623730853
 10
235.8156613956599
 20
164.4804216786069
 10
235.8156613956599
 20
152.1665228218007
 42
-0.5033962922900628
 10
235.170460128742
 20
151.6880705336007
 42
0.7705632027770655
 10
234.5108619139574
 20
150.6179610058689
 42
-2.332277542219222
 10
232.1204608773623
 20
150.6179610058689
 42
1.000000000000063
 10
231.1787877417446
 20
151.514204112198
 42
0.3591066178544513
 10
230.9119342217091
 20
147.77027675106
 42
-0.6093858750144365
 10
230.5045228363088
 20
146.9804216786069
 10
224.9156613956657
 20
146.9804216786069
 10
224.9156613956657
 20
149.9804216786069
 42
0.4142135623730951
 10
224.4156613956657
 20
150.4804216786069
 10
222.1656613956657
 20
150.4804216786069
 42
1.000000000000151
 10
222.1656613956657
 20
148.9804216786069
 10
223.4156613956657
 20
148.9804216786069
 10
223.4156613956657
 20
146.9804216786069
 10
213.4156613956657
 20
146.9804216786069
 42
1.000000000000227
 10
212.4156613956657
 20
146.9804216786069
 10
202.4156613956657
 20
146.9804216786069
 10
202.4156613956657
 20
148.9804216786069
 10
203.6656613956657
 20
148.9804216786069
 42
0.9999999999999998
 10
203.6656613956657
 20
150.4804216786069
 10
202.0909992129527
 20
150.4804216786069
 42
0.10408576657123
 10
201.4525350495897
 20
151.514204112198
 42
0.9999999999999426
 10
200.5108619139573
 20
150.6179610058689
 42
-2.332277542219222
 10
198.1204608773769
 20
150.6179610058689
 42
0.7705632027770721
 10
197.4608626625631
 20
151.6880705336934
 42
-0.5033962922901151
 10
196.8156613956744
 20
152.1665228218007
 10
196.8156613956744
 20
159.7304216786069
 42
0.9999999999998484
 10
195.3156613956744
 20
159.7304216786069
 10
195.3156613956744
 20
148.4804216786069
 42
0.4142135623730729
 10
198.3156613956744
 20
145.4804216786069
 10
234.3156613956598
 20
145.4804216786051
 42
0.4142135623731172
 10
237.3156613956599
 20
148.4804216786051
 10
237.3156613956599
 20
287.480421678607
 42
0.4142135623730951
 10
234.3156613956598
 20
290.480421678607
 10
220.9043765380702
 20
290.480421678607
 42
0.9572917422549124
 10
220.8530666325605
 20
289.3052316326439
  0
LWPOLYLINE
  5
21E
330
70
100
AcDbEntity
  8
Object
100
AcDbPolyline
 90
        5
 70
     0
 43
0.0
 10
205.5156613956569
 20
183.9804216786097
 10
215.5156613956569
 20
183.9804216786097
 10
215.5156613956569
 20
179.9804216786097
 10
205.5156613956569
 20
179.9804216786097
 10
205.5156613956569
 20
183.9804216786097
  0
LINE
  5
21F
330
70
100
AcDbEntity
  8
fixing
  6
DASHED
 48
0.25
370
     9
100
AcDbLine
 10
220.5156613956569
 20
276.9509424552116
 30
0.0
 11
230.5156613956569
 21
276.9509424552116
 31
0.0
  0
LINE
  5
220
330
70
100
AcDbEntity
  8
fixing
  6
DASHED
 48
0.25
370
     9
100
AcDbLine
 10
220.5156613956569
 20
275.9509424552116
 30
0.0
 11
230.5156613956569
 21
275.9509424552116
 31
0.0
  0
LINE
  5
221
330
70
100
AcDbEntity
  8
fixing
  6
DASHED
 48
0.25
370
     9
100
AcDbLine
 10
220.5156613956569
 20
267.9509424552116
 30
0.0
 11
230.5156613956569
 21
267.9509424552116
 31
0.0
  0
LINE
  5
222
330
70
100
AcDbEntity
  8
fixing
  6
DASHED
 48
0.25
370
     9
100
AcDbLine
 10
220.5156613956569
 20
266.9509424552116
 30
0.0
 11
230.5156613956569
 21
266.9509424552116
 31
0.0
  0
LINE
  5
223
330
70
100
AcDbEntity
  8
ctrl
 48
0.3
100
AcDbLine
 10
235.9150430554946
 20
271.9804216786069
 30
0.0
 11
215.6497848989893
 21
271.9804216786069
 31
0.0
  0
LINE
  5
224
330
70
100
AcDbEntity
  8
fixing
  6
DASHED
 48
0.25
370
     9
100
AcDbLine
 10
220.5156613956569
 20
206.9509424552116
 30
0.0
 11
230.5156613956569
 21
206.9509424552116
 31
0.0
  0
LINE
  5
225
330
70
100
AcDbEntity
  8
fixing
  6
DASHED
 48
0.25
370
     9
100
AcDbLine
 10
220.5156613956569
 20
205.9509424552116
 30
0.0
 11
230.5156613956569
 21
205.9509424552116
 31
0.0
  0
LINE
  5
226
330
70
100
AcDbEntity
  8
fixing
  6
DASHED
 48
0.25
370
     9
100
AcDbLine
 10
220.5156613956569
 20
197.9509424552116
 30
0.0
 11
230.5156613956569
 21
197.9509424552116
 31
0.0
  0
LINE
  5
227
330
70
100
AcDbEntity
  8
fixing
  6
DASHED
 48
0.25
370
     9
100
AcDbLine
 10
220.5156613956569
 20
196.9509424552116
 30
0.0
 11
230.5156613956569
 21
196.9509424552116
 31
0.0
  0
LINE
  5
228
330
70
100
AcDbEntity
  8
ctrl
 48
0.3
100
AcDbLine
 10
235.9150430554946
 20
201.980421678607
 30
0.0
 11
215.6497848989893
 21
201.980421678607
 31
0.0
  0
LINE
  5
229
330
70
100
AcDbEntity
  8
fixing
  6
DASHED
 48
0.25
370
     9
100
AcDbLine
 10
216.4861821722661
 20
179.9804216786069
 30
0.0
 11
216.4861821722661
 21
166.4804216786069
 31
0.0
  0
LINE
  5
22A
330
70
100
AcDbEntity
  8
fixing
  6
DASHED
 48
0.25
370
     9
100
AcDbLine
 10
206.4861821722661
 20
179.9804216786069
 30
0.0
 11
206.4861821722661
 21
166.4804216786069
 31
0.0
  0
LINE
  5
22B
330
70
100
AcDbEntity
  8
ctrl
 48
0.3
100
AcDbLine
 10
211.5156613956569
 20
164.1265658323264
 30
0.0
 11
211.5156613956569
 21
182.6951905116711
 31
0.0
  0
LINE
  5
22C
330
70
100
AcDbEntity
  8
shade 8
 62
     7
100
AcDbLine
 10
205.5156613956569
 20
183.9804216786097
 30
0.0
 11
215.5156613956569
 21
179.9804216786097
 31
0.0
  0
LINE
  5
22D
330
70
100
AcDbEntity
  8
shade 8
 62
     7
100
AcDbLine
 10
205.5156613956569
 20
179.9804216786069
 30
0.0
 11
215.5156613956569
 21
183.980421678606
 31
0.0
  0
LINE
  5
22E
330
70
100
AcDbEntity
  8
ctrl
  6
CENTER
 48
0.25
100
AcDbLine
 10
205.5156613956569
 20
227.7304216786078
 30
0.0
 11
77.01566139562783
 21
227.7304216786078
 31
0.0
  0
LWPOLYLINE
  5
22F
330
70
100
AcDbEntity
  8
Handrail
  6
HIDDEN
370
     0
100
AcDbPolyline
 90
       16
 70
     1
 43
0.0
 10
226.2978734142889
 20
638.0272454432834
 42
-0.4142135623730951
 10
223.4795471898033
 20
640.8455716677654
 10
223.4795471898033
 20
659.721807799544
 42
0.4142135623730951
 10
221.26514801343
 20
661.9362069759245
 10
201.7661747778693
 20
661.9362069759245
 42
0.4142135623730951
 10
199.551775601496
 20
659.721807799544
 10
199.551775601496
 20
640.8455716677654
 42
-0.4142135623730951
 10
196.7334493770104
 20
638.0272454432834
 10
194.243688491224
 20
638.0272454432834
 42
-0.4142135623730951
 10
191.4253622667384
 20
640.8455716677654
 10
191.4253622667384
 20
665.3432324942387
 42
-0.4142135623730951
 10
194.243688491224
 20
668.1615587187207
 10
228.6070360422527
 20
668.1615587187207
 42
-0.4142135623730951
 10
231.4253622667384
 20
665.3432324942387
 10
231.4253622667384
 20
640.8455716677654
 42
-0.4142135623730951
 10
228.6070360422527
 20
638.0272454432834
  0
LWPOLYLINE
  5
230
330
70
100
AcDbEntity
  8
Handrail
  6
HIDDEN
370
     0
100
AcDbPolyline
 90
       16
 70
     1
 43
0.0
 10
194.243688491224
 20
639.6377175715588
 10
196.7334493770104
 20
639.6377175715588
 42
0.4142135623730951
 10
197.9413034732206
 20
640.8455716677654
 10
197.9413034732206
 20
659.721807799544
 42
-0.4142135623730951
 10
201.7661747778693
 20
663.5466791041999
 10
221.26514801343
 20
663.5466791041999
 42
-0.4142135623730951
 10
225.0900193180787
 20
659.721807799544
 10
225.0900193180787
 20
640.8455716677654
 42
0.4142135623730951
 10
226.2978734142889
 20
639.6377175715588
 10
228.6070360422527
 20
639.6377175715588
 42
0.4142135623730951
 10
229.8148901384629
 20
640.8455716677654
 10
229.8148901384629
 20
665.3432324942387
 42
0.4142135623730951
 10
228.6070360422527
 20
666.5510865904452
 10
194.243688491224
 20
666.5510865904452
 42
0.4142135623730951
 10
193.0358343950138
 20
665.3432324942387
 10
193.0358343950138
 20
640.8455716677654
 42
0.4142135623730951
  0
LINE
  5
231
330
70
100
AcDbEntity
  8
glass
100
AcDbLine
 10
205.5156613956569
 20
658.9362069759208
 30
0.0
 11
217.5156613956569
 21
658.9362069759244
 31
0.0
  0
LINE
  5
232
330
70
100
AcDbEntity
  8
glass
100
AcDbLine
 10
217.5156613956569
 20
658.9362069759244
 30
0.0
 11
217.5156613956569
 21
384.4285122041838
 31
0.0
  0
LINE
  5
233
330
70
100
AcDbEntity
  8
glass
100
AcDbLine
 10
205.5156613956569
 20
658.9362069759208
 30
0.0
 11
205.5156613956569
 21
388.2919609662931
 31
0.0
  0
LINE
  5
234
330
70
100
AcDbEntity
  8
shade 8
370
     5
100
AcDbLine
 10
208.5156613956424
 20
658.9362069759208
 30
0.0
 11
208.5156613956424
 21
387.8047996531987
 31
0.0
  0
LINE
  5
235
330
70
100
AcDbEntity
  8
shade 8
370
     5
100
AcDbLine
 10
214.5156613956424
 20
658.9362069759244
 30
0.0
 11
214.5156613956424
 21
385.0664802894298
 31
0.0
  0
LINE
  5
236
330
70
100
AcDbEntity
  8
shade 8
370
     5
100
AcDbLine
 10
211.5156613956424
 20
658.9362069759227
 30
0.0
 11
211.5156613956424
 21
386.4690800637945
 31
0.0
  0
SPLINE
  5
237
330
70
100
AcDbEntity
  8
dim
  6
DASHED
 48
0.2
370
     5
100
AcDbSpline
210
0.0
220
0.0
230
1.0
 70
  1064
 71
     3
 72
    10
 73
     6
 74
     4
 42
0.000000001
 43
0.0000000001
 44
0.00001
 40
0.0
 40
0.0
 40
0.0
 40
0.0
 40
12.82242268956551
 40
22.27134166503534
 40
34.39374709194961
 40
34.39374709194961
 40
34.39374709194961
 40
34.39374709194961
 10
195.1650026287461
 20
379.4792452906713
 30
0.0
 10
199.3134723736305
 20
381.72582556788
 30
0.0
 10
206.5189739634795
 20
385.6279241137625
 30
0.0
 10
216.9713381408051
 20
377.1243766792756
 30
0.0
 10
223.8846708158798
 20
381.0581156188375
 30
0.0
 10
227.7697462046272
 20
383.2687531012416
 30
0.0
 11
195.1650026287461
 21
379.4792452906713
 31
0.0
 11
207.4655009882917
 21
383.1003312792527
 31
0.0
 11
216.2274979496651
 21
379.5634570867096
 31
0.0
 11
227.7697462046272
 21
383.2687531012416
 31
0.0
  0
SPLINE
  5
238
330
70
100
AcDbEntity
  8
dim
  6
DASHED
 48
0.2
370
     5
100
AcDbSpline
210
0.0
220
0.0
230
1.0
 70
  1064
 71
     3
 72
    10
 73
     6
 74
     4
 42
0.000000001
 43
0.0000000001
 44
0.00001
 40
0.0
 40
0.0
 40
0.0
 40
0.0
 40
12.82242268956551
 40
22.27134166503534
 40
34.39374709194961
 40
34.39374709194961
 40
34.39374709194961
 40
34.39374709194961
 10
195.1650026287461
 20
384.4792452906713
 30
0.0
 10
199.3134723736305
 20
386.72582556788
 30
0.0
 10
206.5189739634795
 20
390.6279241137626
 30
0.0
 10
216.9713381408051
 20
382.1243766792754
 30
0.0
 10
223.8846708158798
 20
386.0581156188374
 30
0.0
 10
227.7697462046272
 20
388.2687531012416
 30
0.0
 11
195.1650026287461
 21
384.4792452906713
 31
0.0
 11
207.4655009882917
 21
388.1003312792527
 31
0.0
 11
216.2274979496651
 21
384.5634570867096
 31
0.0
 11
227.7697462046272
 21
388.2687531012416
 31
0.0
  0
LINE
  5
239
330
70
100
AcDbEntity
  8
0
100
AcDbLine
 10
192.0156613956424
 20
288.9804216786079
 30
0.0
 11
192.0156613956424
 21
148.9805903074384
 31
0.0
  0
LINE
  5
23A
330
70
100
AcDbEntity
  8
fixing
100
AcDbLine
 10
91.01566139562782
 20
232.7304216786079
 30
0.0
 11
83.00958579775032
 21
232.7304216786079
 31
0.0
  0
LINE
  5
23B
330
70
100
AcDbEntity
  8
fixing
100
AcDbLine
 10
91.01566139562782
 20
235.7304216786078
 30
0.0
 11
91.01566139562782
 21
219.7304216786079
 31
0.0
  0
LINE
  5
23C
330
70
100
AcDbEntity
  8
fixing
100
AcDbLine
 10
91.01566139562782
 20
219.7304216786079
 30
0.0
 11
99.01566139562783
 21
219.7304216786079
 31
0.0
  0
LINE
  5
23D
330
70
100
AcDbEntity
  8
fixing
100
AcDbLine
 10
92.41966299691558
 20
227.7304216786078
 30
0.0
 11
99.01566139562783
 21
227.7304216786078
 31
0.0
  0
ARC
  5
23E
330
70
100
AcDbEntity
  8
fixing
100
AcDbCircle
 10
97.41566139563657
 20
223.7304216786078
 30
0.0
 40
6.4
100
AcDbArc
 50
141.3178125461366
 51
216.3858678167841
  0
ARC
  5
23F
330
70
100
AcDbEntity
  8
fixing
100
AcDbCircle
 10
92.6659245608098
 20
220.2304216786079
 30
0.0
 40
0.5
100
AcDbArc
 50
216.3858678167841
 51
270.0
  0
LINE
  5
240
330
70
100
AcDbEntity
  8
fixing
100
AcDbLine
 10
91.01566139562782
 20
235.7304216786078
 30
0.0
 11
99.01566139562783
 21
235.7304216786078
 31
0.0
  0
ARC
  5
241
330
70
100
AcDbEntity
  8
fixing
100
AcDbCircle
 10
97.41566139563657
 20
231.7304216786078
 30
0.0
 40
6.4
100
AcDbArc
 50
143.6141321832159
 51
218.6821874538633
  0
ARC
  5
242
330
70
100
AcDbEntity
  8
fixing
100
AcDbCircle
 10
92.6659245608098
 20
235.2304216786079
 30
0.0
 40
0.5
100
AcDbArc
 50
90.0
 51
143.6141321832159
  0
LINE
  5
243
330
70
100
AcDbEntity
  8
fixing
100
AcDbLine
 10
91.01566139562782
 20
231.9304216786077
 30
0.0
 11
82.20958579774743
 21
231.9304216786077
 31
0.0
  0
LINE
  5
244
330
70
100
AcDbEntity
  8
fixing
100
AcDbLine
 10
91.01566139562782
 20
223.530421678608
 30
0.0
 11
82.20958579774743
 21
223.530421678608
 31
0.0
  0
LINE
  5
245
330
70
100
AcDbEntity
  8
fixing
100
AcDbLine
 10
91.01566139562782
 20
222.7304216786079
 30
0.0
 11
83.00958579775032
 21
222.7304216786079
 31
0.0
  0
LINE
  5
246
330
70
100
AcDbEntity
  8
fixing
100
AcDbLine
 10
83.00958579775032
 20
232.7304216786079
 30
0.0
 11
83.00958579775032
 21
222.7304216786079
 31
0.0
  0
LINE
  5
247
330
70
100
AcDbEntity
  8
fixing
100
AcDbLine
 10
82.20958579774743
 20
231.9304216786077
 30
0.0
 11
82.20958579774743
 21
223.530421678608
 31
0.0
  0
LINE
  5
248
330
70
100
AcDbEntity
  8
fixing
100
AcDbLine
 10
82.20958579774743
 20
231.9304216786077
 30
0.0
 11
83.00958579775032
 21
232.7304216786079
 31
0.0
  0
LINE
  5
249
330
70
100
AcDbEntity
  8
fixing
100
AcDbLine
 10
82.20958579774743
 20
223.530421678608
 30
0.0
 11
83.00958579775032
 21
222.7304216786079
 31
0.0
  0
LINE
  5
24A
330
70
100
AcDbEntity
  8
fixing
  6
DASHED
 48
0.25
370
     5
100
AcDbLine
 10
197.715661395654
 20
232.7304216786079
 30
0.0
 11
102.0156613956423
 21
232.7304216786079
 31
0.0
  0
LINE
  5
24B
330
70
100
AcDbEntity
  8
fixing
  6
DASHED
 48
0.25
370
     5
100
AcDbLine
 10
197.715661395654
 20
231.9304216786068
 30
0.0
 11
102.0156613956423
 21
231.9304216786031
 31
0.0
  0
LINE
  5
24C
330
70
100
AcDbEntity
  8
fixing
  6
DASHED
 48
0.25
370
     5
100
AcDbLine
 10
197.7156613956394
 20
223.5304216786071
 30
0.0
 11
102.0156613956423
 21
223.530421678618
 31
0.0
  0
LINE
  5
24D
330
70
100
AcDbEntity
  8
fixing
  6
DASHED
 48
0.25
370
     5
100
AcDbLine
 10
197.7156613956394
 20
222.7304216786097
 30
0.0
 11
102.0156613956423
 21
222.730421678607
 31
0.0
  0
LINE
  5
24E
330
70
100
AcDbEntity
  8
fixing
  6
DASHED
 48
0.25
370
     5
100
AcDbLine
 10
197.7156613956394
 20
232.7304216786042
 30
0.0
 11
202.5156613956569
 21
237.5304216786071
 31
0.0
  0
LINE
  5
24F
330
70
100
AcDbEntity
  8
fixing
  6
DASHED
 48
0.25
370
     5
100
AcDbLine
 10
202.5156613956569
 20
237.5304216786071
 30
0.0
 11
203.5156613956569
 21
237.5304216786071
 31
0.0
  0
LINE
  5
250
330
70
100
AcDbEntity
  8
fixing
  6
DASHED
 48
0.25
370
     5
100
AcDbLine
 10
202.5156613956569
 20
237.5304216786071
 30
0.0
 11
202.5156613956424
 21
217.9304216786077
 31
0.0
  0
LINE
  5
251
330
70
100
AcDbEntity
  8
fixing
  6
DASHED
 48
0.25
370
     5
100
AcDbLine
 10
203.5156613956569
 20
237.5304216786071
 30
0.0
 11
203.5156613956424
 21
217.9304216786077
 31
0.0
  0
LINE
  5
252
330
70
100
AcDbEntity
  8
fixing
100
AcDbLine
 10
197.715661395654
 20
232.7304216786079
 30
0.0
 11
197.7156613956394
 21
222.7304216786097
 31
0.0
  0
LINE
  5
253
330
70
100
AcDbEntity
  8
fixing
  6
DASHED
 48
0.25
370
     5
100
AcDbLine
 10
197.7156613956394
 20
222.7304216786097
 30
0.0
 11
202.5156613956569
 21
217.9304216786068
 31
0.0
  0
LINE
  5
254
330
70
100
AcDbEntity
  8
fixing
  6
DASHED
 48
0.25
370
     5
100
AcDbLine
 10
202.5156613956569
 20
217.9304216786068
 30
0.0
 11
203.5156613956569
 21
217.9304216786068
 31
0.0
  0
DIMENSION
  5
255
330
70
100
AcDbEntity
  8
dim
100
AcDbDimension
280
     0
  2
*D3
 10
46.47759371974818
 20
288.980421678608
 30
0.0
 11
46.47759371974825
 21
218.9805059930322
 31
0.0
 70
   160
  1
140 min section depth
 71
     5
 42
139.9998313711694
 73
     0
 74
     0
 75
     0
  3
Spectrum 2.5
100
AcDbAlignedDimension
 13
102.0156613956423
 23
148.9805903074384
 33
0.0
 14
78.55312972862884
 24
288.9804216786079
 34
0.0
 50
90.0
100
AcDbRotatedDimension
  0
DIMENSION
  5
256
330
70
100
AcDbEntity
  8
dim
100
AcDbDimension
280
     0
  2
*D4
 10
63.72759371974821
 20
227.7304216786079
 30
0.0
 11
63.72759371974826
 21
258.3554216786179
 31
0.0
 70
   160
  1
60 min
 71
     5
 42
61.25000000000003
 73
     0
 74
     0
 75
     0
  3
Spectrum 2.5
100
AcDbAlignedDimension
 13
78.55312972862884
 23
288.9804216786079
 33
0.0
 14
77.01566139562783
 24
227.7304216786078
 34
0.0
 50
270.0
100
AcDbRotatedDimension
  0
DIMENSION
  5
257
330
70
100
AcDbEntity
  8
dim
100
AcDbDimension
280
     0
  2
*D5
 10
192.0156613956424
 20
324.6396841209234
 30
0.0
 11
147.0156613956424
 21
324.6396841209234
 31
0.0
 70
   160
  1
90 min timber width
 71
     5
 42
90.0
 73
     0
 74
     0
 75
     0
  3
Spectrum 2
100
AcDbAlignedDimension
 13
102.0156613956423
 23
288.9804216786079
 33
0.0
 14
192.0156613956424
 24
288.9804216786079
 34
0.0
100
AcDbRotatedDimension
1001
ACAD
1000
DSTYLE
1002
{
1070
    42
1040
2.0
1002
}
  0
MTEXT
  5
258
330
70
100
AcDbEntity
  8
dim
100
AcDbMText
 10
250.0
 20
709.5100353910993
 30
0.0
 40
11.25
 41
499.9999999999985
 46
44.30046962770575
 71
     2
 72
     5
  1
{\fArial Narrow|b1|i0|c0|p34;\LPUREVIEW\l FACE FIXED TO TIMBER - BOLT THROUGH}
  7
Arial Narrow
 73
     1
 44
0.8333333333333335
1001
ACAD
1000
ACAD_MTEXT_DEFINED_HEIGHT_BEGIN
1070
    46
1040
35.4403757021646
1000
ACAD_MTEXT_DEFINED_HEIGHT_END
  0
MTEXT
  5
259
330
70
100
AcDbEntity
  8
dim
370
     5
100
AcDbMText
 10
69.22318743509823
 20
235.3648618697421
 30
0.0
 40
5.625
 41
49.20741563930279
 46
0.0
 71
     4
 72
     5
  1
edge distance
  7
Calibri
 11
0.0000000000000001
 21
1.0
 31
0.0
 73
     1
 44
1.0
  0
MTEXT
  5
25A
330
70
100
AcDbEntity
  8
dim
100
AcDbMText
 10
279.5718755644302
 20
218.7533636947596
 30
0.0
 40
5.625
 41
162.4826919105544
 46
0.0
 71
     4
 72
     5
  1
M10 316 S/S CSK socket screw, nut and 50 x 50 x 3mm washer to timber. 
  7
Calibri
 73
     1
 44
0.9333333333333333
  0
LINE
  5
26B
330
70
100
AcDbEntity
  8
title
100
AcDbLine
 10
152.3075000000062
 20
39.59750000000213
 30
0.0
 11
152.3075000000062
 21
30.45234133067197
 31
0.0
  0
ARC
  5
26C
330
70
100
AcDbEntity
  8
title
100
AcDbCircle
 10
140.4275000000234
 20
38.60750000000053
 30
0.0
 40
1.979999999999993
100
AcDbArc
 50
0.0
 51
180.0
  0
LINE
  5
26D
330
70
100
AcDbEntity
  8
title
100
AcDbLine
 10
135.4775000000336
 20
43.29765866932802
 30
0.0
 11
138.4475000000202
 21
43.55749999999943
 31
0.0
  0
LINE
  5
26E
330
70
100
AcDbEntity
  8
title
100
AcDbLine
 10
138.4475000000202
 20
43.55749999999943
 30
0.0
 11
138.4475000000202
 21
42.21679379795432
 31
0.0
  0
ARC
  5
26F
330
70
100
AcDbEntity
  8
title
100
AcDbCircle
 10
141.4175000000068
 20
39.59750000000213
 30
0.0
 40
3.959999999999915
100
AcDbArc
 50
28.95502437189488
 51
138.5903778907205
  0
ARC
  5
270
330
70
100
AcDbEntity
  8
title
100
AcDbCircle
 10
148.3474999999998
 20
39.59750000000213
 30
0.0
 40
3.960000000000052
100
AcDbArc
 50
0.0
 51
151.0449756281051
  0
ARC
  5
271
330
70
100
AcDbEntity
  8
title
100
AcDbCircle
 10
147.3575000000164
 20
38.60750000000053
 30
0.0
 40
1.979999999999993
100
AcDbArc
 50
0.0
 51
180.0
  0
HATCH
  5
272
330
70
100
AcDbEntity
  8
title
100
AcDbHatch
 10
0.0
 20
0.0
 30
0.0
210
0.0
220
0.0
230
1.0
  2
SOLID
 70
     1
 71
     0
 91
        2
 92
        7
 72
     1
 73
     1
 93
        8
 10
60.97999999999956
 20
43.55749999999943
 42
0.2416525696711335
 10
57.762500000008
 20
41.90602631563933
 42
0.0
 10
57.762500000008
 20
43.55749999999943
 42
0.0
 10
54.79250000002139
 20
43.29765866932802
 42
0.0
 10
54.79250000002139
 20
26.2201586693277
 42
0.0
 10
57.762500000008
 20
26.47999999999911
 42
0.0
 10
57.762500000008
 20
31.84397368436066
 42
0.2416525696711312
 10
60.97999999999956
 20
30.19250000000056
 42
1.0
 97
        0
 92
       20
 93
        1
 72
     3
 10
61.22750000000451
 20
36.87500000000227
 11
0.0
 21
3.96
 40
0.8432858722721599
 50
0.0
 51
360.0
 73
     1
 97
        0
 75
     0
 76
     1
 47
0.0533697688817678
 98
        2
 10
64.74719986856143
 20
40.93459800071514
 10
64.74719986856143
 20
40.93459800071514
450
        0
451
        0
460
0.0
461
0.0
452
        0
462
0.0
453
        0
470

1001
ACAD
1010
0.0
1020
0.0
1030
0.0
  0
HATCH
  5
273
330
70
100
AcDbEntity
  8
title
 62
     8
100
AcDbHatch
 10
0.0
 20
0.0
 30
0.0
210
0.0
220
0.0
230
1.0
  2
SOLID
 70
     1
 71
     0
 91
        1
 92
        7
 72
     1
 73
     1
 93
        8
 10
38.45750000002226
 20
41.08249999999998
 42
0.4142135623730951
 10
35.98250000000917
 20
43.55749999999943
 42
0.0
 10
27.56750000002285
 20
43.55749999999943
 42
0.4142135623730951
 10
25.09250000000975
 20
41.08249999999998
 42
0.0
 10
25.09250000000975
 20
32.66750000000002
 42
0.4142135623730974
 10
27.56750000002285
 20
30.19250000000056
 42
0.0
 10
35.98250000000917
 20
30.19250000000056
 42
0.4142135623730926
 10
38.45750000002226
 20
32.66750000000002
 42
0.0
 97
        0
 75
     0
 76
     1
 47
0.1082592480357776
 98
        1
 10
33.0807487396487
 20
36.14548507904828
450
        0
451
        0
460
0.0
461
0.0
452
        0
462
0.0
453
        0
470

1001
ACAD
1010
0.0
1020
0.0
1030
0.0
  0
HATCH
  5
274
330
70
100
AcDbEntity
  8
title
100
AcDbHatch
 10
0.0
 20
0.0
 30
0.0
210
0.0
220
0.0
230
1.0
  2
SOLID
 70
     1
 71
     0
 91
        1
 92
        7
 72
     1
 73
     1
 93
        2
 10
21.87500000001819
 20
30.19250000000056
 42
0.0
 10
21.87500000001819
 20
43.55749999999943
 42
1.0
 97
        0
 75
     0
 76
     1
 47
0.0533697688817678
 98
        1
 10
18.23113759392072
 20
38.68906504669439
450
        0
451
        0
460
0.0
461
0.0
452
        0
462
0.0
453
        0
470

1001
ACAD
1010
0.0
1020
0.0
1030
0.0
  0
HATCH
  5
275
330
70
100
AcDbEntity
  8
title
100
AcDbHatch
 10
0.0
 20
0.0
 30
0.0
210
0.0
220
0.0
230
1.0
  2
SOLID
 70
     1
 71
     0
 91
        1
 92
        7
 72
     1
 73
     1
 93
       20
 10
48.28550463987994
 20
33.29804242456021
 42
-0.3012846663385126
 10
45.19924427075238
 20
33.47051775848513
 42
0.0
 10
43.93740651759799
 20
34.41216414143355
 42
0.0
 10
41.95422748516648
 20
32.74807934674982
 42
0.0
 10
43.11341381902821
 20
31.67017761265242
 42
0.4458507091054388
 10
51.29271926603905
 20
32.40597478463087
 42
0.3326569577304132
 10
51.29271926603905
 20
35.89902521537397
 42
0.1735965709070794
 10
48.18992070477179
 20
37.95299234321419
 42
0.0
 10
46.20481193118394
 20
38.44084081185656
 42
-0.0722414400542119
 10
45.45949536013722
 20
38.74304242455992
 42
-0.5734605933816534
 10
45.45949536013722
 20
40.45195757543979
 42
-0.301284666338504
 10
48.54575572930116
 20
40.27948224151487
 42
0.0
 10
49.80759348241917
 20
39.337835858571
 42
0.0
 10
51.79077251488706
 20
41.00192065325472
 42
0.0
 10
50.63158618098896
 20
42.07982238734757
 42
0.4458507091054385
 10
42.45228073397811
 20
41.34402521537367
 42
0.3326569577304224
 10
42.45228073397811
 20
37.85097478463058
 42
0.1735965709070752
 10
45.55507929524537
 20
35.79700765679036
 42
0.0
 10
47.54018806886961
 20
35.30915918814799
 42
-0.0722414400542143
 10
48.28550463987994
 20
35.00695757544008
 42
-0.5734605933816371
 97
        0
 75
     0
 76
     1
 47
0.0533697688817678
 98
        1
 10
50.21092924967888
 20
34.19799913865745
450
        0
451
        0
460
0.0
461
0.0
452
        0
462
0.0
453
        0
470

1001
ACAD
1010
0.0
1020
0.0
1030
0.0
  0
HATCH
  5
276
330
70
100
AcDbEntity
  8
title
100
AcDbHatch
 10
0.0
 20
0.0
 30
0.0
210
0.0
220
0.0
230
1.0
  2
SOLID
 70
     1
 71
     0
 91
        1
 92
        7
 72
     1
 73
     1
 93
        4
 10
96.58241142175029
 20
31.86079192882744
 42
0.0
 10
95.00429956149673
 20
34.11456923647847
 42
-2.463129903974627
 10
95.00429956149673
 20
39.63543076352152
 42
0.0
 10
96.58241142175029
 20
41.8892080711771
 42
2.213691826143602
 97
        0
 75
     0
 76
     1
 47
0.0407585876075802
 98
        1
 10
90.32633423912557
 20
31.16384116150357
450
        0
451
        0
460
0.0
461
0.0
452
        0
462
0.0
453
        0
470

1001
ACAD
1010
0.0
1020
0.0
1030
0.0
  0
HATCH
  5
277
330
70
100
AcDbEntity
  8
title
100
AcDbHatch
 10
0.0
 20
0.0
 30
0.0
210
0.0
220
0.0
230
1.0
  2
SOLID
 70
     1
 71
     0
 91
        2
 92
        7
 72
     1
 73
     1
 93
        6
 10
83.10922779490283
 20
39.73040391228778
 42
1.817188575814173
 10
77.06750000003012
 20
30.19250000000056
 42
0.1736979194000531
 10
82.41050150621958
 20
32.10638010379853
 42
0.0
 10
81.20305546499366
 20
34.695756495355
 42
-0.2061487455951641
 10
77.06750000003012
 20
32.91500000000042
 42
-0.2063556810793467
 10
74.18843220531925
 20
34.15607215368936
 42
0.0
 97
        0
 92
       22
 72
     1
 73
     1
 93
        2
 10
73.13421548466067
 20
36.41579098300781
 42
-0.6328959439340069
 10
79.20447277412677
 20
40.20890872140853
 42
0.0
 97
        0
 75
     0
 76
     1
 47
0.0407585876075802
 98
        2
 10
75.28901759951622
 20
36.61122621678942
 10
75.28901759951622
 20
36.61122621678942
450
        0
451
        0
460
0.0
461
0.0
452
        0
462
0.0
453
        0
470

1001
ACAD
1010
0.0
1020
0.0
1030
0.0
  0
HATCH
  5
278
330
70
100
AcDbEntity
  8
title
100
AcDbHatch
 10
0.0
 20
0.0
 30
0.0
210
0.0
220
0.0
230
1.0
  2
SOLID
 70
     1
 71
     0
 91
        1
 92
        7
 72
     1
 73
     1
 93
       16
 10
104.5400000000336
 20
40.33999999999878
 42
0.0
 10
107.2625000000153
 20
40.33999999999878
 42
0.0
 10
107.2625000000153
 20
43.06249999999863
 42
0.0
 10
104.5400000000336
 20
43.06249999999863
 42
0.0
 10
104.5400000000336
 20
46.52749999999969
 42
0.0
 10
101.3225000000056
 20
45.35642577124917
 42
0.0
 10
101.3225000000056
 20
43.06249999999863
 42
0.0
 10
99.82255020500815
 20
43.06249999999863
 42
0.0
 10
99.34250000000247
 20
40.33999999999878
 42
0.0
 10
101.3225000000056
 20
40.33999999999878
 42
0.0
 10
101.3225000000056
 20
34.15250000000242
 42
0.4142135623731022
 10
105.282500000012
 20
30.19250000000056
 42
0.0
 10
107.275508323637
 20
30.19250000000056
 42
0.0
 10
108.0050000000301
 20
32.91500000000042
 42
0.0
 10
106.5200000000004
 20
32.91500000000042
 42
-0.4142135623730937
 10
104.5400000000336
 20
34.89499999999907
 42
0.0
 97
        0
 75
     0
 76
     1
 47
0.0407585876075802
 98
        1
 10
103.547062800153
 20
35.50157469610212
450
        0
451
        0
460
0.0
461
0.0
452
        0
462
0.0
453
        0
470

1001
ACAD
1010
0.0
1020
0.0
1030
0.0
  0
HATCH
  5
279
330
70
100
AcDbEntity
  8
title
100
AcDbHatch
 10
0.0
 20
0.0
 30
0.0
210
0.0
220
0.0
230
1.0
  2
SOLID
 70
     1
 71
     0
 91
        1
 92
        7
 72
     1
 73
     1
 93
       15
 10
135.4775000000336
 20
30.19250000000056
 42
0.0
 10
138.4475000000202
 20
30.45234133067197
 42
0.0
 10
138.4475000000202
 20
38.60750000000053
 42
-1.0
 10
142.4075000000266
 20
38.60750000000053
 42
0.0
 10
142.4075000000266
 20
30.19250000000056
 42
0.0
 10
145.3775000000132
 20
30.45234133067197
 42
0.0
 10
145.3775000000132
 20
38.60750000000053
 42
-1.0
 10
149.3375000000196
 20
38.60750000000053
 42
0.0
 10
149.3375000000196
 20
30.19250000000056
 42
0.0
 10
152.3075000000062
 20
30.45234133067197
 42
0.0
 10
152.3075000000062
 20
39.59750000000213
 42
0.7745966692414762
 10
144.8825000000033
 20
41.51462675637276
 42
0.5185464877096924
 10
138.4475000000202
 20
42.21679379795432
 42
0.0
 10
138.4475000000202
 20
43.55749999999943
 42
0.0
 10
135.4775000000336
 20
43.29765866932802
 42
0.0
 97
        0
 75
     0
 76
     1
 47
0.0407585876075802
 98
        1
 10
136.8511876814409
 20
33.98841135878001
450
        0
451
        0
460
0.0
461
0.0
452
        0
462
0.0
453
        0
470

1001
ACAD
1010
0.0
1020
0.0
1030
0.0
  0
HATCH
  5
27A
330
70
100
AcDbEntity
  8
title
100
AcDbHatch
 10
0.0
 20
0.0
 30
0.0
210
0.0
220
0.0
230
1.0
  2
SOLID
 70
     1
 71
     0
 91
        1
 92
        7
 72
     1
 73
     1
 93
        8
 10
114.1925000000083
 20
41.57750000000078
 42
0.0
 10
114.1925000000083
 20
43.30999999999903
 42
0.0
 10
111.2225000000217
 20
43.05015866932762
 42
0.0
 10
111.2225000000217
 20
30.19250000000056
 42
0.0
 10
114.1925000000083
 20
30.45234133067197
 42
0.0
 10
114.1925000000083
 20
36.38000000000147
 42
-0.4091883002397951
 10
118.0844398612498
 20
40.33941508527504
 42
0.0
 10
118.6475000000246
 20
43.53268781367887
 42
0.2626681772803663
 97
        0
 75
     0
 76
     1
 47
0.0407585876075802
 98
        1
 10
111.3180254409053
 20
36.10683957578885
450
        0
451
        0
460
0.0
461
0.0
452
        0
462
0.0
453
        0
470

1001
ACAD
1010
0.0
1020
0.0
1030
0.0
  0
HATCH
  5
27B
330
70
100
AcDbEntity
  8
title
100
AcDbHatch
 10
0.0
 20
0.0
 30
0.0
210
0.0
220
0.0
230
1.0
  2
SOLID
 70
     1
 71
     0
 91
        1
 92
        7
 72
     1
 73
     1
 93
       11
 10
120.8750000000327
 20
34.15250000000242
 42
0.4142135623730939
 10
124.8350000000027
 20
30.19250000000056
 42
0.1844830881382527
 10
128.7950000000091
 20
31.7050854045533
 42
0.0
 10
128.7950000000091
 20
30.19250000000056
 42
0.0
 10
131.7650000000321
 20
30.45234133067197
 42
0.0
 10
131.7650000000321
 20
43.55749999999943
 42
0.0
 10
128.7950000000091
 20
43.29765866932802
 42
0.0
 10
128.7950000000091
 20
35.38999999999987
 42
-1.0
 10
123.8450000000193
 20
35.38999999999987
 42
0.0
 10
123.8450000000193
 20
43.55749999999943
 42
0.0
 10
120.8750000000327
 20
43.29765866932802
 42
0.0
 97
        0
 75
     0
 76
     1
 47
0.0407585876075802
 98
        1
 10
121.8138710417952
 20
35.29981935683509
450
        0
451
        0
460
0.0
461
0.0
452
        0
462
0.0
453
        0
470

1001
ACAD
1010
0.0
1020
0.0
1030
0.0
  0
LWPOLYLINE
  5
27C
330
70
100
AcDbEntity
  8
title
100
AcDbPolyline
 90
        8
 70
     1
 43
0.0
 10
60.97999999999956
 20
30.19250000000056
 42
-0.2416525696711377
 10
57.762500000008
 20
31.84397368436066
 10
57.762500000008
 20
26.47999999999911
 10
54.79250000002139
 20
26.2201586693277
 10
54.79250000002139
 20
43.29765866932802
 10
57.762500000008
 20
43.55749999999943
 10
57.762500000008
 20
41.90602631563933
 42
-0.2416525696711376
 10
60.97999999999956
 20
43.55749999999943
 42
-0.9999999999999998
  0
LWPOLYLINE
  5
27D
330
70
100
AcDbEntity
  8
title
 62
     8
100
AcDbPolyline
 90
        8
 70
     1
 43
0.0
 10
35.98250000000917
 20
43.55749999999943
 42
-0.4142135623730951
 10
38.45750000002226
 20
41.08249999999998
 10
38.45750000002226
 20
32.66750000000002
 42
-0.4142135623730951
 10
35.98250000000917
 20
30.19250000000056
 10
27.56750000002285
 20
30.19250000000056
 42
-0.4142135623730951
 10
25.09250000000975
 20
32.66750000000002
 10
25.09250000000975
 20
41.08249999999998
 42
-0.4142135623730951
 10
27.56750000002285
 20
43.55749999999943
  0
LWPOLYLINE
  5
27E
330
70
100
AcDbEntity
  8
title
100
AcDbPolyline
 90
        2
 70
     1
 43
0.0
 10
21.87500000001819
 20
43.55749999999943
 42
0.9999999999999998
 10
21.87500000001819
 20
30.19250000000056
  0
LWPOLYLINE
  5
27F
330
70
100
AcDbEntity
  8
title
100
AcDbPolyline
 90
       20
 70
     1
 43
0.0
 10
51.29271926603905
 20
32.40597478463087
 42
0.3326569577304226
 10
51.29271926603905
 20
35.89902521537397
 42
0.1735965709070816
 10
48.18992070477179
 20
37.95299234321419
 10
46.20481193118394
 20
38.44084081185656
 42
-0.0722414400542184
 10
45.45949536013722
 20
38.74304242455992
 42
-0.5734605933816416
 10
45.45949536013722
 20
40.45195757543979
 42
-0.3012846663385096
 10
48.54575572930116
 20
40.27948224151487
 10
49.80759348241917
 20
39.337835858571
 10
51.79077251488706
 20
41.00192065325472
 10
50.63158618098896
 20
42.07982238734757
 42
0.4458507091054321
 10
42.45228073397811
 20
41.34402521537367
 42
0.3326569577304224
 10
42.45228073397811
 20
37.85097478463058
 42
0.1735965709070817
 10
45.55507929524537
 20
35.79700765679036
 10
47.54018806886961
 20
35.30915918814799
 42
-0.0722414400542175
 10
48.28550463987994
 20
35.00695757544008
 42
-0.5734605933816429
 10
48.28550463987994
 20
33.29804242456021
 42
-0.3012846663385095
 10
45.19924427075238
 20
33.47051775848513
 10
43.93740651759799
 20
34.41216414143355
 10
41.95422748516648
 20
32.74807934674982
 10
43.11341381902821
 20
31.67017761265242
 42
0.4458507091054351
  0
LWPOLYLINE
  5
280
330
70
100
AcDbEntity
  8
title
100
AcDbPolyline
 90
        4
 70
     1
 43
0.0
 10
95.00429956149673
 20
39.63543076352152
 10
96.58241142175029
 20
41.8892080711771
 42
2.213691826143604
 10
96.58241142175029
 20
31.86079192882744
 10
95.00429956149673
 20
34.11456923647847
 42
-2.463129903974627
  0
LWPOLYLINE
  5
281
330
70
100
AcDbEntity
  8
title
100
AcDbPolyline
 90
        6
 70
     1
 43
0.0
 10
77.06750000003012
 20
32.91500000000042
 42
-0.2063556810793417
 10
74.18843220531925
 20
34.15607215368936
 10
83.10922779490283
 20
39.73040391228778
 42
1.817188575814202
 10
77.06750000003012
 20
30.19250000000056
 42
0.1736979194000479
 10
82.41050150621958
 20
32.10638010379853
 10
81.20305546499366
 20
34.695756495355
 42
-0.2061487455951671
  0
LWPOLYLINE
  5
282
330
70
100
AcDbEntity
  8
title
100
AcDbPolyline
 90
       16
 70
     1
 43
0.0
 10
104.5400000000336
 20
43.06249999999863
 10
104.5400000000336
 20
46.52749999999969
 10
101.3225000000056
 20
45.35642577124917
 10
101.3225000000056
 20
43.06249999999863
 10
99.82255020500815
 20
43.06249999999863
 10
99.34250000000247
 20
40.33999999999878
 10
101.3225000000056
 20
40.33999999999878
 10
101.3225000000056
 20
34.15250000000242
 42
0.4142135623730951
 10
105.282500000012
 20
30.19250000000056
 10
107.275508323637
 20
30.19250000000056
 10
108.0050000000301
 20
32.91500000000042
 10
106.5200000000004
 20
32.91500000000042
 42
-0.4142135623730951
 10
104.5400000000336
 20
34.89499999999907
 10
104.5400000000336
 20
40.33999999999878
 10
107.2625000000153
 20
40.33999999999878
 10
107.2625000000153
 20
43.06249999999863
  0
ELLIPSE
  5
283
330
70
100
AcDbEntity
  8
title
100
AcDbEllipse
 10
61.22750000000451
 20
36.87500000000227
 30
0.0
 11
0.0
 21
3.959999999999999
 31
0.0
210
0.0
220
0.0
230
1.0
 40
0.8432858722721602
 41
0.0
 42
6.283185307179586
  0
LWPOLYLINE
  5
284
330
70
100
AcDbEntity
  8
title
100
AcDbPolyline
 90
        2
 70
     1
 43
0.0
 10
73.13421548466067
 20
36.41579098300781
 10
79.20447277412677
 20
40.20890872140853
 42
0.632895943934007
  0
LWPOLYLINE
  5
285
330
70
100
AcDbEntity
  8
title
100
AcDbPolyline
 90
        9
 70
     0
 43
0.0
 10
118.6518750579307
 20
43.55749999999943
 10
118.0844398612498
 20
40.33941508527504
 42
0.4091883002397918
 10
114.1925000000083
 20
36.38000000000147
 10
114.1925000000083
 20
30.45234133067197
 10
111.2225000000217
 20
30.19250000000056
 10
111.2225000000217
 20
43.05015866932762
 10
114.1925000000083
 20
43.30999999999903
 10
114.1925000000083
 20
41.57750000000078
 42
-0.262668177280371
 10
118.6475000000246
 20
43.53268781367887
  0
LWPOLYLINE
  5
286
330
70
100
AcDbEntity
  8
title
100
AcDbPolyline
 90
       11
 70
     1
 43
0.0
 10
128.7950000000091
 20
35.38999999999987
 42
-0.9999999999999998
 10
123.8450000000193
 20
35.38999999999987
 10
123.8450000000193
 20
43.55749999999943
 10
120.8750000000327
 20
43.29765866932802
 10
120.8750000000327
 20
34.15250000000242
 42
0.4142135623730951
 10
124.8350000000027
 20
30.19250000000056
 42
0.184483088138253
 10
128.7950000000091
 20
31.7050854045533
 10
128.7950000000091
 20
30.19250000000056
 10
131.7650000000321
 20
30.45234133067197
 10
131.7650000000321
 20
43.55749999999943
 10
128.7950000000091
 20
43.29765866932802
  0
LINE
  5
287
330
70
100
AcDbEntity
  8
title
100
AcDbLine
 10
145.3775000000132
 20
38.60750000000053
 30
0.0
 11
145.3775000000132
 21
30.45234133067197
 31
0.0
  0
LINE
  5
288
330
70
100
AcDbEntity
  8
title
100
AcDbLine
 10
145.3775000000132
 20
30.45234133067197
 30
0.0
 11
142.4075000000266
 21
30.19250000000056
 31
0.0
  0
LINE
  5
289
330
70
100
AcDbEntity
  8
title
100
AcDbLine
 10
142.4075000000266
 20
30.19250000000056
 30
0.0
 11
142.4075000000266
 21
38.60750000000053
 31
0.0
  0
LINE
  5
28A
330
70
100
AcDbEntity
  8
title
100
AcDbLine
 10
138.4475000000202
 20
38.60750000000053
 30
0.0
 11
138.4475000000202
 21
30.45234133067197
 31
0.0
  0
LINE
  5
28B
330
70
100
AcDbEntity
  8
title
100
AcDbLine
 10
138.4475000000202
 20
30.45234133067197
 30
0.0
 11
135.4775000000336
 21
30.19250000000056
 31
0.0
  0
LINE
  5
28C
330
70
100
AcDbEntity
  8
title
100
AcDbLine
 10
135.4775000000336
 20
30.19250000000056
 30
0.0
 11
135.4775000000336
 21
43.29765866932802
 31
0.0
  0
LINE
  5
28D
330
70
100
AcDbEntity
  8
title
100
AcDbLine
 10
152.3075000000062
 20
30.45234133067197
 30
0.0
 11
149.3375000000196
 21
30.19250000000056
 31
0.0
  0
LINE
  5
28E
330
70
100
AcDbEntity
  8
title
100
AcDbLine
 10
149.3375000000196
 20
30.19250000000056
 30
0.0
 11
149.3375000000196
 21
38.60750000000053
 31
0.0
  0
MTEXT
  5
297
330
70
100
AcDbEntity
  8
0
 62
     0
100
AcDbMText
 10
488.75
 20
43.11741632864141
 30
0.0
 40
12.5
 41
86.67687813060837
 46
0.0
 71
     6
 72
     5
  1
{\fArial|b0|i0|c0|p34;BL.3.2.3}
  7
Arial Narrow
 73
     1
 44
1.0
  0
MTEXT
  5
298
102
{ACAD_XDICTIONARY
360
415
102
}
330
70
100
AcDbEntity
  8
shade 8
 62
     0
100
AcDbMText
 10
488.8950246173772
 20
24.87317632813756
 30
0.0
 40
5.0
 41
52.69350930182412
 46
14.21040088620387
 71
     6
 72
     5
  1
Rev:A 28.3.19
  7
Arial Narrow
 73
     1
 44
0.8333333333333335
1001
ACAD
1000
ACAD_MTEXT_DEFINED_HEIGHT_BEGIN
1070
    46
1040
35.50427969761552
1000
ACAD_MTEXT_DEFINED_HEIGHT_END
  0
MTEXT
  5
299
330
70
100
AcDbEntity
  8
0
100
AcDbMText
 10
250.0
 20
36.875
 30
0.0
 40
6.875
 41
157.5
 46
0.0
 71
     5
 72
     5
  1
0800 355 366\Pinfo@spectrum.co.nz\Pwww.spectrum.co.nz
  7
Calibri
 73
     1
 44
1.0
1001
ACAD
1000
ACAD_MTEXT_COLUMN_INFO_BEGIN
1070
    75
1070
     2
1070
    79
1070
     0
1070
    76
1070
     1
1070
    78
1070
     0
1070
    48
1040
157.5
1070
    49
1040
93.75
1070
    50
1070
     1
1040
43.75000000000183
1000
ACAD_MTEXT_COLUMN_INFO_END
  0
CIRCLE
  5
29A
330
70
100
AcDbEntity
  8
Handrail
  6
HIDDEN
370
     0
100
AcDbCircle
 10
130.5156613956569
 20
544.1615587187206
 30
0.0
 40
24.0
  0
ARC
  5
29B
330
70
100
AcDbEntity
  8
Handrail
  6
HIDDEN
370
     0
100
AcDbCircle
 10
130.5156613956569
 20
544.1615587187206
 30
0.0
 40
27.0
100
AcDbArc
 50
240.0000000000027
 51
299.9999999999973
  0
CIRCLE
  5
29C
330
70
100
AcDbEntity
  8
Handrail
  6
HIDDEN
370
     0
100
AcDbCircle
 10
130.5156613956569
 20
544.1615587187206
 30
0.0
 40
21.0
  0
LWPOLYLINE
  5
29D
330
70
100
AcDbEntity
  8
Handrail
  6
HIDDEN
370
     0
100
AcDbPolyline
 90
        5
 70
     0
 43
0.0
 10
217.5156613956569
 20
495.1615587187206
 10
222.5156613956569
 20
495.1615587187206
 10
222.5156613956569
 20
445.1615587187206
 10
217.5156613956569
 20
445.1615587187206
 10
217.5156613956569
 20
495.1615587187206
  0
LWPOLYLINE
  5
29E
330
70
100
AcDbEntity
  8
Handrail
  6
HIDDEN
370
     0
100
AcDbPolyline
 90
        5
 70
     0
 43
0.0
 10
200.5156613956569
 20
495.1615587187206
 10
205.5156613956569
 20
495.1615587187206
 10
205.5156613956569
 20
445.1615587187206
 10
200.5156613956569
 20
445.1615587187206
 10
200.5156613956569
 20
495.1615587187206
  0
LINE
  5
29F
330
70
100
AcDbEntity
  8
Handrail
  6
HIDDEN
370
     0
100
AcDbLine
 10
200.5156613956569
 20
477.1615587187207
 30
0.0
 11
148.5156613956569
 21
477.1615587187207
 31
0.0
  0
LINE
  5
2A0
330
70
100
AcDbEntity
  8
Handrail
  6
HIDDEN
370
     0
100
AcDbLine
 10
200.5156613956569
 20
463.1615587187207
 30
0.0
 11
148.5156613956569
 21
463.1615587187207
 31
0.0
  0
LINE
  5
2A1
330
70
100
AcDbEntity
  8
Handrail
100
AcDbLine
 10
137.5156613956569
 20
488.1615587187207
 30
0.0
 11
137.5156613956569
 21
518.0847490979103
 31
0.0
  0
ARC
  5
2A2
330
70
100
AcDbEntity
  8
Handrail
  6
HIDDEN
370
     0
100
AcDbCircle
 10
148.5156613956569
 20
488.1615587187207
 30
0.0
 40
11.0
100
AcDbArc
 50
180.0
 51
270.0
  0
ARC
  5
2A3
330
70
100
AcDbEntity
  8
Handrail
  6
HIDDEN
370
     0
100
AcDbCircle
 10
148.5156613956569
 20
488.1615587187207
 30
0.0
 40
25.0
100
AcDbArc
 50
180.0
 51
270.0
  0
LINE
  5
2A4
330
70
100
AcDbEntity
  8
Handrail
100
AcDbLine
 10
123.5156613956569
 20
488.1615587187207
 30
0.0
 11
123.5156613956569
 21
518.0847490979103
 31
0.0
  0
LINE
  5
2A5
330
70
100
AcDbEntity
  8
Handrail
  6
HIDDEN
370
     0
100
AcDbLine
 10
118.5156613956569
 20
523.3769490278941
 30
0.0
 11
117.0156613956569
 21
520.7788728165406
 31
0.0
  0
LINE
  5
2A6
330
70
100
AcDbEntity
  8
Handrail
  6
HIDDEN
370
     0
100
AcDbLine
 10
142.5156613956569
 20
523.3769490278941
 30
0.0
 11
144.0156613956569
 21
520.7788728165406
 31
0.0
  0
MTEXT
  5
2A9
102
{ACAD_XDICTIONARY
360
417
102
}
330
70
100
AcDbEntity
  8
dim
100
AcDbMText
 10
-0.1190699524431693
 20
104.6143474094724
 30
0.0
 40
5.625
 41
504.1995868681079
 46
99.4595306991755
 71
     1
 72
     5
  3
\pi-16.875,l28.125,t28.125;-^IApplicable to occupancy types A, B, C3 & E.\P-^ISuitable for up to extra-high wind zone (55m/2)\P-^IThis is a balustrade connection detail. Deck design, construction and  water-proofing is the responsibility of others. For 
  1
all other applications or non-standard or site specific connections not covered under the standard detail manual please contact Spectrum.
  7
Calibri
 73
     1
 44
0.9333333333333333
1001
ACAD
1000
ACAD_MTEXT_DEFINED_HEIGHT_BEGIN
1070
    46
1040
75.2852101506287
1000
ACAD_MTEXT_DEFINED_HEIGHT_END
  0
MTEXT
  5
2AA
330
70
100
AcDbEntity
  8
0
100
AcDbMText
 10
10.36291873982918
 20
95.56948034709694
 30
0.0
 40
5.625
 41
412.0556194380332
 46
107.0049733190899
 71
     1
 72
     5
  1
{\fArial|b0|i0|c0|p34;■}
  7
Arial Narrow
 73
     1
 44
0.9333333333333333
1001
ACAD
1000
ACAD_MTEXT_DEFINED_HEIGHT_BEGIN
1070
    46
1040
85.60397865527193
1000
ACAD_MTEXT_DEFINED_HEIGHT_END
  0
MTEXT
  5
2AB
330
70
100
AcDbEntity
  8
0
100
AcDbMText
 10
10.36291873982918
 20
86.37620844871253
 30
0.0
 40
5.625
 41
412.0556194380332
 46
107.0049733190899
 71
     1
 72
     5
  1
{\fArial|b0|i0|c0|p34;■}
  7
Arial Narrow
 73
     1
 44
0.9333333333333333
1001
ACAD
1000
ACAD_MTEXT_DEFINED_HEIGHT_BEGIN
1070
    46
1040
85.60397865527193
1000
ACAD_MTEXT_DEFINED_HEIGHT_END
  0
MTEXT
  5
2AC
330
70
100
AcDbEntity
  8
0
100
AcDbMText
 10
10.36291873982918
 20
104.8941095200125
 30
0.0
 40
5.625
 41
412.0556194380332
 46
107.0049733190899
 71
     1
 72
     5
  1
{\fArial|b0|i0|c0|p34;■}
  7
Arial Narrow
 73
     1
 44
0.9333333333333333
1001
ACAD
1000
ACAD_MTEXT_DEFINED_HEIGHT_BEGIN
1070
    46
1040
85.60397865527193
1000
ACAD_MTEXT_DEFINED_HEIGHT_END
  0
LINE
  5
2AD
330
70
100
AcDbEntity
  8
Object
100
AcDbLine
 10
459.3905503994737
 20
428.3424954887832
 30
0.0
 11
281.2927666625746
 21
428.3424954887832
 31
0.0
  0
LINE
  5
2AE
330
70
100
AcDbEntity
  8
Object
100
AcDbLine
 10
459.3905503994737
 20
397.7174954887832
 30
0.0
 11
281.2927666625601
 21
397.7174954887832
 31
0.0
  0
CIRCLE
  5
2AF
330
70
100
AcDbEntity
  8
Object
100
AcDbCircle
 10
418.7927666625601
 20
413.0299954887832
 30
0.0
 40
2.75
  0
CIRCLE
  5
2B0
330
70
100
AcDbEntity
  8
Object
100
AcDbCircle
 10
418.7927666625601
 20
413.0299954887832
 30
0.0
 40
1.375
  0
LINE
  5
2B1
330
70
100
AcDbEntity
  8
ctrl
 48
0.1
100
AcDbLine
 10
421.3259239321177
 20
413.0299954887832
 30
0.0
 11
416.2596093930024
 21
413.0299954887832
 31
0.0
  0
LINE
  5
2B2
330
70
100
AcDbEntity
  8
ctrl
 48
0.1
100
AcDbLine
 10
418.7927666625601
 20
415.5631527583473
 30
0.0
 11
418.7927666625601
 21
410.4968382192209
 31
0.0
  0
CIRCLE
  5
2B3
330
70
100
AcDbEntity
  8
Object
100
AcDbCircle
 10
306.2927666625601
 20
413.0299954887832
 30
0.0
 40
2.75
  0
CIRCLE
  5
2B4
330
70
100
AcDbEntity
  8
Object
100
AcDbCircle
 10
306.2927666625601
 20
413.0299954887832
 30
0.0
 40
1.375
  0
LINE
  5
2B5
330
70
100
AcDbEntity
  8
ctrl
 48
0.1
100
AcDbLine
 10
308.8259239321178
 20
413.0299954887832
 30
0.0
 11
303.7596093930024
 21
413.0299954887832
 31
0.0
  0
LINE
  5
2B6
330
70
100
AcDbEntity
  8
ctrl
 48
0.1
100
AcDbLine
 10
306.2927666625601
 20
415.5631527583473
 30
0.0
 11
306.2927666625601
 21
410.4968382192209
 31
0.0
  0
LINE
  5
2B7
330
70
100
AcDbEntity
  8
Object
100
AcDbLine
 10
281.2927666625601
 20
397.7174954887832
 30
0.0
 11
281.2927666625746
 21
428.3424954887832
 31
0.0
  0
DIMENSION
  5
2B8
330
70
100
AcDbEntity
  8
dim
100
AcDbDimension
280
     0
  2
*D1
 10
418.7927666625601
 20
368.6586157796392
 30
0.0
 11
362.5427666625601
 21
368.6586157796392
 31
0.0
 70
   160
  1
450 ctrs max
 71
     5
 42
112.5
 73
     0
 74
     0
 75
     0
  3
Spectrum 2.5
100
AcDbAlignedDimension
 13
306.2927666625601
 23
410.4968382192209
 33
0.0
 14
418.7927666625601
 24
410.4968382192209
 34
0.0
100
AcDbRotatedDimension
  0
DIMENSION
  5
2B9
330
70
100
AcDbEntity
  8
dim
100
AcDbDimension
280
     0
  2
*D2
 10
306.2927666625601
 20
449.315289004935
 30
0.0
 11
331.1406032010218
 21
449.315289004935
 31
0.0
 70
   160
  1
100 max 
 71
     5
 42
24.99999999998545
 73
     0
 74
     0
 75
     0
  3
Spectrum 2.5
100
AcDbAlignedDimension
 13
281.2927666625746
 23
428.3424954887832
 33
0.0
 14
306.2927666625601
 24
415.5631527583473
 34
0.0
100
AcDbRotatedDimension
  0
SOLID
  5
2BA
330
70
100
AcDbEntity
  8
dim
100
AcDbTrace
 10
214.7526952568078
 20
174.6437725441051
 30
0.0
 11
216.0026952568078
 21
182.1437725441051
 31
0.0
 12
217.2526952568078
 22
174.6437725441051
 32
0.0
 13
217.2526952568078
 23
174.6437725441051
 33
0.0
1001
ACAD
1000
DSTYLE
1002
{
1070
    40
1040
1.0
1070
    41
1040
6.0
1070
    50
1040
1.570796326794896
1070
    77
1070
     0
1002
}
  0
LWPOLYLINE
  5
2BB
330
70
100
AcDbEntity
  8
dim
100
AcDbPolyline
 90
        3
 70
     0
 43
0.0
 10
216.0026952568078
 20
174.6437725441051
 10
216.0026952568078
 20
133.2640797181229
 10
276.8668561459308
 20
133.2640797181229
1001
ACAD
1000
DSTYLE
1002
{
1070
    40
1040
1.0
1070
    41
1040
6.0
1070
    50
1040
1.570796326794896
1070
    77
1070
     0
1002
}
  0
LEADER
  5
2BC
330
70
100
AcDbEntity
  8
dim
100
AcDbLeader
  3
Spectrum 2
 76
     2
 10
215.5587388352397
 20
309.3743379820621
 30
0.0
 10
277.8264031105901
 20
309.3743379820621
 30
0.0
211
1.0
221
-0.0000000000000002
231
0.0
213
-0.0000000000000038
223
-15.625
233
0.0
1001
ACAD
1000
DSTYLE
1002
{
1070
    40
1040
1.0
1070
    41
1040
7.5
1070
    50
1040
1.570796326794896
1070
    77
1070
     0
1002
}
  0
MTEXT
  5
2BD
330
70
100
AcDbEntity
  8
dim
100
AcDbMText
 10
280.0237755651469
 20
273.3449821169334
 30
0.0
 40
5.625
 41
97.69252946959888
 46
0.0
 71
     4
 72
     5
  1
M10 316 S/S grub screws to clamp glass @ 300 ctrs
  7
Calibri
 73
     1
 44
0.9333333333333333
  0
MTEXT
  5
2BE
330
70
100
AcDbEntity
  8
dim
100
AcDbMText
 10
280.0237755651469
 20
132.5304043861338
 30
0.0
 40
5.625
 41
121.9725901243014
 46
0.0
 71
     4
 72
     5
  1
4mm plastic setting block, 25mm long @ approx 600mm ctrs
  7
Calibri
 73
     1
 44
0.9333333333333333
  0
MTEXT
  5
2BF
330
70
100
AcDbEntity
  8
dim
100
AcDbMText
 10
279.3987755651469
 20
154.7906243415145
 30
0.0
 40
5.625
 41
162.8478581262952
 46
11.59144602505876
 71
     4
 72
     5
  1
Cover cap (drill to suit drainage as required)
  7
Calibri
 73
     1
 44
0.9333333333333333
  0
MTEXT
  5
2C0
330
70
100
AcDbEntity
  8
dim
100
AcDbMText
 10
279.0642286004877
 20
173.7658154471601
 30
0.0
 40
5.625
 41
165.5268996366194
 46
11.97192965378736
 71
     4
 72
     5
  1
Channel (drilled to suit drainage as required)
  7
Calibri
 73
     1
 44
0.9333333333333333
  0
MTEXT
  5
2C1
330
70
100
AcDbEntity
  8
dim
100
AcDbMText
 10
279.4104999687042
 20
246.5966099959833
 30
0.0
 40
5.625
 41
173.4400549060046
 46
0.0
 71
     4
 72
     5
  1
Acrylic packers between glass and grub screws/channel at each fixing location
  7
Calibri
 73
     1
 44
0.9333333333333333
  0
LEADER
  5
2C2
330
70
100
AcDbEntity
  8
dim
100
AcDbLeader
  3
Spectrum 2
 76
     2
 10
218.8129761318978
 20
246.093317288286
 30
0.0
 10
277.2131275141473
 20
246.093317288286
 30
0.0
211
1.0
221
-0.0000000000000002
231
0.0
213
-0.0000000000000038
223
-15.625
233
0.0
1001
ACAD
1000
DSTYLE
1002
{
1070
    40
1040
1.0
1070
    41
1040
7.5
1070
    50
1040
1.570796326794896
1070
    77
1070
     0
1002
}
  0
LEADER
  5
2C3
330
70
100
AcDbEntity
  8
dim
100
AcDbLeader
  3
Spectrum 2
 76
     2
 10
228.9711422413584
 20
273.9920137340519
 30
0.0
 10
277.20140311059
 20
273.9920137340519
 30
0.0
211
1.0
221
-0.0000000000000002
231
0.0
213
-0.0000000000000038
223
-15.625
233
0.0
1001
ACAD
1000
DSTYLE
1002
{
1070
    40
1040
1.0
1070
    41
1040
7.5
1070
    50
1040
1.570796326794896
1070
    77
1070
     0
1002
}
  0
LEADER
  5
2C4
330
70
100
AcDbEntity
  8
dim
100
AcDbLeader
  3
Spectrum 2
 76
     2
 10
202.5156613956578
 20
219.3167514851952
 30
0.0
 10
277.20140311059
 20
219.3167514851952
 30
0.0
211
1.0
221
-0.0000000000000002
231
0.0
213
-0.0000000000000038
223
-15.625
233
0.0
1001
ACAD
1000
DSTYLE
1002
{
1070
    40
1040
1.0
1070
    41
1040
7.5
1070
    50
1040
1.570796326794896
1070
    77
1070
     0
1002
}
  0
LEADER
  5
2C5
330
70
100
AcDbEntity
  8
dim
100
AcDbLeader
  3
Spectrum 2
 76
     2
 10
192.8313079203381
 20
193.7773673058605
 30
0.0
 10
277.20140311059
 20
193.7773673058605
 30
0.0
211
1.0
221
-0.0000000000000002
231
0.0
213
-0.0000000000000038
223
-15.625
233
0.0
1001
ACAD
1000
DSTYLE
1002
{
1070
    40
1040
1.0
1070
    41
1040
7.5
1070
    50
1040
1.570796326794896
1070
    77
1070
     0
1002
}
  0
MTEXT
  5
2C6
330
70
100
AcDbEntity
  8
dim
100
AcDbMText
 10
279.4313402237967
 20
193.5489512541717
 30
0.0
 40
5.625
 41
167.510385589112
 46
0.0
 71
     4
 72
     5
  1
Rigid plastic separation spacer where required
  7
Calibri
 73
     1
 44
1.0
  0
LEADER
  5
2C7
330
70
100
AcDbEntity
  8
dim
100
AcDbLeader
  3
Spectrum 2
 76
     2
 10
236.3654632255038
 20
154.7312446886271
 30
0.0
 10
277.20140311059
 20
154.7312446886271
 30
0.0
211
1.0
221
-0.0000000000000002
231
0.0
213
-0.0000000000000038
223
-15.625
233
0.0
1001
ACAD
1000
DSTYLE
1002
{
1070
    40
1040
1.0
1070
    41
1040
7.5
1070
    50
1040
1.570796326794896
1070
    77
1070
     0
1002
}
  0
MTEXT
  5
2C8
330
70
100
AcDbEntity
  8
dim
100
AcDbMText
 10
280.648775565147
 20
309.3363733097112
 30
0.0
 40
5.625
 41
171.0487278666896
 46
0.0
 71
     4
 72
     5
  1
Safety glass as per NZS 4223.3 table 14 (15mm thick max). Maximum glass height (from top of glass to the top of channel) = 1300mm
  7
Calibri
 73
     1
 44
0.9333333333333333
  0
LEADER
  5
2C9
330
70
100
AcDbEntity
  8
dim
100
AcDbLeader
  3
Spectrum 2
 76
     2
 10
227.1040977431166
 20
173.7628399419945
 30
0.0
 10
277.20140311059
 20
173.7628399419945
 30
0.0
211
1.0
221
-0.0000000000000002
231
0.0
213
-0.0000000000000038
223
-15.625
233
0.0
1001
ACAD
1000
DSTYLE
1002
{
1070
    40
1040
1.0
1070
    41
1040
7.5
1070
    50
1040
1.570796326794896
1070
    77
1070
     0
1002
}
  0
LEADER
  5
2CA
330
70
100
AcDbEntity
  8
dim
100
AcDbLeader
  3
Spectrum 2
 76
     2
 10
229.8148901384629
 20
647.8188784006874
 30
0.0
 10
277.8264031105901
 20
647.8188784006874
 30
0.0
211
1.0
221
-0.0000000000000002
231
0.0
213
-0.0000000000000038
223
-15.625
233
0.0
1001
ACAD
1000
DSTYLE
1002
{
1070
    40
1040
1.0
1070
    41
1040
7.5
1070
    50
1040
1.570796326794896
1070
    77
1070
     0
1002
}
  0
MTEXT
  5
2CB
330
70
100
AcDbEntity
  8
dim
100
AcDbMText
 10
280.4252647953872
 20
648.2746220086569
 30
0.0
 40
5.625
 41
156.3662520472826
 46
0.0
 71
     4
 72
     5
  1
Safety feature as specified (interlinking capping rail or offset interlinking handrail)
  7
Calibri
 73
     1
 44
0.9333333333333333
  0
LEADER
  5
2CC
330
70
100
AcDbEntity
  8
dim
100
AcDbLeader
  3
Spectrum 2
 76
     2
 10
219.4537253361322
 20
477.7039251100728
 30
0.0
 10
257.8861340173498
 20
477.7039251100728
 30
0.0
211
1.0
221
-0.0000000000000002
231
0.0
213
-0.0000000000000038
223
-15.625
233
0.0
1001
ACAD
1000
DSTYLE
1002
{
1070
    40
1040
1.0
1070
    41
1040
7.5
1070
    50
1040
1.570796326794896
1070
    77
1070
     0
1002
}
  0
LINE
  5
2CD
330
70
100
AcDbEntity
  8
dim
100
AcDbLine
 10
257.8861340173498
 20
647.8188784006874
 30
0.0
 11
257.8861340173498
 21
477.7039251100728
 31
0.0
  0
CIRCLE
  5
2CE
330
70
100
AcDbEntity
  8
Object
100
AcDbCircle
 10
293.7805767986465
 20
424.0924954887841
 30
0.0
 40
1.242630194151189
  0
CIRCLE
  5
2CF
330
70
100
AcDbEntity
  8
Object
100
AcDbCircle
 10
293.7805767986465
 20
406.5924954887841
 30
0.0
 40
1.242630194151132
  0
LINE
  5
2D0
330
70
100
AcDbEntity
  8
ctrl
 48
0.1
100
AcDbLine
 10
291.7474195290888
 20
406.5924954887832
 30
0.0
 11
295.8137340682042
 21
406.5924954887832
 31
0.0
  0
LINE
  5
2D1
102
{ACAD_REACTORS
330
2E4
102
}
330
70
100
AcDbEntity
  8
ctrl
 48
0.1
100
AcDbLine
 10
293.7805767986465
 20
408.6256527583473
 30
0.0
 11
293.7805767986465
 21
404.5593382192209
 31
0.0
  0
LINE
  5
2D2
330
70
100
AcDbEntity
  8
ctrl
 48
0.1
100
AcDbLine
 10
291.7474195290888
 20
424.0924954887832
 30
0.0
 11
295.8137340682042
 21
424.0924954887832
 31
0.0
  0
LINE
  5
2D3
102
{ACAD_REACTORS
330
2D6
102
}
330
70
100
AcDbEntity
  8
ctrl
 48
0.1
100
AcDbLine
 10
293.7805767986465
 20
426.1256527583473
 30
0.0
 11
293.7805767986465
 21
422.059338219221
 31
0.0
  0
DIMENSION
  5
2D4
102
{ACAD_XDICTIONARY
360
2D5
102
}
102
{ACAD_REACTORS
330
2D6
102
}
330
70
100
AcDbEntity
  8
dim
100
AcDbDimension
280
     0
  2
*D6
 10
293.7805767986465
 20
436.4854703638866
 30
0.0
 11
315.3998075678773
 21
441.8672011331174
 31
0.0
 70
    32
  1
50
 71
     5
 42
12.48781013607185
 73
     0
 74
     0
 75
     0
  3
Spectrum 2.5
100
AcDbAlignedDimension
 13
281.2927666625746
 23
428.3424954887832
 33
0.0
 14
293.7805767986465
 24
426.1256527583473
 34
0.0
100
AcDbRotatedDimension
  0
CIRCLE
  5
2D7
330
70
100
AcDbEntity
  8
Object
100
AcDbCircle
 10
368.7805767986465
 20
424.0924954887841
 30
0.0
 40
1.242630194151189
  0
CIRCLE
  5
2D8
330
70
100
AcDbEntity
  8
Object
100
AcDbCircle
 10
368.7805767986465
 20
406.5924954887841
 30
0.0
 40
1.242630194151132
  0
LINE
  5
2D9
330
70
100
AcDbEntity
  8
ctrl
 48
0.1
100
AcDbLine
 10
366.7474195290888
 20
406.5924954887832
 30
0.0
 11
370.8137340682042
 21
406.5924954887832
 31
0.0
  0
LINE
  5
2DA
102
{ACAD_REACTORS
330
2E4
102
}
330
70
100
AcDbEntity
  8
ctrl
 48
0.1
100
AcDbLine
 10
368.7805767986465
 20
408.6256527583473
 30
0.0
 11
368.7805767986465
 21
404.5593382192209
 31
0.0
  0
LINE
  5
2DB
330
70
100
AcDbEntity
  8
ctrl
 48
0.1
100
AcDbLine
 10
366.7474195290888
 20
424.0924954887832
 30
0.0
 11
370.8137340682042
 21
424.0924954887832
 31
0.0
  0
LINE
  5
2DC
330
70
100
AcDbEntity
  8
ctrl
 48
0.1
100
AcDbLine
 10
368.7805767986465
 20
426.1256527583473
 30
0.0
 11
368.7805767986465
 21
422.059338219221
 31
0.0
  0
CIRCLE
  5
2DD
330
70
100
AcDbEntity
  8
Object
100
AcDbCircle
 10
443.7805767986465
 20
424.0924954887841
 30
0.0
 40
1.242630194151189
  0
CIRCLE
  5
2DE
330
70
100
AcDbEntity
  8
Object
100
AcDbCircle
 10
443.7805767986465
 20
406.5924954887841
 30
0.0
 40
1.242630194151132
  0
LINE
  5
2DF
330
70
100
AcDbEntity
  8
ctrl
 48
0.1
100
AcDbLine
 10
441.7474195290887
 20
406.5924954887832
 30
0.0
 11
445.8137340682042
 21
406.5924954887832
 31
0.0
  0
LINE
  5
2E0
330
70
100
AcDbEntity
  8
ctrl
 48
0.1
100
AcDbLine
 10
443.7805767986465
 20
408.6256527583473
 30
0.0
 11
443.7805767986465
 21
404.5593382192209
 31
0.0
  0
LINE
  5
2E1
330
70
100
AcDbEntity
  8
ctrl
 48
0.1
100
AcDbLine
 10
441.7474195290887
 20
424.0924954887832
 30
0.0
 11
445.8137340682042
 21
424.0924954887832
 31
0.0
  0
DIMENSION
  5
2E2
102
{ACAD_XDICTIONARY
360
2E3
102
}
102
{ACAD_REACTORS
330
2E4
102
}
330
70
100
AcDbEntity
  8
dim
100
AcDbDimension
280
     0
  2
*D7
 10
368.7805767986465
 20
384.4792452906713
 30
0.0
 11
331.2805767986465
 21
389.8609760599021
 31
0.0
 70
    32
  1
300 ctrs
 71
     5
 42
75.0
 73
     0
 74
     0
 75
     0
  3
Spectrum 2.5
100
AcDbAlignedDimension
 13
293.7805767986465
 23
404.5593382192209
 33
0.0
 14
368.7805767986465
 24
404.5593382192209
 34
0.0
100
AcDbRotatedDimension
  0
LINE
  5
2E5
330
70
100
AcDbEntity
  8
ctrl
 48
0.1
100
AcDbLine
 10
443.7805767986465
 20
426.1256527583482
 30
0.0
 11
443.7805767986465
 21
422.0593382192219
 31
0.0
  0
MTEXT
  5
2E6
102
{ACAD_XDICTIONARY
360
419
102
}
330
70
100
AcDbEntity
  8
0
 62
     0
100
AcDbMText
 10
342.7409792743128
 20
36.875
 30
0.0
 40
4.0625
 41
96.89042727142805
 46
0.0
 71
     4
 72
     5
  1
Balustrade.\Psubject to change\Pwithout notice.
  7
Calibri
 73
     1
 44
1.0
1001
ACAD
1000
ACAD_MTEXT_COLUMN_INFO_BEGIN
1070
    75
1070
     2
1070
    79
1070
     0
1070
    76
1070
     1
1070
    78
1070
     0
1070
    48
1040
96.89042727142805
1070
    49
1040
93.75
1070
    50
1070
     1
1040
0.0
1000
ACAD_MTEXT_COLUMN_INFO_END
  0
ENDSEC
  0
SECTION
  2
OBJECTS
  0
DICTIONARY
  5
C
330
0
100
AcDbDictionary
281
     1
  3
ACAD_CIP_PREVIOUS_PRODUCT_INFO
350
7E
  3
ACAD_COLOR
350
63
  3
ACAD_DETAILVIEWSTYLE
350
6A
  3
ACAD_GROUP
350
D
  3
ACAD_LAYOUT
350
62
  3
ACAD_MATERIAL
350
10
  3
ACAD_MLEADERSTYLE
350
66
  3
ACAD_MLINESTYLE
350
5F
  3
ACAD_PLOTSETTINGS
350
61
  3
ACAD_PLOTSTYLENAME
350
E
  3
ACAD_SCALELIST
350
42
  3
ACAD_SECTIONVIEWSTYLE
350
68
  3
ACAD_TABLESTYLE
350
64
  3
ACAD_VISUALSTYLE
350
29
  3
ACDB_RECOMPOSE_DATA
350
41B
  3
AcDbVariableDictionary
350
78
  3
AcDsDecomposeData
350
421
  3
AEC_PROPERTY_SET_DEFS
350
1F2
  0
DICTIONARY
  5
FE
330
2
100
AcDbDictionary
280
     1
281
     1
  3
ACAD_LAYERSTATES
360
FF
  0
DICTIONARY
  5
DA
330
D9
100
AcDbDictionary
280
     1
281
     1
  0
DICTIONARY
  5
DC
330
DB
100
AcDbDictionary
280
     1
281
     1
  0
DICTIONARY
  5
DF
330
DE
100
AcDbDictionary
280
     1
281
     1
  0
DICTIONARY
  5
E1
330
E0
100
AcDbDictionary
280
     1
281
     1
  0
DICTIONARY
  5
E3
330
E2
100
AcDbDictionary
280
     1
281
     1
  0
DICTIONARY
  5
E5
330
E4
100
AcDbDictionary
280
     1
281
     1
  0
DICTIONARY
  5
E7
330
E6
100
AcDbDictionary
280
     1
281
     1
  0
DICTIONARY
  5
E9
330
E8
100
AcDbDictionary
280
     1
281
     1
  0
DICTIONARY
  5
EB
330
EA
100
AcDbDictionary
280
     1
281
     1
  0
DICTIONARY
  5
ED
330
EC
100
AcDbDictionary
280
     1
281
     1
  0
DICTIONARY
  5
EF
330
EE
100
AcDbDictionary
280
     1
281
     1
  0
DICTIONARY
  5
F1
330
F0
100
AcDbDictionary
280
     1
281
     1
  0
DICTIONARY
  5
415
330
298
100
AcDbDictionary
280
     1
281
     1
  3
ACAD_MTEXT_2008_RT
360
416
  0
DICTIONARY
  5
417
330
2A9
100
AcDbDictionary
280
     1
281
     1
  3
ACAD_MTEXT_2008_RT
360
418
  0
DICTIONARY
  5
2D5
330
2D4
100
AcDbDictionary
280
     1
281
     1
  3
ACAD_DIMASSOC
360
2D6
  0
DICTIONARY
  5
2E3
330
2E2
100
AcDbDictionary
280
     1
281
     1
  3
ACAD_DIMASSOC
360
2E4
  0
DICTIONARY
  5
419
330
2E6
100
AcDbDictionary
280
     1
281
     1
  3
ACAD_MTEXT_2008_RT
360
41A
  0
XRECORD
  5
7E
102
{ACAD_REACTORS
330
C
102
}
330
C
100
AcDbXrecord
280
     1
300
ACDLT
300
2021
300

  0
DICTIONARY
  5
63
102
{ACAD_REACTORS
330
C
102
}
330
C
100
AcDbDictionary
281
     1
  0
DICTIONARY
  5
6A
102
{ACAD_REACTORS
330
C
102
}
330
C
100
AcDbDictionary
281
     1
  3
Metric50
350
6B
  0
DICTIONARY
  5
D
102
{ACAD_REACTORS
330
C
102
}
330
C
100
AcDbDictionary
281
     1
  0
DICTIONARY
  5
62
102
{ACAD_REACTORS
330
C
102
}
330
C
100
AcDbDictionary
281
     1
  3
Layout1
350
6F
  3
Layout2
350
77
  3
Model
350
73
  0
DICTIONARY
  5
10
102
{ACAD_REACTORS
330
C
102
}
330
C
100
AcDbDictionary
281
     1
  3
ByBlock
350
19
  3
ByLayer
350
11
  3
Global
350
21
  0
DICTIONARY
  5
66
102
{ACAD_REACTORS
330
C
102
}
330
C
100
AcDbDictionary
281
     1
  3
Standard
350
67
  0
DICTIONARY
  5
5F
102
{ACAD_REACTORS
330
C
102
}
330
C
100
AcDbDictionary
281
     1
  3
Standard
350
60
  0
DICTIONARY
  5
61
102
{ACAD_REACTORS
330
C
102
}
330
C
100
AcDbDictionary
281
     1
  0
ACDBDICTIONARYWDFLT
  5
E
102
{ACAD_REACTORS
330
C
102
}
330
C
100
AcDbDictionary
281
     1
  3
Normal
350
F
100
AcDbDictionaryWithDefault
340
F
  0
DICTIONARY
  5
42
102
{ACAD_REACTORS
330
C
102
}
330
C
100
AcDbDictionary
281
     1
  3
A0
350
43
  3
A1
350
44
  3
A2
350
45
  3
A3
350
46
  3
A4
350
47
  3
A5
350
48
  3
A6
350
49
  3
A7
350
4A
  3
A8
350
4B
  3
A9
350
4C
  3
B0
350
4D
  3
B1
350
4E
  3
B2
350
4F
  3
B3
350
50
  3
B4
350
51
  3
B5
350
52
  3
B6
350
53
  0
DICTIONARY
  5
68
102
{ACAD_REACTORS
330
C
102
}
330
C
100
AcDbDictionary
281
     1
  3
Metric50
350
69
  0
DICTIONARY
  5
64
102
{ACAD_REACTORS
330
C
102
}
330
C
100
AcDbDictionary
281
     1
  3
Standard
350
65
  0
DICTIONARY
  5
29
102
{ACAD_REACTORS
330
C
102
}
330
C
100
AcDbDictionary
281
     1
  3
2dWireframe
350
2F
  3
Basic
350
2E
  3
Brighten
350
35
  3
ColorChange
350
39
  3
Conceptual
350
32
  3
Dim
350
34
  3
EdgeColorOff
350
41
  3
Facepattern
350
38
  3
Flat
350
2A
  3
FlatWithEdges
350
2B
  3
Gouraud
350
2C
  3
GouraudWithEdges
350
2D
  3
Hidden
350
31
  3
JitterOff
350
3F
  3
Linepattern
350
37
  3
OverhangOff
350
40
  3
Realistic
350
33
  3
Shaded
350
3E
  3
Shaded with edges
350
3D
  3
Shades of Gray
350
3A
  3
Sketchy
350
3B
  3
Thicken
350
36
  3
Wireframe
350
30
  3
X-Ray
350
3C
  0
XRECORD
  5
41B
102
{ACAD_REACTORS
330
C
102
}
330
C
100
AcDbXrecord
280
     1
 90
        1
330
65
330
298
330
299
330
2A9
330
2E6
  0
DICTIONARY
  5
78
102
{ACAD_REACTORS
330
C
102
}
330
C
100
AcDbDictionary
281
     1
  3
CANNOSCALE
350
3C1
  3
CENTEREXE
350
79
  3
CENTERLTYPEFILE
350
7A
  3
CMLEADERSTYLE
350
3BE
  3
CTABLESTYLE
350
3BD
  3
CVIEWDETAILSTYLE
350
3BF
  3
CVIEWSECTIONSTYLE
350
3C0
  0
DICTIONARY
  5
421
102
{ACAD_REACTORS
330
C
102
}
330
C
100
AcDbDictionary
281
     1
  3
AcDsRecords
350
423
  3
AcDsSchemas
350
422
1001
ACAD
1070
     2
  0
DICTIONARY
  5
1F2
102
{ACAD_REACTORS
330
C
102
}
330
C
100
AcDbDictionary
281
     1
  0
DICTIONARY
  5
FF
102
{ACAD_REACTORS
330
FE
102
}
330
FE
100
AcDbDictionary
281
     1
  0
XRECORD
  5
416
102
{ACAD_REACTORS
330
415
102
}
330
415
100
AcDbXrecord
280
     1
 40
4944.0
  1
\pxqr;Rev:A 28.3.19
  0
XRECORD
  5
418
102
{ACAD_REACTORS
330
417
102
}
330
417
100
AcDbXrecord
280
     1
 40
7031176.0
  1
\pxi-3,l5,ql,t5;-^IApplicable to occupancy types A, B, C3 & E.\P-^ISuitable for up to extra-high wind zone (55m/2)\P-^IThis is a balustrade connection detail. Deck design, construction and  water-proofing is the responsibility of others. For all other a
  1
pplications or non-standard or site specific connections not covered under the standard detail manual please contact Spectrum.
  0
DIMASSOC
  5
2D6
102
{ACAD_REACTORS
330
2D5
102
}
330
2D5
100
AcDbDimAssoc
330
2D4
 90
        2
 70
     0
 71
     0
  1
AcDbOsnapPointRef
 72
    13
331
2D3
 73
     2
 91
        0
 40
0.0
 10
0.0
 20
0.0
 30
2.000000000000000E+50
 75
     0
  0
DIMASSOC
  5
2E4
102
{ACAD_REACTORS
330
2E3
102
}
330
2E3
100
AcDbDimAssoc
330
2E2
 90
        3
 70
     0
 71
     0
  1
AcDbOsnapPointRef
 72
     1
331
2D1
 73
     2
 91
        0
 40
1.0
 10
0.0
 20
0.0
 30
2.000000000000000E+50
 75
     0
  1
AcDbOsnapPointRef
 72
     1
331
2DA
 73
     2
 91
        0
 40
1.0
 10
0.0
 20
0.0
 30
2.000000000000000E+50
 75
     0
  0
XRECORD
  5
41A
102
{ACAD_REACTORS
330
419
102
}
330
419
100
AcDbXrecord
280
     1
 40
109764.0
  1
\pxql;Balustrade.\Psubject to change\Pwithout notice.
  0
ACDBDETAILVIEWSTYLE
  5
6B
102
{ACAD_XDICTIONARY
360
458
102
}
102
{ACAD_REACTORS
330
6A
102
}
330
6A
100
AcDbModelDocViewStyle
 70
     0
  3
Metric50
290
     0
100
AcDbDetailViewStyle
 70
     0
 71
     0
 90
        3
 71
     1
340
55
 62
   256
 40
5.0
340
0
 62
   256
 40
5.0
300

 40
0.36
280
     1
 71
     2
340
5D
 90
       25
 62
   256
 71
     3
340
55
 62
   256
 40
5.0
 90
        0
 40
15.0
 90
        1
300
%<\AcVar ViewDetailId>% (%<\AcVar ViewScale \f "%sn">%)
 71
     4
340
5D
 90
       25
 62
   256
340
5D
 90
       25
 62
   256
280
     0
  0
LAYOUT
  5
6F
102
{ACAD_REACTORS
330
62
102
}
330
62
100
AcDbPlotSettings
  1

  2
\\spectrumdc01\KONICA MINOLTA PS Black
  4

  6

 40
0.0
 41
0.0
 42
0.0
 43
0.0
 44
0.0
 45
0.0
 46
0.0
 47
0.0
 48
0.0
 49
0.0
140
0.0
141
0.0
142
1.0
143
1.0
 70
   688
 72
     0
 73
     0
 74
     5
  7

 75
    16
147
1.0
 76
     0
 77
     2
 78
   300
148
0.0
149
0.0
100
AcDbLayout
  1
Layout1
 70
     1
 71
     1
 10
0.0
 20
0.0
 11
420.0
 21
297.0
 12
0.0
 22
0.0
 32
0.0
 14
1.000000000000000E+20
 24
1.000000000000000E+20
 34
1.000000000000000E+20
 15
-1.000000000000000E+20
 25
-1.000000000000000E+20
 35
-1.000000000000000E+20
146
0.0
 13
0.0
 23
0.0
 33
0.0
 16
1.0
 26
0.0
 36
0.0
 17
0.0
 27
1.0
 37
0.0
 76
     0
330
6C
  0
LAYOUT
  5
77
102
{ACAD_REACTORS
330
62
102
}
330
62
100
AcDbPlotSettings
  1

  2
\\spectrumdc01\KONICA MINOLTA PS Black
  4

  6

 40
0.0
 41
0.0
 42
0.0
 43
0.0
 44
0.0
 45
0.0
 46
0.0
 47
0.0
 48
0.0
 49
0.0
140
0.0
141
0.0
142
1.0
143
1.0
 70
   688
 72
     0
 73
     0
 74
     5
  7

 75
    16
147
1.0
 76
     0
 77
     2
 78
   300
148
0.0
149
0.0
100
AcDbLayout
  1
Layout2
 70
     1
 71
     2
 10
0.0
 20
0.0
 11
12.0
 21
9.0
 12
0.0
 22
0.0
 32
0.0
 14
0.0
 24
0.0
 34
0.0
 15
0.0
 25
0.0
 35
0.0
146
0.0
 13
0.0
 23
0.0
 33
0.0
 16
1.0
 26
0.0
 36
0.0
 17
0.0
 27
1.0
 37
0.0
 76
     0
330
74
  0
LAYOUT
  5
73
102
{ACAD_REACTORS
330
62
102
}
330
62
100
AcDbPlotSettings
  1

  2
\\spectrumdc01\KONICA MINOLTA PS Black
  4

  6

 40
0.0
 41
0.0
 42
0.0
 43
0.0
 44
0.0
 45
0.0
 46
0.0
 47
0.0
 48
0.0
 49
0.0
140
0.0
141
0.0
142
1.0
143
1.0
 70
  1712
 72
     0
 73
     0
 74
     0
  7

 75
     0
147
1.0
 76
     0
 77
     2
 78
   300
148
0.0
149
0.0
100
AcDbLayout
  1
Model
 70
     1
 71
     0
 10
0.0
 20
0.0
 11
12.0
 21
9.0
 12
0.0
 22
0.0
 32
0.0
 14
0.0
 24
0.0
 34
0.0
 15
0.0
 25
0.0
 35
0.0
146
0.0
 13
0.0
 23
0.0
 33
0.0
 16
1.0
 26
0.0
 36
0.0
 17
0.0
 27
1.0
 37
0.0
 76
     0
330
70
331
57
  0
MATERIAL
  5
19
102
{ACAD_XDICTIONARY
360
1A
102
}
102
{ACAD_REACTORS
330
10
102
}
330
10
100
AcDbMaterial
  1
ByBlock
 72
     0
 43
0.0208333333333333
 43
0.0
 43
0.0
 43
0.0
 43
0.0
 43
0.0208333333333333
 43
0.0
 43
0.0
 43
0.0
 43
0.0
 43
1.0
 43
0.0
 43
0.0
 43
0.0
 43
0.0
 43
1.0
 77
     0
 47
0.0208333333333333
 47
0.0
 47
0.0
 47
0.0
 47
0.0
 47
0.0208333333333333
 47
0.0
 47
0.0
 47
0.0
 47
0.0
 47
1.0
 47
0.0
 47
0.0
 47
0.0
 47
0.0
 47
1.0
171
     0
 49
0.0208333333333333
 49
0.0
 49
0.0
 49
0.0
 49
0.0
 49
0.0208333333333333
 49
0.0
 49
0.0
 49
0.0
 49
0.0
 49
1.0
 49
0.0
 49
0.0
 49
0.0
 49
0.0
 49
1.0
175
     0
142
0.0208333333333333
142
0.0
142
0.0
142
0.0
142
0.0
142
0.0208333333333333
142
0.0
142
0.0
142
0.0
142
0.0
142
1.0
142
0.0
142
0.0
142
0.0
142
0.0
142
1.0
179
     0
144
0.0208333333333333
144
0.0
144
0.0
144
0.0
144
0.0
144
0.0208333333333333
144
0.0
144
0.0
144
0.0
144
0.0
144
1.0
144
0.0
144
0.0
144
0.0
144
0.0
144
1.0
147
0.0208333333333333
147
0.0
147
0.0
147
0.0
147
0.0
147
0.0208333333333333
147
0.0
147
0.0
147
0.0
147
0.0
147
1.0
147
0.0
147
0.0
147
0.0
147
0.0
147
1.0
  0
MATERIAL
  5
11
102
{ACAD_XDICTIONARY
360
12
102
}
102
{ACAD_REACTORS
330
10
102
}
330
10
100
AcDbMaterial
  1
ByLayer
 72
     0
 43
0.0208333333333333
 43
0.0
 43
0.0
 43
0.0
 43
0.0
 43
0.0208333333333333
 43
0.0
 43
0.0
 43
0.0
 43
0.0
 43
1.0
 43
0.0
 43
0.0
 43
0.0
 43
0.0
 43
1.0
 77
     0
 47
0.0208333333333333
 47
0.0
 47
0.0
 47
0.0
 47
0.0
 47
0.0208333333333333
 47
0.0
 47
0.0
 47
0.0
 47
0.0
 47
1.0
 47
0.0
 47
0.0
 47
0.0
 47
0.0
 47
1.0
171
     0
 49
0.0208333333333333
 49
0.0
 49
0.0
 49
0.0
 49
0.0
 49
0.0208333333333333
 49
0.0
 49
0.0
 49
0.0
 49
0.0
 49
1.0
 49
0.0
 49
0.0
 49
0.0
 49
0.0
 49
1.0
175
     0
142
0.0208333333333333
142
0.0
142
0.0
142
0.0
142
0.0
142
0.0208333333333333
142
0.0
142
0.0
142
0.0
142
0.0
142
1.0
142
0.0
142
0.0
142
0.0
142
0.0
142
1.0
179
     0
144
0.0208333333333333
144
0.0
144
0.0
144
0.0
144
0.0
144
0.0208333333333333
144
0.0
144
0.0
144
0.0
144
0.0
144
1.0
144
0.0
144
0.0
144
0.0
144
0.0
144
1.0
147
0.0208333333333333
147
0.0
147
0.0
147
0.0
147
0.0
147
0.0208333333333333
147
0.0
147
0.0
147
0.0
147
0.0
147
1.0
147
0.0
147
0.0
147
0.0
147
0.0
147
1.0
  0
MATERIAL
  5
21
102
{ACAD_XDICTIONARY
360
22
102
}
102
{ACAD_REACTORS
330
10
102
}
330
10
100
AcDbMaterial
  1
Global
 72
     0
 43
0.0208333333333333
 43
0.0
 43
0.0
 43
0.0
 43
0.0
 43
0.0208333333333333
 43
0.0
 43
0.0
 43
0.0
 43
0.0
 43
1.0
 43
0.0
 43
0.0
 43
0.0
 43
0.0
 43
1.0
 77
     0
 47
0.0208333333333333
 47
0.0
 47
0.0
 47
0.0
 47
0.0
 47
0.0208333333333333
 47
0.0
 47
0.0
 47
0.0
 47
0.0
 47
1.0
 47
0.0
 47
0.0
 47
0.0
 47
0.0
 47
1.0
171
     0
 49
0.0208333333333333
 49
0.0
 49
0.0
 49
0.0
 49
0.0
 49
0.0208333333333333
 49
0.0
 49
0.0
 49
0.0
 49
0.0
 49
1.0
 49
0.0
 49
0.0
 49
0.0
 49
0.0
 49
1.0
175
     0
142
0.0208333333333333
142
0.0
142
0.0
142
0.0
142
0.0
142
0.0208333333333333
142
0.0
142
0.0
142
0.0
142
0.0
142
1.0
142
0.0
142
0.0
142
0.0
142
0.0
142
1.0
179
     0
144
0.0208333333333333
144
0.0
144
0.0
144
0.0
144
0.0
144
0.0208333333333333
144
0.0
144
0.0
144
0.0
144
0.0
144
1.0
144
0.0
144
0.0
144
0.0
144
0.0
144
1.0
147
0.0208333333333333
147
0.0
147
0.0
147
0.0
147
0.0
147
0.0208333333333333
147
0.0
147
0.0
147
0.0
147
0.0
147
1.0
147
0.0
147
0.0
147
0.0
147
0.0
147
1.0
  0
MLEADERSTYLE
  5
67
102
{ACAD_XDICTIONARY
360
454
102
}
102
{ACAD_REACTORS
330
66
102
}
330
66
100
AcDbMLeaderStyle
179
     2
170
     2
171
     1
172
     0
 90
        2
 40
0.0
 41
0.0
173
     1
 91
-1056964608
340
5B
 92
       -2
290
     1
 42
0.09
291
     1
 43
0.36
  3
Standard
 44
0.18
300

342
55
174
     1
178
     6
175
     1
176
     0
 93
-1056964608
 45
0.18
292
     0
297
     0
 46
0.18
 94
-1056964608
 47
1.0
 49
1.0
140
1.0
293
     1
141
0.0
294
     1
177
     0
142
1.0
295
     0
296
     0
143
0.125
271
     0
272
     9
273
     9
  0
MLINESTYLE
  5
60
102
{ACAD_REACTORS
330
5F
102
}
330
5F
100
AcDbMlineStyle
  2
STANDARD
 70
     0
  3

 62
   256
 51
90.0
 52
90.0
 71
     2
 49
0.5
 62
   256
  6
BYLAYER
 49
-0.5
 62
   256
  6
BYLAYER
  0
ACDBPLACEHOLDER
  5
F
102
{ACAD_REACTORS
330
E
102
}
330
E
  0
SCALE
  5
43
102
{ACAD_REACTORS
330
42
102
}
330
42
100
AcDbScale
 70
     0
300
1:1
140
1.0
141
1.0
290
     1
  0
SCALE
  5
44
102
{ACAD_REACTORS
330
42
102
}
330
42
100
AcDbScale
 70
     0
300
1:2
140
1.0
141
2.0
290
     0
  0
SCALE
  5
45
102
{ACAD_REACTORS
330
42
102
}
330
42
100
AcDbScale
 70
     0
300
1:4
140
1.0
141
4.0
290
     0
  0
SCALE
  5
46
102
{ACAD_REACTORS
330
42
102
}
330
42
100
AcDbScale
 70
     0
300
1:5
140
1.0
141
5.0
290
     0
  0
SCALE
  5
47
102
{ACAD_REACTORS
330
42
102
}
330
42
100
AcDbScale
 70
     0
300
1:8
140
1.0
141
8.0
290
     0
  0
SCALE
  5
48
102
{ACAD_REACTORS
330
42
102
}
330
42
100
AcDbScale
 70
     0
300
1:10
140
1.0
141
10.0
290
     0
  0
SCALE
  5
49
102
{ACAD_REACTORS
330
42
102
}
330
42
100
AcDbScale
 70
     0
300
1:16
140
1.0
141
16.0
290
     0
  0
SCALE
  5
4A
102
{ACAD_REACTORS
330
42
102
}
330
42
100
AcDbScale
 70
     0
300
1:20
140
1.0
141
20.0
290
     0
  0
SCALE
  5
4B
102
{ACAD_REACTORS
330
42
102
}
330
42
100
AcDbScale
 70
     0
300
1:30
140
1.0
141
30.0
290
     0
  0
SCALE
  5
4C
102
{ACAD_REACTORS
330
42
102
}
330
42
100
AcDbScale
 70
     0
300
1:40
140
1.0
141
40.0
290
     0
  0
SCALE
  5
4D
102
{ACAD_REACTORS
330
42
102
}
330
42
100
AcDbScale
 70
     0
300
1:50
140
1.0
141
50.0
290
     0
  0
SCALE
  5
4E
102
{ACAD_REACTORS
330
42
102
}
330
42
100
AcDbScale
 70
     0
300
1:100
140
1.0
141
100.0
290
     0
  0
SCALE
  5
4F
102
{ACAD_REACTORS
330
42
102
}
330
42
100
AcDbScale
 70
     0
300
2:1
140
2.0
141
1.0
290
     0
  0
SCALE
  5
50
102
{ACAD_REACTORS
330
42
102
}
330
42
100
AcDbScale
 70
     0
300
4:1
140
4.0
141
1.0
290
     0
  0
SCALE
  5
51
102
{ACAD_REACTORS
330
42
102
}
330
42
100
AcDbScale
 70
     0
300
8:1
140
8.0
141
1.0
290
     0
  0
SCALE
  5
52
102
{ACAD_REACTORS
330
42
102
}
330
42
100
AcDbScale
 70
     0
300
10:1
140
10.0
141
1.0
290
     0
  0
SCALE
  5
53
102
{ACAD_REACTORS
330
42
102
}
330
42
100
AcDbScale
 70
     0
300
100:1
140
100.0
141
1.0
290
     0
  0
ACDBSECTIONVIEWSTYLE
  5
69
102
{ACAD_XDICTIONARY
360
456
102
}
102
{ACAD_REACTORS
330
68
102
}
330
68
100
AcDbModelDocViewStyle
 70
     0
  3
Metric50
290
     0
100
AcDbSectionViewStyle
 70
     0
 71
     0
 90
      102
 71
     1
340
55
 62
   256
 40
5.0
340
0
340
0
 62
   256
 40
5.0
300
I, O, Q, S, X, Z
 40
10.0
 90
        0
 40
2.5
 90
        0
 71
     2
340
5D
 90
       25
 62
   256
340
5D
 90
       50
 62
   256
 40
5.0
 40
2.5
 40
5.0
 71
     3
340
55
 62
   256
 40
5.0
 90
        0
 40
15.0
 90
        1
300
%<\AcVar ViewSectionStartId>%-%<\AcVar ViewSectionEndId>% (%<\AcVar ViewScale \f "%sn">%)
 71
     4
 62
   256
 62
   257
300
ANSI31
 40
1.0
 90
        0
290
     0
290
     0
 90
        6
 40
0.0
 40
1.570796326794896
 40
0.2617993877991494
 40
1.308996938995747
 40
-0.2617993877991494
 40
1.832595714594046
  0
TABLESTYLE
  5
65
102
{ACAD_XDICTIONARY
360
413
102
}
102
{ACAD_REACTORS
330
64
102
}
330
64
100
AcDbTableStyle
280
     0
  3
Standard
 70
     0
 71
     0
 40
1.5
 41
1.5
280
     0
281
     0
  7
Standard
140
4.5
170
     2
 62
     0
 63
     7
283
     0
 90
      512
 91
        0
  1

274
    -2
284
     1
 64
     0
275
    -2
285
     1
 65
     0
276
    -2
286
     1
 66
     0
277
    -2
287
     1
 67
     0
278
    -2
288
     1
 68
     0
279
    -2
289
     1
 69
     0
  7
Standard
140
6.0
170
     5
 62
     0
 63
     7
283
     0
 90
      512
 91
        0
  1

274
    -2
284
     1
 64
     0
275
    -2
285
     1
 65
     0
276
    -2
286
     1
 66
     0
277
    -2
287
     1
 67
     0
278
    -2
288
     1
 68
     0
279
    -2
289
     1
 69
     0
  7
Standard
140
4.5
170
     5
 62
     0
 63
     7
283
     0
 90
      512
 91
        0
  1

274
    -2
284
     1
 64
     0
275
    -2
285
     1
 65
     0
276
    -2
286
     1
 66
     0
277
    -2
287
     1
 67
     0
278
    -2
288
     1
 68
     0
279
    -2
289
     1
 69
     0
  0
VISUALSTYLE
  5
2F
102
{ACAD_XDICTIONARY
360
42E
102
}
102
{ACAD_REACTORS
330
29
102
}
330
29
100
AcDbVisualStyle
  2
2dWireframe
 70
     4
177
     2
291
     0
 71
     0
176
     1
 72
     2
176
     1
 73
     0
176
     1
 90
        0
176
     1
 40
0.6
176
     1
 41
30.0
176
     1
 63
     7
421
 16777215
176
     1
 74
     1
176
     1
 91
        4
176
     1
 64
     7
176
     1
 65
   257
176
     1
 75
     1
176
     1
175
     1
176
     1
 42
1.0
176
     1
 92
        0
176
     1
 66
   257
176
     1
 43
1.0
176
     1
 76
     1
176
     1
 77
     6
176
     1
 78
     2
176
     1
 67
     7
176
     1
 79
     5
176
     1
170
     0
176
     1
171
     0
176
     1
290
     0
176
     1
 93
        1
176
     1
 44
0.0
176
     1
173
     0
176
     1
1001
ACAD
1000
AcDbSavedByObjectVersion
1070
     0
  0
VISUALSTYLE
  5
2E
102
{ACAD_XDICTIONARY
360
42C
102
}
102
{ACAD_REACTORS
330
29
102
}
330
29
100
AcDbVisualStyle
  2
Basic
 70
     7
177
     2
291
     1
 71
     1
176
     1
 72
     0
176
     1
 73
     1
176
     1
 90
        0
176
     1
 40
0.6
176
     1
 41
30.0
176
     1
 63
     7
421
 16777215
176
     1
 74
     0
176
     1
 91
        4
176
     1
 64
     7
176
     1
 65
   257
176
     1
 75
     1
176
     1
175
     1
176
     1
 42
1.0
176
     1
 92
        8
176
     1
 66
     7
176
     1
 43
1.0
176
     1
 76
     1
176
     1
 77
     6
176
     1
 78
     2
176
     1
 67
     7
176
     1
 79
     5
176
     1
170
     0
176
     1
171
     0
176
     1
290
     0
176
     1
 93
        1
176
     1
 44
0.0
176
     1
173
     0
176
     1
1001
ACAD
1000
AcDbSavedByObjectVersion
1070
     0
  0
VISUALSTYLE
  5
35
102
{ACAD_XDICTIONARY
360
43A
102
}
102
{ACAD_REACTORS
330
29
102
}
330
29
100
AcDbVisualStyle
  2
Brighten
 70
    12
177
     2
291
     1
 71
     2
176
     1
 72
     2
176
     1
 73
     0
176
     1
 90
        0
176
     1
 40
0.6
176
     1
 41
30.0
176
     1
 63
     7
421
 16777215
176
     1
 74
     1
176
     1
 91
        4
176
     1
 64
     7
176
     1
 65
   257
176
     1
 75
     1
176
     1
175
     1
176
     1
 42
1.0
176
     1
 92
        8
176
     1
 66
     7
176
     1
 43
1.0
176
     1
 76
     1
176
     1
 77
     6
176
     1
 78
     2
176
     1
 67
     7
176
     1
 79
     5
176
     1
170
     0
176
     1
171
     0
176
     1
290
     0
176
     1
 93
        1
176
     1
 44
50.0
176
     1
173
     0
176
     1
1001
ACAD
1000
AcDbSavedByObjectVersion
1070
     0
  0
VISUALSTYLE
  5
39
102
{ACAD_XDICTIONARY
360
442
102
}
102
{ACAD_REACTORS
330
29
102
}
330
29
100
AcDbVisualStyle
  2
ColorChange
 70
    16
177
     2
291
     1
 71
     2
176
     1
 72
     2
176
     1
 73
     3
176
     1
 90
        0
176
     1
 40
0.6
176
     1
 41
30.0
176
     1
 63
     8
421
  8421504
176
     1
 74
     1
176
     1
 91
        4
176
     1
 64
     7
176
     1
 65
   257
176
     1
 75
     1
176
     1
175
     1
176
     1
 42
1.0
176
     1
 92
        8
176
     1
 66
     8
424
  8421504
176
     1
 43
1.0
176
     1
 76
     1
176
     1
 77
     6
176
     1
 78
     2
176
     1
 67
     7
176
     1
 79
     5
176
     1
170
     0
176
     1
171
     0
176
     1
290
     0
176
     1
 93
        1
176
     1
 44
0.0
176
     1
173
     0
176
     1
1001
ACAD
1000
AcDbSavedByObjectVersion
1070
     0
  0
VISUALSTYLE
  5
32
102
{ACAD_XDICTIONARY
360
434
102
}
102
{ACAD_REACTORS
330
29
102
}
330
29
100
AcDbVisualStyle
  2
Conceptual
 70
     9
177
     2
291
     0
 71
     3
176
     1
 72
     2
176
     1
 73
     0
176
     1
 90
        0
176
     1
 40
0.6
176
     1
 41
30.0
176
     1
 63
     7
421
 16777215
176
     1
 74
     2
176
     1
 91
        2
176
     1
 64
     7
176
     1
 65
   257
176
     1
 75
     1
176
     1
175
     1
176
     1
 42
179.0
176
     1
 92
        8
176
     1
 66
     7
176
     1
 43
1.0
176
     1
 76
     1
176
     1
 77
     6
176
     1
 78
     2
176
     1
 67
     7
176
     1
 79
     3
176
     1
170
     0
176
     1
171
     0
176
     1
290
     0
176
     1
 93
        1
176
     1
 44
0.0
176
     1
173
     0
176
     1
1001
ACAD
1000
AcDbSavedByObjectVersion
1070
     0
  0
VISUALSTYLE
  5
34
102
{ACAD_XDICTIONARY
360
438
102
}
102
{ACAD_REACTORS
330
29
102
}
330
29
100
AcDbVisualStyle
  2
Dim
 70
    11
177
     2
291
     1
 71
     2
176
     1
 72
     2
176
     1
 73
     0
176
     1
 90
        0
176
     1
 40
0.6
176
     1
 41
30.0
176
     1
 63
     7
421
 16777215
176
     1
 74
     1
176
     1
 91
        4
176
     1
 64
     7
176
     1
 65
   257
176
     1
 75
     1
176
     1
175
     1
176
     1
 42
1.0
176
     1
 92
        8
176
     1
 66
     7
176
     1
 43
1.0
176
     1
 76
     1
176
     1
 77
     6
176
     1
 78
     2
176
     1
 67
     7
176
     1
 79
     5
176
     1
170
     0
176
     1
171
     0
176
     1
290
     0
176
     1
 93
        1
176
     1
 44
-50.0
176
     1
173
     0
176
     1
1001
ACAD
1000
AcDbSavedByObjectVersion
1070
     0
  0
VISUALSTYLE
  5
41
102
{ACAD_XDICTIONARY
360
452
102
}
102
{ACAD_REACTORS
330
29
102
}
330
29
100
AcDbVisualStyle
  2
EdgeColorOff
 70
    22
177
     2
291
     1
 71
     2
176
     0
 72
     2
176
     0
 73
     0
176
     0
 90
        0
176
     0
 40
0.6
176
     0
 41
30.0
176
     0
 63
     7
421
 16777215
176
     0
 74
     1
176
     0
 91
        4
176
     0
 64
     7
176
     0
 65
   257
176
     0
 75
     1
176
     0
175
     1
176
     0
 42
1.0
176
     0
 92
        8
176
     2
 66
     7
176
     0
 43
1.0
176
     0
 76
     1
176
     0
 77
     6
176
     0
 78
     2
176
     0
 67
     7
176
     0
 79
     5
176
     0
170
     0
176
     0
171
     0
176
     0
290
     0
176
     0
 93
        1
176
     0
 44
0.0
176
     0
173
     0
176
     0
1001
ACAD
1000
AcDbSavedByObjectVersion
1070
     0
  0
VISUALSTYLE
  5
38
102
{ACAD_XDICTIONARY
360
440
102
}
102
{ACAD_REACTORS
330
29
102
}
330
29
100
AcDbVisualStyle
  2
Facepattern
 70
    15
177
     2
291
     1
 71
     2
176
     1
 72
     2
176
     1
 73
     0
176
     1
 90
        0
176
     1
 40
0.6
176
     1
 41
30.0
176
     1
 63
     7
421
 16777215
176
     1
 74
     1
176
     1
 91
        4
176
     1
 64
     7
176
     1
 65
   257
176
     1
 75
     1
176
     1
175
     1
176
     1
 42
1.0
176
     1
 92
        8
176
     1
 66
     7
176
     1
 43
1.0
176
     1
 76
     1
176
     1
 77
     6
176
     1
 78
     2
176
     1
 67
     7
176
     1
 79
     5
176
     1
170
     0
176
     1
171
     0
176
     1
290
     0
176
     1
 93
        1
176
     1
 44
0.0
176
     1
173
     0
176
     1
1001
ACAD
1000
AcDbSavedByObjectVersion
1070
     0
  0
VISUALSTYLE
  5
2A
102
{ACAD_XDICTIONARY
360
424
102
}
102
{ACAD_REACTORS
330
29
102
}
330
29
100
AcDbVisualStyle
  2
Flat
 70
     0
177
     2
291
     1
 71
     2
176
     1
 72
     1
176
     1
 73
     1
176
     1
 90
        2
176
     1
 40
0.6
176
     1
 41
30.0
176
     1
 63
     7
421
 16777215
176
     1
 74
     0
176
     1
 91
        0
176
     1
 64
     7
176
     1
 65
   257
176
     1
 75
     1
176
     1
175
     1
176
     1
 42
1.0
176
     1
 92
        8
176
     1
 66
     7
176
     1
 43
1.0
176
     1
 76
     1
176
     1
 77
     6
176
     1
 78
     2
176
     1
 67
     7
176
     1
 79
     5
176
     1
170
     0
176
     1
171
     0
176
     1
290
     0
176
     1
 93
       13
176
     1
 44
0.0
176
     1
173
     0
176
     1
1001
ACAD
1000
AcDbSavedByObjectVersion
1070
     0
  0
VISUALSTYLE
  5
2B
102
{ACAD_XDICTIONARY
360
426
102
}
102
{ACAD_REACTORS
330
29
102
}
330
29
100
AcDbVisualStyle
  2
FlatWithEdges
 70
     1
177
     2
291
     1
 71
     2
176
     1
 72
     1
176
     1
 73
     1
176
     1
 90
        2
176
     1
 40
0.6
176
     1
 41
30.0
176
     1
 63
     7
421
 16777215
176
     1
 74
     1
176
     1
 91
        0
176
     1
 64
     7
176
     1
 65
   257
176
     1
 75
     1
176
     1
175
     1
176
     1
 42
1.0
176
     1
 92
        0
176
     1
 66
   257
176
     1
 43
1.0
176
     1
 76
     1
176
     1
 77
     6
176
     1
 78
     2
176
     1
 67
     7
176
     1
 79
     5
176
     1
170
     0
176
     1
171
     0
176
     1
290
     0
176
     1
 93
       13
176
     1
 44
0.0
176
     1
173
     0
176
     1
1001
ACAD
1000
AcDbSavedByObjectVersion
1070
     0
  0
VISUALSTYLE
  5
2C
102
{ACAD_XDICTIONARY
360
428
102
}
102
{ACAD_REACTORS
330
29
102
}
330
29
100
AcDbVisualStyle
  2
Gouraud
 70
     2
177
     2
291
     1
 71
     2
176
     1
 72
     2
176
     1
 73
     1
176
     1
 90
        2
176
     1
 40
0.6
176
     1
 41
30.0
176
     1
 63
     7
421
 16777215
176
     1
 74
     0
176
     1
 91
        0
176
     1
 64
     7
176
     1
 65
   257
176
     1
 75
     1
176
     1
175
     1
176
     1
 42
1.0
176
     1
 92
        0
176
     1
 66
     7
176
     1
 43
1.0
176
     1
 76
     1
176
     1
 77
     6
176
     1
 78
     2
176
     1
 67
     7
176
     1
 79
     5
176
     1
170
     0
176
     1
171
     0
176
     1
290
     0
176
     1
 93
       13
176
     1
 44
0.0
176
     1
173
     0
176
     1
1001
ACAD
1000
AcDbSavedByObjectVersion
1070
     0
  0
VISUALSTYLE
  5
2D
102
{ACAD_XDICTIONARY
360
42A
102
}
102
{ACAD_REACTORS
330
29
102
}
330
29
100
AcDbVisualStyle
  2
GouraudWithEdges
 70
     3
177
     2
291
     1
 71
     2
176
     1
 72
     2
176
     1
 73
     1
176
     1
 90
        2
176
     1
 40
0.6
176
     1
 41
30.0
176
     1
 63
     7
421
 16777215
176
     1
 74
     1
176
     1
 91
        0
176
     1
 64
     7
176
     1
 65
   257
176
     1
 75
     1
176
     1
175
     1
176
     1
 42
1.0
176
     1
 92
        0
176
     1
 66
   257
176
     1
 43
1.0
176
     1
 76
     1
176
     1
 77
     6
176
     1
 78
     2
176
     1
 67
     7
176
     1
 79
     5
176
     1
170
     0
176
     1
171
     0
176
     1
290
     0
176
     1
 93
       13
176
     1
 44
0.0
176
     1
173
     0
176
     1
1001
ACAD
1000
AcDbSavedByObjectVersion
1070
     0
  0
VISUALSTYLE
  5
31
102
{ACAD_XDICTIONARY
360
432
102
}
102
{ACAD_REACTORS
330
29
102
}
330
29
100
AcDbVisualStyle
  2
Hidden
 70
     6
177
     2
291
     0
 71
     1
176
     1
 72
     2
176
     1
 73
     2
176
     1
 90
        0
176
     1
 40
0.6
176
     1
 41
30.0
176
     1
 63
     7
421
 16777215
176
     1
 74
     2
176
     1
 91
        2
176
     1
 64
     7
176
     1
 65
   257
176
     1
 75
     2
176
     1
175
     1
176
     1
 42
40.0
176
     1
 92
        0
176
     1
 66
   257
176
     1
 43
1.0
176
     1
 76
     1
176
     1
 77
     6
176
     1
 78
     2
176
     1
 67
     7
176
     1
 79
     3
176
     1
170
     0
176
     1
171
     0
176
     1
290
     0
176
     1
 93
        1
176
     1
 44
0.0
176
     1
173
     0
176
     1
1001
ACAD
1000
AcDbSavedByObjectVersion
1070
     0
  0
VISUALSTYLE
  5
3F
102
{ACAD_XDICTIONARY
360
44E
102
}
102
{ACAD_REACTORS
330
29
102
}
330
29
100
AcDbVisualStyle
  2
JitterOff
 70
    20
177
     2
291
     1
 71
     2
176
     0
 72
     2
176
     0
 73
     0
176
     0
 90
        0
176
     0
 40
0.6
176
     0
 41
30.0
176
     0
 63
     7
421
 16777215
176
     0
 74
     1
176
     0
 91
        4
176
     0
 64
     7
176
     0
 65
   257
176
     0
 75
     1
176
     0
175
     1
176
     0
 42
1.0
176
     0
 92
       10
176
     2
 66
     7
176
     0
 43
1.0
176
     0
 76
     1
176
     0
 77
     6
176
     0
 78
     2
176
     0
 67
     7
176
     0
 79
     5
176
     0
170
     0
176
     0
171
     0
176
     0
290
     0
176
     0
 93
        1
176
     0
 44
0.0
176
     0
173
     0
176
     0
1001
ACAD
1000
AcDbSavedByObjectVersion
1070
     0
  0
VISUALSTYLE
  5
37
102
{ACAD_XDICTIONARY
360
43E
102
}
102
{ACAD_REACTORS
330
29
102
}
330
29
100
AcDbVisualStyle
  2
Linepattern
 70
    14
177
     2
291
     1
 71
     2
176
     1
 72
     2
176
     1
 73
     0
176
     1
 90
        0
176
     1
 40
0.6
176
     1
 41
30.0
176
     1
 63
     7
421
 16777215
176
     1
 74
     1
176
     1
 91
        4
176
     1
 64
     7
176
     1
 65
   257
176
     1
 75
     7
176
     1
175
     7
176
     1
 42
1.0
176
     1
 92
        8
176
     1
 66
     7
176
     1
 43
1.0
176
     1
 76
     1
176
     1
 77
     6
176
     1
 78
     2
176
     1
 67
     7
176
     1
 79
     5
176
     1
170
     0
176
     1
171
     0
176
     1
290
     0
176
     1
 93
        1
176
     1
 44
0.0
176
     1
173
     0
176
     1
1001
ACAD
1000
AcDbSavedByObjectVersion
1070
     0
  0
VISUALSTYLE
  5
40
102
{ACAD_XDICTIONARY
360
450
102
}
102
{ACAD_REACTORS
330
29
102
}
330
29
100
AcDbVisualStyle
  2
OverhangOff
 70
    21
177
     2
291
     1
 71
     2
176
     0
 72
     2
176
     0
 73
     0
176
     0
 90
        0
176
     0
 40
0.6
176
     0
 41
30.0
176
     0
 63
     7
421
 16777215
176
     0
 74
     1
176
     0
 91
        4
176
     0
 64
     7
176
     0
 65
   257
176
     0
 75
     1
176
     0
175
     1
176
     0
 42
1.0
176
     0
 92
        9
176
     2
 66
     7
176
     0
 43
1.0
176
     0
 76
     1
176
     0
 77
     6
176
     0
 78
     2
176
     0
 67
     7
176
     0
 79
     5
176
     0
170
     0
176
     0
171
     0
176
     0
290
     0
176
     0
 93
        1
176
     0
 44
0.0
176
     0
173
     0
176
     0
1001
ACAD
1000
AcDbSavedByObjectVersion
1070
     0
  0
VISUALSTYLE
  5
33
102
{ACAD_XDICTIONARY
360
436
102
}
102
{ACAD_REACTORS
330
29
102
}
330
29
100
AcDbVisualStyle
  2
Realistic
 70
     8
177
     2
291
     0
 71
     2
176
     1
 72
     3
176
     1
 73
     0
176
     1
 90
        2
176
     1
 40
0.6
176
     1
 41
30.0
176
     1
 63
     7
421
 16777215
176
     1
 74
     0
176
     1
 91
        0
176
     1
 64
     7
176
     1
 65
   257
176
     1
 75
     1
176
     1
175
     1
176
     1
 42
1.0
176
     1
 92
        8
176
     1
 66
   257
176
     1
 43
1.0
176
     1
 76
     1
176
     1
 77
     6
176
     1
 78
     2
176
     1
 67
     7
176
     1
 79
     3
176
     1
170
     0
176
     1
171
     0
176
     1
290
     0
176
     1
 93
       13
176
     1
 44
0.0
176
     1
173
     0
176
     1
1001
ACAD
1000
AcDbSavedByObjectVersion
1070
     0
  0
VISUALSTYLE
  5
3E
102
{ACAD_XDICTIONARY
360
44C
102
}
102
{ACAD_REACTORS
330
29
102
}
330
29
100
AcDbVisualStyle
  2
Shaded
 70
    27
177
     2
291
     0
 71
     2
176
     1
 72
     2
176
     1
 73
     1
176
     1
 90
        2
176
     1
 40
0.6
176
     1
 41
30.0
176
     1
 63
     7
421
 16777215
176
     1
 74
     0
176
     1
 91
        4
176
     1
 64
     7
176
     1
 65
   257
176
     1
 75
     1
176
     1
175
     1
176
     1
 42
1.0
176
     1
 92
        8
176
     1
 66
   257
176
     1
 43
1.0
176
     1
 76
     1
176
     1
 77
     6
176
     1
 78
     2
176
     1
 67
     8
425
  7895160
176
     1
 79
     3
176
     1
170
     0
176
     1
171
     0
176
     1
290
     0
176
     1
 93
        5
176
     1
 44
0.0
176
     1
173
     0
176
     1
1001
ACAD
1000
AcDbSavedByObjectVersion
1070
     0
  0
VISUALSTYLE
  5
3D
102
{ACAD_XDICTIONARY
360
44A
102
}
102
{ACAD_REACTORS
330
29
102
}
330
29
100
AcDbVisualStyle
  2
Shaded with edges
 70
    26
177
     2
291
     0
 71
     2
176
     1
 72
     2
176
     1
 73
     1
176
     1
 90
        2
176
     1
 40
0.6
176
     1
 41
30.0
176
     1
 63
     7
421
 16777215
176
     1
 74
     1
176
     1
 91
        2
176
     1
 64
     7
176
     1
 65
   257
176
     1
 75
     2
176
     1
175
     1
176
     1
 42
1.0
176
     1
 92
        8
176
     1
 66
   257
176
     1
 43
1.0
176
     1
 76
     1
176
     1
 77
     6
176
     1
 78
     2
176
     1
 67
     7
176
     1
 79
     3
176
     1
170
     0
176
     1
171
     0
176
     1
290
     0
176
     1
 93
        5
176
     1
 44
0.0
176
     1
173
     0
176
     1
1001
ACAD
1000
AcDbSavedByObjectVersion
1070
     0
  0
VISUALSTYLE
  5
3A
102
{ACAD_XDICTIONARY
360
444
102
}
102
{ACAD_REACTORS
330
29
102
}
330
29
100
AcDbVisualStyle
  2
Shades of Gray
 70
    23
177
     2
291
     0
 71
     2
176
     1
 72
     2
176
     1
 73
     3
176
     1
 90
        0
176
     1
 40
0.6
176
     1
 41
30.0
176
     1
 63
     7
421
 16777215
176
     1
 74
     2
176
     1
 91
        2
176
     1
 64
     7
176
     1
 65
     7
176
     1
 75
     1
176
     1
175
     1
176
     1
 42
40.0
176
     1
 92
        8
176
     1
 66
     7
176
     1
 43
1.0
176
     1
 76
     1
176
     1
 77
     6
176
     1
 78
     2
176
     1
 67
     7
176
     1
 79
     3
176
     1
170
     0
176
     1
171
     0
176
     1
290
     0
176
     1
 93
        1
176
     1
 44
0.0
176
     1
173
     0
176
     1
1001
ACAD
1000
AcDbSavedByObjectVersion
1070
     0
  0
VISUALSTYLE
  5
3B
102
{ACAD_XDICTIONARY
360
446
102
}
102
{ACAD_REACTORS
330
29
102
}
330
29
100
AcDbVisualStyle
  2
Sketchy
 70
    24
177
     2
291
     0
 71
     1
176
     1
 72
     2
176
     1
 73
     2
176
     1
 90
        0
176
     1
 40
0.6
176
     1
 41
30.0
176
     1
 63
     7
421
 16777215
176
     1
 74
     2
176
     1
 91
        2
176
     1
 64
     7
176
     1
 65
     7
176
     1
 75
     1
176
     1
175
     1
176
     1
 42
40.0
176
     1
 92
       11
176
     1
 66
     7
176
     1
 43
1.0
176
     1
 76
     1
176
     1
 77
     6
176
     1
 78
     2
176
     1
 67
     7
176
     1
 79
     6
176
     1
170
     0
176
     1
171
     0
176
     1
290
     0
176
     1
 93
        1
176
     1
 44
0.0
176
     1
173
     0
176
     1
1001
ACAD
1000
AcDbSavedByObjectVersion
1070
     0
  0
VISUALSTYLE
  5
36
102
{ACAD_XDICTIONARY
360
43C
102
}
102
{ACAD_REACTORS
330
29
102
}
330
29
100
AcDbVisualStyle
  2
Thicken
 70
    13
177
     2
291
     1
 71
     2
176
     1
 72
     2
176
     1
 73
     0
176
     1
 90
        0
176
     1
 40
0.6
176
     1
 41
30.0
176
     1
 63
     7
421
 16777215
176
     1
 74
     1
176
     1
 91
        4
176
     1
 64
     7
176
     1
 65
   257
176
     1
 75
     1
176
     1
175
     1
176
     1
 42
1.0
176
     1
 92
       12
176
     1
 66
     7
176
     1
 43
1.0
176
     1
 76
     1
176
     1
 77
     6
176
     1
 78
     2
176
     1
 67
     7
176
     1
 79
     5
176
     1
170
     0
176
     1
171
     0
176
     1
290
     0
176
     1
 93
        1
176
     1
 44
0.0
176
     1
173
     0
176
     1
1001
ACAD
1000
AcDbSavedByObjectVersion
1070
     0
  0
VISUALSTYLE
  5
30
102
{ACAD_XDICTIONARY
360
430
102
}
102
{ACAD_REACTORS
330
29
102
}
330
29
100
AcDbVisualStyle
  2
Wireframe
 70
     5
177
     2
291
     0
 71
     0
176
     1
 72
     2
176
     1
 73
     0
176
     1
 90
        0
176
     1
 40
0.6
176
     1
 41
30.0
176
     1
 63
     7
421
 16777215
176
     1
 74
     1
176
     1
 91
        4
176
     1
 64
     7
176
     1
 65
   257
176
     1
 75
     1
176
     1
175
     1
176
     1
 42
1.0
176
     1
 92
        0
176
     1
 66
   257
176
     1
 43
1.0
176
     1
 76
     1
176
     1
 77
     6
176
     1
 78
     2
176
     1
 67
     7
176
     1
 79
     3
176
     1
170
     0
176
     1
171
     0
176
     1
290
     0
176
     1
 93
        1
176
     1
 44
0.0
176
     1
173
     0
176
     1
1001
ACAD
1000
AcDbSavedByObjectVersion
1070
     0
  0
VISUALSTYLE
  5
3C
102
{ACAD_XDICTIONARY
360
448
102
}
102
{ACAD_REACTORS
330
29
102
}
330
29
100
AcDbVisualStyle
  2
X-Ray
 70
    25
177
     2
291
     0
 71
     2
176
     1
 72
     2
176
     1
 73
     1
176
     1
 90
        1
176
     1
 40
0.5
176
     1
 41
30.0
176
     1
 63
     7
421
 16777215
176
     1
 74
     1
176
     1
 91
        0
176
     1
 64
     7
176
     1
 65
   257
176
     1
 75
     1
176
     1
175
     1
176
     1
 42
1.0
176
     1
 92
        8
176
     1
 66
     7
176
     1
 43
1.0
176
     1
 76
     1
176
     1
 77
     6
176
     1
 78
     2
176
     1
 67
     7
176
     1
 79
     3
176
     1
170
     0
176
     1
171
     0
176
     1
290
     0
176
     1
 93
       13
176
     1
 44
0.0
176
     1
173
     0
176
     1
1001
ACAD
1000
AcDbSavedByObjectVersion
1070
     0
  0
DICTIONARYVAR
  5
3C1
102
{ACAD_REACTORS
330
78
102
}
330
78
100
DictionaryVariables
280
     0
  1
1:1
  0
DICTIONARYVAR
  5
79
102
{ACAD_REACTORS
330
78
102
}
330
78
100
DictionaryVariables
280
     0
  1
3.500000
  0
DICTIONARYVAR
  5
7A
102
{ACAD_REACTORS
330
78
102
}
330
78
100
DictionaryVariables
280
     0
  1
acadiso.lin
  0
DICTIONARYVAR
  5
3BE
102
{ACAD_REACTORS
330
78
102
}
330
78
100
DictionaryVariables
280
     0
  1
STANDARD
  0
DICTIONARYVAR
  5
3BD
102
{ACAD_REACTORS
330
78
102
}
330
78
100
DictionaryVariables
280
     0
  1
STANDARD
  0
DICTIONARYVAR
  5
3BF
102
{ACAD_REACTORS
330
78
102
}
330
78
100
DictionaryVariables
280
     0
  1
Metric50
  0
DICTIONARYVAR
  5
3C0
102
{ACAD_REACTORS
330
78
102
}
330
78
100
DictionaryVariables
280
     0
  1
Metric50
  0
DICTIONARY
  5
423
102
{ACAD_REACTORS
330
421
102
}
330
421
100
AcDbDictionary
281
     1
  0
DICTIONARY
  5
422
102
{ACAD_REACTORS
330
421
102
}
330
421
100
AcDbDictionary
281
     1
  3
1505230154560
350
41C
  3
1505230154576
350
41D
  3
1505230154592
350
41E
  3
1505230154608
350
41F
  3
1505230154624
350
420
  0
DICTIONARY
  5
458
330
6B
100
AcDbDictionary
280
     1
281
     1
  3
ACAD_XREC_ROUNDTRIP
360
459
  0
DICTIONARY
  5
1A
330
19
100
AcDbDictionary
280
     1
281
     1
  3
BUMPTILE
360
1C
  3
DIFFUSETILE
360
1B
  3
OPACITYTILE
360
1F
  3
REFLECTIONTILE
360
1E
  3
REFRACTIONTILE
360
20
  3
SPECULARTILE
360
1D
  0
DICTIONARY
  5
12
330
11
100
AcDbDictionary
280
     1
281
     1
  3
BUMPTILE
360
14
  3
DIFFUSETILE
360
13
  3
OPACITYTILE
360
17
  3
REFLECTIONTILE
360
16
  3
REFRACTIONTILE
360
18
  3
SPECULARTILE
360
15
  0
DICTIONARY
  5
22
330
21
100
AcDbDictionary
280
     1
281
     1
  3
BUMPTILE
360
24
  3
DIFFUSETILE
360
23
  3
OPACITYTILE
360
27
  3
REFLECTIONTILE
360
26
  3
REFRACTIONTILE
360
28
  3
SPECULARTILE
360
25
  0
DICTIONARY
  5
454
330
67
100
AcDbDictionary
280
     1
281
     1
  3
ACAD_XREC_ROUNDTRIP
360
455
  0
DICTIONARY
  5
456
330
69
100
AcDbDictionary
280
     1
281
     1
  3
ACAD_XREC_ROUNDTRIP
360
457
  0
DICTIONARY
  5
413
330
65
100
AcDbDictionary
280
     1
281
     1
  3
ACAD_ROUNDTRIP_2008_TABLESTYLE_CELLSTYLEMAP
360
414
  0
DICTIONARY
  5
42E
330
2F
100
AcDbDictionary
280
     1
281
     1
  3
ACAD_XREC_ROUNDTRIP
360
42F
  0
DICTIONARY
  5
42C
330
2E
100
AcDbDictionary
280
     1
281
     1
  3
ACAD_XREC_ROUNDTRIP
360
42D
  0
DICTIONARY
  5
43A
330
35
100
AcDbDictionary
280
     1
281
     1
  3
ACAD_XREC_ROUNDTRIP
360
43B
  0
DICTIONARY
  5
442
330
39
100
AcDbDictionary
280
     1
281
     1
  3
ACAD_XREC_ROUNDTRIP
360
443
  0
DICTIONARY
  5
434
330
32
100
AcDbDictionary
280
     1
281
     1
  3
ACAD_XREC_ROUNDTRIP
360
435
  0
DICTIONARY
  5
438
330
34
100
AcDbDictionary
280
     1
281
     1
  3
ACAD_XREC_ROUNDTRIP
360
439
  0
DICTIONARY
  5
452
330
41
100
AcDbDictionary
280
     1
281
     1
  3
ACAD_XREC_ROUNDTRIP
360
453
  0
DICTIONARY
  5
440
330
38
100
AcDbDictionary
280
     1
281
     1
  3
ACAD_XREC_ROUNDTRIP
360
441
  0
DICTIONARY
  5
424
330
2A
100
AcDbDictionary
280
     1
281
     1
  3
ACAD_XREC_ROUNDTRIP
360
425
  0
DICTIONARY
  5
426
330
2B
100
AcDbDictionary
280
     1
281
     1
  3
ACAD_XREC_ROUNDTRIP
360
427
  0
DICTIONARY
  5
428
330
2C
100
AcDbDictionary
280
     1
281
     1
  3
ACAD_XREC_ROUNDTRIP
360
429
  0
DICTIONARY
  5
42A
330
2D
100
AcDbDictionary
280
     1
281
     1
  3
ACAD_XREC_ROUNDTRIP
360
42B
  0
DICTIONARY
  5
432
330
31
100
AcDbDictionary
280
     1
281
     1
  3
ACAD_XREC_ROUNDTRIP
360
433
  0
DICTIONARY
  5
44E
330
3F
100
AcDbDictionary
280
     1
281
     1
  3
ACAD_XREC_ROUNDTRIP
360
44F
  0
DICTIONARY
  5
43E
330
37
100
AcDbDictionary
280
     1
281
     1
  3
ACAD_XREC_ROUNDTRIP
360
43F
  0
DICTIONARY
  5
450
330
40
100
AcDbDictionary
280
     1
281
     1
  3
ACAD_XREC_ROUNDTRIP
360
451
  0
DICTIONARY
  5
436
330
33
100
AcDbDictionary
280
     1
281
     1
  3
ACAD_XREC_ROUNDTRIP
360
437
  0
DICTIONARY
  5
44C
330
3E
100
AcDbDictionary
280
     1
281
     1
  3
ACAD_XREC_ROUNDTRIP
360
44D
  0
DICTIONARY
  5
44A
330
3D
100
AcDbDictionary
280
     1
281
     1
  3
ACAD_XREC_ROUNDTRIP
360
44B
  0
DICTIONARY
  5
444
330
3A
100
AcDbDictionary
280
     1
281
     1
  3
ACAD_XREC_ROUNDTRIP
360
445
  0
DICTIONARY
  5
446
330
3B
100
AcDbDictionary
280
     1
281
     1
  3
ACAD_XREC_ROUNDTRIP
360
447
  0
DICTIONARY
  5
43C
330
36
100
AcDbDictionary
280
     1
281
     1
  3
ACAD_XREC_ROUNDTRIP
360
43D
  0
DICTIONARY
  5
430
330
30
100
AcDbDictionary
280
     1
281
     1
  3
ACAD_XREC_ROUNDTRIP
360
431
  0
DICTIONARY
  5
448
330
3C
100
AcDbDictionary
280
     1
281
     1
  3
ACAD_XREC_ROUNDTRIP
360
449
  0
XRECORD
  5
41C
102
{ACAD_REACTORS
330
422
102
}
330
422
100
AcDbXrecord
280
     1
  1
AcDb_Thumbnail_Schema
102
{ATTRRECORD
341
41D
  2
AcDbDs::TreatedAsObjectData
280
     1
291
     1
102
ATTRRECORD}
102
{ATTRRECORD
341
41E
  2
AcDbDs::Legacy
280
     1
291
     1
102
ATTRRECORD}
  2
AcDbDs::ID
280
    10
 91
        8
102
{ATTRRECORD
341
41F
  2
AcDs:Indexable
280
     1
291
     1
102
ATTRRECORD}
102
{ATTRRECORD
341
420
  2
AcDbDs::HandleAttribute
280
     7
282
     1
102
ATTRRECORD}
  2
Thumbnail_Data
280
    15
 91
        0
  0
XRECORD
  5
41D
102
{ACAD_REACTORS
330
422
102
}
330
422
100
AcDbXrecord
280
     1
  1
AcDbDs::TreatedAsObjectDataSchema
  2
AcDbDs::TreatedAsObjectData
280
     1
 91
        0
  0
XRECORD
  5
41E
102
{ACAD_REACTORS
330
422
102
}
330
422
100
AcDbXrecord
280
     1
  1
AcDbDs::LegacySchema
  2
AcDbDs::Legacy
280
     1
 91
        0
  0
XRECORD
  5
41F
102
{ACAD_REACTORS
330
422
102
}
330
422
100
AcDbXrecord
280
     1
  1
AcDbDs::IndexedPropertySchema
  2
AcDs:Indexable
280
     1
 91
        0
  0
XRECORD
  5
420
102
{ACAD_REACTORS
330
422
102
}
330
422
100
AcDbXrecord
280
     1
  1
AcDbDs::HandleAttributeSchema
  2
AcDbDs::HandleAttribute
280
     7
 91
        1
284
     1
  0
XRECORD
  5
459
102
{ACAD_REACTORS
330
458
102
}
330
458
100
AcDbXrecord
280
     1
102
DISPLAYNAME
  1
Metric50
102
FLAGS
 90
        0
  0
XRECORD
  5
1C
102
{ACAD_REACTORS
330
1A
102
}
330
1A
100
AcDbXrecord
280
     1
270
     1
271
     1
  0
XRECORD
  5
1B
102
{ACAD_REACTORS
330
1A
102
}
330
1A
100
AcDbXrecord
280
     1
270
     1
271
     1
  0
XRECORD
  5
1F
102
{ACAD_REACTORS
330
1A
102
}
330
1A
100
AcDbXrecord
280
     1
270
     1
271
     1
  0
XRECORD
  5
1E
102
{ACAD_REACTORS
330
1A
102
}
330
1A
100
AcDbXrecord
280
     1
270
     1
271
     1
  0
XRECORD
  5
20
102
{ACAD_REACTORS
330
1A
102
}
330
1A
100
AcDbXrecord
280
     1
270
     1
271
     1
  0
XRECORD
  5
1D
102
{ACAD_REACTORS
330
1A
102
}
330
1A
100
AcDbXrecord
280
     1
270
     1
271
     1
  0
XRECORD
  5
14
102
{ACAD_REACTORS
330
12
102
}
330
12
100
AcDbXrecord
280
     1
270
     1
271
     1
  0
XRECORD
  5
13
102
{ACAD_REACTORS
330
12
102
}
330
12
100
AcDbXrecord
280
     1
270
     1
271
     1
  0
XRECORD
  5
17
102
{ACAD_REACTORS
330
12
102
}
330
12
100
AcDbXrecord
280
     1
270
     1
271
     1
  0
XRECORD
  5
16
102
{ACAD_REACTORS
330
12
102
}
330
12
100
AcDbXrecord
280
     1
270
     1
271
     1
  0
XRECORD
  5
18
102
{ACAD_REACTORS
330
12
102
}
330
12
100
AcDbXrecord
280
     1
270
     1
271
     1
  0
XRECORD
  5
15
102
{ACAD_REACTORS
330
12
102
}
330
12
100
AcDbXrecord
280
     1
270
     1
271
     1
  0
XRECORD
  5
24
102
{ACAD_REACTORS
330
22
102
}
330
22
100
AcDbXrecord
280
     1
270
     1
271
     1
  0
XRECORD
  5
23
102
{ACAD_REACTORS
330
22
102
}
330
22
100
AcDbXrecord
280
     1
270
     1
271
     1
  0
XRECORD
  5
27
102
{ACAD_REACTORS
330
22
102
}
330
22
100
AcDbXrecord
280
     1
270
     1
271
     1
  0
XRECORD
  5
26
102
{ACAD_REACTORS
330
22
102
}
330
22
100
AcDbXrecord
280
     1
270
     1
271
     1
  0
XRECORD
  5
28
102
{ACAD_REACTORS
330
22
102
}
330
22
100
AcDbXrecord
280
     1
270
     1
271
     1
  0
XRECORD
  5
25
102
{ACAD_REACTORS
330
22
102
}
330
22
100
AcDbXrecord
280
     1
270
     1
271
     1
  0
XRECORD
  5
455
102
{ACAD_REACTORS
330
454
102
}
330
454
100
AcDbXrecord
280
     1
102
ACAD_ROUNDTRIP_2012_MLEADER_STYLE
298
     1
  0
XRECORD
  5
457
102
{ACAD_REACTORS
330
456
102
}
330
456
100
AcDbXrecord
280
     1
102
DISPLAYNAME
  1
Metric50
102
FLAGS
 90
        0
  0
CELLSTYLEMAP
  5
414
102
{ACAD_REACTORS
330
413
102
}
330
413
100
AcDbCellStyleMap
 90
        3
300
CELLSTYLE
  1
TABLEFORMAT_BEGIN
 90
        5
170
     1
 91
        0
 92
    32768
 62
   257
 93
        1
300
CONTENTFORMAT
  1
CONTENTFORMAT_BEGIN
 90
        0
 91
        0
 92
      512
 93
        0
300

 40
0.0
140
1.0
 94
        5
 62
     0
340
55
144
6.0
309
CONTENTFORMAT_END
171
     1
301
MARGIN
  1
CELLMARGIN_BEGIN
 40
1.5
 40
1.5
 40
1.5
 40
1.5
 40
4.5
 40
4.5
309
CELLMARGIN_END
 94
        6
 95
        1
302
GRIDFORMAT
  1
GRIDFORMAT_BEGIN
 90
        0
 91
        1
 62
     0
 92
       -2
340
0
 93
        0
 40
1.125
309
GRIDFORMAT_END
 95
        2
302
GRIDFORMAT
  1
GRIDFORMAT_BEGIN
 90
        0
 91
        1
 62
     0
 92
       -2
340
0
 93
        0
 40
1.125
309
GRIDFORMAT_END
 95
        4
302
GRIDFORMAT
  1
GRIDFORMAT_BEGIN
 90
        0
 91
        1
 62
     0
 92
       -2
340
0
 93
        0
 40
1.125
309
GRIDFORMAT_END
 95
        8
302
GRIDFORMAT
  1
GRIDFORMAT_BEGIN
 90
        0
 91
        1
 62
     0
 92
       -2
340
0
 93
        0
 40
1.125
309
GRIDFORMAT_END
 95
       16
302
GRIDFORMAT
  1
GRIDFORMAT_BEGIN
 90
        0
 91
        1
 62
     0
 92
       -2
340
0
 93
        0
 40
1.125
309
GRIDFORMAT_END
 95
       32
302
GRIDFORMAT
  1
GRIDFORMAT_BEGIN
 90
        0
 91
        1
 62
     0
 92
       -2
340
0
 93
        0
 40
1.125
309
GRIDFORMAT_END
309
TABLEFORMAT_END
  1
CELLSTYLE_BEGIN
 90
        1
 91
        1
300
_TITLE
309
CELLSTYLE_END
300
CELLSTYLE
  1
TABLEFORMAT_BEGIN
 90
        5
170
     1
 91
        0
 92
        0
 62
   257
 93
        1
300
CONTENTFORMAT
  1
CONTENTFORMAT_BEGIN
 90
        0
 91
        0
 92
      512
 93
        0
300

 40
0.0
140
1.0
 94
        5
 62
     0
340
55
144
4.5
309
CONTENTFORMAT_END
171
     1
301
MARGIN
  1
CELLMARGIN_BEGIN
 40
1.5
 40
1.5
 40
1.5
 40
1.5
 40
4.5
 40
4.5
309
CELLMARGIN_END
 94
        6
 95
        1
302
GRIDFORMAT
  1
GRIDFORMAT_BEGIN
 90
        0
 91
        1
 62
     0
 92
       -2
340
0
 93
        0
 40
1.125
309
GRIDFORMAT_END
 95
        2
302
GRIDFORMAT
  1
GRIDFORMAT_BEGIN
 90
        0
 91
        1
 62
     0
 92
       -2
340
0
 93
        0
 40
1.125
309
GRIDFORMAT_END
 95
        4
302
GRIDFORMAT
  1
GRIDFORMAT_BEGIN
 90
        0
 91
        1
 62
     0
 92
       -2
340
0
 93
        0
 40
1.125
309
GRIDFORMAT_END
 95
        8
302
GRIDFORMAT
  1
GRIDFORMAT_BEGIN
 90
        0
 91
        1
 62
     0
 92
       -2
340
0
 93
        0
 40
1.125
309
GRIDFORMAT_END
 95
       16
302
GRIDFORMAT
  1
GRIDFORMAT_BEGIN
 90
        0
 91
        1
 62
     0
 92
       -2
340
0
 93
        0
 40
1.125
309
GRIDFORMAT_END
 95
       32
302
GRIDFORMAT
  1
GRIDFORMAT_BEGIN
 90
        0
 91
        1
 62
     0
 92
       -2
340
0
 93
        0
 40
1.125
309
GRIDFORMAT_END
309
TABLEFORMAT_END
  1
CELLSTYLE_BEGIN
 90
        2
 91
        1
300
_HEADER
309
CELLSTYLE_END
300
CELLSTYLE
  1
TABLEFORMAT_BEGIN
 90
        5
170
     1
 91
        0
 92
        0
 62
   257
 93
        1
300
CONTENTFORMAT
  1
CONTENTFORMAT_BEGIN
 90
        0
 91
        0
 92
      512
 93
        0
300

 40
0.0
140
1.0
 94
        2
 62
     0
340
55
144
4.5
309
CONTENTFORMAT_END
171
     1
301
MARGIN
  1
CELLMARGIN_BEGIN
 40
1.5
 40
1.5
 40
1.5
 40
1.5
 40
4.5
 40
4.5
309
CELLMARGIN_END
 94
        6
 95
        1
302
GRIDFORMAT
  1
GRIDFORMAT_BEGIN
 90
        0
 91
        1
 62
     0
 92
       -2
340
0
 93
        0
 40
1.125
309
GRIDFORMAT_END
 95
        2
302
GRIDFORMAT
  1
GRIDFORMAT_BEGIN
 90
        0
 91
        1
 62
     0
 92
       -2
340
0
 93
        0
 40
1.125
309
GRIDFORMAT_END
 95
        4
302
GRIDFORMAT
  1
GRIDFORMAT_BEGIN
 90
        0
 91
        1
 62
     0
 92
       -2
340
0
 93
        0
 40
1.125
309
GRIDFORMAT_END
 95
        8
302
GRIDFORMAT
  1
GRIDFORMAT_BEGIN
 90
        0
 91
        1
 62
     0
 92
       -2
340
0
 93
        0
 40
1.125
309
GRIDFORMAT_END
 95
       16
302
GRIDFORMAT
  1
GRIDFORMAT_BEGIN
 90
        0
 91
        1
 62
     0
 92
       -2
340
0
 93
        0
 40
1.125
309
GRIDFORMAT_END
 95
       32
302
GRIDFORMAT
  1
GRIDFORMAT_BEGIN
 90
        0
 91
        1
 62
     0
 92
       -2
340
0
 93
        0
 40
1.125
309
GRIDFORMAT_END
309
TABLEFORMAT_END
  1
CELLSTYLE_BEGIN
 90
        3
 91
        2
300
_DATA
309
CELLSTYLE_END
  0
XRECORD
  5
42F
102
{ACAD_REACTORS
330
42E
102
}
330
42E
100
AcDbXrecord
280
     1
102
RTVSPost2010Prop28
280
     1
102
RTVSPost2010PropOp28
 70
     1
102
RTVSPost2010Prop29
280
     1
102
RTVSPost2010PropOp29
 70
     1
102
RTVSPost2010Prop30
280
     0
102
RTVSPost2010PropOp30
 70
     1
102
RTVSPost2010Prop31
280
     0
102
RTVSPost2010PropOp31
 70
     1
102
RTVSPost2010Prop32
280
     0
102
RTVSPost2010PropOp32
 70
     1
102
RTVSPost2010Prop33
280
     0
102
RTVSPost2010PropOp33
 70
     1
102
RTVSPost2010Prop34
280
     0
102
RTVSPost2010PropOp34
 70
     1
102
RTVSPost2010Prop35
280
     0
102
RTVSPost2010PropOp35
 70
     1
102
RTVSPost2010Prop36
280
     0
102
RTVSPost2010PropOp36
 70
     1
102
RTVSPost2010Prop37
 90
       50
102
RTVSPost2010PropOp37
 70
     1
102
RTVSPost2010Prop38
140
0.0
102
RTVSPost2010PropOp38
 70
     1
102
RTVSPost2010Prop39
140
1.0
102
RTVSPost2010PropOp39
 70
     1
102
RTVSPost2010Prop40
 90
        0
102
RTVSPost2010PropOp40
 70
     1
102
RTVSPost2010Prop41ColorIndex
 90
       18
102
RTVSPost2010Prop41ColorRGB
 90
        0
102
RTVSPost2010PropOp41
 70
     1
102
RTVSPost2010Prop42
 90
       50
102
RTVSPost2010PropOp42
 70
     1
102
RTVSPost2010Prop43
 90
        3
102
RTVSPost2010PropOp43
 70
     1
102
RTVSPost2010Prop44ColorIndex
 90
        5
102
RTVSPost2010Prop44ColorRGB
 90
      255
102
RTVSPost2010PropOp44
 70
     1
102
RTVSPost2010Prop45
280
     0
102
RTVSPost2010PropOp45
 70
     1
102
RTVSPost2010Prop46
 90
       50
102
RTVSPost2010PropOp46
 70
     1
102
RTVSPost2010Prop47
 90
       50
102
RTVSPost2010PropOp47
 70
     1
102
RTVSPost2010Prop48
 90
       50
102
RTVSPost2010PropOp48
 70
     1
102
RTVSPost2010Prop49
280
     0
102
RTVSPost2010PropOp49
 70
     1
102
RTVSPost2010Prop50
 90
       50
102
RTVSPost2010PropOp50
 70
     1
102
RTVSPost2010Prop51ColorIndex
 90
      256
102
RTVSPost2010Prop51ColorRGB
 90
-16777216
102
RTVSPost2010PropOp51
 70
     0
102
RTVSPost2010Prop52
140
1.0
102
RTVSPost2010PropOp52
 70
     0
102
RTVSPost2010Prop53
 90
        2
102
RTVSPost2010PropOp53
 70
     1
102
RTVSPost2010Prop54
  1
strokes_ogs.tif
102
RTVSPost2010PropOp54
 70
     1
102
RTVSPost2010Prop55
280
     0
102
RTVSPost2010PropOp55
 70
     1
102
RTVSPost2010Prop56
140
1.0
102
RTVSPost2010PropOp56
 70
     1
102
RTVSPost2010Prop57
140
1.0
102
RTVSPost2010PropOp57
 70
     1
  0
XRECORD
  5
42D
102
{ACAD_REACTORS
330
42C
102
}
330
42C
100
AcDbXrecord
280
     1
102
RTVSPost2010Prop28
280
     0
102
RTVSPost2010PropOp28
 70
     1
102
RTVSPost2010Prop29
280
     1
102
RTVSPost2010PropOp29
 70
     1
102
RTVSPost2010Prop30
280
     1
102
RTVSPost2010PropOp30
 70
     1
102
RTVSPost2010Prop31
280
     0
102
RTVSPost2010PropOp31
 70
     1
102
RTVSPost2010Prop32
280
     0
102
RTVSPost2010PropOp32
 70
     1
102
RTVSPost2010Prop33
280
     0
102
RTVSPost2010PropOp33
 70
     1
102
RTVSPost2010Prop34
280
     0
102
RTVSPost2010PropOp34
 70
     1
102
RTVSPost2010Prop35
280
     0
102
RTVSPost2010PropOp35
 70
     1
102
RTVSPost2010Prop36
280
     0
102
RTVSPost2010PropOp36
 70
     1
102
RTVSPost2010Prop37
 90
       50
102
RTVSPost2010PropOp37
 70
     1
102
RTVSPost2010Prop38
140
0.0
102
RTVSPost2010PropOp38
 70
     1
102
RTVSPost2010Prop39
140
1.0
102
RTVSPost2010PropOp39
 70
     1
102
RTVSPost2010Prop40
 90
        0
102
RTVSPost2010PropOp40
 70
     1
102
RTVSPost2010Prop41ColorIndex
 90
       18
102
RTVSPost2010Prop41ColorRGB
 90
        0
102
RTVSPost2010PropOp41
 70
     1
102
RTVSPost2010Prop42
 90
       50
102
RTVSPost2010PropOp42
 70
     1
102
RTVSPost2010Prop43
 90
        3
102
RTVSPost2010PropOp43
 70
     1
102
RTVSPost2010Prop44ColorIndex
 90
        5
102
RTVSPost2010Prop44ColorRGB
 90
      255
102
RTVSPost2010PropOp44
 70
     1
102
RTVSPost2010Prop45
280
     0
102
RTVSPost2010PropOp45
 70
     1
102
RTVSPost2010Prop46
 90
       50
102
RTVSPost2010PropOp46
 70
     1
102
RTVSPost2010Prop47
 90
       50
102
RTVSPost2010PropOp47
 70
     1
102
RTVSPost2010Prop48
 90
       50
102
RTVSPost2010PropOp48
 70
     1
102
RTVSPost2010Prop49
280
     0
102
RTVSPost2010PropOp49
 70
     1
102
RTVSPost2010Prop50
 90
       50
102
RTVSPost2010PropOp50
 70
     1
102
RTVSPost2010Prop51ColorIndex
 90
      256
102
RTVSPost2010Prop51ColorRGB
 90
-16777216
102
RTVSPost2010PropOp51
 70
     0
102
RTVSPost2010Prop52
140
1.0
102
RTVSPost2010PropOp52
 70
     0
102
RTVSPost2010Prop53
 90
        2
102
RTVSPost2010PropOp53
 70
     1
102
RTVSPost2010Prop54
  1
strokes_ogs.tif
102
RTVSPost2010PropOp54
 70
     1
102
RTVSPost2010Prop55
280
     0
102
RTVSPost2010PropOp55
 70
     1
102
RTVSPost2010Prop56
140
1.0
102
RTVSPost2010PropOp56
 70
     1
102
RTVSPost2010Prop57
140
1.0
102
RTVSPost2010PropOp57
 70
     1
  0
XRECORD
  5
43B
102
{ACAD_REACTORS
330
43A
102
}
330
43A
100
AcDbXrecord
280
     1
102
RTVSPost2010Prop28
280
     0
102
RTVSPost2010PropOp28
 70
     1
102
RTVSPost2010Prop29
280
     1
102
RTVSPost2010PropOp29
 70
     1
102
RTVSPost2010Prop30
280
     1
102
RTVSPost2010PropOp30
 70
     1
102
RTVSPost2010Prop31
280
     0
102
RTVSPost2010PropOp31
 70
     1
102
RTVSPost2010Prop32
280
     0
102
RTVSPost2010PropOp32
 70
     1
102
RTVSPost2010Prop33
280
     0
102
RTVSPost2010PropOp33
 70
     1
102
RTVSPost2010Prop34
280
     0
102
RTVSPost2010PropOp34
 70
     1
102
RTVSPost2010Prop35
280
     0
102
RTVSPost2010PropOp35
 70
     1
102
RTVSPost2010Prop36
280
     0
102
RTVSPost2010PropOp36
 70
     1
102
RTVSPost2010Prop37
 90
       50
102
RTVSPost2010PropOp37
 70
     1
102
RTVSPost2010Prop38
140
0.0
102
RTVSPost2010PropOp38
 70
     1
102
RTVSPost2010Prop39
140
1.0
102
RTVSPost2010PropOp39
 70
     1
102
RTVSPost2010Prop40
 90
        0
102
RTVSPost2010PropOp40
 70
     1
102
RTVSPost2010Prop41ColorIndex
 90
       18
102
RTVSPost2010Prop41ColorRGB
 90
        0
102
RTVSPost2010PropOp41
 70
     1
102
RTVSPost2010Prop42
 90
       50
102
RTVSPost2010PropOp42
 70
     1
102
RTVSPost2010Prop43
 90
        3
102
RTVSPost2010PropOp43
 70
     1
102
RTVSPost2010Prop44ColorIndex
 90
        5
102
RTVSPost2010Prop44ColorRGB
 90
      255
102
RTVSPost2010PropOp44
 70
     1
102
RTVSPost2010Prop45
280
     0
102
RTVSPost2010PropOp45
 70
     1
102
RTVSPost2010Prop46
 90
       50
102
RTVSPost2010PropOp46
 70
     1
102
RTVSPost2010Prop47
 90
       50
102
RTVSPost2010PropOp47
 70
     1
102
RTVSPost2010Prop48
 90
       50
102
RTVSPost2010PropOp48
 70
     1
102
RTVSPost2010Prop49
280
     0
102
RTVSPost2010PropOp49
 70
     1
102
RTVSPost2010Prop50
 90
       50
102
RTVSPost2010PropOp50
 70
     1
102
RTVSPost2010Prop51ColorIndex
 90
      256
102
RTVSPost2010Prop51ColorRGB
 90
-16777216
102
RTVSPost2010PropOp51
 70
     0
102
RTVSPost2010Prop52
140
1.0
102
RTVSPost2010PropOp52
 70
     0
102
RTVSPost2010Prop53
 90
        2
102
RTVSPost2010PropOp53
 70
     1
102
RTVSPost2010Prop54
  1
strokes_ogs.tif
102
RTVSPost2010PropOp54
 70
     1
102
RTVSPost2010Prop55
280
     0
102
RTVSPost2010PropOp55
 70
     1
102
RTVSPost2010Prop56
140
1.0
102
RTVSPost2010PropOp56
 70
     1
102
RTVSPost2010Prop57
140
1.0
102
RTVSPost2010PropOp57
 70
     1
  0
XRECORD
  5
443
102
{ACAD_REACTORS
330
442
102
}
330
442
100
AcDbXrecord
280
     1
102
RTVSPost2010Prop28
280
     0
102
RTVSPost2010PropOp28
 70
     1
102
RTVSPost2010Prop29
280
     1
102
RTVSPost2010PropOp29
 70
     1
102
RTVSPost2010Prop30
280
     1
102
RTVSPost2010PropOp30
 70
     1
102
RTVSPost2010Prop31
280
     0
102
RTVSPost2010PropOp31
 70
     1
102
RTVSPost2010Prop32
280
     0
102
RTVSPost2010PropOp32
 70
     1
102
RTVSPost2010Prop33
280
     0
102
RTVSPost2010PropOp33
 70
     1
102
RTVSPost2010Prop34
280
     0
102
RTVSPost2010PropOp34
 70
     1
102
RTVSPost2010Prop35
280
     0
102
RTVSPost2010PropOp35
 70
     1
102
RTVSPost2010Prop36
280
     0
102
RTVSPost2010PropOp36
 70
     1
102
RTVSPost2010Prop37
 90
       50
102
RTVSPost2010PropOp37
 70
     1
102
RTVSPost2010Prop38
140
0.0
102
RTVSPost2010PropOp38
 70
     1
102
RTVSPost2010Prop39
140
1.0
102
RTVSPost2010PropOp39
 70
     1
102
RTVSPost2010Prop40
 90
        0
102
RTVSPost2010PropOp40
 70
     1
102
RTVSPost2010Prop41ColorIndex
 90
       18
102
RTVSPost2010Prop41ColorRGB
 90
        0
102
RTVSPost2010PropOp41
 70
     1
102
RTVSPost2010Prop42
 90
       50
102
RTVSPost2010PropOp42
 70
     1
102
RTVSPost2010Prop43
 90
        3
102
RTVSPost2010PropOp43
 70
     1
102
RTVSPost2010Prop44ColorIndex
 90
        5
102
RTVSPost2010Prop44ColorRGB
 90
      255
102
RTVSPost2010PropOp44
 70
     1
102
RTVSPost2010Prop45
280
     0
102
RTVSPost2010PropOp45
 70
     1
102
RTVSPost2010Prop46
 90
       50
102
RTVSPost2010PropOp46
 70
     1
102
RTVSPost2010Prop47
 90
       50
102
RTVSPost2010PropOp47
 70
     1
102
RTVSPost2010Prop48
 90
       50
102
RTVSPost2010PropOp48
 70
     1
102
RTVSPost2010Prop49
280
     0
102
RTVSPost2010PropOp49
 70
     1
102
RTVSPost2010Prop50
 90
       50
102
RTVSPost2010PropOp50
 70
     1
102
RTVSPost2010Prop51ColorIndex
 90
      256
102
RTVSPost2010Prop51ColorRGB
 90
-16777216
102
RTVSPost2010PropOp51
 70
     0
102
RTVSPost2010Prop52
140
1.0
102
RTVSPost2010PropOp52
 70
     0
102
RTVSPost2010Prop53
 90
        2
102
RTVSPost2010PropOp53
 70
     1
102
RTVSPost2010Prop54
  1
strokes_ogs.tif
102
RTVSPost2010PropOp54
 70
     1
102
RTVSPost2010Prop55
280
     0
102
RTVSPost2010PropOp55
 70
     1
102
RTVSPost2010Prop56
140
1.0
102
RTVSPost2010PropOp56
 70
     1
102
RTVSPost2010Prop57
140
1.0
102
RTVSPost2010PropOp57
 70
     1
  0
XRECORD
  5
435
102
{ACAD_REACTORS
330
434
102
}
330
434
100
AcDbXrecord
280
     1
102
RTVSPost2010Prop28
280
     0
102
RTVSPost2010PropOp28
 70
     1
102
RTVSPost2010Prop29
280
     1
102
RTVSPost2010PropOp29
 70
     1
102
RTVSPost2010Prop30
280
     1
102
RTVSPost2010PropOp30
 70
     1
102
RTVSPost2010Prop31
280
     0
102
RTVSPost2010PropOp31
 70
     1
102
RTVSPost2010Prop32
280
     0
102
RTVSPost2010PropOp32
 70
     1
102
RTVSPost2010Prop33
280
     0
102
RTVSPost2010PropOp33
 70
     1
102
RTVSPost2010Prop34
280
     0
102
RTVSPost2010PropOp34
 70
     1
102
RTVSPost2010Prop35
280
     0
102
RTVSPost2010PropOp35
 70
     1
102
RTVSPost2010Prop36
280
     0
102
RTVSPost2010PropOp36
 70
     1
102
RTVSPost2010Prop37
 90
       50
102
RTVSPost2010PropOp37
 70
     1
102
RTVSPost2010Prop38
140
0.0
102
RTVSPost2010PropOp38
 70
     1
102
RTVSPost2010Prop39
140
1.0
102
RTVSPost2010PropOp39
 70
     1
102
RTVSPost2010Prop40
 90
        0
102
RTVSPost2010PropOp40
 70
     1
102
RTVSPost2010Prop41ColorIndex
 90
       18
102
RTVSPost2010Prop41ColorRGB
 90
        0
102
RTVSPost2010PropOp41
 70
     1
102
RTVSPost2010Prop42
 90
       50
102
RTVSPost2010PropOp42
 70
     1
102
RTVSPost2010Prop43
 90
        3
102
RTVSPost2010PropOp43
 70
     1
102
RTVSPost2010Prop44ColorIndex
 90
        5
102
RTVSPost2010Prop44ColorRGB
 90
      255
102
RTVSPost2010PropOp44
 70
     1
102
RTVSPost2010Prop45
280
     0
102
RTVSPost2010PropOp45
 70
     1
102
RTVSPost2010Prop46
 90
       50
102
RTVSPost2010PropOp46
 70
     1
102
RTVSPost2010Prop47
 90
       50
102
RTVSPost2010PropOp47
 70
     1
102
RTVSPost2010Prop48
 90
       50
102
RTVSPost2010PropOp48
 70
     1
102
RTVSPost2010Prop49
280
     0
102
RTVSPost2010PropOp49
 70
     1
102
RTVSPost2010Prop50
 90
       50
102
RTVSPost2010PropOp50
 70
     1
102
RTVSPost2010Prop51ColorIndex
 90
      256
102
RTVSPost2010Prop51ColorRGB
 90
-16777216
102
RTVSPost2010PropOp51
 70
     0
102
RTVSPost2010Prop52
140
1.0
102
RTVSPost2010PropOp52
 70
     0
102
RTVSPost2010Prop53
 90
        2
102
RTVSPost2010PropOp53
 70
     1
102
RTVSPost2010Prop54
  1
strokes_ogs.tif
102
RTVSPost2010PropOp54
 70
     1
102
RTVSPost2010Prop55
280
     0
102
RTVSPost2010PropOp55
 70
     1
102
RTVSPost2010Prop56
140
1.0
102
RTVSPost2010PropOp56
 70
     1
102
RTVSPost2010Prop57
140
1.0
102
RTVSPost2010PropOp57
 70
     1
  0
XRECORD
  5
439
102
{ACAD_REACTORS
330
438
102
}
330
438
100
AcDbXrecord
280
     1
102
RTVSPost2010Prop28
280
     0
102
RTVSPost2010PropOp28
 70
     1
102
RTVSPost2010Prop29
280
     1
102
RTVSPost2010PropOp29
 70
     1
102
RTVSPost2010Prop30
280
     1
102
RTVSPost2010PropOp30
 70
     1
102
RTVSPost2010Prop31
280
     0
102
RTVSPost2010PropOp31
 70
     1
102
RTVSPost2010Prop32
280
     0
102
RTVSPost2010PropOp32
 70
     1
102
RTVSPost2010Prop33
280
     0
102
RTVSPost2010PropOp33
 70
     1
102
RTVSPost2010Prop34
280
     0
102
RTVSPost2010PropOp34
 70
     1
102
RTVSPost2010Prop35
280
     0
102
RTVSPost2010PropOp35
 70
     1
102
RTVSPost2010Prop36
280
     0
102
RTVSPost2010PropOp36
 70
     1
102
RTVSPost2010Prop37
 90
       50
102
RTVSPost2010PropOp37
 70
     1
102
RTVSPost2010Prop38
140
0.0
102
RTVSPost2010PropOp38
 70
     1
102
RTVSPost2010Prop39
140
1.0
102
RTVSPost2010PropOp39
 70
     1
102
RTVSPost2010Prop40
 90
        0
102
RTVSPost2010PropOp40
 70
     1
102
RTVSPost2010Prop41ColorIndex
 90
       18
102
RTVSPost2010Prop41ColorRGB
 90
        0
102
RTVSPost2010PropOp41
 70
     1
102
RTVSPost2010Prop42
 90
       50
102
RTVSPost2010PropOp42
 70
     1
102
RTVSPost2010Prop43
 90
        3
102
RTVSPost2010PropOp43
 70
     1
102
RTVSPost2010Prop44ColorIndex
 90
        5
102
RTVSPost2010Prop44ColorRGB
 90
      255
102
RTVSPost2010PropOp44
 70
     1
102
RTVSPost2010Prop45
280
     0
102
RTVSPost2010PropOp45
 70
     1
102
RTVSPost2010Prop46
 90
       50
102
RTVSPost2010PropOp46
 70
     1
102
RTVSPost2010Prop47
 90
       50
102
RTVSPost2010PropOp47
 70
     1
102
RTVSPost2010Prop48
 90
       50
102
RTVSPost2010PropOp48
 70
     1
102
RTVSPost2010Prop49
280
     0
102
RTVSPost2010PropOp49
 70
     1
102
RTVSPost2010Prop50
 90
       50
102
RTVSPost2010PropOp50
 70
     1
102
RTVSPost2010Prop51ColorIndex
 90
      256
102
RTVSPost2010Prop51ColorRGB
 90
-16777216
102
RTVSPost2010PropOp51
 70
     0
102
RTVSPost2010Prop52
140
1.0
102
RTVSPost2010PropOp52
 70
     0
102
RTVSPost2010Prop53
 90
        2
102
RTVSPost2010PropOp53
 70
     1
102
RTVSPost2010Prop54
  1
strokes_ogs.tif
102
RTVSPost2010PropOp54
 70
     1
102
RTVSPost2010Prop55
280
     0
102
RTVSPost2010PropOp55
 70
     1
102
RTVSPost2010Prop56
140
1.0
102
RTVSPost2010PropOp56
 70
     1
102
RTVSPost2010Prop57
140
1.0
102
RTVSPost2010PropOp57
 70
     1
  0
XRECORD
  5
453
102
{ACAD_REACTORS
330
452
102
}
330
452
100
AcDbXrecord
280
     1
102
RTVSPost2010Prop28
280
     0
102
RTVSPost2010PropOp28
 70
     0
102
RTVSPost2010Prop29
280
     1
102
RTVSPost2010PropOp29
 70
     0
102
RTVSPost2010Prop30
280
     1
102
RTVSPost2010PropOp30
 70
     0
102
RTVSPost2010Prop31
280
     0
102
RTVSPost2010PropOp31
 70
     0
102
RTVSPost2010Prop32
280
     0
102
RTVSPost2010PropOp32
 70
     0
102
RTVSPost2010Prop33
280
     0
102
RTVSPost2010PropOp33
 70
     0
102
RTVSPost2010Prop34
280
     0
102
RTVSPost2010PropOp34
 70
     0
102
RTVSPost2010Prop35
280
     0
102
RTVSPost2010PropOp35
 70
     0
102
RTVSPost2010Prop36
280
     0
102
RTVSPost2010PropOp36
 70
     0
102
RTVSPost2010Prop37
 90
       50
102
RTVSPost2010PropOp37
 70
     0
102
RTVSPost2010Prop38
140
0.0
102
RTVSPost2010PropOp38
 70
     0
102
RTVSPost2010Prop39
140
1.0
102
RTVSPost2010PropOp39
 70
     0
102
RTVSPost2010Prop40
 90
        0
102
RTVSPost2010PropOp40
 70
     0
102
RTVSPost2010Prop41ColorIndex
 90
       18
102
RTVSPost2010Prop41ColorRGB
 90
        0
102
RTVSPost2010PropOp41
 70
     0
102
RTVSPost2010Prop42
 90
       50
102
RTVSPost2010PropOp42
 70
     0
102
RTVSPost2010Prop43
 90
        3
102
RTVSPost2010PropOp43
 70
     0
102
RTVSPost2010Prop44ColorIndex
 90
        5
102
RTVSPost2010Prop44ColorRGB
 90
      255
102
RTVSPost2010PropOp44
 70
     0
102
RTVSPost2010Prop45
280
     0
102
RTVSPost2010PropOp45
 70
     0
102
RTVSPost2010Prop46
 90
       50
102
RTVSPost2010PropOp46
 70
     0
102
RTVSPost2010Prop47
 90
       50
102
RTVSPost2010PropOp47
 70
     0
102
RTVSPost2010Prop48
 90
       50
102
RTVSPost2010PropOp48
 70
     0
102
RTVSPost2010Prop49
280
     0
102
RTVSPost2010PropOp49
 70
     0
102
RTVSPost2010Prop50
 90
       50
102
RTVSPost2010PropOp50
 70
     0
102
RTVSPost2010Prop51ColorIndex
 90
      256
102
RTVSPost2010Prop51ColorRGB
 90
-16777216
102
RTVSPost2010PropOp51
 70
     0
102
RTVSPost2010Prop52
140
1.0
102
RTVSPost2010PropOp52
 70
     0
102
RTVSPost2010Prop53
 90
        2
102
RTVSPost2010PropOp53
 70
     0
102
RTVSPost2010Prop54
  1
strokes_ogs.tif
102
RTVSPost2010PropOp54
 70
     0
102
RTVSPost2010Prop55
280
     0
102
RTVSPost2010PropOp55
 70
     0
102
RTVSPost2010Prop56
140
1.0
102
RTVSPost2010PropOp56
 70
     0
102
RTVSPost2010Prop57
140
1.0
102
RTVSPost2010PropOp57
 70
     0
  0
XRECORD
  5
441
102
{ACAD_REACTORS
330
440
102
}
330
440
100
AcDbXrecord
280
     1
102
RTVSPost2010Prop28
280
     0
102
RTVSPost2010PropOp28
 70
     1
102
RTVSPost2010Prop29
280
     1
102
RTVSPost2010PropOp29
 70
     1
102
RTVSPost2010Prop30
280
     1
102
RTVSPost2010PropOp30
 70
     1
102
RTVSPost2010Prop31
280
     0
102
RTVSPost2010PropOp31
 70
     1
102
RTVSPost2010Prop32
280
     0
102
RTVSPost2010PropOp32
 70
     1
102
RTVSPost2010Prop33
280
     0
102
RTVSPost2010PropOp33
 70
     1
102
RTVSPost2010Prop34
280
     0
102
RTVSPost2010PropOp34
 70
     1
102
RTVSPost2010Prop35
280
     0
102
RTVSPost2010PropOp35
 70
     1
102
RTVSPost2010Prop36
280
     0
102
RTVSPost2010PropOp36
 70
     1
102
RTVSPost2010Prop37
 90
       50
102
RTVSPost2010PropOp37
 70
     1
102
RTVSPost2010Prop38
140
0.0
102
RTVSPost2010PropOp38
 70
     1
102
RTVSPost2010Prop39
140
1.0
102
RTVSPost2010PropOp39
 70
     1
102
RTVSPost2010Prop40
 90
        0
102
RTVSPost2010PropOp40
 70
     1
102
RTVSPost2010Prop41ColorIndex
 90
       18
102
RTVSPost2010Prop41ColorRGB
 90
        0
102
RTVSPost2010PropOp41
 70
     1
102
RTVSPost2010Prop42
 90
       50
102
RTVSPost2010PropOp42
 70
     1
102
RTVSPost2010Prop43
 90
        3
102
RTVSPost2010PropOp43
 70
     1
102
RTVSPost2010Prop44ColorIndex
 90
        5
102
RTVSPost2010Prop44ColorRGB
 90
      255
102
RTVSPost2010PropOp44
 70
     1
102
RTVSPost2010Prop45
280
     0
102
RTVSPost2010PropOp45
 70
     1
102
RTVSPost2010Prop46
 90
       50
102
RTVSPost2010PropOp46
 70
     1
102
RTVSPost2010Prop47
 90
       50
102
RTVSPost2010PropOp47
 70
     1
102
RTVSPost2010Prop48
 90
       50
102
RTVSPost2010PropOp48
 70
     1
102
RTVSPost2010Prop49
280
     0
102
RTVSPost2010PropOp49
 70
     1
102
RTVSPost2010Prop50
 90
       50
102
RTVSPost2010PropOp50
 70
     1
102
RTVSPost2010Prop51ColorIndex
 90
      256
102
RTVSPost2010Prop51ColorRGB
 90
-16777216
102
RTVSPost2010PropOp51
 70
     0
102
RTVSPost2010Prop52
140
1.0
102
RTVSPost2010PropOp52
 70
     0
102
RTVSPost2010Prop53
 90
        2
102
RTVSPost2010PropOp53
 70
     1
102
RTVSPost2010Prop54
  1
strokes_ogs.tif
102
RTVSPost2010PropOp54
 70
     1
102
RTVSPost2010Prop55
280
     0
102
RTVSPost2010PropOp55
 70
     1
102
RTVSPost2010Prop56
140
1.0
102
RTVSPost2010PropOp56
 70
     1
102
RTVSPost2010Prop57
140
1.0
102
RTVSPost2010PropOp57
 70
     1
  0
XRECORD
  5
425
102
{ACAD_REACTORS
330
424
102
}
330
424
100
AcDbXrecord
280
     1
102
RTVSPost2010Prop28
280
     0
102
RTVSPost2010PropOp28
 70
     1
102
RTVSPost2010Prop29
280
     1
102
RTVSPost2010PropOp29
 70
     1
102
RTVSPost2010Prop30
280
     1
102
RTVSPost2010PropOp30
 70
     1
102
RTVSPost2010Prop31
280
     0
102
RTVSPost2010PropOp31
 70
     1
102
RTVSPost2010Prop32
280
     0
102
RTVSPost2010PropOp32
 70
     1
102
RTVSPost2010Prop33
280
     0
102
RTVSPost2010PropOp33
 70
     1
102
RTVSPost2010Prop34
280
     0
102
RTVSPost2010PropOp34
 70
     1
102
RTVSPost2010Prop35
280
     0
102
RTVSPost2010PropOp35
 70
     1
102
RTVSPost2010Prop36
280
     0
102
RTVSPost2010PropOp36
 70
     1
102
RTVSPost2010Prop37
 90
       50
102
RTVSPost2010PropOp37
 70
     1
102
RTVSPost2010Prop38
140
0.0
102
RTVSPost2010PropOp38
 70
     1
102
RTVSPost2010Prop39
140
1.0
102
RTVSPost2010PropOp39
 70
     1
102
RTVSPost2010Prop40
 90
        0
102
RTVSPost2010PropOp40
 70
     1
102
RTVSPost2010Prop41ColorIndex
 90
       18
102
RTVSPost2010Prop41ColorRGB
 90
        0
102
RTVSPost2010PropOp41
 70
     1
102
RTVSPost2010Prop42
 90
       50
102
RTVSPost2010PropOp42
 70
     1
102
RTVSPost2010Prop43
 90
        3
102
RTVSPost2010PropOp43
 70
     1
102
RTVSPost2010Prop44ColorIndex
 90
        5
102
RTVSPost2010Prop44ColorRGB
 90
      255
102
RTVSPost2010PropOp44
 70
     1
102
RTVSPost2010Prop45
280
     0
102
RTVSPost2010PropOp45
 70
     1
102
RTVSPost2010Prop46
 90
       50
102
RTVSPost2010PropOp46
 70
     1
102
RTVSPost2010Prop47
 90
       50
102
RTVSPost2010PropOp47
 70
     1
102
RTVSPost2010Prop48
 90
       50
102
RTVSPost2010PropOp48
 70
     1
102
RTVSPost2010Prop49
280
     0
102
RTVSPost2010PropOp49
 70
     1
102
RTVSPost2010Prop50
 90
       50
102
RTVSPost2010PropOp50
 70
     1
102
RTVSPost2010Prop51ColorIndex
 90
      256
102
RTVSPost2010Prop51ColorRGB
 90
-16777216
102
RTVSPost2010PropOp51
 70
     0
102
RTVSPost2010Prop52
140
1.0
102
RTVSPost2010PropOp52
 70
     0
102
RTVSPost2010Prop53
 90
        2
102
RTVSPost2010PropOp53
 70
     1
102
RTVSPost2010Prop54
  1
strokes_ogs.tif
102
RTVSPost2010PropOp54
 70
     1
102
RTVSPost2010Prop55
280
     0
102
RTVSPost2010PropOp55
 70
     1
102
RTVSPost2010Prop56
140
1.0
102
RTVSPost2010PropOp56
 70
     1
102
RTVSPost2010Prop57
140
1.0
102
RTVSPost2010PropOp57
 70
     1
  0
XRECORD
  5
427
102
{ACAD_REACTORS
330
426
102
}
330
426
100
AcDbXrecord
280
     1
102
RTVSPost2010Prop28
280
     0
102
RTVSPost2010PropOp28
 70
     1
102
RTVSPost2010Prop29
280
     1
102
RTVSPost2010PropOp29
 70
     1
102
RTVSPost2010Prop30
280
     1
102
RTVSPost2010PropOp30
 70
     1
102
RTVSPost2010Prop31
280
     0
102
RTVSPost2010PropOp31
 70
     1
102
RTVSPost2010Prop32
280
     0
102
RTVSPost2010PropOp32
 70
     1
102
RTVSPost2010Prop33
280
     0
102
RTVSPost2010PropOp33
 70
     1
102
RTVSPost2010Prop34
280
     0
102
RTVSPost2010PropOp34
 70
     1
102
RTVSPost2010Prop35
280
     0
102
RTVSPost2010PropOp35
 70
     1
102
RTVSPost2010Prop36
280
     0
102
RTVSPost2010PropOp36
 70
     1
102
RTVSPost2010Prop37
 90
       50
102
RTVSPost2010PropOp37
 70
     1
102
RTVSPost2010Prop38
140
0.0
102
RTVSPost2010PropOp38
 70
     1
102
RTVSPost2010Prop39
140
1.0
102
RTVSPost2010PropOp39
 70
     1
102
RTVSPost2010Prop40
 90
        0
102
RTVSPost2010PropOp40
 70
     1
102
RTVSPost2010Prop41ColorIndex
 90
       18
102
RTVSPost2010Prop41ColorRGB
 90
        0
102
RTVSPost2010PropOp41
 70
     1
102
RTVSPost2010Prop42
 90
       50
102
RTVSPost2010PropOp42
 70
     1
102
RTVSPost2010Prop43
 90
        3
102
RTVSPost2010PropOp43
 70
     1
102
RTVSPost2010Prop44ColorIndex
 90
        5
102
RTVSPost2010Prop44ColorRGB
 90
      255
102
RTVSPost2010PropOp44
 70
     1
102
RTVSPost2010Prop45
280
     0
102
RTVSPost2010PropOp45
 70
     1
102
RTVSPost2010Prop46
 90
       50
102
RTVSPost2010PropOp46
 70
     1
102
RTVSPost2010Prop47
 90
       50
102
RTVSPost2010PropOp47
 70
     1
102
RTVSPost2010Prop48
 90
       50
102
RTVSPost2010PropOp48
 70
     1
102
RTVSPost2010Prop49
280
     0
102
RTVSPost2010PropOp49
 70
     1
102
RTVSPost2010Prop50
 90
       50
102
RTVSPost2010PropOp50
 70
     1
102
RTVSPost2010Prop51ColorIndex
 90
      256
102
RTVSPost2010Prop51ColorRGB
 90
-16777216
102
RTVSPost2010PropOp51
 70
     0
102
RTVSPost2010Prop52
140
1.0
102
RTVSPost2010PropOp52
 70
     0
102
RTVSPost2010Prop53
 90
        2
102
RTVSPost2010PropOp53
 70
     1
102
RTVSPost2010Prop54
  1
strokes_ogs.tif
102
RTVSPost2010PropOp54
 70
     1
102
RTVSPost2010Prop55
280
     0
102
RTVSPost2010PropOp55
 70
     1
102
RTVSPost2010Prop56
140
1.0
102
RTVSPost2010PropOp56
 70
     1
102
RTVSPost2010Prop57
140
1.0
102
RTVSPost2010PropOp57
 70
     1
  0
XRECORD
  5
429
102
{ACAD_REACTORS
330
428
102
}
330
428
100
AcDbXrecord
280
     1
102
RTVSPost2010Prop28
280
     0
102
RTVSPost2010PropOp28
 70
     1
102
RTVSPost2010Prop29
280
     1
102
RTVSPost2010PropOp29
 70
     1
102
RTVSPost2010Prop30
280
     1
102
RTVSPost2010PropOp30
 70
     1
102
RTVSPost2010Prop31
280
     0
102
RTVSPost2010PropOp31
 70
     1
102
RTVSPost2010Prop32
280
     0
102
RTVSPost2010PropOp32
 70
     1
102
RTVSPost2010Prop33
280
     0
102
RTVSPost2010PropOp33
 70
     1
102
RTVSPost2010Prop34
280
     0
102
RTVSPost2010PropOp34
 70
     1
102
RTVSPost2010Prop35
280
     0
102
RTVSPost2010PropOp35
 70
     1
102
RTVSPost2010Prop36
280
     0
102
RTVSPost2010PropOp36
 70
     1
102
RTVSPost2010Prop37
 90
       50
102
RTVSPost2010PropOp37
 70
     1
102
RTVSPost2010Prop38
140
0.0
102
RTVSPost2010PropOp38
 70
     1
102
RTVSPost2010Prop39
140
1.0
102
RTVSPost2010PropOp39
 70
     1
102
RTVSPost2010Prop40
 90
        0
102
RTVSPost2010PropOp40
 70
     1
102
RTVSPost2010Prop41ColorIndex
 90
       18
102
RTVSPost2010Prop41ColorRGB
 90
        0
102
RTVSPost2010PropOp41
 70
     1
102
RTVSPost2010Prop42
 90
       50
102
RTVSPost2010PropOp42
 70
     1
102
RTVSPost2010Prop43
 90
        3
102
RTVSPost2010PropOp43
 70
     1
102
RTVSPost2010Prop44ColorIndex
 90
        5
102
RTVSPost2010Prop44ColorRGB
 90
      255
102
RTVSPost2010PropOp44
 70
     1
102
RTVSPost2010Prop45
280
     0
102
RTVSPost2010PropOp45
 70
     1
102
RTVSPost2010Prop46
 90
       50
102
RTVSPost2010PropOp46
 70
     1
102
RTVSPost2010Prop47
 90
       50
102
RTVSPost2010PropOp47
 70
     1
102
RTVSPost2010Prop48
 90
       50
102
RTVSPost2010PropOp48
 70
     1
102
RTVSPost2010Prop49
280
     0
102
RTVSPost2010PropOp49
 70
     1
102
RTVSPost2010Prop50
 90
       50
102
RTVSPost2010PropOp50
 70
     1
102
RTVSPost2010Prop51ColorIndex
 90
      256
102
RTVSPost2010Prop51ColorRGB
 90
-16777216
102
RTVSPost2010PropOp51
 70
     0
102
RTVSPost2010Prop52
140
1.0
102
RTVSPost2010PropOp52
 70
     0
102
RTVSPost2010Prop53
 90
        2
102
RTVSPost2010PropOp53
 70
     1
102
RTVSPost2010Prop54
  1
strokes_ogs.tif
102
RTVSPost2010PropOp54
 70
     1
102
RTVSPost2010Prop55
280
     0
102
RTVSPost2010PropOp55
 70
     1
102
RTVSPost2010Prop56
140
1.0
102
RTVSPost2010PropOp56
 70
     1
102
RTVSPost2010Prop57
140
1.0
102
RTVSPost2010PropOp57
 70
     1
  0
XRECORD
  5
42B
102
{ACAD_REACTORS
330
42A
102
}
330
42A
100
AcDbXrecord
280
     1
102
RTVSPost2010Prop28
280
     0
102
RTVSPost2010PropOp28
 70
     1
102
RTVSPost2010Prop29
280
     1
102
RTVSPost2010PropOp29
 70
     1
102
RTVSPost2010Prop30
280
     1
102
RTVSPost2010PropOp30
 70
     1
102
RTVSPost2010Prop31
280
     0
102
RTVSPost2010PropOp31
 70
     1
102
RTVSPost2010Prop32
280
     0
102
RTVSPost2010PropOp32
 70
     1
102
RTVSPost2010Prop33
280
     0
102
RTVSPost2010PropOp33
 70
     1
102
RTVSPost2010Prop34
280
     0
102
RTVSPost2010PropOp34
 70
     1
102
RTVSPost2010Prop35
280
     0
102
RTVSPost2010PropOp35
 70
     1
102
RTVSPost2010Prop36
280
     0
102
RTVSPost2010PropOp36
 70
     1
102
RTVSPost2010Prop37
 90
       50
102
RTVSPost2010PropOp37
 70
     1
102
RTVSPost2010Prop38
140
0.0
102
RTVSPost2010PropOp38
 70
     1
102
RTVSPost2010Prop39
140
1.0
102
RTVSPost2010PropOp39
 70
     1
102
RTVSPost2010Prop40
 90
        0
102
RTVSPost2010PropOp40
 70
     1
102
RTVSPost2010Prop41ColorIndex
 90
       18
102
RTVSPost2010Prop41ColorRGB
 90
        0
102
RTVSPost2010PropOp41
 70
     1
102
RTVSPost2010Prop42
 90
       50
102
RTVSPost2010PropOp42
 70
     1
102
RTVSPost2010Prop43
 90
        3
102
RTVSPost2010PropOp43
 70
     1
102
RTVSPost2010Prop44ColorIndex
 90
        5
102
RTVSPost2010Prop44ColorRGB
 90
      255
102
RTVSPost2010PropOp44
 70
     1
102
RTVSPost2010Prop45
280
     0
102
RTVSPost2010PropOp45
 70
     1
102
RTVSPost2010Prop46
 90
       50
102
RTVSPost2010PropOp46
 70
     1
102
RTVSPost2010Prop47
 90
       50
102
RTVSPost2010PropOp47
 70
     1
102
RTVSPost2010Prop48
 90
       50
102
RTVSPost2010PropOp48
 70
     1
102
RTVSPost2010Prop49
280
     0
102
RTVSPost2010PropOp49
 70
     1
102
RTVSPost2010Prop50
 90
       50
102
RTVSPost2010PropOp50
 70
     1
102
RTVSPost2010Prop51ColorIndex
 90
      256
102
RTVSPost2010Prop51ColorRGB
 90
-16777216
102
RTVSPost2010PropOp51
 70
     0
102
RTVSPost2010Prop52
140
1.0
102
RTVSPost2010PropOp52
 70
     0
102
RTVSPost2010Prop53
 90
        2
102
RTVSPost2010PropOp53
 70
     1
102
RTVSPost2010Prop54
  1
strokes_ogs.tif
102
RTVSPost2010PropOp54
 70
     1
102
RTVSPost2010Prop55
280
     0
102
RTVSPost2010PropOp55
 70
     1
102
RTVSPost2010Prop56
140
1.0
102
RTVSPost2010PropOp56
 70
     1
102
RTVSPost2010Prop57
140
1.0
102
RTVSPost2010PropOp57
 70
     1
  0
XRECORD
  5
433
102
{ACAD_REACTORS
330
432
102
}
330
432
100
AcDbXrecord
280
     1
102
RTVSPost2010Prop28
280
     0
102
RTVSPost2010PropOp28
 70
     1
102
RTVSPost2010Prop29
280
     1
102
RTVSPost2010PropOp29
 70
     1
102
RTVSPost2010Prop30
280
     1
102
RTVSPost2010PropOp30
 70
     1
102
RTVSPost2010Prop31
280
     0
102
RTVSPost2010PropOp31
 70
     1
102
RTVSPost2010Prop32
280
     0
102
RTVSPost2010PropOp32
 70
     1
102
RTVSPost2010Prop33
280
     0
102
RTVSPost2010PropOp33
 70
     1
102
RTVSPost2010Prop34
280
     0
102
RTVSPost2010PropOp34
 70
     1
102
RTVSPost2010Prop35
280
     0
102
RTVSPost2010PropOp35
 70
     1
102
RTVSPost2010Prop36
280
     0
102
RTVSPost2010PropOp36
 70
     1
102
RTVSPost2010Prop37
 90
       50
102
RTVSPost2010PropOp37
 70
     1
102
RTVSPost2010Prop38
140
0.0
102
RTVSPost2010PropOp38
 70
     1
102
RTVSPost2010Prop39
140
1.0
102
RTVSPost2010PropOp39
 70
     1
102
RTVSPost2010Prop40
 90
        0
102
RTVSPost2010PropOp40
 70
     1
102
RTVSPost2010Prop41ColorIndex
 90
       18
102
RTVSPost2010Prop41ColorRGB
 90
        0
102
RTVSPost2010PropOp41
 70
     1
102
RTVSPost2010Prop42
 90
       50
102
RTVSPost2010PropOp42
 70
     1
102
RTVSPost2010Prop43
 90
        3
102
RTVSPost2010PropOp43
 70
     1
102
RTVSPost2010Prop44ColorIndex
 90
        5
102
RTVSPost2010Prop44ColorRGB
 90
      255
102
RTVSPost2010PropOp44
 70
     1
102
RTVSPost2010Prop45
280
     0
102
RTVSPost2010PropOp45
 70
     1
102
RTVSPost2010Prop46
 90
       50
102
RTVSPost2010PropOp46
 70
     1
102
RTVSPost2010Prop47
 90
       50
102
RTVSPost2010PropOp47
 70
     1
102
RTVSPost2010Prop48
 90
       50
102
RTVSPost2010PropOp48
 70
     1
102
RTVSPost2010Prop49
280
     0
102
RTVSPost2010PropOp49
 70
     1
102
RTVSPost2010Prop50
 90
       50
102
RTVSPost2010PropOp50
 70
     1
102
RTVSPost2010Prop51ColorIndex
 90
      256
102
RTVSPost2010Prop51ColorRGB
 90
-16777216
102
RTVSPost2010PropOp51
 70
     0
102
RTVSPost2010Prop52
140
1.0
102
RTVSPost2010PropOp52
 70
     0
102
RTVSPost2010Prop53
 90
        2
102
RTVSPost2010PropOp53
 70
     1
102
RTVSPost2010Prop54
  1
strokes_ogs.tif
102
RTVSPost2010PropOp54
 70
     1
102
RTVSPost2010Prop55
280
     0
102
RTVSPost2010PropOp55
 70
     1
102
RTVSPost2010Prop56
140
1.0
102
RTVSPost2010PropOp56
 70
     1
102
RTVSPost2010Prop57
140
1.0
102
RTVSPost2010PropOp57
 70
     1
  0
XRECORD
  5
44F
102
{ACAD_REACTORS
330
44E
102
}
330
44E
100
AcDbXrecord
280
     1
102
RTVSPost2010Prop28
280
     0
102
RTVSPost2010PropOp28
 70
     0
102
RTVSPost2010Prop29
280
     1
102
RTVSPost2010PropOp29
 70
     0
102
RTVSPost2010Prop30
280
     1
102
RTVSPost2010PropOp30
 70
     0
102
RTVSPost2010Prop31
280
     0
102
RTVSPost2010PropOp31
 70
     0
102
RTVSPost2010Prop32
280
     0
102
RTVSPost2010PropOp32
 70
     0
102
RTVSPost2010Prop33
280
     0
102
RTVSPost2010PropOp33
 70
     0
102
RTVSPost2010Prop34
280
     0
102
RTVSPost2010PropOp34
 70
     0
102
RTVSPost2010Prop35
280
     0
102
RTVSPost2010PropOp35
 70
     0
102
RTVSPost2010Prop36
280
     0
102
RTVSPost2010PropOp36
 70
     0
102
RTVSPost2010Prop37
 90
       50
102
RTVSPost2010PropOp37
 70
     0
102
RTVSPost2010Prop38
140
0.0
102
RTVSPost2010PropOp38
 70
     0
102
RTVSPost2010Prop39
140
1.0
102
RTVSPost2010PropOp39
 70
     0
102
RTVSPost2010Prop40
 90
        0
102
RTVSPost2010PropOp40
 70
     0
102
RTVSPost2010Prop41ColorIndex
 90
       18
102
RTVSPost2010Prop41ColorRGB
 90
        0
102
RTVSPost2010PropOp41
 70
     0
102
RTVSPost2010Prop42
 90
       50
102
RTVSPost2010PropOp42
 70
     0
102
RTVSPost2010Prop43
 90
        3
102
RTVSPost2010PropOp43
 70
     0
102
RTVSPost2010Prop44ColorIndex
 90
        5
102
RTVSPost2010Prop44ColorRGB
 90
      255
102
RTVSPost2010PropOp44
 70
     0
102
RTVSPost2010Prop45
280
     0
102
RTVSPost2010PropOp45
 70
     0
102
RTVSPost2010Prop46
 90
       50
102
RTVSPost2010PropOp46
 70
     0
102
RTVSPost2010Prop47
 90
       50
102
RTVSPost2010PropOp47
 70
     0
102
RTVSPost2010Prop48
 90
       50
102
RTVSPost2010PropOp48
 70
     0
102
RTVSPost2010Prop49
280
     0
102
RTVSPost2010PropOp49
 70
     0
102
RTVSPost2010Prop50
 90
       50
102
RTVSPost2010PropOp50
 70
     0
102
RTVSPost2010Prop51ColorIndex
 90
      256
102
RTVSPost2010Prop51ColorRGB
 90
-16777216
102
RTVSPost2010PropOp51
 70
     0
102
RTVSPost2010Prop52
140
1.0
102
RTVSPost2010PropOp52
 70
     0
102
RTVSPost2010Prop53
 90
        2
102
RTVSPost2010PropOp53
 70
     0
102
RTVSPost2010Prop54
  1
strokes_ogs.tif
102
RTVSPost2010PropOp54
 70
     0
102
RTVSPost2010Prop55
280
     0
102
RTVSPost2010PropOp55
 70
     0
102
RTVSPost2010Prop56
140
1.0
102
RTVSPost2010PropOp56
 70
     0
102
RTVSPost2010Prop57
140
1.0
102
RTVSPost2010PropOp57
 70
     0
  0
XRECORD
  5
43F
102
{ACAD_REACTORS
330
43E
102
}
330
43E
100
AcDbXrecord
280
     1
102
RTVSPost2010Prop28
280
     0
102
RTVSPost2010PropOp28
 70
     1
102
RTVSPost2010Prop29
280
     1
102
RTVSPost2010PropOp29
 70
     1
102
RTVSPost2010Prop30
280
     1
102
RTVSPost2010PropOp30
 70
     1
102
RTVSPost2010Prop31
280
     0
102
RTVSPost2010PropOp31
 70
     1
102
RTVSPost2010Prop32
280
     0
102
RTVSPost2010PropOp32
 70
     1
102
RTVSPost2010Prop33
280
     0
102
RTVSPost2010PropOp33
 70
     1
102
RTVSPost2010Prop34
280
     0
102
RTVSPost2010PropOp34
 70
     1
102
RTVSPost2010Prop35
280
     0
102
RTVSPost2010PropOp35
 70
     1
102
RTVSPost2010Prop36
280
     0
102
RTVSPost2010PropOp36
 70
     1
102
RTVSPost2010Prop37
 90
       50
102
RTVSPost2010PropOp37
 70
     1
102
RTVSPost2010Prop38
140
0.0
102
RTVSPost2010PropOp38
 70
     1
102
RTVSPost2010Prop39
140
1.0
102
RTVSPost2010PropOp39
 70
     1
102
RTVSPost2010Prop40
 90
        0
102
RTVSPost2010PropOp40
 70
     1
102
RTVSPost2010Prop41ColorIndex
 90
       18
102
RTVSPost2010Prop41ColorRGB
 90
        0
102
RTVSPost2010PropOp41
 70
     1
102
RTVSPost2010Prop42
 90
       50
102
RTVSPost2010PropOp42
 70
     1
102
RTVSPost2010Prop43
 90
        3
102
RTVSPost2010PropOp43
 70
     1
102
RTVSPost2010Prop44ColorIndex
 90
        5
102
RTVSPost2010Prop44ColorRGB
 90
      255
102
RTVSPost2010PropOp44
 70
     1
102
RTVSPost2010Prop45
280
     0
102
RTVSPost2010PropOp45
 70
     1
102
RTVSPost2010Prop46
 90
       50
102
RTVSPost2010PropOp46
 70
     1
102
RTVSPost2010Prop47
 90
       50
102
RTVSPost2010PropOp47
 70
     1
102
RTVSPost2010Prop48
 90
       50
102
RTVSPost2010PropOp48
 70
     1
102
RTVSPost2010Prop49
280
     0
102
RTVSPost2010PropOp49
 70
     1
102
RTVSPost2010Prop50
 90
       50
102
RTVSPost2010PropOp50
 70
     1
102
RTVSPost2010Prop51ColorIndex
 90
      256
102
RTVSPost2010Prop51ColorRGB
 90
-16777216
102
RTVSPost2010PropOp51
 70
     0
102
RTVSPost2010Prop52
140
1.0
102
RTVSPost2010PropOp52
 70
     0
102
RTVSPost2010Prop53
 90
        2
102
RTVSPost2010PropOp53
 70
     1
102
RTVSPost2010Prop54
  1
strokes_ogs.tif
102
RTVSPost2010PropOp54
 70
     1
102
RTVSPost2010Prop55
280
     0
102
RTVSPost2010PropOp55
 70
     1
102
RTVSPost2010Prop56
140
1.0
102
RTVSPost2010PropOp56
 70
     1
102
RTVSPost2010Prop57
140
1.0
102
RTVSPost2010PropOp57
 70
     1
  0
XRECORD
  5
451
102
{ACAD_REACTORS
330
450
102
}
330
450
100
AcDbXrecord
280
     1
102
RTVSPost2010Prop28
280
     0
102
RTVSPost2010PropOp28
 70
     0
102
RTVSPost2010Prop29
280
     1
102
RTVSPost2010PropOp29
 70
     0
102
RTVSPost2010Prop30
280
     1
102
RTVSPost2010PropOp30
 70
     0
102
RTVSPost2010Prop31
280
     0
102
RTVSPost2010PropOp31
 70
     0
102
RTVSPost2010Prop32
280
     0
102
RTVSPost2010PropOp32
 70
     0
102
RTVSPost2010Prop33
280
     0
102
RTVSPost2010PropOp33
 70
     0
102
RTVSPost2010Prop34
280
     0
102
RTVSPost2010PropOp34
 70
     0
102
RTVSPost2010Prop35
280
     0
102
RTVSPost2010PropOp35
 70
     0
102
RTVSPost2010Prop36
280
     0
102
RTVSPost2010PropOp36
 70
     0
102
RTVSPost2010Prop37
 90
       50
102
RTVSPost2010PropOp37
 70
     0
102
RTVSPost2010Prop38
140
0.0
102
RTVSPost2010PropOp38
 70
     0
102
RTVSPost2010Prop39
140
1.0
102
RTVSPost2010PropOp39
 70
     0
102
RTVSPost2010Prop40
 90
        0
102
RTVSPost2010PropOp40
 70
     0
102
RTVSPost2010Prop41ColorIndex
 90
       18
102
RTVSPost2010Prop41ColorRGB
 90
        0
102
RTVSPost2010PropOp41
 70
     0
102
RTVSPost2010Prop42
 90
       50
102
RTVSPost2010PropOp42
 70
     0
102
RTVSPost2010Prop43
 90
        3
102
RTVSPost2010PropOp43
 70
     0
102
RTVSPost2010Prop44ColorIndex
 90
        5
102
RTVSPost2010Prop44ColorRGB
 90
      255
102
RTVSPost2010PropOp44
 70
     0
102
RTVSPost2010Prop45
280
     0
102
RTVSPost2010PropOp45
 70
     0
102
RTVSPost2010Prop46
 90
       50
102
RTVSPost2010PropOp46
 70
     0
102
RTVSPost2010Prop47
 90
       50
102
RTVSPost2010PropOp47
 70
     0
102
RTVSPost2010Prop48
 90
       50
102
RTVSPost2010PropOp48
 70
     0
102
RTVSPost2010Prop49
280
     0
102
RTVSPost2010PropOp49
 70
     0
102
RTVSPost2010Prop50
 90
       50
102
RTVSPost2010PropOp50
 70
     0
102
RTVSPost2010Prop51ColorIndex
 90
      256
102
RTVSPost2010Prop51ColorRGB
 90
-16777216
102
RTVSPost2010PropOp51
 70
     0
102
RTVSPost2010Prop52
140
1.0
102
RTVSPost2010PropOp52
 70
     0
102
RTVSPost2010Prop53
 90
        2
102
RTVSPost2010PropOp53
 70
     0
102
RTVSPost2010Prop54
  1
strokes_ogs.tif
102
RTVSPost2010PropOp54
 70
     0
102
RTVSPost2010Prop55
280
     0
102
RTVSPost2010PropOp55
 70
     0
102
RTVSPost2010Prop56
140
1.0
102
RTVSPost2010PropOp56
 70
     0
102
RTVSPost2010Prop57
140
1.0
102
RTVSPost2010PropOp57
 70
     0
  0
XRECORD
  5
437
102
{ACAD_REACTORS
330
436
102
}
330
436
100
AcDbXrecord
280
     1
102
RTVSPost2010Prop28
280
     0
102
RTVSPost2010PropOp28
 70
     1
102
RTVSPost2010Prop29
280
     1
102
RTVSPost2010PropOp29
 70
     1
102
RTVSPost2010Prop30
280
     1
102
RTVSPost2010PropOp30
 70
     1
102
RTVSPost2010Prop31
280
     0
102
RTVSPost2010PropOp31
 70
     1
102
RTVSPost2010Prop32
280
     0
102
RTVSPost2010PropOp32
 70
     1
102
RTVSPost2010Prop33
280
     0
102
RTVSPost2010PropOp33
 70
     1
102
RTVSPost2010Prop34
280
     0
102
RTVSPost2010PropOp34
 70
     1
102
RTVSPost2010Prop35
280
     0
102
RTVSPost2010PropOp35
 70
     1
102
RTVSPost2010Prop36
280
     0
102
RTVSPost2010PropOp36
 70
     1
102
RTVSPost2010Prop37
 90
       50
102
RTVSPost2010PropOp37
 70
     1
102
RTVSPost2010Prop38
140
0.0
102
RTVSPost2010PropOp38
 70
     1
102
RTVSPost2010Prop39
140
1.0
102
RTVSPost2010PropOp39
 70
     1
102
RTVSPost2010Prop40
 90
        0
102
RTVSPost2010PropOp40
 70
     1
102
RTVSPost2010Prop41ColorIndex
 90
       18
102
RTVSPost2010Prop41ColorRGB
 90
        0
102
RTVSPost2010PropOp41
 70
     1
102
RTVSPost2010Prop42
 90
       50
102
RTVSPost2010PropOp42
 70
     1
102
RTVSPost2010Prop43
 90
        3
102
RTVSPost2010PropOp43
 70
     1
102
RTVSPost2010Prop44ColorIndex
 90
        5
102
RTVSPost2010Prop44ColorRGB
 90
      255
102
RTVSPost2010PropOp44
 70
     1
102
RTVSPost2010Prop45
280
     0
102
RTVSPost2010PropOp45
 70
     1
102
RTVSPost2010Prop46
 90
       50
102
RTVSPost2010PropOp46
 70
     1
102
RTVSPost2010Prop47
 90
       50
102
RTVSPost2010PropOp47
 70
     1
102
RTVSPost2010Prop48
 90
       50
102
RTVSPost2010PropOp48
 70
     1
102
RTVSPost2010Prop49
280
     0
102
RTVSPost2010PropOp49
 70
     1
102
RTVSPost2010Prop50
 90
       50
102
RTVSPost2010PropOp50
 70
     1
102
RTVSPost2010Prop51ColorIndex
 90
      256
102
RTVSPost2010Prop51ColorRGB
 90
-16777216
102
RTVSPost2010PropOp51
 70
     0
102
RTVSPost2010Prop52
140
1.0
102
RTVSPost2010PropOp52
 70
     0
102
RTVSPost2010Prop53
 90
        2
102
RTVSPost2010PropOp53
 70
     1
102
RTVSPost2010Prop54
  1
strokes_ogs.tif
102
RTVSPost2010PropOp54
 70
     1
102
RTVSPost2010Prop55
280
     0
102
RTVSPost2010PropOp55
 70
     1
102
RTVSPost2010Prop56
140
1.0
102
RTVSPost2010PropOp56
 70
     1
102
RTVSPost2010Prop57
140
1.0
102
RTVSPost2010PropOp57
 70
     1
  0
XRECORD
  5
44D
102
{ACAD_REACTORS
330
44C
102
}
330
44C
100
AcDbXrecord
280
     1
102
RTVSPost2010Prop28
280
     0
102
RTVSPost2010PropOp28
 70
     1
102
RTVSPost2010Prop29
280
     1
102
RTVSPost2010PropOp29
 70
     1
102
RTVSPost2010Prop30
280
     1
102
RTVSPost2010PropOp30
 70
     1
102
RTVSPost2010Prop31
280
     0
102
RTVSPost2010PropOp31
 70
     1
102
RTVSPost2010Prop32
280
     0
102
RTVSPost2010PropOp32
 70
     1
102
RTVSPost2010Prop33
280
     0
102
RTVSPost2010PropOp33
 70
     1
102
RTVSPost2010Prop34
280
     0
102
RTVSPost2010PropOp34
 70
     1
102
RTVSPost2010Prop35
280
     0
102
RTVSPost2010PropOp35
 70
     1
102
RTVSPost2010Prop36
280
     0
102
RTVSPost2010PropOp36
 70
     1
102
RTVSPost2010Prop37
 90
       50
102
RTVSPost2010PropOp37
 70
     1
102
RTVSPost2010Prop38
140
0.0
102
RTVSPost2010PropOp38
 70
     1
102
RTVSPost2010Prop39
140
1.0
102
RTVSPost2010PropOp39
 70
     1
102
RTVSPost2010Prop40
 90
        0
102
RTVSPost2010PropOp40
 70
     1
102
RTVSPost2010Prop41ColorIndex
 90
       18
102
RTVSPost2010Prop41ColorRGB
 90
        0
102
RTVSPost2010PropOp41
 70
     1
102
RTVSPost2010Prop42
 90
       50
102
RTVSPost2010PropOp42
 70
     1
102
RTVSPost2010Prop43
 90
        3
102
RTVSPost2010PropOp43
 70
     1
102
RTVSPost2010Prop44ColorIndex
 90
        5
102
RTVSPost2010Prop44ColorRGB
 90
      255
102
RTVSPost2010PropOp44
 70
     1
102
RTVSPost2010Prop45
280
     0
102
RTVSPost2010PropOp45
 70
     1
102
RTVSPost2010Prop46
 90
       50
102
RTVSPost2010PropOp46
 70
     1
102
RTVSPost2010Prop47
 90
       50
102
RTVSPost2010PropOp47
 70
     1
102
RTVSPost2010Prop48
 90
       50
102
RTVSPost2010PropOp48
 70
     1
102
RTVSPost2010Prop49
280
     0
102
RTVSPost2010PropOp49
 70
     1
102
RTVSPost2010Prop50
 90
       50
102
RTVSPost2010PropOp50
 70
     1
102
RTVSPost2010Prop51ColorIndex
 90
      256
102
RTVSPost2010Prop51ColorRGB
 90
-16777216
102
RTVSPost2010PropOp51
 70
     0
102
RTVSPost2010Prop52
140
1.0
102
RTVSPost2010PropOp52
 70
     0
102
RTVSPost2010Prop53
 90
        2
102
RTVSPost2010PropOp53
 70
     1
102
RTVSPost2010Prop54
  1
strokes_ogs.tif
102
RTVSPost2010PropOp54
 70
     1
102
RTVSPost2010Prop55
280
     0
102
RTVSPost2010PropOp55
 70
     1
102
RTVSPost2010Prop56
140
1.0
102
RTVSPost2010PropOp56
 70
     1
102
RTVSPost2010Prop57
140
1.0
102
RTVSPost2010PropOp57
 70
     1
  0
XRECORD
  5
44B
102
{ACAD_REACTORS
330
44A
102
}
330
44A
100
AcDbXrecord
280
     1
102
RTVSPost2010Prop28
280
     0
102
RTVSPost2010PropOp28
 70
     1
102
RTVSPost2010Prop29
280
     1
102
RTVSPost2010PropOp29
 70
     1
102
RTVSPost2010Prop30
280
     1
102
RTVSPost2010PropOp30
 70
     1
102
RTVSPost2010Prop31
280
     0
102
RTVSPost2010PropOp31
 70
     1
102
RTVSPost2010Prop32
280
     0
102
RTVSPost2010PropOp32
 70
     1
102
RTVSPost2010Prop33
280
     0
102
RTVSPost2010PropOp33
 70
     1
102
RTVSPost2010Prop34
280
     0
102
RTVSPost2010PropOp34
 70
     1
102
RTVSPost2010Prop35
280
     0
102
RTVSPost2010PropOp35
 70
     1
102
RTVSPost2010Prop36
280
     0
102
RTVSPost2010PropOp36
 70
     1
102
RTVSPost2010Prop37
 90
       50
102
RTVSPost2010PropOp37
 70
     1
102
RTVSPost2010Prop38
140
0.0
102
RTVSPost2010PropOp38
 70
     1
102
RTVSPost2010Prop39
140
1.0
102
RTVSPost2010PropOp39
 70
     1
102
RTVSPost2010Prop40
 90
        0
102
RTVSPost2010PropOp40
 70
     1
102
RTVSPost2010Prop41ColorIndex
 90
       18
102
RTVSPost2010Prop41ColorRGB
 90
        0
102
RTVSPost2010PropOp41
 70
     1
102
RTVSPost2010Prop42
 90
       50
102
RTVSPost2010PropOp42
 70
     1
102
RTVSPost2010Prop43
 90
        3
102
RTVSPost2010PropOp43
 70
     1
102
RTVSPost2010Prop44ColorIndex
 90
        5
102
RTVSPost2010Prop44ColorRGB
 90
      255
102
RTVSPost2010PropOp44
 70
     1
102
RTVSPost2010Prop45
280
     0
102
RTVSPost2010PropOp45
 70
     1
102
RTVSPost2010Prop46
 90
       50
102
RTVSPost2010PropOp46
 70
     1
102
RTVSPost2010Prop47
 90
       50
102
RTVSPost2010PropOp47
 70
     1
102
RTVSPost2010Prop48
 90
       50
102
RTVSPost2010PropOp48
 70
     1
102
RTVSPost2010Prop49
280
     0
102
RTVSPost2010PropOp49
 70
     1
102
RTVSPost2010Prop50
 90
       50
102
RTVSPost2010PropOp50
 70
     1
102
RTVSPost2010Prop51ColorIndex
 90
      256
102
RTVSPost2010Prop51ColorRGB
 90
-16777216
102
RTVSPost2010PropOp51
 70
     0
102
RTVSPost2010Prop52
140
1.0
102
RTVSPost2010PropOp52
 70
     0
102
RTVSPost2010Prop53
 90
        2
102
RTVSPost2010PropOp53
 70
     1
102
RTVSPost2010Prop54
  1
strokes_ogs.tif
102
RTVSPost2010PropOp54
 70
     1
102
RTVSPost2010Prop55
280
     0
102
RTVSPost2010PropOp55
 70
     1
102
RTVSPost2010Prop56
140
1.0
102
RTVSPost2010PropOp56
 70
     1
102
RTVSPost2010Prop57
140
1.0
102
RTVSPost2010PropOp57
 70
     1
  0
XRECORD
  5
445
102
{ACAD_REACTORS
330
444
102
}
330
444
100
AcDbXrecord
280
     1
102
RTVSPost2010Prop28
280
     0
102
RTVSPost2010PropOp28
 70
     1
102
RTVSPost2010Prop29
280
     1
102
RTVSPost2010PropOp29
 70
     1
102
RTVSPost2010Prop30
280
     1
102
RTVSPost2010PropOp30
 70
     1
102
RTVSPost2010Prop31
280
     0
102
RTVSPost2010PropOp31
 70
     1
102
RTVSPost2010Prop32
280
     0
102
RTVSPost2010PropOp32
 70
     1
102
RTVSPost2010Prop33
280
     0
102
RTVSPost2010PropOp33
 70
     1
102
RTVSPost2010Prop34
280
     0
102
RTVSPost2010PropOp34
 70
     1
102
RTVSPost2010Prop35
280
     0
102
RTVSPost2010PropOp35
 70
     1
102
RTVSPost2010Prop36
280
     0
102
RTVSPost2010PropOp36
 70
     1
102
RTVSPost2010Prop37
 90
       50
102
RTVSPost2010PropOp37
 70
     1
102
RTVSPost2010Prop38
140
0.0
102
RTVSPost2010PropOp38
 70
     1
102
RTVSPost2010Prop39
140
1.0
102
RTVSPost2010PropOp39
 70
     1
102
RTVSPost2010Prop40
 90
        0
102
RTVSPost2010PropOp40
 70
     1
102
RTVSPost2010Prop41ColorIndex
 90
       18
102
RTVSPost2010Prop41ColorRGB
 90
        0
102
RTVSPost2010PropOp41
 70
     1
102
RTVSPost2010Prop42
 90
       50
102
RTVSPost2010PropOp42
 70
     1
102
RTVSPost2010Prop43
 90
        3
102
RTVSPost2010PropOp43
 70
     1
102
RTVSPost2010Prop44ColorIndex
 90
        5
102
RTVSPost2010Prop44ColorRGB
 90
      255
102
RTVSPost2010PropOp44
 70
     1
102
RTVSPost2010Prop45
280
     0
102
RTVSPost2010PropOp45
 70
     1
102
RTVSPost2010Prop46
 90
       50
102
RTVSPost2010PropOp46
 70
     1
102
RTVSPost2010Prop47
 90
       50
102
RTVSPost2010PropOp47
 70
     1
102
RTVSPost2010Prop48
 90
       50
102
RTVSPost2010PropOp48
 70
     1
102
RTVSPost2010Prop49
280
     0
102
RTVSPost2010PropOp49
 70
     1
102
RTVSPost2010Prop50
 90
       50
102
RTVSPost2010PropOp50
 70
     1
102
RTVSPost2010Prop51ColorIndex
 90
      256
102
RTVSPost2010Prop51ColorRGB
 90
-16777216
102
RTVSPost2010PropOp51
 70
     0
102
RTVSPost2010Prop52
140
1.0
102
RTVSPost2010PropOp52
 70
     0
102
RTVSPost2010Prop53
 90
        2
102
RTVSPost2010PropOp53
 70
     1
102
RTVSPost2010Prop54
  1
strokes_ogs.tif
102
RTVSPost2010PropOp54
 70
     1
102
RTVSPost2010Prop55
280
     0
102
RTVSPost2010PropOp55
 70
     1
102
RTVSPost2010Prop56
140
1.0
102
RTVSPost2010PropOp56
 70
     1
102
RTVSPost2010Prop57
140
1.0
102
RTVSPost2010PropOp57
 70
     1
  0
XRECORD
  5
447
102
{ACAD_REACTORS
330
446
102
}
330
446
100
AcDbXrecord
280
     1
102
RTVSPost2010Prop28
280
     0
102
RTVSPost2010PropOp28
 70
     1
102
RTVSPost2010Prop29
280
     1
102
RTVSPost2010PropOp29
 70
     1
102
RTVSPost2010Prop30
280
     1
102
RTVSPost2010PropOp30
 70
     1
102
RTVSPost2010Prop31
280
     0
102
RTVSPost2010PropOp31
 70
     1
102
RTVSPost2010Prop32
280
     0
102
RTVSPost2010PropOp32
 70
     1
102
RTVSPost2010Prop33
280
     0
102
RTVSPost2010PropOp33
 70
     1
102
RTVSPost2010Prop34
280
     0
102
RTVSPost2010PropOp34
 70
     1
102
RTVSPost2010Prop35
280
     0
102
RTVSPost2010PropOp35
 70
     1
102
RTVSPost2010Prop36
280
     0
102
RTVSPost2010PropOp36
 70
     1
102
RTVSPost2010Prop37
 90
       50
102
RTVSPost2010PropOp37
 70
     1
102
RTVSPost2010Prop38
140
0.0
102
RTVSPost2010PropOp38
 70
     1
102
RTVSPost2010Prop39
140
1.0
102
RTVSPost2010PropOp39
 70
     1
102
RTVSPost2010Prop40
 90
        0
102
RTVSPost2010PropOp40
 70
     1
102
RTVSPost2010Prop41ColorIndex
 90
       18
102
RTVSPost2010Prop41ColorRGB
 90
        0
102
RTVSPost2010PropOp41
 70
     1
102
RTVSPost2010Prop42
 90
       50
102
RTVSPost2010PropOp42
 70
     1
102
RTVSPost2010Prop43
 90
        3
102
RTVSPost2010PropOp43
 70
     1
102
RTVSPost2010Prop44ColorIndex
 90
        5
102
RTVSPost2010Prop44ColorRGB
 90
      255
102
RTVSPost2010PropOp44
 70
     1
102
RTVSPost2010Prop45
280
     0
102
RTVSPost2010PropOp45
 70
     1
102
RTVSPost2010Prop46
 90
       50
102
RTVSPost2010PropOp46
 70
     1
102
RTVSPost2010Prop47
 90
       50
102
RTVSPost2010PropOp47
 70
     1
102
RTVSPost2010Prop48
 90
       50
102
RTVSPost2010PropOp48
 70
     1
102
RTVSPost2010Prop49
280
     0
102
RTVSPost2010PropOp49
 70
     1
102
RTVSPost2010Prop50
 90
       50
102
RTVSPost2010PropOp50
 70
     1
102
RTVSPost2010Prop51ColorIndex
 90
      256
102
RTVSPost2010Prop51ColorRGB
 90
-16777216
102
RTVSPost2010PropOp51
 70
     0
102
RTVSPost2010Prop52
140
1.0
102
RTVSPost2010PropOp52
 70
     0
102
RTVSPost2010Prop53
 90
        2
102
RTVSPost2010PropOp53
 70
     1
102
RTVSPost2010Prop54
  1
strokes_ogs.tif
102
RTVSPost2010PropOp54
 70
     1
102
RTVSPost2010Prop55
280
     0
102
RTVSPost2010PropOp55
 70
     1
102
RTVSPost2010Prop56
140
1.0
102
RTVSPost2010PropOp56
 70
     1
102
RTVSPost2010Prop57
140
1.0
102
RTVSPost2010PropOp57
 70
     1
  0
XRECORD
  5
43D
102
{ACAD_REACTORS
330
43C
102
}
330
43C
100
AcDbXrecord
280
     1
102
RTVSPost2010Prop28
280
     0
102
RTVSPost2010PropOp28
 70
     1
102
RTVSPost2010Prop29
280
     1
102
RTVSPost2010PropOp29
 70
     1
102
RTVSPost2010Prop30
280
     1
102
RTVSPost2010PropOp30
 70
     1
102
RTVSPost2010Prop31
280
     0
102
RTVSPost2010PropOp31
 70
     1
102
RTVSPost2010Prop32
280
     0
102
RTVSPost2010PropOp32
 70
     1
102
RTVSPost2010Prop33
280
     0
102
RTVSPost2010PropOp33
 70
     1
102
RTVSPost2010Prop34
280
     0
102
RTVSPost2010PropOp34
 70
     1
102
RTVSPost2010Prop35
280
     0
102
RTVSPost2010PropOp35
 70
     1
102
RTVSPost2010Prop36
280
     0
102
RTVSPost2010PropOp36
 70
     1
102
RTVSPost2010Prop37
 90
       50
102
RTVSPost2010PropOp37
 70
     1
102
RTVSPost2010Prop38
140
0.0
102
RTVSPost2010PropOp38
 70
     1
102
RTVSPost2010Prop39
140
1.0
102
RTVSPost2010PropOp39
 70
     1
102
RTVSPost2010Prop40
 90
        0
102
RTVSPost2010PropOp40
 70
     1
102
RTVSPost2010Prop41ColorIndex
 90
       18
102
RTVSPost2010Prop41ColorRGB
 90
        0
102
RTVSPost2010PropOp41
 70
     1
102
RTVSPost2010Prop42
 90
       50
102
RTVSPost2010PropOp42
 70
     1
102
RTVSPost2010Prop43
 90
        3
102
RTVSPost2010PropOp43
 70
     1
102
RTVSPost2010Prop44ColorIndex
 90
        5
102
RTVSPost2010Prop44ColorRGB
 90
      255
102
RTVSPost2010PropOp44
 70
     1
102
RTVSPost2010Prop45
280
     0
102
RTVSPost2010PropOp45
 70
     1
102
RTVSPost2010Prop46
 90
       50
102
RTVSPost2010PropOp46
 70
     1
102
RTVSPost2010Prop47
 90
       50
102
RTVSPost2010PropOp47
 70
     1
102
RTVSPost2010Prop48
 90
       50
102
RTVSPost2010PropOp48
 70
     1
102
RTVSPost2010Prop49
280
     0
102
RTVSPost2010PropOp49
 70
     1
102
RTVSPost2010Prop50
 90
       50
102
RTVSPost2010PropOp50
 70
     1
102
RTVSPost2010Prop51ColorIndex
 90
      256
102
RTVSPost2010Prop51ColorRGB
 90
-16777216
102
RTVSPost2010PropOp51
 70
     0
102
RTVSPost2010Prop52
140
1.0
102
RTVSPost2010PropOp52
 70
     0
102
RTVSPost2010Prop53
 90
        2
102
RTVSPost2010PropOp53
 70
     1
102
RTVSPost2010Prop54
  1
strokes_ogs.tif
102
RTVSPost2010PropOp54
 70
     1
102
RTVSPost2010Prop55
280
     0
102
RTVSPost2010PropOp55
 70
     1
102
RTVSPost2010Prop56
140
1.0
102
RTVSPost2010PropOp56
 70
     1
102
RTVSPost2010Prop57
140
1.0
102
RTVSPost2010PropOp57
 70
     1
  0
XRECORD
  5
431
102
{ACAD_REACTORS
330
430
102
}
330
430
100
AcDbXrecord
280
     1
102
RTVSPost2010Prop28
280
     0
102
RTVSPost2010PropOp28
 70
     1
102
RTVSPost2010Prop29
280
     1
102
RTVSPost2010PropOp29
 70
     1
102
RTVSPost2010Prop30
280
     1
102
RTVSPost2010PropOp30
 70
     1
102
RTVSPost2010Prop31
280
     0
102
RTVSPost2010PropOp31
 70
     1
102
RTVSPost2010Prop32
280
     0
102
RTVSPost2010PropOp32
 70
     1
102
RTVSPost2010Prop33
280
     0
102
RTVSPost2010PropOp33
 70
     1
102
RTVSPost2010Prop34
280
     0
102
RTVSPost2010PropOp34
 70
     1
102
RTVSPost2010Prop35
280
     0
102
RTVSPost2010PropOp35
 70
     1
102
RTVSPost2010Prop36
280
     0
102
RTVSPost2010PropOp36
 70
     1
102
RTVSPost2010Prop37
 90
       50
102
RTVSPost2010PropOp37
 70
     1
102
RTVSPost2010Prop38
140
0.0
102
RTVSPost2010PropOp38
 70
     1
102
RTVSPost2010Prop39
140
1.0
102
RTVSPost2010PropOp39
 70
     1
102
RTVSPost2010Prop40
 90
        0
102
RTVSPost2010PropOp40
 70
     1
102
RTVSPost2010Prop41ColorIndex
 90
       18
102
RTVSPost2010Prop41ColorRGB
 90
        0
102
RTVSPost2010PropOp41
 70
     1
102
RTVSPost2010Prop42
 90
       50
102
RTVSPost2010PropOp42
 70
     1
102
RTVSPost2010Prop43
 90
        3
102
RTVSPost2010PropOp43
 70
     1
102
RTVSPost2010Prop44ColorIndex
 90
        5
102
RTVSPost2010Prop44ColorRGB
 90
      255
102
RTVSPost2010PropOp44
 70
     1
102
RTVSPost2010Prop45
280
     0
102
RTVSPost2010PropOp45
 70
     1
102
RTVSPost2010Prop46
 90
       50
102
RTVSPost2010PropOp46
 70
     1
102
RTVSPost2010Prop47
 90
       50
102
RTVSPost2010PropOp47
 70
     1
102
RTVSPost2010Prop48
 90
       50
102
RTVSPost2010PropOp48
 70
     1
102
RTVSPost2010Prop49
280
     0
102
RTVSPost2010PropOp49
 70
     1
102
RTVSPost2010Prop50
 90
       50
102
RTVSPost2010PropOp50
 70
     1
102
RTVSPost2010Prop51ColorIndex
 90
      256
102
RTVSPost2010Prop51ColorRGB
 90
-16777216
102
RTVSPost2010PropOp51
 70
     0
102
RTVSPost2010Prop52
140
1.0
102
RTVSPost2010PropOp52
 70
     0
102
RTVSPost2010Prop53
 90
        2
102
RTVSPost2010PropOp53
 70
     1
102
RTVSPost2010Prop54
  1
strokes_ogs.tif
102
RTVSPost2010PropOp54
 70
     1
102
RTVSPost2010Prop55
280
     0
102
RTVSPost2010PropOp55
 70
     1
102
RTVSPost2010Prop56
140
1.0
102
RTVSPost2010PropOp56
 70
     1
102
RTVSPost2010Prop57
140
1.0
102
RTVSPost2010PropOp57
 70
     1
  0
XRECORD
  5
449
102
{ACAD_REACTORS
330
448
102
}
330
448
100
AcDbXrecord
280
     1
102
RTVSPost2010Prop28
280
     0
102
RTVSPost2010PropOp28
 70
     1
102
RTVSPost2010Prop29
280
     1
102
RTVSPost2010PropOp29
 70
     1
102
RTVSPost2010Prop30
280
     1
102
RTVSPost2010PropOp30
 70
     1
102
RTVSPost2010Prop31
280
     0
102
RTVSPost2010PropOp31
 70
     1
102
RTVSPost2010Prop32
280
     0
102
RTVSPost2010PropOp32
 70
     1
102
RTVSPost2010Prop33
280
     0
102
RTVSPost2010PropOp33
 70
     1
102
RTVSPost2010Prop34
280
     0
102
RTVSPost2010PropOp34
 70
     1
102
RTVSPost2010Prop35
280
     0
102
RTVSPost2010PropOp35
 70
     1
102
RTVSPost2010Prop36
280
     0
102
RTVSPost2010PropOp36
 70
     1
102
RTVSPost2010Prop37
 90
       50
102
RTVSPost2010PropOp37
 70
     1
102
RTVSPost2010Prop38
140
0.0
102
RTVSPost2010PropOp38
 70
     1
102
RTVSPost2010Prop39
140
1.0
102
RTVSPost2010PropOp39
 70
     1
102
RTVSPost2010Prop40
 90
        0
102
RTVSPost2010PropOp40
 70
     1
102
RTVSPost2010Prop41ColorIndex
 90
       18
102
RTVSPost2010Prop41ColorRGB
 90
        0
102
RTVSPost2010PropOp41
 70
     1
102
RTVSPost2010Prop42
 90
       50
102
RTVSPost2010PropOp42
 70
     1
102
RTVSPost2010Prop43
 90
        3
102
RTVSPost2010PropOp43
 70
     1
102
RTVSPost2010Prop44ColorIndex
 90
        5
102
RTVSPost2010Prop44ColorRGB
 90
      255
102
RTVSPost2010PropOp44
 70
     1
102
RTVSPost2010Prop45
280
     0
102
RTVSPost2010PropOp45
 70
     1
102
RTVSPost2010Prop46
 90
       50
102
RTVSPost2010PropOp46
 70
     1
102
RTVSPost2010Prop47
 90
       50
102
RTVSPost2010PropOp47
 70
     1
102
RTVSPost2010Prop48
 90
       50
102
RTVSPost2010PropOp48
 70
     1
102
RTVSPost2010Prop49
280
     0
102
RTVSPost2010PropOp49
 70
     1
102
RTVSPost2010Prop50
 90
       50
102
RTVSPost2010PropOp50
 70
     1
102
RTVSPost2010Prop51ColorIndex
 90
      256
102
RTVSPost2010Prop51ColorRGB
 90
-16777216
102
RTVSPost2010PropOp51
 70
     0
102
RTVSPost2010Prop52
140
1.0
102
RTVSPost2010PropOp52
 70
     0
102
RTVSPost2010Prop53
 90
        2
102
RTVSPost2010PropOp53
 70
     1
102
RTVSPost2010Prop54
  1
strokes_ogs.tif
102
RTVSPost2010PropOp54
 70
     1
102
RTVSPost2010Prop55
280
     0
102
RTVSPost2010PropOp55
 70
     1
102
RTVSPost2010Prop56
140
1.0
102
RTVSPost2010PropOp56
 70
     1
102
RTVSPost2010Prop57
140
1.0
102
RTVSPost2010PropOp57
 70
     1
  0
ENDSEC
  0
EOF
