  0
SECTION
  2
HEADER
  9
$ACADVER
  1
AC1021
  9
$ACADMAINTVER
 70
    50
  9
$DWGCODEPAGE
  3
ANSI_1252
  9
$LASTSAVEDBY
  1
leeh
  9
$INSBASE
 10
0.0
 20
0.0
 30
0.0
  9
$EXTMIN
 10
7.837830576856958
 20
15.78447031437474
 30
-0.0015258207003583
  9
$EXTMAX
 10
393.4487924508853
 20
570.1896067224322
 30
0.0000000349246037
  9
$LIMMIN
 10
0.0
 20
0.0
  9
$LIMMAX
 10
420.0
 20
297.0
  9
$ORTHOMODE
 70
     0
  9
$REGENMODE
 70
     1
  9
$FILLMODE
 70
     1
  9
$QTEXTMODE
 70
     0
  9
$MIRRTEXT
 70
     0
  9
$LTSCALE
 40
1.0
  9
$ATTMODE
 70
     1
  9
$TEXTSIZE
 40
2.5
  9
$TRACEWID
 40
1.0
  9
$TEXTSTYLE
  7
Standard
  9
$CLAYER
  8
0
  9
$CELTYPE
  6
ByLayer
  9
$CECOLOR
 62
   256
  9
$CELTSCALE
 40
1.0
  9
$DISPSILH
 70
     0
  9
$DIMSCALE
 40
1.0
  9
$DIMASZ
 40
2.5
  9
$DIMEXO
 40
0.625
  9
$DIMDLI
 40
3.75
  9
$DIMRND
 40
0.0
  9
$DIMDLE
 40
0.0
  9
$DIMEXE
 40
1.25
  9
$DIMTP
 40
0.0
  9
$DIMTM
 40
0.0
  9
$DIMTXT
 40
2.5
  9
$DIMCEN
 40
2.5
  9
$DIMTSZ
 40
0.0
  9
$DIMTOL
 70
     0
  9
$DIMLIM
 70
     0
  9
$DIMTIH
 70
     0
  9
$DIMTOH
 70
     0
  9
$DIMSE1
 70
     0
  9
$DIMSE2
 70
     0
  9
$DIMTAD
 70
     1
  9
$DIMZIN
 70
     8
  9
$DIMBLK
  1

  9
$DIMASO
 70
     1
  9
$DIMSHO
 70
     1
  9
$DIMPOST
  1

  9
$DIMAPOST
  1

  9
$DIMALT
 70
     0
  9
$DIMALTD
 70
     3
  9
$DIMALTF
 40
0.03937007874016
  9
$DIMLFAC
 40
1.0
  9
$DIMTOFL
 70
     1
  9
$DIMTVP
 40
0.0
  9
$DIMTIX
 70
     0
  9
$DIMSOXD
 70
     0
  9
$DIMSAH
 70
     0
  9
$DIMBLK1
  1

  9
$DIMBLK2
  1

  9
$DIMSTYLE
  2
ISO-25
  9
$DIMCLRD
 70
     0
  9
$DIMCLRE
 70
     0
  9
$DIMCLRT
 70
     0
  9
$DIMTFAC
 40
1.0
  9
$DIMGAP
 40
0.625
  9
$DIMJUST
 70
     0
  9
$DIMSD1
 70
     0
  9
$DIMSD2
 70
     0
  9
$DIMTOLJ
 70
     0
  9
$DIMTZIN
 70
     8
  9
$DIMALTZ
 70
     0
  9
$DIMALTTZ
 70
     0
  9
$DIMUPT
 70
     0
  9
$DIMDEC
 70
     2
  9
$DIMTDEC
 70
     2
  9
$DIMALTU
 70
     2
  9
$DIMALTTD
 70
     3
  9
$DIMTXSTY
  7
Standard
  9
$DIMAUNIT
 70
     0
  9
$DIMADEC
 70
     0
  9
$DIMALTRND
 40
0.0
  9
$DIMAZIN
 70
     0
  9
$DIMDSEP
 70
    44
  9
$DIMATFIT
 70
     3
  9
$DIMFRAC
 70
     0
  9
$DIMLDRBLK
  1

  9
$DIMLUNIT
 70
     2
  9
$DIMLWD
 70
    -2
  9
$DIMLWE
 70
    -2
  9
$DIMTMOVE
 70
     0
  9
$DIMFXL
 40
1.0
  9
$DIMFXLON
 70
     0
  9
$DIMJOGANG
 40
1.570796326794896
  9
$DIMTFILL
 70
     0
  9
$DIMTFILLCLR
 70
     0
  9
$DIMARCSYM
 70
     0
  9
$DIMLTYPE
  6

  9
$DIMLTEX1
  6

  9
$DIMLTEX2
  6

  9
$LUNITS
 70
     2
  9
$LUPREC
 70
     4
  9
$SKETCHINC
 40
1.0
  9
$FILLETRAD
 40
0.0
  9
$AUNITS
 70
     0
  9
$AUPREC
 70
     0
  9
$MENU
  1
.
  9
$ELEVATION
 40
0.0
  9
$PELEVATION
 40
0.0
  9
$THICKNESS
 40
0.0
  9
$LIMCHECK
 70
     0
  9
$CHAMFERA
 40
0.0
  9
$CHAMFERB
 40
0.0
  9
$CHAMFERC
 40
0.0
  9
$CHAMFERD
 40
0.0
  9
$SKPOLY
 70
     0
  9
$TDCREATE
 40
2459601.333113426
  9
$TDUCREATE
 40
2459600.791446760
  9
$TDUPDATE
 40
2459601.339375000
  9
$TDUUPDATE
 40
2459600.797708334
  9
$TDINDWG
 40
0.0062615741
  9
$TDUSRTIMER
 40
0.0062615741
  9
$USRTIMER
 70
     1
  9
$ANGBASE
 50
0.0
  9
$ANGDIR
 70
     0
  9
$PDMODE
 70
     0
  9
$PDSIZE
 40
0.0
  9
$PLINEWID
 40
0.0
  9
$SPLFRAME
 70
     0
  9
$SPLINETYPE
 70
     6
  9
$SPLINESEGS
 70
     8
  9
$HANDSEED
  5
860
  9
$SURFTAB1
 70
     6
  9
$SURFTAB2
 70
     6
  9
$SURFTYPE
 70
     6
  9
$SURFU
 70
     6
  9
$SURFV
 70
     6
  9
$UCSBASE
  2

  9
$UCSNAME
  2

  9
$UCSORG
 10
0.0
 20
0.0
 30
0.0
  9
$UCSXDIR
 10
1.0
 20
0.0
 30
0.0
  9
$UCSYDIR
 10
0.0
 20
1.0
 30
0.0
  9
$UCSORTHOREF
  2

  9
$UCSORTHOVIEW
 70
     0
  9
$UCSORGTOP
 10
0.0
 20
0.0
 30
0.0
  9
$UCSORGBOTTOM
 10
0.0
 20
0.0
 30
0.0
  9
$UCSORGLEFT
 10
0.0
 20
0.0
 30
0.0
  9
$UCSORGRIGHT
 10
0.0
 20
0.0
 30
0.0
  9
$UCSORGFRONT
 10
0.0
 20
0.0
 30
0.0
  9
$UCSORGBACK
 10
0.0
 20
0.0
 30
0.0
  9
$PUCSBASE
  2

  9
$PUCSNAME
  2

  9
$PUCSORG
 10
0.0
 20
0.0
 30
0.0
  9
$PUCSXDIR
 10
1.0
 20
0.0
 30
0.0
  9
$PUCSYDIR
 10
0.0
 20
1.0
 30
0.0
  9
$PUCSORTHOREF
  2

  9
$PUCSORTHOVIEW
 70
     0
  9
$PUCSORGTOP
 10
0.0
 20
0.0
 30
0.0
  9
$PUCSORGBOTTOM
 10
0.0
 20
0.0
 30
0.0
  9
$PUCSORGLEFT
 10
0.0
 20
0.0
 30
0.0
  9
$PUCSORGRIGHT
 10
0.0
 20
0.0
 30
0.0
  9
$PUCSORGFRONT
 10
0.0
 20
0.0
 30
0.0
  9
$PUCSORGBACK
 10
0.0
 20
0.0
 30
0.0
  9
$USERI1
 70
     0
  9
$USERI2
 70
     0
  9
$USERI3
 70
     0
  9
$USERI4
 70
     0
  9
$USERI5
 70
     0
  9
$USERR1
 40
0.0
  9
$USERR2
 40
0.0
  9
$USERR3
 40
0.0
  9
$USERR4
 40
0.0
  9
$USERR5
 40
0.0
  9
$WORLDVIEW
 70
     1
  9
$SHADEDGE
 70
     3
  9
$SHADEDIF
 70
    70
  9
$TILEMODE
 70
     1
  9
$MAXACTVP
 70
    64
  9
$PINSBASE
 10
0.0
 20
0.0
 30
0.0
  9
$PLIMCHECK
 70
     0
  9
$PEXTMIN
 10
1.000000000000000E+20
 20
1.000000000000000E+20
 30
1.000000000000000E+20
  9
$PEXTMAX
 10
-1.000000000000000E+20
 20
-1.000000000000000E+20
 30
-1.000000000000000E+20
  9
$PLIMMIN
 10
0.0
 20
0.0
  9
$PLIMMAX
 10
420.0
 20
297.0
  9
$UNITMODE
 70
     0
  9
$VISRETAIN
 70
     1
  9
$PLINEGEN
 70
     0
  9
$PSLTSCALE
 70
     1
  9
$TREEDEPTH
 70
  3020
  9
$CMLSTYLE
  2
Standard
  9
$CMLJUST
 70
     0
  9
$CMLSCALE
 40
20.0
  9
$PROXYGRAPHICS
 70
     1
  9
$MEASUREMENT
 70
     1
  9
$CELWEIGHT
370
    -1
  9
$ENDCAPS
280
     0
  9
$JOINSTYLE
280
     0
  9
$LWDISPLAY
290
     0
  9
$INSUNITS
 70
     4
  9
$HYPERLINKBASE
  1

  9
$STYLESHEET
  1

  9
$XEDIT
290
     1
  9
$CEPSNTYPE
380
     0
  9
$PSTYLEMODE
290
     1
  9
$FINGERPRINTGUID
  2
{AD24A49B-31A2-7041-B83E-7EB58EB1E1CB}
  9
$VERSIONGUID
  2
{C7004A43-FDF8-2E41-9E70-C7C501BA48E7}
  9
$EXTNAMES
290
     1
  9
$PSVPSCALE
 40
0.0
  9
$OLESTARTUP
290
     0
  9
$SORTENTS
280
   127
  9
$INDEXCTL
280
     0
  9
$HIDETEXT
280
     1
  9
$XCLIPFRAME
290
     0
  9
$HALOGAP
280
     0
  9
$OBSCOLOR
 70
   257
  9
$OBSLTYPE
280
     0
  9
$INTERSECTIONDISPLAY
280
     0
  9
$INTERSECTIONCOLOR
 70
   257
  9
$DIMASSOC
280
     2
  9
$PROJECTNAME
  1

  9
$CAMERADISPLAY
290
     0
  9
$LENSLENGTH
 40
50.0
  9
$CAMERAHEIGHT
 40
0.0
  9
$STEPSPERSEC
 40
2.0
  9
$STEPSIZE
 40
6.0
  9
$3DDWFPREC
 40
2.0
  9
$PSOLWIDTH
 40
0.25
  9
$PSOLHEIGHT
 40
4.0
  9
$LOFTANG1
 40
1.570796326794896
  9
$LOFTANG2
 40
1.570796326794896
  9
$LOFTMAG1
 40
0.0
  9
$LOFTMAG2
 40
0.0
  9
$LOFTPARAM
 70
     7
  9
$LOFTNORMALS
280
     1
  9
$LATITUDE
 40
37.795
  9
$LONGITUDE
 40
-122.394
  9
$NORTHDIRECTION
 40
0.0
  9
$TIMEZONE
 70
 -8000
  9
$LIGHTGLYPHDISPLAY
280
     1
  9
$TILEMODELIGHTSYNCH
280
     1
  9
$CMATERIAL
347
11
  9
$SOLIDHIST
280
     0
  9
$SHOWHIST
280
     1
  9
$DWFFRAME
280
     2
  9
$DGNFRAME
280
     0
  9
$REALWORLDSCALE
290
     1
  9
$INTERFERECOLOR
 62
     1
  9
$INTERFEREOBJVS
345
33
  9
$INTERFEREVPVS
346
30
  9
$CSHADOW
280
     0
  9
$SHADOWPLANELOCATION
 40
0.0
  0
ENDSEC
  0
SECTION
  2
CLASSES
  0
CLASS
  1
ACDBDICTIONARYWDFLT
  2
AcDbDictionaryWithDefault
  3
ObjectDBX Classes
 90
        0
 91
        1
280
     0
281
     0
  0
CLASS
  1
MATERIAL
  2
AcDbMaterial
  3
ObjectDBX Classes
 90
     1153
 91
        3
280
     0
281
     0
  0
CLASS
  1
VISUALSTYLE
  2
AcDbVisualStyle
  3
ObjectDBX Classes
 90
     4095
 91
       24
280
     0
281
     0
  0
CLASS
  1
SCALE
  2
AcDbScale
  3
ObjectDBX Classes
 90
     1153
 91
       17
280
     0
281
     0
  0
CLASS
  1
TABLESTYLE
  2
AcDbTableStyle
  3
ObjectDBX Classes
 90
     4095
 91
        1
280
     0
281
     0
  0
CLASS
  1
MLEADERSTYLE
  2
AcDbMLeaderStyle
  3
ACDB_MLEADERSTYLE_CLASS
 90
     4095
 91
        1
280
     0
281
     0
  0
CLASS
  1
ACDBSECTIONVIEWSTYLE
  2
AcDbSectionViewStyle
  3
ObjectDBX Classes
 90
     1025
 91
        1
280
     0
281
     0
  0
CLASS
  1
ACDBDETAILVIEWSTYLE
  2
AcDbDetailViewStyle
  3
ObjectDBX Classes
 90
     1025
 91
        1
280
     0
281
     0
  0
CLASS
  1
DICTIONARYVAR
  2
AcDbDictionaryVar
  3
ObjectDBX Classes
 90
        0
 91
       33
280
     0
281
     0
  0
CLASS
  1
ACDB_HATCHVIEWCONTEXTDATA_CLASS
  2
AcDbHatchViewContextData
  3
ObjectDBX Classes
 90
     1153
 91
       12
280
     0
281
     0
  0
CLASS
  1
ACDB_HATCHSCALECONTEXTDATA_CLASS
  2
AcDbHatchScaleContextData
  3
ObjectDBX Classes
 90
     1153
 91
       12
280
     0
281
     0
  0
CLASS
  1
DIMASSOC
  2
AcDbDimAssoc
  3
"AcDbDimAssoc|Product Desc:     AcDim ARX App For Dimension|Company:          Autodesk, Inc.|WEB Address:      www.autodesk.com"
 90
        0
 91
        2
280
     0
281
     0
  0
CLASS
  1
SORTENTSTABLE
  2
AcDbSortentsTable
  3
ObjectDBX Classes
 90
        0
 91
        1
280
     0
281
     0
  0
CLASS
  1
CELLSTYLEMAP
  2
AcDbCellStyleMap
  3
ObjectDBX Classes
 90
     1152
 91
        2
280
     0
281
     0
  0
ENDSEC
  0
SECTION
  2
TABLES
  0
TABLE
  2
VPORT
  5
8
330
0
100
AcDbSymbolTable
 70
     1
  0
VPORT
  5
57
330
8
100
AcDbSymbolTableRecord
100
AcDbViewportTableRecord
  2
*Active
 70
     0
 10
0.0
 20
0.0
 11
1.0
 21
1.0
 12
200.6433115138711
 22
292.9870385184035
 13
0.0
 23
0.0
 14
10.0
 24
10.0
 15
10.0
 25
10.0
 16
0.0
 26
0.0
 36
1.0
 17
0.0
 27
0.0
 37
0.0
 40
558.8821630816084
 41
2.466307277628032
 42
50.0
 43
0.0
 44
0.0
 50
0.0
 51
0.0
 71
     0
 72
  1000
 73
     1
 74
     3
 75
     0
 76
     0
 77
     0
 78
     0
281
     0
 65
     1
110
0.0
120
0.0
130
0.0
111
1.0
121
0.0
131
0.0
112
0.0
122
1.0
132
0.0
 79
     0
146
0.0
348
2F
 60
     2
 61
     5
292
     1
282
     1
141
0.0
142
0.0
 63
   250
421
  3355443
1001
ACAD_NAV_VCDISPLAY
1070
     1
  0
ENDTAB
  0
TABLE
  2
LTYPE
  5
5
330
0
100
AcDbSymbolTable
 70
     3
  0
LTYPE
  5
5B
330
5
100
AcDbSymbolTableRecord
100
AcDbLinetypeTableRecord
  2
ByBlock
 70
     0
  3

 72
    65
 73
     0
 40
0.0
  0
LTYPE
  5
5C
330
5
100
AcDbSymbolTableRecord
100
AcDbLinetypeTableRecord
  2
ByLayer
 70
     0
  3

 72
    65
 73
     0
 40
0.0
  0
LTYPE
  5
5D
330
5
100
AcDbSymbolTableRecord
100
AcDbLinetypeTableRecord
  2
Continuous
 70
     0
  3
Solid line
 72
    65
 73
     0
 40
0.0
  0
LTYPE
  5
F7
330
5
100
AcDbSymbolTableRecord
100
AcDbLinetypeTableRecord
  2
CENTER
 70
     0
  3
Center ____ _ ____ _ ____ _ ____ _ ____ _ ____
 72
    65
 73
     4
 40
50.8
 49
31.75
 74
     0
 49
-6.349999999999999
 74
     0
 49
6.349999999999999
 74
     0
 49
-6.349999999999999
 74
     0
  0
LTYPE
  5
F8
330
5
100
AcDbSymbolTableRecord
100
AcDbLinetypeTableRecord
  2
DASHED
 70
     0
  3
Dashed __ __ __ __ __ __ __ __ __ __ __ __ __ _
 72
    65
 73
     2
 40
19.05
 49
12.7
 74
     0
 49
-6.349999999999999
 74
     0
  0
ENDTAB
  0
TABLE
  2
LAYER
  5
2
102
{ACAD_XDICTIONARY
360
11F
102
}
330
0
100
AcDbSymbolTable
 70
    13
  0
LAYER
  5
54
330
2
100
AcDbSymbolTableRecord
100
AcDbLayerTableRecord
  2
0
 70
     0
 62
     7
  6
Continuous
370
    -3
390
F
347
21
  0
LAYER
  5
FB
102
{ACAD_XDICTIONARY
360
FC
102
}
330
2
100
AcDbSymbolTableRecord
100
AcDbLayerTableRecord
  2
dim
 70
     0
 62
     7
  6
Continuous
370
     5
390
F
347
21
  0
LAYER
  5
FD
102
{ACAD_XDICTIONARY
360
FE
102
}
330
2
100
AcDbSymbolTableRecord
100
AcDbLayerTableRecord
  2
Post
 70
     0
 62
     3
  6
Continuous
370
    -3
390
F
347
21
1001
AcAecLayerStandard
1000

1000

  0
LAYER
  5
FF
330
2
100
AcDbSymbolTableRecord
100
AcDbLayerTableRecord
  2
Defpoints
 70
     0
 62
     7
  6
Continuous
290
     0
370
    -3
390
F
347
21
  0
LAYER
  5
100
102
{ACAD_XDICTIONARY
360
101
102
}
330
2
100
AcDbSymbolTableRecord
100
AcDbLayerTableRecord
  2
fixing
 70
     0
 62
     4
  6
Continuous
370
     5
390
F
347
21
1001
AcAecLayerStandard
1000

1000

  0
LAYER
  5
102
102
{ACAD_XDICTIONARY
360
103
102
}
330
2
100
AcDbSymbolTableRecord
100
AcDbLayerTableRecord
  2
Spigot
 70
     0
 62
     6
  6
DASHED
370
     9
390
F
347
21
  0
LAYER
  5
104
102
{ACAD_XDICTIONARY
360
105
102
}
330
2
100
AcDbSymbolTableRecord
100
AcDbLayerTableRecord
  2
baseplate
 70
     0
 62
     7
  6
Continuous
370
    25
390
F
347
21
1001
AcAecLayerStandard
1000

1000

  0
LAYER
  5
106
102
{ACAD_XDICTIONARY
360
107
102
}
330
2
100
AcDbSymbolTableRecord
100
AcDbLayerTableRecord
  2
decking
 70
     0
 62
     1
  6
Continuous
370
     9
390
F
347
21
1001
AcAecLayerStandard
1000

1000

  0
LAYER
  5
108
102
{ACAD_XDICTIONARY
360
109
102
}
330
2
100
AcDbSymbolTableRecord
100
AcDbLayerTableRecord
  2
shade 8
 70
     0
 62
     8
  6
Continuous
370
     9
390
F
347
21
  0
LAYER
  5
10C
102
{ACAD_XDICTIONARY
360
10D
102
}
330
2
100
AcDbSymbolTableRecord
100
AcDbLayerTableRecord
  2
ctrl
 70
     0
 62
   220
  6
CENTER
370
     5
390
F
347
21
1001
AcAecLayerStandard
1000

1000

  0
LAYER
  5
10E
102
{ACAD_XDICTIONARY
360
10F
102
}
330
2
100
AcDbSymbolTableRecord
100
AcDbLayerTableRecord
  2
title
 70
     0
 62
     7
  6
Continuous
370
     0
390
F
347
21
  0
ENDTAB
  0
TABLE
  2
STYLE
  5
3
330
0
100
AcDbSymbolTable
 70
     5
  0
STYLE
  5
55
330
3
100
AcDbSymbolTableRecord
100
AcDbTextStyleTableRecord
  2
Standard
 70
     0
 40
0.0
 41
1.0
 50
0.0
 71
     0
 42
2.5
  3
txt
  4

  0
STYLE
  5
110
330
3
100
AcDbSymbolTableRecord
100
AcDbTextStyleTableRecord
  2
Arial Narrow
 70
     0
 40
0.0
 41
1.0
 50
0.0
 71
     0
 42
2.5
  3
ARIALN.TTF
  4

1001
ACAD
1000
Arial Narrow
1071
       34
  0
STYLE
  5
111
330
3
100
AcDbSymbolTableRecord
100
AcDbTextStyleTableRecord
  2
Calibri
 70
     0
 40
0.0
 41
1.0
 50
0.0
 71
     0
 42
15.0
  3
calibri.ttf
  4

1001
ACAD
1000
Calibri
1071
       34
  0
ENDTAB
  0
TABLE
  2
VIEW
  5
6
330
0
100
AcDbSymbolTable
 70
     4
  0
ENDTAB
  0
TABLE
  2
UCS
  5
7
330
0
100
AcDbSymbolTable
 70
     0
  0
ENDTAB
  0
TABLE
  2
APPID
  5
9
330
0
100
AcDbSymbolTable
 70
    11
  0
APPID
  5
56
330
9
100
AcDbSymbolTableRecord
100
AcDbRegAppTableRecord
  2
ACAD
 70
     0
  0
APPID
  5
5E
330
9
100
AcDbSymbolTableRecord
100
AcDbRegAppTableRecord
  2
AcadAnnotative
 70
     0
  0
APPID
  5
7D
330
9
100
AcDbSymbolTableRecord
100
AcDbRegAppTableRecord
  2
ACAD_NAV_VCDISPLAY
 70
     0
  0
APPID
  5
118
330
9
100
AcDbSymbolTableRecord
100
AcDbRegAppTableRecord
  2
ACAD_PSEXT
 70
     0
  0
APPID
  5
119
330
9
100
AcDbSymbolTableRecord
100
AcDbRegAppTableRecord
  2
AcAecLayerStandard
 70
     0
  0
APPID
  5
11A
330
9
100
AcDbSymbolTableRecord
100
AcDbRegAppTableRecord
  2
ACAD_DSTYLE_DIMJAG
 70
     0
  0
APPID
  5
11B
330
9
100
AcDbSymbolTableRecord
100
AcDbRegAppTableRecord
  2
ACAD_DSTYLE_DIMTALN
 70
     0
  0
APPID
  5
11C
330
9
100
AcDbSymbolTableRecord
100
AcDbRegAppTableRecord
  2
GradientColor1ACI
 70
     0
  0
APPID
  5
11D
330
9
100
AcDbSymbolTableRecord
100
AcDbRegAppTableRecord
  2
GradientColor2ACI
 70
     0
  0
APPID
  5
11E
330
9
100
AcDbSymbolTableRecord
100
AcDbRegAppTableRecord
  2
ACAD_DSTYLE_DIMBREAK
 70
     0
  0
APPID
  5
853
330
9
100
AcDbSymbolTableRecord
100
AcDbRegAppTableRecord
  2
ACAD_MLEADERVER
 70
     0
  0
ENDTAB
  0
TABLE
  2
DIMSTYLE
  5
A
330
0
100
AcDbSymbolTable
 70
     7
100
AcDbDimStyleTable
 71
     0
  0
DIMSTYLE
105
58
330
A
100
AcDbSymbolTableRecord
100
AcDbDimStyleTableRecord
  2
ISO-25
 70
     0
 41
2.5
 42
0.625
 43
3.75
 44
1.25
 50
90.0
 73
     0
 74
     0
 77
     1
 78
     8
140
2.5
141
2.5
143
0.03937007874016
147
0.625
171
     3
172
     1
271
     2
272
     2
274
     3
278
    44
283
     0
284
     8
340
55
  0
DIMSTYLE
105
113
102
{ACAD_REACTORS
330
1BE
330
1C1
330
1C2
330
1C3
330
1C4
330
2DB
330
2DE
330
2DF
330
2E0
330
2E1
330
43C
330
43F
330
440
330
441
330
442
102
}
330
A
100
AcDbSymbolTableRecord
100
AcDbDimStyleTableRecord
  2
Spectrum 2
 70
     0
 40
2.0
 41
3.0
 42
1.0
 43
6.0
 44
2.0
 73
     0
 74
     0
 77
     1
 78
     8
140
2.25
141
0.0
143
0.03937007874016
147
1.0
171
     3
172
     1
271
     1
272
     1
274
     3
283
     0
284
     8
340
111
1001
ACAD_DSTYLE_DIMJAG
1070
   388
1040
1.5
1001
ACAD_DSTYLE_DIMTALN
1070
   392
1070
     0
  0
ENDTAB
  0
TABLE
  2
BLOCK_RECORD
  5
1
330
0
100
AcDbSymbolTable
 70
    22
  0
BLOCK_RECORD
  5
70
330
1
100
AcDbSymbolTableRecord
100
AcDbBlockTableRecord
  2
*Model_Space
340
73
 70
     0
280
     1
281
     0
  0
BLOCK_RECORD
  5
6C
330
1
100
AcDbSymbolTableRecord
100
AcDbBlockTableRecord
  2
*Paper_Space
340
6F
 70
     0
280
     1
281
     0
  0
BLOCK_RECORD
  5
74
330
1
100
AcDbSymbolTableRecord
100
AcDbBlockTableRecord
  2
*Paper_Space0
340
77
 70
     0
280
     1
281
     0
  0
BLOCK_RECORD
  5
642
330
1
100
AcDbSymbolTableRecord
100
AcDbBlockTableRecord
  2
*D16
340
0
 70
     0
280
     1
281
     0
  0
BLOCK_RECORD
  5
64E
330
1
100
AcDbSymbolTableRecord
100
AcDbBlockTableRecord
  2
*D17
340
0
 70
     0
280
     1
281
     0
  0
BLOCK_RECORD
  5
65A
330
1
100
AcDbSymbolTableRecord
100
AcDbBlockTableRecord
  2
*D18
340
0
 70
     0
280
     1
281
     0
  0
BLOCK_RECORD
  5
666
330
1
100
AcDbSymbolTableRecord
100
AcDbBlockTableRecord
  2
*D19
340
0
 70
     0
280
     1
281
     0
  0
BLOCK_RECORD
  5
672
330
1
100
AcDbSymbolTableRecord
100
AcDbBlockTableRecord
  2
*D20
340
0
 70
     0
280
     1
281
     0
  0
ENDTAB
  0
ENDSEC
  0
SECTION
  2
BLOCKS
  0
BLOCK
  5
71
330
70
100
AcDbEntity
  8
0
100
AcDbBlockBegin
  2
*Model_Space
 70
     0
 10
0.0
 20
0.0
 30
0.0
  3
*Model_Space
  1

  0
ENDBLK
  5
72
330
70
100
AcDbEntity
  8
0
100
AcDbBlockEnd
  0
BLOCK
  5
6D
330
6C
100
AcDbEntity
 67
     1
  8
0
100
AcDbBlockBegin
  2
*Paper_Space
 70
     0
 10
0.0
 20
0.0
 30
0.0
  3
*Paper_Space
  1

  0
ENDBLK
  5
6E
330
6C
100
AcDbEntity
 67
     1
  8
0
100
AcDbBlockEnd
  0
BLOCK
  5
75
330
74
100
AcDbEntity
 67
     1
  8
0
100
AcDbBlockBegin
  2
*Paper_Space0
 70
     0
 10
0.0
 20
0.0
 30
0.0
  3
*Paper_Space0
  1

  0
ENDBLK
  5
76
330
74
100
AcDbEntity
 67
     1
  8
0
100
AcDbBlockEnd
  0
BLOCK
  5
643
330
642
100
AcDbEntity
  8
0
100
AcDbBlockBegin
  2
*D16
 70
     1
 10
0.0
 20
0.0
 30
0.0
  3
*D16
  1

  0
LINE
  5
73F
330
642
100
AcDbEntity
  8
dim
 62
     0
440
 16777216
370
    -2
100
AcDbLine
 10
79.23232658804048
 20
233.1566519237895
 30
0.0
 11
56.44266565575157
 21
233.1566519237895
 31
0.0
  0
LINE
  5
740
330
642
100
AcDbEntity
  8
dim
 62
     0
440
 16777216
370
    -2
100
AcDbLine
 10
79.23232658804048
 20
353.1566519237895
 30
0.0
 11
56.44266565575154
 21
353.1566519237895
 31
0.0
  0
LINE
  5
741
330
642
100
AcDbEntity
  8
dim
 62
     0
440
 16777216
370
    -2
100
AcDbLine
 10
60.44266565575156
 20
239.1566519237895
 30
0.0
 11
60.44266565575154
 21
347.1566519237895
 31
0.0
  0
SOLID
  5
742
330
642
100
AcDbEntity
  8
dim
 62
     0
440
 16777216
100
AcDbTrace
 10
59.44266565575157
 20
239.1566519237895
 30
0.0
 11
61.44266565575157
 21
239.1566519237895
 31
0.0
 12
60.44266565575156
 22
233.1566519237895
 32
0.0
 13
60.44266565575156
 23
233.1566519237895
 33
0.0
  0
SOLID
  5
743
330
642
100
AcDbEntity
  8
dim
 62
     0
440
 16777216
100
AcDbTrace
 10
59.44266565575154
 20
347.1566519237895
 30
0.0
 11
61.44266565575154
 21
347.1566519237895
 31
0.0
 12
60.44266565575154
 22
353.1566519237895
 32
0.0
 13
60.44266565575154
 23
353.1566519237895
 33
0.0
  0
MTEXT
  5
744
330
642
100
AcDbEntity
  8
dim
 62
     0
440
 16777216
100
AcDbMText
 10
56.11305027113623
 20
293.1566519237896
 30
0.0
 40
4.5
 41
0.0
 46
0.0
 71
     5
 72
     1
  1
120mm min
  7
Calibri
 11
0.0000000000000001
 21
1.0
 31
0.0
 73
     1
 44
1.0
  0
POINT
  5
745
330
642
100
AcDbEntity
  8
Defpoints
 62
     0
440
 16777216
100
AcDbPoint
 10
83.23232658804048
 20
233.1566519237895
 30
0.0
  0
POINT
  5
746
330
642
100
AcDbEntity
  8
Defpoints
 62
     0
440
 16777216
100
AcDbPoint
 10
83.23232658804048
 20
353.1566519237895
 30
0.0
  0
POINT
  5
747
330
642
100
AcDbEntity
  8
Defpoints
 62
     0
440
 16777216
100
AcDbPoint
 10
60.44266565575154
 20
353.1566519237895
 30
0.0
  0
ENDBLK
  5
644
330
642
100
AcDbEntity
  8
0
100
AcDbBlockEnd
  0
BLOCK
  5
64F
330
64E
100
AcDbEntity
  8
0
100
AcDbBlockBegin
  2
*D17
 70
     1
 10
0.0
 20
0.0
 30
0.0
  3
*D17
  1

  0
LINE
  5
748
330
64E
100
AcDbEntity
  8
dim
 62
     0
440
 16777216
370
    -2
100
AcDbLine
 10
65.9196754890145
 20
388.1566519237896
 30
0.0
 11
56.44266565575153
 21
388.1566519237896
 31
0.0
  0
LINE
  5
749
330
64E
100
AcDbEntity
  8
dim
 62
     0
440
 16777216
370
    -2
100
AcDbLine
 10
79.23232658804048
 20
353.1566519237895
 30
0.0
 11
56.44266565575154
 21
353.1566519237895
 31
0.0
  0
LINE
  5
74A
330
64E
100
AcDbEntity
  8
dim
 62
     0
440
 16777216
370
    -2
100
AcDbLine
 10
60.44266565575153
 20
382.1566519237896
 30
0.0
 11
60.44266565575154
 21
359.1566519237895
 31
0.0
  0
SOLID
  5
74B
330
64E
100
AcDbEntity
  8
dim
 62
     0
440
 16777216
100
AcDbTrace
 10
59.44266565575153
 20
382.1566519237896
 30
0.0
 11
61.44266565575153
 21
382.1566519237896
 31
0.0
 12
60.44266565575153
 22
388.1566519237896
 32
0.0
 13
60.44266565575153
 23
388.1566519237896
 33
0.0
  0
SOLID
  5
74C
330
64E
100
AcDbEntity
  8
dim
 62
     0
440
 16777216
100
AcDbTrace
 10
59.44266565575154
 20
359.1566519237895
 30
0.0
 11
61.44266565575154
 21
359.1566519237895
 31
0.0
 12
60.44266565575154
 22
353.1566519237895
 32
0.0
 13
60.44266565575154
 23
353.1566519237895
 33
0.0
  0
MTEXT
  5
74D
330
64E
100
AcDbEntity
  8
dim
 62
     0
440
 16777216
100
AcDbMText
 10
56.11305027113623
 20
370.6566519237896
 30
0.0
 40
4.5
 41
0.0
 46
0.0
 71
     5
 72
     1
  1
35 min
  7
Calibri
 11
0.0000000000000001
 21
1.0
 31
0.0
 73
     1
 44
1.0
  0
POINT
  5
74E
330
64E
100
AcDbEntity
  8
Defpoints
 62
     0
440
 16777216
100
AcDbPoint
 10
69.91967548901451
 20
388.1566519237896
 30
0.0
  0
POINT
  5
74F
330
64E
100
AcDbEntity
  8
Defpoints
 62
     0
440
 16777216
100
AcDbPoint
 10
83.23232658804048
 20
353.1566519237895
 30
0.0
  0
POINT
  5
750
330
64E
100
AcDbEntity
  8
Defpoints
 62
     0
440
 16777216
100
AcDbPoint
 10
60.44266565575154
 20
353.1566519237895
 30
0.0
  0
ENDBLK
  5
650
330
64E
100
AcDbEntity
  8
0
100
AcDbBlockEnd
  0
BLOCK
  5
65B
330
65A
100
AcDbEntity
  8
0
100
AcDbBlockBegin
  2
*D18
 70
     1
 10
0.0
 20
0.0
 30
0.0
  3
*D18
  1

  0
LINE
  5
751
330
65A
100
AcDbEntity
  8
dim
 62
     0
440
 16777216
370
    -2
100
AcDbLine
 10
105.7323265880404
 20
392.1566519237894
 30
0.0
 11
105.7323265880404
 21
425.7896544343948
 31
0.0
  0
LINE
  5
752
330
65A
100
AcDbEntity
  8
dim
 62
     0
440
 16777216
370
    -2
100
AcDbLine
 10
195.7323265880404
 20
410.1566519237894
 30
0.0
 11
195.7323265880404
 21
425.7896544343948
 31
0.0
  0
LINE
  5
753
330
65A
100
AcDbEntity
  8
dim
 62
     0
440
 16777216
370
    -2
100
AcDbLine
 10
111.7323265880404
 20
421.7896544343948
 30
0.0
 11
189.7323265880404
 21
421.7896544343948
 31
0.0
  0
SOLID
  5
754
330
65A
100
AcDbEntity
  8
dim
 62
     0
440
 16777216
100
AcDbTrace
 10
111.7323265880404
 20
422.7896544343948
 30
0.0
 11
111.7323265880404
 21
420.7896544343947
 31
0.0
 12
105.7323265880404
 22
421.7896544343948
 32
0.0
 13
105.7323265880404
 23
421.7896544343948
 33
0.0
  0
SOLID
  5
755
330
65A
100
AcDbEntity
  8
dim
 62
     0
440
 16777216
100
AcDbTrace
 10
189.7323265880404
 20
422.7896544343948
 30
0.0
 11
189.7323265880404
 21
420.7896544343947
 31
0.0
 12
195.7323265880404
 22
421.7896544343948
 32
0.0
 13
195.7323265880404
 23
421.7896544343948
 33
0.0
  0
MTEXT
  5
756
330
65A
100
AcDbEntity
  8
dim
 62
     0
440
 16777216
100
AcDbMText
 10
150.7323265880404
 20
426.2335005882409
 30
0.0
 40
4.5
 41
0.0
 46
0.0
 71
     5
 72
     1
  1
90 min timber width
  7
Calibri
 73
     1
 44
1.0
  0
POINT
  5
757
330
65A
100
AcDbEntity
  8
Defpoints
 62
     0
440
 16777216
100
AcDbPoint
 10
105.7323265880404
 20
388.1566519237894
 30
0.0
  0
POINT
  5
758
330
65A
100
AcDbEntity
  8
Defpoints
 62
     0
440
 16777216
100
AcDbPoint
 10
195.7323265880404
 20
406.1566519237894
 30
0.0
  0
POINT
  5
759
330
65A
100
AcDbEntity
  8
Defpoints
 62
     0
440
 16777216
100
AcDbPoint
 10
195.7323265880404
 20
421.7896544343948
 30
0.0
  0
ENDBLK
  5
65C
330
65A
100
AcDbEntity
  8
0
100
AcDbBlockEnd
  0
BLOCK
  5
667
330
666
100
AcDbEntity
  8
0
100
AcDbBlockBegin
  2
*D19
 70
     1
 10
0.0
 20
0.0
 30
0.0
  3
*D19
  1

  0
LINE
  5
75A
330
666
100
AcDbEntity
  8
dim
 62
     0
440
 16777216
370
    -2
100
AcDbLine
 10
79.23232658804048
 20
233.1566519237895
 30
0.0
 11
56.44266565575158
 21
233.1566519237895
 31
0.0
  0
LINE
  5
75B
330
666
100
AcDbEntity
  8
dim
 62
     0
440
 16777216
370
    -2
100
AcDbLine
 10
78.73232658804048
 20
198.1566519237895
 30
0.0
 11
56.44266565575158
 21
198.1566519237895
 31
0.0
  0
LINE
  5
75C
330
666
100
AcDbEntity
  8
dim
 62
     0
440
 16777216
370
    -2
100
AcDbLine
 10
60.44266565575157
 20
227.1566519237895
 30
0.0
 11
60.44266565575158
 21
204.1566519237895
 31
0.0
  0
SOLID
  5
75D
330
666
100
AcDbEntity
  8
dim
 62
     0
440
 16777216
100
AcDbTrace
 10
59.44266565575158
 20
227.1566519237895
 30
0.0
 11
61.44266565575158
 21
227.1566519237895
 31
0.0
 12
60.44266565575157
 22
233.1566519237895
 32
0.0
 13
60.44266565575157
 23
233.1566519237895
 33
0.0
  0
SOLID
  5
75E
330
666
100
AcDbEntity
  8
dim
 62
     0
440
 16777216
100
AcDbTrace
 10
59.44266565575158
 20
204.1566519237895
 30
0.0
 11
61.44266565575158
 21
204.1566519237895
 31
0.0
 12
60.44266565575158
 22
198.1566519237895
 32
0.0
 13
60.44266565575158
 23
198.1566519237895
 33
0.0
  0
MTEXT
  5
75F
330
666
100
AcDbEntity
  8
dim
 62
     0
440
 16777216
100
AcDbMText
 10
56.11305027113623
 20
215.6566519237896
 30
0.0
 40
4.5
 41
0.0
 46
0.0
 71
     5
 72
     1
  1
35 min
  7
Calibri
 11
0.0000000000000001
 21
1.0
 31
0.0
 73
     1
 44
1.0
  0
POINT
  5
760
330
666
100
AcDbEntity
  8
Defpoints
 62
     0
440
 16777216
100
AcDbPoint
 10
83.23232658804048
 20
233.1566519237895
 30
0.0
  0
POINT
  5
761
330
666
100
AcDbEntity
  8
Defpoints
 62
     0
440
 16777216
100
AcDbPoint
 10
82.73232658804047
 20
198.1566519237895
 30
0.0
  0
POINT
  5
762
330
666
100
AcDbEntity
  8
Defpoints
 62
     0
440
 16777216
100
AcDbPoint
 10
60.44266565575158
 20
198.1566519237895
 30
0.0
  0
ENDBLK
  5
668
330
666
100
AcDbEntity
  8
0
100
AcDbBlockEnd
  0
BLOCK
  5
673
330
672
100
AcDbEntity
  8
0
100
AcDbBlockBegin
  2
*D20
 70
     1
 10
0.0
 20
0.0
 30
0.0
  3
*D20
  1

  0
LINE
  5
763
330
672
100
AcDbEntity
  8
dim
 62
     0
440
 16777216
370
    -2
100
AcDbLine
 10
103.7322886465263
 20
198.1566519237895
 30
0.0
 11
42.44266565574792
 21
198.1566519237895
 31
0.0
  0
LINE
  5
764
330
672
100
AcDbEntity
  8
dim
 62
     0
440
 16777216
370
    -2
100
AcDbLine
 10
67.91967548901451
 20
388.1566519237896
 30
0.0
 11
42.44266565574789
 21
388.1566519237896
 31
0.0
  0
LINE
  5
765
330
672
100
AcDbEntity
  8
dim
 62
     0
440
 16777216
370
    -2
100
AcDbLine
 10
46.44266565574793
 20
204.1566519237895
 30
0.0
 11
46.44266565574788
 21
382.1566519237896
 31
0.0
  0
SOLID
  5
766
330
672
100
AcDbEntity
  8
dim
 62
     0
440
 16777216
100
AcDbTrace
 10
45.44266565574793
 20
204.1566519237895
 30
0.0
 11
47.44266565574792
 21
204.1566519237895
 31
0.0
 12
46.44266565574793
 22
198.1566519237895
 32
0.0
 13
46.44266565574793
 23
198.1566519237895
 33
0.0
  0
SOLID
  5
767
330
672
100
AcDbEntity
  8
dim
 62
     0
440
 16777216
100
AcDbTrace
 10
45.44266565574789
 20
382.1566519237896
 30
0.0
 11
47.44266565574789
 21
382.1566519237896
 31
0.0
 12
46.44266565574788
 22
388.1566519237896
 32
0.0
 13
46.44266565574788
 23
388.1566519237896
 33
0.0
  0
MTEXT
  5
768
330
672
100
AcDbEntity
  8
dim
 62
     0
440
 16777216
100
AcDbMText
 10
41.40170411728645
 20
298.1566519237997
 30
0.0
 40
4.5
 41
0.0
 46
0.0
 71
     5
 72
     1
  1
190 min section depth
  7
Calibri
 11
0.0000000000000001
 21
1.0
 31
0.0
 73
     1
 44
1.0
  0
POINT
  5
769
330
672
100
AcDbEntity
  8
Defpoints
 62
     0
440
 16777216
100
AcDbPoint
 10
105.7322886465263
 20
198.1566519237895
 30
0.0
  0
POINT
  5
76A
330
672
100
AcDbEntity
  8
Defpoints
 62
     0
440
 16777216
100
AcDbPoint
 10
69.91967548901451
 20
388.1566519237896
 30
0.0
  0
POINT
  5
76B
330
672
100
AcDbEntity
  8
Defpoints
 62
     0
440
 16777216
100
AcDbPoint
 10
46.44266565574788
 20
388.1566519237896
 30
0.0
  0
ENDBLK
  5
674
330
672
100
AcDbEntity
  8
0
100
AcDbBlockEnd
  0
ENDSEC
  0
SECTION
  2
ENTITIES
  0
LINE
  5
3A0
330
70
100
AcDbEntity
  8
Post
100
AcDbLine
 10
248.0323265880433
 20
198.15682055262
 30
0.0
 11
248.0323265880433
 21
527.8310650565217
 31
0.0
  0
LINE
  5
3A1
330
70
100
AcDbEntity
  8
Post
100
AcDbLine
 10
197.2323265880404
 20
198.15682055262
 30
0.0
 11
197.2323265880404
 21
527.9299231557979
 31
0.0
  0
LINE
  5
3A2
330
70
100
AcDbEntity
  8
Post
370
     9
100
AcDbLine
 10
200.2323265880404
 20
201.15682055262
 30
0.0
 11
200.2323265880404
 21
529.2645737065249
 31
0.0
  0
LINE
  5
3A3
330
70
100
AcDbEntity
  8
Post
370
     9
100
AcDbLine
 10
245.0323265880288
 20
201.15682055262
 30
0.0
 11
245.0323265880434
 21
526.4193258678242
 31
0.0
  0
SPLINE
  5
3A4
330
70
100
AcDbEntity
  8
dim
  6
DASHED
 48
0.2
370
     5
100
AcDbSpline
210
0.0
220
0.0
230
1.0
 70
  1064
 71
     3
 72
    10
 73
     6
 74
     4
 42
0.000000001
 43
0.0000000001
 44
0.00001
 40
0.0
 40
0.0
 40
0.0
 40
0.0
 40
25.64484207790905
 40
44.54267333147243
 40
68.78748080469866
 40
68.78748080469866
 40
68.78748080469866
 40
68.78748080469866
 10
189.7701186081976
 20
524.0531636424038
 30
0.0
 10
198.0670570299137
 20
528.5463236184241
 30
0.0
 10
212.4780571746831
 20
536.3504968613589
 30
0.0
 10
233.3827932481096
 20
519.3434503128097
 30
0.0
 10
247.2094560658899
 20
527.2109049152194
 30
0.0
 10
254.9796057599451
 20
531.6321792635426
 30
0.0
 11
189.7701186081976
 21
524.0531636424038
 31
0.0
 11
214.3711153272743
 21
531.2953356195648
 31
0.0
 11
231.895109250021
 21
524.2215872344786
 31
0.0
 11
254.9796057599451
 21
531.6321792635426
 31
0.0
  0
LINE
  5
3A5
330
70
100
AcDbEntity
  8
0
100
AcDbLine
 10
195.7323265880404
 20
198.15682055262
 30
0.0
 11
105.7323265880404
 21
198.15682055262
 31
0.0
  0
HATCH
  5
3A6
330
70
100
AcDbEntity
  8
shade 8
100
AcDbHatch
 10
0.0
 20
0.0
 30
0.0
210
0.0
220
0.0
230
1.0
  2
HWOOD2E1
 70
     0
 71
     0
 91
        1
 92
        7
 72
     0
 73
     1
 93
        4
 10
195.7323265880404
 20
406.1566519237894
 10
70.06478992155462
 20
406.1566519237894
 10
70.06478992155462
 20
388.1566519237894
 10
195.7323265880404
 20
388.1566519237894
 97
        0
 75
     1
 76
     2
 52
0.0
 41
0.25
 77
     0
 78
   314
 53
4.085616590000009
 43
-66716.77103025542
 44
-1115.376241310895
 45
-0.0000000115101622
 46
25.00000062409175
 79
     2
 49
3.508917092499999
 49
-347.3828125
 53
4.085616590000009
 43
-66691.77103025542
 44
-1115.376241310895
 45
-0.0000000115101622
 46
25.00000062409175
 79
     2
 49
3.508917092499999
 49
-347.3828125
 53
4.085616590000009
 43
-66666.77103025541
 44
-1115.376241310895
 45
-0.0000000115101622
 46
25.00000062409175
 79
     2
 49
3.508917092499999
 49
-347.3828125
 53
4.085616590000009
 43
-66641.77103025542
 44
-1115.376241310895
 45
-0.0000000115101622
 46
25.00000062409175
 79
     2
 49
3.508917092499999
 49
-347.3828125
 53
4.085616590000009
 43
-66616.77103025541
 44
-1115.376241310895
 45
-0.0000000115101622
 46
25.00000062409175
 79
     2
 49
3.508917092499999
 49
-347.3828125
 53
4.085616590000009
 43
-66591.77103025542
 44
-1115.376241310895
 45
-0.0000000115101622
 46
25.00000062409175
 79
     2
 49
3.508917092499999
 49
-347.3828125
 53
4.085616590000009
 43
-66566.77103025542
 44
-1115.376241310895
 45
-0.0000000115101622
 46
25.00000062409175
 79
     2
 49
3.508917092499999
 49
-347.3828125
 53
4.085616590000009
 43
-66541.77103025542
 44
-1115.376241310895
 45
-0.0000000115101622
 46
25.00000062409175
 79
     2
 49
3.508917092499999
 49
-347.3828125
 53
4.085616590000009
 43
-66516.77103025542
 44
-1115.376241310895
 45
-0.0000000115101622
 46
25.00000062409175
 79
     2
 49
3.508917092499999
 49
-347.3828125
 53
4.085616590000009
 43
-66491.77103025541
 44
-1115.376241310895
 45
-0.0000000115101622
 46
25.00000062409175
 79
     2
 49
3.508917092499999
 49
-347.3828125
 53
4.085616590000009
 43
-66466.77103025542
 44
-1115.376241310895
 45
-0.0000000115101622
 46
25.00000062409175
 79
     2
 49
3.508917092499999
 49
-347.3828125
 53
4.085616590000009
 43
-66441.77103025541
 44
-1115.376241310895
 45
-0.0000000115101622
 46
25.00000062409175
 79
     2
 49
3.508917092499999
 49
-347.3828125
 53
4.085616590000009
 43
-66416.77103025542
 44
-1115.376241310895
 45
-0.0000000115101622
 46
25.00000062409175
 79
     2
 49
3.508917092499999
 49
-347.3828125
 53
4.085616590000009
 43
-66391.77103025541
 44
-1115.376241310895
 45
-0.0000000115101622
 46
25.00000062409175
 79
     2
 49
3.508917092499999
 49
-347.3828125
 53
0.0
 43
-66713.27103025542
 44
-1115.126241310895
 45
0.0
 46
25.0
 79
     2
 49
2.0
 49
-23.0
 53
355.6012945
 43
-66711.27103025542
 44
-1115.126241310895
 45
0.000000076692025
 46
25.0000008639759
 79
     2
 49
3.259601115
 49
-322.700531
 53
355.6012945
 43
-66686.27103025542
 44
-1115.126241310895
 45
0.000000076692025
 46
25.0000008639759
 79
     2
 49
3.259601115
 49
-322.700531
 53
355.6012945
 43
-66661.27103025542
 44
-1115.126241310895
 45
0.000000076692025
 46
25.0000008639759
 79
     2
 49
3.259601115
 49
-322.700531
 53
355.6012945
 43
-66636.27103025541
 44
-1115.126241310895
 45
0.000000076692025
 46
25.0000008639759
 79
     2
 49
3.259601115
 49
-322.700531
 53
355.6012945
 43
-66611.27103025542
 44
-1115.126241310895
 45
0.000000076692025
 46
25.0000008639759
 79
     2
 49
3.259601115
 49
-322.700531
 53
355.6012945
 43
-66586.27103025541
 44
-1115.126241310895
 45
0.000000076692025
 46
25.0000008639759
 79
     2
 49
3.259601115
 49
-322.700531
 53
355.6012945
 43
-66561.27103025542
 44
-1115.126241310895
 45
0.000000076692025
 46
25.0000008639759
 79
     2
 49
3.259601115
 49
-322.700531
 53
355.6012945
 43
-66536.27103025542
 44
-1115.126241310895
 45
0.000000076692025
 46
25.0000008639759
 79
     2
 49
3.259601115
 49
-322.700531
 53
355.6012945
 43
-66511.27103025542
 44
-1115.126241310895
 45
0.000000076692025
 46
25.0000008639759
 79
     2
 49
3.259601115
 49
-322.700531
 53
355.6012945
 43
-66486.27103025542
 44
-1115.126241310895
 45
0.000000076692025
 46
25.0000008639759
 79
     2
 49
3.259601115
 49
-322.700531
 53
355.6012945
 43
-66461.27103025541
 44
-1115.126241310895
 45
0.000000076692025
 46
25.0000008639759
 79
     2
 49
3.259601115
 49
-322.700531
 53
355.6012945
 43
-66436.27103025542
 44
-1115.126241310895
 45
0.000000076692025
 46
25.0000008639759
 79
     2
 49
3.259601115
 49
-322.700531
 53
355.6012945
 43
-66411.27103025541
 44
-1115.126241310895
 45
0.000000076692025
 46
25.0000008639759
 79
     2
 49
3.259601115
 49
-322.700531
 53
3.366460599999999
 43
-66708.02103025541
 44
-1115.376241310895
 45
0.0000000629096855
 46
25.00000027316545
 79
     2
 49
4.257346629999999
 49
-421.4773254499999
 53
3.366460599999999
 43
-66683.02103025542
 44
-1115.376241310895
 45
0.0000000629096855
 46
25.00000027316545
 79
     2
 49
4.257346629999999
 49
-421.4773254499999
 53
3.366460599999999
 43
-66658.02103025542
 44
-1115.376241310895
 45
0.0000000629096855
 46
25.00000027316545
 79
     2
 49
4.257346629999999
 49
-421.4773254499999
 53
3.366460599999999
 43
-66633.02103025542
 44
-1115.376241310895
 45
0.0000000629096855
 46
25.00000027316545
 79
     2
 49
4.257346629999999
 49
-421.4773254499999
 53
3.366460599999999
 43
-66608.02103025542
 44
-1115.376241310895
 45
0.0000000629096855
 46
25.00000027316545
 79
     2
 49
4.257346629999999
 49
-421.4773254499999
 53
3.366460599999999
 43
-66583.02103025541
 44
-1115.376241310895
 45
0.0000000629096855
 46
25.00000027316545
 79
     2
 49
4.257346629999999
 49
-421.4773254499999
 53
3.366460599999999
 43
-66558.02103025542
 44
-1115.376241310895
 45
0.0000000629096855
 46
25.00000027316545
 79
     2
 49
4.257346629999999
 49
-421.4773254499999
 53
3.366460599999999
 43
-66533.02103025541
 44
-1115.376241310895
 45
0.0000000629096855
 46
25.00000027316545
 79
     2
 49
4.257346629999999
 49
-421.4773254499999
 53
3.366460599999999
 43
-66508.02103025542
 44
-1115.376241310895
 45
0.0000000629096855
 46
25.00000027316545
 79
     2
 49
4.257346629999999
 49
-421.4773254499999
 53
3.366460599999999
 43
-66483.02103025542
 44
-1115.376241310895
 45
0.0000000629096855
 46
25.00000027316545
 79
     2
 49
4.257346629999999
 49
-421.4773254499999
 53
3.366460599999999
 43
-66458.02103025542
 44
-1115.376241310895
 45
0.0000000629096855
 46
25.00000027316545
 79
     2
 49
4.257346629999999
 49
-421.4773254499999
 53
3.366460599999999
 43
-66433.02103025542
 44
-1115.376241310895
 45
0.0000000629096855
 46
25.00000027316545
 79
     2
 49
4.257346629999999
 49
-421.4773254499999
 53
3.366460599999999
 43
-66408.02103025542
 44
-1115.376241310895
 45
0.0000000629096855
 46
25.00000027316545
 79
     2
 49
4.257346629999999
 49
-421.4773254499999
 53
3.366460599999999
 43
-66383.02103025542
 44
-1115.376241310895
 45
0.0000000629096855
 46
25.00000027316545
 79
     2
 49
4.257346629999999
 49
-421.4773254499999
 53
3.366460599999999
 43
-66358.02103025541
 44
-1115.376241310895
 45
0.0000000629096855
 46
25.00000027316545
 79
     2
 49
4.257346629999999
 49
-421.4773254499999
 53
3.366460599999999
 43
-66333.02103025542
 44
-1115.376241310895
 45
0.0000000629096855
 46
25.00000027316545
 79
     2
 49
4.257346629999999
 49
-421.4773254499999
 53
3.366460599999999
 43
-66308.02103025541
 44
-1115.376241310895
 45
0.0000000629096855
 46
25.00000027316545
 79
     2
 49
4.257346629999999
 49
-421.4773254499999
 53
0.0
 43
-66703.77103025542
 44
-1115.126241310895
 45
0.0
 46
25.0
 79
     2
 49
2.25
 49
-22.75
 53
354.2894068000001
 43
-66701.52103025542
 44
-1115.126241310895
 45
-0.00000001004297
 46
24.99999911909136
 79
     2
 49
2.512468815
 49
-248.734420775
 53
354.2894068000001
 43
-66676.52103025542
 44
-1115.126241310895
 45
-0.00000001004297
 46
24.99999911909136
 79
     2
 49
2.512468815
 49
-248.734420775
 53
354.2894068000001
 43
-66651.52103025541
 44
-1115.126241310895
 45
-0.00000001004297
 46
24.99999911909136
 79
     2
 49
2.512468815
 49
-248.734420775
 53
354.2894068000001
 43
-66626.52103025542
 44
-1115.126241310895
 45
-0.00000001004297
 46
24.99999911909136
 79
     2
 49
2.512468815
 49
-248.734420775
 53
354.2894068000001
 43
-66601.52103025541
 44
-1115.126241310895
 45
-0.00000001004297
 46
24.99999911909136
 79
     2
 49
2.512468815
 49
-248.734420775
 53
354.2894068000001
 43
-66576.52103025542
 44
-1115.126241310895
 45
-0.00000001004297
 46
24.99999911909136
 79
     2
 49
2.512468815
 49
-248.734420775
 53
354.2894068000001
 43
-66551.52103025542
 44
-1115.126241310895
 45
-0.00000001004297
 46
24.99999911909136
 79
     2
 49
2.512468815
 49
-248.734420775
 53
354.2894068000001
 43
-66526.52103025542
 44
-1115.126241310895
 45
-0.00000001004297
 46
24.99999911909136
 79
     2
 49
2.512468815
 49
-248.734420775
 53
354.2894068000001
 43
-66501.52103025542
 44
-1115.126241310895
 45
-0.00000001004297
 46
24.99999911909136
 79
     2
 49
2.512468815
 49
-248.734420775
 53
354.2894068000001
 43
-66476.52103025541
 44
-1115.126241310895
 45
-0.00000001004297
 46
24.99999911909136
 79
     2
 49
2.512468815
 49
-248.734420775
 53
354.2894068000001
 43
-66699.02103025542
 44
-1115.376241310895
 45
-0.00000001004297
 46
24.99999911909136
 79
     2
 49
2.512468815
 49
-248.734420775
 53
354.2894068000001
 43
-66674.02103025541
 44
-1115.376241310895
 45
-0.00000001004297
 46
24.99999911909136
 79
     2
 49
2.512468815
 49
-248.734420775
 53
354.2894068000001
 43
-66649.02103025542
 44
-1115.376241310895
 45
-0.00000001004297
 46
24.99999911909136
 79
     2
 49
2.512468815
 49
-248.734420775
 53
354.2894068000001
 43
-66624.02103025542
 44
-1115.376241310895
 45
-0.00000001004297
 46
24.99999911909136
 79
     2
 49
2.512468815
 49
-248.734420775
 53
354.2894068000001
 43
-66599.02103025542
 44
-1115.376241310895
 45
-0.00000001004297
 46
24.99999911909136
 79
     2
 49
2.512468815
 49
-248.734420775
 53
354.2894068000001
 43
-66574.02103025542
 44
-1115.376241310895
 45
-0.00000001004297
 46
24.99999911909136
 79
     2
 49
2.512468815
 49
-248.734420775
 53
354.2894068000001
 43
-66549.02103025541
 44
-1115.376241310895
 45
-0.00000001004297
 46
24.99999911909136
 79
     2
 49
2.512468815
 49
-248.734420775
 53
354.2894068000001
 43
-66524.02103025542
 44
-1115.376241310895
 45
-0.00000001004297
 46
24.99999911909136
 79
     2
 49
2.512468815
 49
-248.734420775
 53
354.2894068000001
 43
-66499.02103025541
 44
-1115.376241310895
 45
-0.00000001004297
 46
24.99999911909136
 79
     2
 49
2.512468815
 49
-248.734420775
 53
354.2894068000001
 43
-66474.02103025542
 44
-1115.376241310895
 45
-0.00000001004297
 46
24.99999911909136
 79
     2
 49
2.512468815
 49
-248.734420775
 53
0.0
 43
-66696.52103025542
 44
-1115.626241310895
 45
0.0
 46
25.0
 79
     2
 49
2.25
 49
-22.75
 53
8.130102199999999
 43
-66694.27103025542
 44
-1115.626241310895
 45
0.0000000637277005
 46
24.99999998279795
 79
     2
 49
1.767766952499999
 49
-175.0089263925
 53
8.130102199999999
 43
-66669.27103025542
 44
-1115.626241310895
 45
0.0000000637277005
 46
24.99999998279795
 79
     2
 49
1.767766952499999
 49
-175.0089263925
 53
8.130102199999999
 43
-66644.27103025541
 44
-1115.626241310895
 45
0.0000000637277005
 46
24.99999998279795
 79
     2
 49
1.767766952499999
 49
-175.0089263925
 53
8.130102199999999
 43
-66619.27103025542
 44
-1115.626241310895
 45
0.0000000637277005
 46
24.99999998279795
 79
     2
 49
1.767766952499999
 49
-175.0089263925
 53
8.130102199999999
 43
-66594.27103025541
 44
-1115.626241310895
 45
0.0000000637277005
 46
24.99999998279795
 79
     2
 49
1.767766952499999
 49
-175.0089263925
 53
8.130102199999999
 43
-66569.27103025542
 44
-1115.626241310895
 45
0.0000000637277005
 46
24.99999998279795
 79
     2
 49
1.767766952499999
 49
-175.0089263925
 53
8.130102199999999
 43
-66544.27103025541
 44
-1115.626241310895
 45
0.0000000637277005
 46
24.99999998279795
 79
     2
 49
1.767766952499999
 49
-175.0089263925
 53
0.0
 43
-66692.52103025542
 44
-1115.376241310895
 45
0.0
 46
25.0
 79
     2
 49
0.75
 49
-24.25
 53
0.0
 43
-66692.52103025542
 44
-1122.376241310895
 45
0.0
 46
25.0
 79
     2
 49
0.75
 49
-24.25
 53
8.130102199999999
 43
-66694.27103025542
 44
-1122.626241310895
 45
0.0000000637277005
 46
24.99999998279795
 79
     2
 49
1.767766952499999
 49
-175.0089263925
 53
8.130102199999999
 43
-66669.27103025542
 44
-1122.626241310895
 45
0.0000000637277005
 46
24.99999998279795
 79
     2
 49
1.767766952499999
 49
-175.0089263925
 53
8.130102199999999
 43
-66644.27103025541
 44
-1122.626241310895
 45
0.0000000637277005
 46
24.99999998279795
 79
     2
 49
1.767766952499999
 49
-175.0089263925
 53
8.130102199999999
 43
-66619.27103025542
 44
-1122.626241310895
 45
0.0000000637277005
 46
24.99999998279795
 79
     2
 49
1.767766952499999
 49
-175.0089263925
 53
8.130102199999999
 43
-66594.27103025541
 44
-1122.626241310895
 45
0.0000000637277005
 46
24.99999998279795
 79
     2
 49
1.767766952499999
 49
-175.0089263925
 53
8.130102199999999
 43
-66569.27103025542
 44
-1122.626241310895
 45
0.0000000637277005
 46
24.99999998279795
 79
     2
 49
1.767766952499999
 49
-175.0089263925
 53
8.130102199999999
 43
-66544.27103025541
 44
-1122.626241310895
 45
0.0000000637277005
 46
24.99999998279795
 79
     2
 49
1.767766952499999
 49
-175.0089263925
 53
0.0
 43
-66696.52103025542
 44
-1122.626241310895
 45
0.0
 46
25.0
 79
     2
 49
2.25
 49
-22.75
 53
354.2894068000001
 43
-66699.02103025542
 44
-1122.376241310895
 45
-0.00000001004297
 46
24.99999911909136
 79
     2
 49
2.512468815
 49
-248.734420775
 53
354.2894068000001
 43
-66674.02103025541
 44
-1122.376241310895
 45
-0.00000001004297
 46
24.99999911909136
 79
     2
 49
2.512468815
 49
-248.734420775
 53
354.2894068000001
 43
-66649.02103025542
 44
-1122.376241310895
 45
-0.00000001004297
 46
24.99999911909136
 79
     2
 49
2.512468815
 49
-248.734420775
 53
354.2894068000001
 43
-66624.02103025542
 44
-1122.376241310895
 45
-0.00000001004297
 46
24.99999911909136
 79
     2
 49
2.512468815
 49
-248.734420775
 53
354.2894068000001
 43
-66599.02103025542
 44
-1122.376241310895
 45
-0.00000001004297
 46
24.99999911909136
 79
     2
 49
2.512468815
 49
-248.734420775
 53
354.2894068000001
 43
-66574.02103025542
 44
-1122.376241310895
 45
-0.00000001004297
 46
24.99999911909136
 79
     2
 49
2.512468815
 49
-248.734420775
 53
354.2894068000001
 43
-66549.02103025541
 44
-1122.376241310895
 45
-0.00000001004297
 46
24.99999911909136
 79
     2
 49
2.512468815
 49
-248.734420775
 53
354.2894068000001
 43
-66524.02103025542
 44
-1122.376241310895
 45
-0.00000001004297
 46
24.99999911909136
 79
     2
 49
2.512468815
 49
-248.734420775
 53
354.2894068000001
 43
-66499.02103025541
 44
-1122.376241310895
 45
-0.00000001004297
 46
24.99999911909136
 79
     2
 49
2.512468815
 49
-248.734420775
 53
354.2894068000001
 43
-66474.02103025542
 44
-1122.376241310895
 45
-0.00000001004297
 46
24.99999911909136
 79
     2
 49
2.512468815
 49
-248.734420775
 53
354.2894068000001
 43
-66701.52103025542
 44
-1122.126241310895
 45
-0.00000001004297
 46
24.99999911909136
 79
     2
 49
2.512468815
 49
-248.734420775
 53
354.2894068000001
 43
-66676.52103025542
 44
-1122.126241310895
 45
-0.00000001004297
 46
24.99999911909136
 79
     2
 49
2.512468815
 49
-248.734420775
 53
354.2894068000001
 43
-66651.52103025541
 44
-1122.126241310895
 45
-0.00000001004297
 46
24.99999911909136
 79
     2
 49
2.512468815
 49
-248.734420775
 53
354.2894068000001
 43
-66626.52103025542
 44
-1122.126241310895
 45
-0.00000001004297
 46
24.99999911909136
 79
     2
 49
2.512468815
 49
-248.734420775
 53
354.2894068000001
 43
-66601.52103025541
 44
-1122.126241310895
 45
-0.00000001004297
 46
24.99999911909136
 79
     2
 49
2.512468815
 49
-248.734420775
 53
354.2894068000001
 43
-66576.52103025542
 44
-1122.126241310895
 45
-0.00000001004297
 46
24.99999911909136
 79
     2
 49
2.512468815
 49
-248.734420775
 53
354.2894068000001
 43
-66551.52103025542
 44
-1122.126241310895
 45
-0.00000001004297
 46
24.99999911909136
 79
     2
 49
2.512468815
 49
-248.734420775
 53
354.2894068000001
 43
-66526.52103025542
 44
-1122.126241310895
 45
-0.00000001004297
 46
24.99999911909136
 79
     2
 49
2.512468815
 49
-248.734420775
 53
354.2894068000001
 43
-66501.52103025542
 44
-1122.126241310895
 45
-0.00000001004297
 46
24.99999911909136
 79
     2
 49
2.512468815
 49
-248.734420775
 53
354.2894068000001
 43
-66476.52103025541
 44
-1122.126241310895
 45
-0.00000001004297
 46
24.99999911909136
 79
     2
 49
2.512468815
 49
-248.734420775
 53
0.0
 43
-66703.77103025542
 44
-1122.126241310895
 45
0.0
 46
25.0
 79
     2
 49
2.25
 49
-22.75
 53
3.366460599999999
 43
-66708.02103025541
 44
-1122.376241310895
 45
0.0000000629096855
 46
25.00000027316545
 79
     2
 49
4.257346629999999
 49
-421.4773254499999
 53
3.366460599999999
 43
-66683.02103025542
 44
-1122.376241310895
 45
0.0000000629096855
 46
25.00000027316545
 79
     2
 49
4.257346629999999
 49
-421.4773254499999
 53
3.366460599999999
 43
-66658.02103025542
 44
-1122.376241310895
 45
0.0000000629096855
 46
25.00000027316545
 79
     2
 49
4.257346629999999
 49
-421.4773254499999
 53
3.366460599999999
 43
-66633.02103025542
 44
-1122.376241310895
 45
0.0000000629096855
 46
25.00000027316545
 79
     2
 49
4.257346629999999
 49
-421.4773254499999
 53
3.366460599999999
 43
-66608.02103025542
 44
-1122.376241310895
 45
0.0000000629096855
 46
25.00000027316545
 79
     2
 49
4.257346629999999
 49
-421.4773254499999
 53
3.366460599999999
 43
-66583.02103025541
 44
-1122.376241310895
 45
0.0000000629096855
 46
25.00000027316545
 79
     2
 49
4.257346629999999
 49
-421.4773254499999
 53
3.366460599999999
 43
-66558.02103025542
 44
-1122.376241310895
 45
0.0000000629096855
 46
25.00000027316545
 79
     2
 49
4.257346629999999
 49
-421.4773254499999
 53
3.366460599999999
 43
-66533.02103025541
 44
-1122.376241310895
 45
0.0000000629096855
 46
25.00000027316545
 79
     2
 49
4.257346629999999
 49
-421.4773254499999
 53
3.366460599999999
 43
-66508.02103025542
 44
-1122.376241310895
 45
0.0000000629096855
 46
25.00000027316545
 79
     2
 49
4.257346629999999
 49
-421.4773254499999
 53
3.366460599999999
 43
-66483.02103025542
 44
-1122.376241310895
 45
0.0000000629096855
 46
25.00000027316545
 79
     2
 49
4.257346629999999
 49
-421.4773254499999
 53
3.366460599999999
 43
-66458.02103025542
 44
-1122.376241310895
 45
0.0000000629096855
 46
25.00000027316545
 79
     2
 49
4.257346629999999
 49
-421.4773254499999
 53
3.366460599999999
 43
-66433.02103025542
 44
-1122.376241310895
 45
0.0000000629096855
 46
25.00000027316545
 79
     2
 49
4.257346629999999
 49
-421.4773254499999
 53
3.366460599999999
 43
-66408.02103025542
 44
-1122.376241310895
 45
0.0000000629096855
 46
25.00000027316545
 79
     2
 49
4.257346629999999
 49
-421.4773254499999
 53
3.366460599999999
 43
-66383.02103025542
 44
-1122.376241310895
 45
0.0000000629096855
 46
25.00000027316545
 79
     2
 49
4.257346629999999
 49
-421.4773254499999
 53
3.366460599999999
 43
-66358.02103025541
 44
-1122.376241310895
 45
0.0000000629096855
 46
25.00000027316545
 79
     2
 49
4.257346629999999
 49
-421.4773254499999
 53
3.366460599999999
 43
-66333.02103025542
 44
-1122.376241310895
 45
0.0000000629096855
 46
25.00000027316545
 79
     2
 49
4.257346629999999
 49
-421.4773254499999
 53
3.366460599999999
 43
-66308.02103025541
 44
-1122.376241310895
 45
0.0000000629096855
 46
25.00000027316545
 79
     2
 49
4.257346629999999
 49
-421.4773254499999
 53
355.6012945
 43
-66711.27103025542
 44
-1122.126241310895
 45
0.000000076692025
 46
25.0000008639759
 79
     2
 49
3.259601115
 49
-322.700531
 53
355.6012945
 43
-66686.27103025542
 44
-1122.126241310895
 45
0.000000076692025
 46
25.0000008639759
 79
     2
 49
3.259601115
 49
-322.700531
 53
355.6012945
 43
-66661.27103025542
 44
-1122.126241310895
 45
0.000000076692025
 46
25.0000008639759
 79
     2
 49
3.259601115
 49
-322.700531
 53
355.6012945
 43
-66636.27103025541
 44
-1122.126241310895
 45
0.000000076692025
 46
25.0000008639759
 79
     2
 49
3.259601115
 49
-322.700531
 53
355.6012945
 43
-66611.27103025542
 44
-1122.126241310895
 45
0.000000076692025
 46
25.0000008639759
 79
     2
 49
3.259601115
 49
-322.700531
 53
355.6012945
 43
-66586.27103025541
 44
-1122.126241310895
 45
0.000000076692025
 46
25.0000008639759
 79
     2
 49
3.259601115
 49
-322.700531
 53
355.6012945
 43
-66561.27103025542
 44
-1122.126241310895
 45
0.000000076692025
 46
25.0000008639759
 79
     2
 49
3.259601115
 49
-322.700531
 53
355.6012945
 43
-66536.27103025542
 44
-1122.126241310895
 45
0.000000076692025
 46
25.0000008639759
 79
     2
 49
3.259601115
 49
-322.700531
 53
355.6012945
 43
-66511.27103025542
 44
-1122.126241310895
 45
0.000000076692025
 46
25.0000008639759
 79
     2
 49
3.259601115
 49
-322.700531
 53
355.6012945
 43
-66486.27103025542
 44
-1122.126241310895
 45
0.000000076692025
 46
25.0000008639759
 79
     2
 49
3.259601115
 49
-322.700531
 53
355.6012945
 43
-66461.27103025541
 44
-1122.126241310895
 45
0.000000076692025
 46
25.0000008639759
 79
     2
 49
3.259601115
 49
-322.700531
 53
355.6012945
 43
-66436.27103025542
 44
-1122.126241310895
 45
0.000000076692025
 46
25.0000008639759
 79
     2
 49
3.259601115
 49
-322.700531
 53
355.6012945
 43
-66411.27103025541
 44
-1122.126241310895
 45
0.000000076692025
 46
25.0000008639759
 79
     2
 49
3.259601115
 49
-322.700531
 53
0.0
 43
-66713.27103025542
 44
-1122.126241310895
 45
0.0
 46
25.0
 79
     2
 49
2.0
 49
-23.0
 53
4.085616590000009
 43
-66716.77103025542
 44
-1122.376241310895
 45
-0.0000000115101622
 46
25.00000062409175
 79
     2
 49
3.508917092499999
 49
-347.3828125
 53
4.085616590000009
 43
-66691.77103025542
 44
-1122.376241310895
 45
-0.0000000115101622
 46
25.00000062409175
 79
     2
 49
3.508917092499999
 49
-347.3828125
 53
4.085616590000009
 43
-66666.77103025541
 44
-1122.376241310895
 45
-0.0000000115101622
 46
25.00000062409175
 79
     2
 49
3.508917092499999
 49
-347.3828125
 53
4.085616590000009
 43
-66641.77103025542
 44
-1122.376241310895
 45
-0.0000000115101622
 46
25.00000062409175
 79
     2
 49
3.508917092499999
 49
-347.3828125
 53
4.085616590000009
 43
-66616.77103025541
 44
-1122.376241310895
 45
-0.0000000115101622
 46
25.00000062409175
 79
     2
 49
3.508917092499999
 49
-347.3828125
 53
4.085616590000009
 43
-66591.77103025542
 44
-1122.376241310895
 45
-0.0000000115101622
 46
25.00000062409175
 79
     2
 49
3.508917092499999
 49
-347.3828125
 53
4.085616590000009
 43
-66566.77103025542
 44
-1122.376241310895
 45
-0.0000000115101622
 46
25.00000062409175
 79
     2
 49
3.508917092499999
 49
-347.3828125
 53
4.085616590000009
 43
-66541.77103025542
 44
-1122.376241310895
 45
-0.0000000115101622
 46
25.00000062409175
 79
     2
 49
3.508917092499999
 49
-347.3828125
 53
4.085616590000009
 43
-66516.77103025542
 44
-1122.376241310895
 45
-0.0000000115101622
 46
25.00000062409175
 79
     2
 49
3.508917092499999
 49
-347.3828125
 53
4.085616590000009
 43
-66491.77103025541
 44
-1122.376241310895
 45
-0.0000000115101622
 46
25.00000062409175
 79
     2
 49
3.508917092499999
 49
-347.3828125
 53
4.085616590000009
 43
-66466.77103025542
 44
-1122.376241310895
 45
-0.0000000115101622
 46
25.00000062409175
 79
     2
 49
3.508917092499999
 49
-347.3828125
 53
4.085616590000009
 43
-66441.77103025541
 44
-1122.376241310895
 45
-0.0000000115101622
 46
25.00000062409175
 79
     2
 49
3.508917092499999
 49
-347.3828125
 53
4.085616590000009
 43
-66416.77103025542
 44
-1122.376241310895
 45
-0.0000000115101622
 46
25.00000062409175
 79
     2
 49
3.508917092499999
 49
-347.3828125
 53
4.085616590000009
 43
-66391.77103025541
 44
-1122.376241310895
 45
-0.0000000115101622
 46
25.00000062409175
 79
     2
 49
3.508917092499999
 49
-347.3828125
 53
0.0
 43
-66716.77103025542
 44
-1133.876241310895
 45
0.0
 46
25.0
 79
     2
 49
6.25
 49
-18.75
 53
7.594643599999986
 43
-66710.52103025542
 44
-1133.876241310895
 45
0.0000001055347854
 46
24.99999937978613
 79
     2
 49
3.783186424999999
 49
-374.535461425
 53
7.594643599999986
 43
-66685.52103025541
 44
-1133.876241310895
 45
0.0000001055347854
 46
24.99999937978613
 79
     2
 49
3.783186424999999
 49
-374.535461425
 53
7.594643599999986
 43
-66660.52103025542
 44
-1133.876241310895
 45
0.0000001055347854
 46
24.99999937978613
 79
     2
 49
3.783186424999999
 49
-374.535461425
 53
7.594643599999986
 43
-66635.52103025542
 44
-1133.876241310895
 45
0.0000001055347854
 46
24.99999937978613
 79
     2
 49
3.783186424999999
 49
-374.535461425
 53
7.594643599999986
 43
-66610.52103025542
 44
-1133.876241310895
 45
0.0000001055347854
 46
24.99999937978613
 79
     2
 49
3.783186424999999
 49
-374.535461425
 53
7.594643599999986
 43
-66585.52103025542
 44
-1133.876241310895
 45
0.0000001055347854
 46
24.99999937978613
 79
     2
 49
3.783186424999999
 49
-374.535461425
 53
7.594643599999986
 43
-66560.52103025542
 44
-1133.876241310895
 45
0.0000001055347854
 46
24.99999937978613
 79
     2
 49
3.783186424999999
 49
-374.535461425
 53
7.594643599999986
 43
-66535.52103025542
 44
-1133.876241310895
 45
0.0000001055347854
 46
24.99999937978613
 79
     2
 49
3.783186424999999
 49
-374.535461425
 53
7.594643599999986
 43
-66510.52103025541
 44
-1133.876241310895
 45
0.0000001055347854
 46
24.99999937978613
 79
     2
 49
3.783186424999999
 49
-374.535461425
 53
7.594643599999986
 43
-66485.52103025542
 44
-1133.876241310895
 45
0.0000001055347854
 46
24.99999937978613
 79
     2
 49
3.783186424999999
 49
-374.535461425
 53
7.594643599999986
 43
-66460.52103025541
 44
-1133.876241310895
 45
0.0000001055347854
 46
24.99999937978613
 79
     2
 49
3.783186424999999
 49
-374.535461425
 53
7.594643599999986
 43
-66435.52103025542
 44
-1133.876241310895
 45
0.0000001055347854
 46
24.99999937978613
 79
     2
 49
3.783186424999999
 49
-374.535461425
 53
7.594643599999986
 43
-66410.52103025542
 44
-1133.876241310895
 45
0.0000001055347854
 46
24.99999937978613
 79
     2
 49
3.783186424999999
 49
-374.535461425
 53
7.594643599999986
 43
-66385.52103025542
 44
-1133.876241310895
 45
0.0000001055347854
 46
24.99999937978613
 79
     2
 49
3.783186424999999
 49
-374.535461425
 53
7.594643599999986
 43
-66360.52103025542
 44
-1133.876241310895
 45
0.0000001055347854
 46
24.99999937978613
 79
     2
 49
3.783186424999999
 49
-374.535461425
 53
3.179830299999999
 43
-66706.77103025542
 44
-1133.376241310895
 45
-0.0000000425435449
 46
25.00000087320912
 79
     2
 49
4.506938934999999
 49
-446.1869811999999
 53
3.179830299999999
 43
-66681.77103025541
 44
-1133.376241310895
 45
-0.0000000425435449
 46
25.00000087320912
 79
     2
 49
4.506938934999999
 49
-446.1869811999999
 53
3.179830299999999
 43
-66656.77103025542
 44
-1133.376241310895
 45
-0.0000000425435449
 46
25.00000087320912
 79
     2
 49
4.506938934999999
 49
-446.1869811999999
 53
3.179830299999999
 43
-66631.77103025542
 44
-1133.376241310895
 45
-0.0000000425435449
 46
25.00000087320912
 79
     2
 49
4.506938934999999
 49
-446.1869811999999
 53
3.179830299999999
 43
-66606.77103025542
 44
-1133.376241310895
 45
-0.0000000425435449
 46
25.00000087320912
 79
     2
 49
4.506938934999999
 49
-446.1869811999999
 53
3.179830299999999
 43
-66581.77103025542
 44
-1133.376241310895
 45
-0.0000000425435449
 46
25.00000087320912
 79
     2
 49
4.506938934999999
 49
-446.1869811999999
 53
3.179830299999999
 43
-66556.77103025542
 44
-1133.376241310895
 45
-0.0000000425435449
 46
25.00000087320912
 79
     2
 49
4.506938934999999
 49
-446.1869811999999
 53
3.179830299999999
 43
-66531.77103025542
 44
-1133.376241310895
 45
-0.0000000425435449
 46
25.00000087320912
 79
     2
 49
4.506938934999999
 49
-446.1869811999999
 53
3.179830299999999
 43
-66506.77103025541
 44
-1133.376241310895
 45
-0.0000000425435449
 46
25.00000087320912
 79
     2
 49
4.506938934999999
 49
-446.1869811999999
 53
3.179830299999999
 43
-66481.77103025542
 44
-1133.376241310895
 45
-0.0000000425435449
 46
25.00000087320912
 79
     2
 49
4.506938934999999
 49
-446.1869811999999
 53
3.179830299999999
 43
-66456.77103025541
 44
-1133.376241310895
 45
-0.0000000425435449
 46
25.00000087320912
 79
     2
 49
4.506938934999999
 49
-446.1869811999999
 53
3.179830299999999
 43
-66431.77103025542
 44
-1133.376241310895
 45
-0.0000000425435449
 46
25.00000087320912
 79
     2
 49
4.506938934999999
 49
-446.1869811999999
 53
3.179830299999999
 43
-66406.77103025542
 44
-1133.376241310895
 45
-0.0000000425435449
 46
25.00000087320912
 79
     2
 49
4.506938934999999
 49
-446.1869811999999
 53
3.179830299999999
 43
-66381.77103025542
 44
-1133.376241310895
 45
-0.0000000425435449
 46
25.00000087320912
 79
     2
 49
4.506938934999999
 49
-446.1869811999999
 53
3.179830299999999
 43
-66356.77103025542
 44
-1133.376241310895
 45
-0.0000000425435449
 46
25.00000087320912
 79
     2
 49
4.506938934999999
 49
-446.1869811999999
 53
3.179830299999999
 43
-66331.77103025541
 44
-1133.376241310895
 45
-0.0000000425435449
 46
25.00000087320912
 79
     2
 49
4.506938934999999
 49
-446.1869811999999
 53
3.179830299999999
 43
-66306.77103025542
 44
-1133.376241310895
 45
-0.0000000425435449
 46
25.00000087320912
 79
     2
 49
4.506938934999999
 49
-446.1869811999999
 53
3.179830299999999
 43
-66281.77103025541
 44
-1133.376241310895
 45
-0.0000000425435449
 46
25.00000087320912
 79
     2
 49
4.506938934999999
 49
-446.1869811999999
 53
0.0
 43
-66702.27103025542
 44
-1133.126241310895
 45
0.0
 46
25.0
 79
     2
 49
4.25
 49
-20.75
 53
351.2538376
 43
-66698.02103025542
 44
-1133.126241310895
 45
0.0000003070645307
 46
25.00000090670576
 79
     2
 49
3.288236624999999
 49
-325.5354309
 53
351.2538376
 43
-66673.02103025542
 44
-1133.126241310895
 45
0.0000003070645307
 46
25.00000090670576
 79
     2
 49
3.288236624999999
 49
-325.5354309
 53
351.2538376
 43
-66648.02103025541
 44
-1133.126241310895
 45
0.0000003070645307
 46
25.00000090670576
 79
     2
 49
3.288236624999999
 49
-325.5354309
 53
351.2538376
 43
-66623.02103025542
 44
-1133.126241310895
 45
0.0000003070645307
 46
25.00000090670576
 79
     2
 49
3.288236624999999
 49
-325.5354309
 53
351.2538376
 43
-66598.02103025541
 44
-1133.126241310895
 45
0.0000003070645307
 46
25.00000090670576
 79
     2
 49
3.288236624999999
 49
-325.5354309
 53
351.2538376
 43
-66573.02103025542
 44
-1133.126241310895
 45
0.0000003070645307
 46
25.00000090670576
 79
     2
 49
3.288236624999999
 49
-325.5354309
 53
351.2538376
 43
-66548.02103025541
 44
-1133.126241310895
 45
0.0000003070645307
 46
25.00000090670576
 79
     2
 49
3.288236624999999
 49
-325.5354309
 53
351.2538376
 43
-66523.02103025542
 44
-1133.126241310895
 45
0.0000003070645307
 46
25.00000090670576
 79
     2
 49
3.288236624999999
 49
-325.5354309
 53
351.2538376
 43
-66498.02103025542
 44
-1133.126241310895
 45
0.0000003070645307
 46
25.00000090670576
 79
     2
 49
3.288236624999999
 49
-325.5354309
 53
351.2538376
 43
-66473.02103025542
 44
-1133.126241310895
 45
0.0000003070645307
 46
25.00000090670576
 79
     2
 49
3.288236624999999
 49
-325.5354309
 53
351.2538376
 43
-66448.02103025542
 44
-1133.126241310895
 45
0.0000003070645307
 46
25.00000090670576
 79
     2
 49
3.288236624999999
 49
-325.5354309
 53
351.2538376
 43
-66423.02103025541
 44
-1133.126241310895
 45
0.0000003070645307
 46
25.00000090670576
 79
     2
 49
3.288236624999999
 49
-325.5354309
 53
351.2538376
 43
-66398.02103025542
 44
-1133.126241310895
 45
0.0000003070645307
 46
25.00000090670576
 79
     2
 49
3.288236624999999
 49
-325.5354309
 53
352.8749838
 43
-66694.77103025542
 44
-1133.626241310895
 45
-0.0000000773741422
 46
25.00000078979567
 79
     2
 49
2.0155644425
 49
-199.5408783
 53
352.8749838
 43
-66669.77103025542
 44
-1133.626241310895
 45
-0.0000000773741422
 46
25.00000078979567
 79
     2
 49
2.0155644425
 49
-199.5408783
 53
352.8749838
 43
-66644.77103025542
 44
-1133.626241310895
 45
-0.0000000773741422
 46
25.00000078979567
 79
     2
 49
2.0155644425
 49
-199.5408783
 53
352.8749838
 43
-66619.77103025542
 44
-1133.626241310895
 45
-0.0000000773741422
 46
25.00000078979567
 79
     2
 49
2.0155644425
 49
-199.5408783
 53
352.8749838
 43
-66594.77103025542
 44
-1133.626241310895
 45
-0.0000000773741422
 46
25.00000078979567
 79
     2
 49
2.0155644425
 49
-199.5408783
 53
352.8749838
 43
-66569.77103025542
 44
-1133.626241310895
 45
-0.0000000773741422
 46
25.00000078979567
 79
     2
 49
2.0155644425
 49
-199.5408783
 53
352.8749838
 43
-66544.77103025541
 44
-1133.626241310895
 45
-0.0000000773741422
 46
25.00000078979567
 79
     2
 49
2.0155644425
 49
-199.5408783
 53
352.8749838
 43
-66519.77103025542
 44
-1133.626241310895
 45
-0.0000000773741422
 46
25.00000078979567
 79
     2
 49
2.0155644425
 49
-199.5408783
 53
0.0
 43
-66692.77103025541
 44
-1133.876241310895
 45
0.0
 46
25.0
 79
     2
 49
1.0
 49
-24.0
 53
345.96375656
 43
-66694.02103025542
 44
-1128.376241310895
 45
-0.0000000055154956
 46
25.00000043524436
 79
     2
 49
1.030776375
 49
-102.046867375
 53
345.96375656
 43
-66669.02103025542
 44
-1128.376241310895
 45
-0.0000000055154956
 46
25.00000043524436
 79
     2
 49
1.030776375
 49
-102.046867375
 53
345.96375656
 43
-66644.02103025541
 44
-1128.376241310895
 45
-0.0000000055154956
 46
25.00000043524436
 79
     2
 49
1.030776375
 49
-102.046867375
 53
345.96375656
 43
-66619.02103025542
 44
-1128.376241310895
 45
-0.0000000055154956
 46
25.00000043524436
 79
     2
 49
1.030776375
 49
-102.046867375
 53
351.8698978
 43
-66695.77103025542
 44
-1128.126241310895
 45
-0.0000000637277005
 46
24.99999998279795
 79
     2
 49
1.767766952499999
 49
-175.0089263925
 53
351.8698978
 43
-66670.77103025541
 44
-1128.126241310895
 45
-0.0000000637277005
 46
24.99999998279795
 79
     2
 49
1.767766952499999
 49
-175.0089263925
 53
351.8698978
 43
-66645.77103025542
 44
-1128.126241310895
 45
-0.0000000637277005
 46
24.99999998279795
 79
     2
 49
1.767766952499999
 49
-175.0089263925
 53
351.8698978
 43
-66620.77103025541
 44
-1128.126241310895
 45
-0.0000000637277005
 46
24.99999998279795
 79
     2
 49
1.767766952499999
 49
-175.0089263925
 53
351.8698978
 43
-66595.77103025542
 44
-1128.126241310895
 45
-0.0000000637277005
 46
24.99999998279795
 79
     2
 49
1.767766952499999
 49
-175.0089263925
 53
351.8698978
 43
-66570.77103025542
 44
-1128.126241310895
 45
-0.0000000637277005
 46
24.99999998279795
 79
     2
 49
1.767766952499999
 49
-175.0089263925
 53
351.8698978
 43
-66545.77103025542
 44
-1128.126241310895
 45
-0.0000000637277005
 46
24.99999998279795
 79
     2
 49
1.767766952499999
 49
-175.0089263925
 53
356.4236655
 43
-66699.77103025542
 44
-1127.876241310895
 45
0.0000000623399818
 46
25.00000046334374
 79
     2
 49
4.00780487
 49
-396.77267456
 53
356.4236655
 43
-66674.77103025541
 44
-1127.876241310895
 45
0.0000000623399818
 46
25.00000046334374
 79
     2
 49
4.00780487
 49
-396.77267456
 53
356.4236655
 43
-66649.77103025542
 44
-1127.876241310895
 45
0.0000000623399818
 46
25.00000046334374
 79
     2
 49
4.00780487
 49
-396.77267456
 53
356.4236655
 43
-66624.77103025541
 44
-1127.876241310895
 45
0.0000000623399818
 46
25.00000046334374
 79
     2
 49
4.00780487
 49
-396.77267456
 53
356.4236655
 43
-66599.77103025542
 44
-1127.876241310895
 45
0.0000000623399818
 46
25.00000046334374
 79
     2
 49
4.00780487
 49
-396.77267456
 53
356.4236655
 43
-66574.77103025541
 44
-1127.876241310895
 45
0.0000000623399818
 46
25.00000046334374
 79
     2
 49
4.00780487
 49
-396.77267456
 53
356.4236655
 43
-66549.77103025542
 44
-1127.876241310895
 45
0.0000000623399818
 46
25.00000046334374
 79
     2
 49
4.00780487
 49
-396.77267456
 53
356.4236655
 43
-66524.77103025542
 44
-1127.876241310895
 45
0.0000000623399818
 46
25.00000046334374
 79
     2
 49
4.00780487
 49
-396.77267456
 53
356.4236655
 43
-66499.77103025542
 44
-1127.876241310895
 45
0.0000000623399818
 46
25.00000046334374
 79
     2
 49
4.00780487
 49
-396.77267456
 53
356.4236655
 43
-66474.77103025542
 44
-1127.876241310895
 45
0.0000000623399818
 46
25.00000046334374
 79
     2
 49
4.00780487
 49
-396.77267456
 53
356.4236655
 43
-66449.77103025541
 44
-1127.876241310895
 45
0.0000000623399818
 46
25.00000046334374
 79
     2
 49
4.00780487
 49
-396.77267456
 53
356.4236655
 43
-66424.77103025542
 44
-1127.876241310895
 45
0.0000000623399818
 46
25.00000046334374
 79
     2
 49
4.00780487
 49
-396.77267456
 53
356.4236655
 43
-66399.77103025541
 44
-1127.876241310895
 45
0.0000000623399818
 46
25.00000046334374
 79
     2
 49
4.00780487
 49
-396.77267456
 53
356.4236655
 43
-66374.77103025542
 44
-1127.876241310895
 45
0.0000000623399818
 46
25.00000046334374
 79
     2
 49
4.00780487
 49
-396.77267456
 53
356.4236655
 43
-66349.77103025542
 44
-1127.876241310895
 45
0.0000000623399818
 46
25.00000046334374
 79
     2
 49
4.00780487
 49
-396.77267456
 53
356.4236655
 43
-66324.77103025542
 44
-1127.876241310895
 45
0.0000000623399818
 46
25.00000046334374
 79
     2
 49
4.00780487
 49
-396.77267456
 53
356.4236655
 43
-66703.77103025542
 44
-1127.626241310895
 45
0.0000000623399818
 46
25.00000046334374
 79
     2
 49
4.00780487
 49
-396.77267456
 53
356.4236655
 43
-66678.77103025542
 44
-1127.626241310895
 45
0.0000000623399818
 46
25.00000046334374
 79
     2
 49
4.00780487
 49
-396.77267456
 53
356.4236655
 43
-66653.77103025542
 44
-1127.626241310895
 45
0.0000000623399818
 46
25.00000046334374
 79
     2
 49
4.00780487
 49
-396.77267456
 53
356.4236655
 43
-66628.77103025541
 44
-1127.626241310895
 45
0.0000000623399818
 46
25.00000046334374
 79
     2
 49
4.00780487
 49
-396.77267456
 53
356.4236655
 43
-66603.77103025542
 44
-1127.626241310895
 45
0.0000000623399818
 46
25.00000046334374
 79
     2
 49
4.00780487
 49
-396.77267456
 53
356.4236655
 43
-66578.77103025541
 44
-1127.626241310895
 45
0.0000000623399818
 46
25.00000046334374
 79
     2
 49
4.00780487
 49
-396.77267456
 53
356.4236655
 43
-66553.77103025542
 44
-1127.626241310895
 45
0.0000000623399818
 46
25.00000046334374
 79
     2
 49
4.00780487
 49
-396.77267456
 53
356.4236655
 43
-66528.77103025542
 44
-1127.626241310895
 45
0.0000000623399818
 46
25.00000046334374
 79
     2
 49
4.00780487
 49
-396.77267456
 53
356.4236655
 43
-66503.77103025542
 44
-1127.626241310895
 45
0.0000000623399818
 46
25.00000046334374
 79
     2
 49
4.00780487
 49
-396.77267456
 53
356.4236655
 43
-66478.77103025542
 44
-1127.626241310895
 45
0.0000000623399818
 46
25.00000046334374
 79
     2
 49
4.00780487
 49
-396.77267456
 53
356.4236655
 43
-66453.77103025542
 44
-1127.626241310895
 45
0.0000000623399818
 46
25.00000046334374
 79
     2
 49
4.00780487
 49
-396.77267456
 53
356.4236655
 43
-66428.77103025542
 44
-1127.626241310895
 45
0.0000000623399818
 46
25.00000046334374
 79
     2
 49
4.00780487
 49
-396.77267456
 53
356.4236655
 43
-66403.77103025541
 44
-1127.626241310895
 45
0.0000000623399818
 46
25.00000046334374
 79
     2
 49
4.00780487
 49
-396.77267456
 53
356.4236655
 43
-66378.77103025542
 44
-1127.626241310895
 45
0.0000000623399818
 46
25.00000046334374
 79
     2
 49
4.00780487
 49
-396.77267456
 53
356.4236655
 43
-66353.77103025541
 44
-1127.626241310895
 45
0.0000000623399818
 46
25.00000046334374
 79
     2
 49
4.00780487
 49
-396.77267456
 53
356.4236655
 43
-66328.77103025542
 44
-1127.626241310895
 45
0.0000000623399818
 46
25.00000046334374
 79
     2
 49
4.00780487
 49
-396.77267456
 53
6.009005547000002
 43
-66708.52103025541
 44
-1128.126241310895
 45
0.0000000901299604
 46
25.0000002439904
 79
     2
 49
4.776243199999999
 49
-472.8480835
 53
6.009005547000002
 43
-66683.52103025542
 44
-1128.126241310895
 45
0.0000000901299604
 46
25.0000002439904
 79
     2
 49
4.776243199999999
 49
-472.8480835
 53
6.009005547000002
 43
-66658.52103025541
 44
-1128.126241310895
 45
0.0000000901299604
 46
25.0000002439904
 79
     2
 49
4.776243199999999
 49
-472.8480835
 53
6.009005547000002
 43
-66633.52103025542
 44
-1128.126241310895
 45
0.0000000901299604
 46
25.0000002439904
 79
     2
 49
4.776243199999999
 49
-472.8480835
 53
6.009005547000002
 43
-66608.52103025542
 44
-1128.126241310895
 45
0.0000000901299604
 46
25.0000002439904
 79
     2
 49
4.776243199999999
 49
-472.8480835
 53
6.009005547000002
 43
-66583.52103025542
 44
-1128.126241310895
 45
0.0000000901299604
 46
25.0000002439904
 79
     2
 49
4.776243199999999
 49
-472.8480835
 53
6.009005547000002
 43
-66558.52103025542
 44
-1128.126241310895
 45
0.0000000901299604
 46
25.0000002439904
 79
     2
 49
4.776243199999999
 49
-472.8480835
 53
6.009005547000002
 43
-66533.52103025541
 44
-1128.126241310895
 45
0.0000000901299604
 46
25.0000002439904
 79
     2
 49
4.776243199999999
 49
-472.8480835
 53
6.009005547000002
 43
-66508.52103025542
 44
-1128.126241310895
 45
0.0000000901299604
 46
25.0000002439904
 79
     2
 49
4.776243199999999
 49
-472.8480835
 53
6.009005547000002
 43
-66483.52103025541
 44
-1128.126241310895
 45
0.0000000901299604
 46
25.0000002439904
 79
     2
 49
4.776243199999999
 49
-472.8480835
 53
6.009005547000002
 43
-66458.52103025542
 44
-1128.126241310895
 45
0.0000000901299604
 46
25.0000002439904
 79
     2
 49
4.776243199999999
 49
-472.8480835
 53
6.009005547000002
 43
-66433.52103025542
 44
-1128.126241310895
 45
0.0000000901299604
 46
25.0000002439904
 79
     2
 49
4.776243199999999
 49
-472.8480835
 53
6.009005547000002
 43
-66408.52103025542
 44
-1128.126241310895
 45
0.0000000901299604
 46
25.0000002439904
 79
     2
 49
4.776243199999999
 49
-472.8480835
 53
6.009005547000002
 43
-66383.52103025542
 44
-1128.126241310895
 45
0.0000000901299604
 46
25.0000002439904
 79
     2
 49
4.776243199999999
 49
-472.8480835
 53
6.009005547000002
 43
-66358.52103025542
 44
-1128.126241310895
 45
0.0000000901299604
 46
25.0000002439904
 79
     2
 49
4.776243199999999
 49
-472.8480835
 53
6.009005547000002
 43
-66333.52103025542
 44
-1128.126241310895
 45
0.0000000901299604
 46
25.0000002439904
 79
     2
 49
4.776243199999999
 49
-472.8480835
 53
6.009005547000002
 43
-66308.52103025541
 44
-1128.126241310895
 45
0.0000000901299604
 46
25.0000002439904
 79
     2
 49
4.776243199999999
 49
-472.8480835
 53
6.009005547000002
 43
-66283.52103025542
 44
-1128.126241310895
 45
0.0000000901299604
 46
25.0000002439904
 79
     2
 49
4.776243199999999
 49
-472.8480835
 53
6.009005547000002
 43
-66258.52103025541
 44
-1128.126241310895
 45
0.0000000901299604
 46
25.0000002439904
 79
     2
 49
4.776243199999999
 49
-472.8480835
 53
7.594643599999986
 43
-66712.27103025541
 44
-1128.626241310895
 45
0.0000001055347854
 46
24.99999937978613
 79
     2
 49
3.783186424999999
 49
-374.535461425
 53
7.594643599999986
 43
-66687.27103025542
 44
-1128.626241310895
 45
0.0000001055347854
 46
24.99999937978613
 79
     2
 49
3.783186424999999
 49
-374.535461425
 53
7.594643599999986
 43
-66662.27103025542
 44
-1128.626241310895
 45
0.0000001055347854
 46
24.99999937978613
 79
     2
 49
3.783186424999999
 49
-374.535461425
 53
7.594643599999986
 43
-66637.27103025542
 44
-1128.626241310895
 45
0.0000001055347854
 46
24.99999937978613
 79
     2
 49
3.783186424999999
 49
-374.535461425
 53
7.594643599999986
 43
-66612.27103025542
 44
-1128.626241310895
 45
0.0000001055347854
 46
24.99999937978613
 79
     2
 49
3.783186424999999
 49
-374.535461425
 53
7.594643599999986
 43
-66587.27103025542
 44
-1128.626241310895
 45
0.0000001055347854
 46
24.99999937978613
 79
     2
 49
3.783186424999999
 49
-374.535461425
 53
7.594643599999986
 43
-66562.27103025542
 44
-1128.626241310895
 45
0.0000001055347854
 46
24.99999937978613
 79
     2
 49
3.783186424999999
 49
-374.535461425
 53
7.594643599999986
 43
-66537.27103025541
 44
-1128.626241310895
 45
0.0000001055347854
 46
24.99999937978613
 79
     2
 49
3.783186424999999
 49
-374.535461425
 53
7.594643599999986
 43
-66512.27103025542
 44
-1128.626241310895
 45
0.0000001055347854
 46
24.99999937978613
 79
     2
 49
3.783186424999999
 49
-374.535461425
 53
7.594643599999986
 43
-66487.27103025541
 44
-1128.626241310895
 45
0.0000001055347854
 46
24.99999937978613
 79
     2
 49
3.783186424999999
 49
-374.535461425
 53
7.594643599999986
 43
-66462.27103025542
 44
-1128.626241310895
 45
0.0000001055347854
 46
24.99999937978613
 79
     2
 49
3.783186424999999
 49
-374.535461425
 53
7.594643599999986
 43
-66437.27103025542
 44
-1128.626241310895
 45
0.0000001055347854
 46
24.99999937978613
 79
     2
 49
3.783186424999999
 49
-374.535461425
 53
7.594643599999986
 43
-66412.27103025542
 44
-1128.626241310895
 45
0.0000001055347854
 46
24.99999937978613
 79
     2
 49
3.783186424999999
 49
-374.535461425
 53
7.594643599999986
 43
-66387.27103025542
 44
-1128.626241310895
 45
0.0000001055347854
 46
24.99999937978613
 79
     2
 49
3.783186424999999
 49
-374.535461425
 53
7.594643599999986
 43
-66362.27103025541
 44
-1128.626241310895
 45
0.0000001055347854
 46
24.99999937978613
 79
     2
 49
3.783186424999999
 49
-374.535461425
 53
0.0
 43
-66716.77103025542
 44
-1128.626241310895
 45
0.0
 46
25.0
 79
     2
 49
4.5
 49
-20.5
 53
0.0
 43
-66693.02103025541
 44
-1128.626241310895
 45
0.0
 46
25.0
 79
     2
 49
1.25
 49
-23.75
 53
0.0
 43
-66714.52103025542
 44
-1124.626241310895
 45
0.0
 46
25.0
 79
     2
 49
0.5
 49
-24.5
 53
0.0
 43
-66709.02103025541
 44
-1126.876241310895
 45
0.0
 46
25.0
 79
     2
 49
0.5
 49
-24.5
 53
0.0
 43
-66703.77103025542
 44
-1123.626241310895
 45
0.0
 46
25.0
 79
     2
 49
0.5
 49
-24.5
 53
0.0
 43
-66699.27103025542
 44
-1126.126241310895
 45
0.0
 46
25.0
 79
     2
 49
0.5
 49
-24.5
 53
0.0
 43
-66695.02103025542
 44
-1120.876241310895
 45
0.0
 46
25.0
 79
     2
 49
0.5
 49
-24.5
 53
0.0
 43
-66698.02103025542
 44
-1117.626241310895
 45
0.0
 46
25.0
 79
     2
 49
0.5
 49
-24.5
 53
0.0
 43
-66702.27103025542
 44
-1118.876241310895
 45
0.0
 46
25.0
 79
     2
 49
0.5
 49
-24.5
 53
0.0
 43
-66706.52103025542
 44
-1120.626241310895
 45
0.0
 46
25.0
 79
     2
 49
0.5
 49
-24.5
 53
0.0
 43
-66708.52103025541
 44
-1116.876241310895
 45
0.0
 46
25.0
 79
     2
 49
0.5
 49
-24.5
 53
0.0
 43
-66713.52103025542
 44
-1116.876241310895
 45
0.0
 46
25.0
 79
     2
 49
0.5
 49
-24.5
 53
0.0
 43
-66714.77103025542
 44
-1119.876241310895
 45
0.0
 46
25.0
 79
     2
 49
0.5
 49
-24.5
 53
0.0
 43
-66715.77103025541
 44
-1130.376241310895
 45
0.0
 46
25.0
 79
     2
 49
0.5
 49
-24.5
 53
0.0
 43
-66713.02103025542
 44
-1132.626241310895
 45
0.0
 46
25.0
 79
     2
 49
0.5
 49
-24.5
 53
0.0
 43
-66708.27103025541
 44
-1129.126241310895
 45
0.0
 46
25.0
 79
     2
 49
0.5
 49
-24.5
 53
0.0
 43
-66706.02103025542
 44
-1131.876241310895
 45
0.0
 46
25.0
 79
     2
 49
0.5
 49
-24.5
 53
0.0
 43
-66701.77103025542
 44
-1128.626241310895
 45
0.0
 46
25.0
 79
     2
 49
0.5
 49
-24.5
 53
0.0
 43
-66701.27103025541
 44
-1131.126241310895
 45
0.0
 46
25.0
 79
     2
 49
0.5
 49
-24.5
 53
0.0
 43
-66695.52103025542
 44
-1129.376241310895
 45
0.0
 46
25.0
 79
     2
 49
0.5
 49
-24.5
 53
0.0
 43
-66693.52103025541
 44
-1132.126241310895
 45
0.0
 46
25.0
 79
     2
 49
0.5
 49
-24.5
 53
0.0
 43
-66693.77103025541
 44
-1136.376241310895
 45
0.0
 46
25.0
 79
     2
 49
0.5
 49
-24.5
 53
0.0
 43
-66698.27103025542
 44
-1134.626241310895
 45
0.0
 46
25.0
 79
     2
 49
0.5
 49
-24.5
 53
0.0
 43
-66704.27103025541
 44
-1136.626241310895
 45
0.0
 46
25.0
 79
     2
 49
0.5
 49
-24.5
 53
0.0
 43
-66709.27103025542
 44
-1135.126241310895
 45
0.0
 46
25.0
 79
     2
 49
0.5
 49
-24.5
 53
0.0
 43
-66713.77103025542
 44
-1135.626241310895
 45
0.0
 46
25.0
 79
     2
 49
0.5
 49
-24.5
 53
0.0
 43
-66697.77103025542
 44
-1112.876241310895
 45
0.0
 46
25.0
 79
     2
 49
0.5
 49
-24.5
 53
0.0
 43
-66707.27103025542
 44
-1114.376241310895
 45
0.0
 46
25.0
 79
     2
 49
0.5
 49
-24.5
 53
0.0
 43
-66713.27103025542
 44
-1113.376241310895
 45
0.0
 46
25.0
 79
     2
 49
0.5
 49
-24.5
 53
0.0
 43
-66710.02103025542
 44
-1123.626241310895
 45
0.0
 46
25.0
 79
     2
 49
0.5
 49
-24.5
 47
0.5143684007572481
 98
        1
 10
87.08735087634705
 20
398.1260614232451
1001
GradientColor1ACI
1070
     5
1001
GradientColor2ACI
1070
     2
1001
ACAD
1010
0.0
1020
0.0
1030
0.0
  0
LINE
  5
3A7
330
70
100
AcDbEntity
  8
0
100
AcDbLine
 10
195.7323265880404
 20
388.1566519237894
 30
0.0
 11
70.06478992155462
 21
388.1566519237894
 31
0.0
  0
LINE
  5
3A8
330
70
100
AcDbEntity
  8
Post
100
AcDbLine
 10
197.2323265880404
 20
198.15682055262
 30
0.0
 11
248.0323265880433
 21
198.15682055262
 31
0.0
  0
LINE
  5
3A9
330
70
100
AcDbEntity
  8
fixing
100
AcDbLine
 10
250.0323265880433
 20
363.1566519237894
 30
0.0
 11
250.0323265880433
 21
343.1566519237894
 31
0.0
  0
LINE
  5
3AA
330
70
100
AcDbEntity
  8
fixing
100
AcDbLine
 10
258.0323265880434
 20
360.8459523031342
 30
0.0
 11
258.0323265880434
 21
345.4673515444446
 31
0.0
  0
LINE
  5
3AB
330
70
100
AcDbEntity
  8
fixing
100
AcDbLine
 10
250.0323265880433
 20
363.1566519237894
 30
0.0
 11
248.0323265880433
 21
363.1566519237894
 31
0.0
  0
LINE
  5
3AC
330
70
100
AcDbEntity
  8
fixing
100
AcDbLine
 10
248.0323265880433
 20
363.1566519237894
 30
0.0
 11
248.0323265880433
 21
343.1566519237894
 31
0.0
  0
LINE
  5
3AD
330
70
100
AcDbEntity
  8
fixing
100
AcDbLine
 10
248.0323265880433
 20
343.1566519237894
 30
0.0
 11
250.0323265880433
 21
343.1566519237894
 31
0.0
  0
ARC
  5
3AE
330
70
100
AcDbEntity
  8
fixing
100
AcDbCircle
 10
260.5323265880433
 20
353.1566519237894
 30
0.0
 40
7.5
100
AcDbArc
 50
270.0
 51
90.0
  0
LINE
  5
3AF
330
70
100
AcDbEntity
  8
fixing
100
AcDbLine
 10
260.5323265880433
 20
360.6566519237894
 30
0.0
 11
258.6177889054233
 21
360.6566519237894
 31
0.0
  0
LINE
  5
3B0
330
70
100
AcDbEntity
  8
fixing
100
AcDbLine
 10
260.5323265880433
 20
345.6566519237894
 30
0.0
 11
258.6177889054233
 21
345.6566519237894
 31
0.0
  0
ARC
  5
3B1
330
70
100
AcDbEntity
  8
fixing
100
AcDbCircle
 10
258.6177889054233
 20
344.6566519237894
 30
0.0
 40
1.0
100
AcDbArc
 50
90.0
 51
138.1896851045197
  0
ARC
  5
3B2
330
70
100
AcDbEntity
  8
fixing
100
AcDbCircle
 10
257.4997549166728
 20
345.6566519237894
 30
0.0
 40
0.5
100
AcDbArc
 50
270.0
 51
318.1896851045197
  0
LINE
  5
3B3
330
70
100
AcDbEntity
  8
fixing
100
AcDbLine
 10
257.4997549166728
 20
345.1566519237894
 30
0.0
 11
251.2726390117896
 21
345.1566519237894
 31
0.0
  0
ARC
  5
3B4
330
70
100
AcDbEntity
  8
fixing
100
AcDbCircle
 10
251.2726390117896
 20
345.6566519237894
 30
0.0
 40
0.5
100
AcDbArc
 50
218.659808254413
 51
270.0
  0
LINE
  5
3B5
330
70
100
AcDbEntity
  8
fixing
100
AcDbLine
 10
256.6283249867556
 20
353.1566519237894
 30
0.0
 11
251.4363281893166
 21
353.1566519237894
 31
0.0
  0
ARC
  5
3B6
330
70
100
AcDbEntity
  8
fixing
100
AcDbCircle
 10
251.6323265880346
 20
349.1566519237894
 30
0.0
 40
6.4
100
AcDbArc
 50
323.614132183216
 51
38.68218745356369
  0
ARC
  5
3B7
330
70
100
AcDbEntity
  8
fixing
100
AcDbCircle
 10
256.3820634228614
 20
345.6566519237894
 30
0.0
 40
0.5
100
AcDbArc
 50
270.0
 51
323.614132183216
  0
ARC
  5
3B8
330
70
100
AcDbEntity
  8
fixing
100
AcDbCircle
 10
256.4323265880375
 20
349.1566519237894
 30
0.0
 40
6.4
100
AcDbArc
 50
141.3178125464363
 51
216.3858678167839
  0
ARC
  5
3B9
330
70
100
AcDbEntity
  8
fixing
100
AcDbCircle
 10
251.6825897532253
 20
345.6566519237894
 30
0.0
 40
0.5
100
AcDbArc
 50
216.3858678167839
 51
270.0
  0
LINE
  5
3BA
330
70
100
AcDbEntity
  8
fixing
100
AcDbLine
 10
250.0323265880433
 20
346.4066519237894
 30
0.0
 11
250.8822046070709
 21
345.3443044000123
 31
0.0
  0
ARC
  5
3BB
330
70
100
AcDbEntity
  8
fixing
100
AcDbCircle
 10
258.6177889054233
 20
361.6566519237894
 30
0.0
 40
1.0
100
AcDbArc
 50
221.8103148954803
 51
270.0
  0
ARC
  5
3BC
330
70
100
AcDbEntity
  8
fixing
100
AcDbCircle
 10
257.4997549166728
 20
360.6566519237894
 30
0.0
 40
0.5
100
AcDbArc
 50
41.8103148954803
 51
90.0
  0
LINE
  5
3BD
330
70
100
AcDbEntity
  8
fixing
100
AcDbLine
 10
257.4997549166728
 20
361.1566519237894
 30
0.0
 11
251.2726390117896
 21
361.1566519237894
 31
0.0
  0
ARC
  5
3BE
330
70
100
AcDbEntity
  8
fixing
100
AcDbCircle
 10
251.2726390117896
 20
360.6566519237894
 30
0.0
 40
0.5
100
AcDbArc
 50
90.0
 51
141.3401917455576
  0
ARC
  5
3BF
330
70
100
AcDbEntity
  8
fixing
100
AcDbCircle
 10
251.6323265880346
 20
357.1566519237894
 30
0.0
 40
6.4
100
AcDbArc
 50
321.3178125464362
 51
36.38586781678398
  0
ARC
  5
3C0
330
70
100
AcDbEntity
  8
fixing
100
AcDbCircle
 10
256.3820634228614
 20
360.6566519237894
 30
0.0
 40
0.5
100
AcDbArc
 50
36.38586781678398
 51
90.0
  0
ARC
  5
3C1
330
70
100
AcDbEntity
  8
fixing
100
AcDbCircle
 10
256.4323265880375
 20
357.1566519237894
 30
0.0
 40
6.4
100
AcDbArc
 50
143.614132183216
 51
218.6821874535637
  0
ARC
  5
3C2
330
70
100
AcDbEntity
  8
fixing
100
AcDbCircle
 10
251.6825897532253
 20
360.6566519237894
 30
0.0
 40
0.5
100
AcDbArc
 50
90.0
 51
143.614132183216
  0
LINE
  5
3C3
330
70
100
AcDbEntity
  8
fixing
100
AcDbLine
 10
250.0323265880433
 20
359.9066519237894
 30
0.0
 11
250.8822046070709
 21
360.9689994475666
 31
0.0
  0
LINE
  5
3C4
330
70
100
AcDbEntity
  8
fixing
100
AcDbLine
 10
250.0323265880433
 20
243.1566519237894
 30
0.0
 11
250.0323265880433
 21
223.1566519237894
 31
0.0
  0
LINE
  5
3C5
330
70
100
AcDbEntity
  8
fixing
100
AcDbLine
 10
258.0323265880434
 20
240.8459523031342
 30
0.0
 11
258.0323265880434
 21
225.4673515444446
 31
0.0
  0
LINE
  5
3C6
330
70
100
AcDbEntity
  8
fixing
100
AcDbLine
 10
250.0323265880433
 20
243.1566519237894
 30
0.0
 11
248.0323265880433
 21
243.1566519237894
 31
0.0
  0
LINE
  5
3C7
330
70
100
AcDbEntity
  8
fixing
100
AcDbLine
 10
248.0323265880433
 20
243.1566519237894
 30
0.0
 11
248.0323265880433
 21
223.1566519237894
 31
0.0
  0
LINE
  5
3C8
330
70
100
AcDbEntity
  8
fixing
100
AcDbLine
 10
248.0323265880433
 20
223.1566519237894
 30
0.0
 11
250.0323265880433
 21
223.1566519237894
 31
0.0
  0
ARC
  5
3C9
330
70
100
AcDbEntity
  8
fixing
100
AcDbCircle
 10
260.5323265880433
 20
233.1566519237894
 30
0.0
 40
7.5
100
AcDbArc
 50
270.0
 51
90.0
  0
LINE
  5
3CA
330
70
100
AcDbEntity
  8
fixing
100
AcDbLine
 10
260.5323265880433
 20
240.6566519237894
 30
0.0
 11
258.6177889054233
 21
240.6566519237894
 31
0.0
  0
LINE
  5
3CB
330
70
100
AcDbEntity
  8
fixing
100
AcDbLine
 10
260.5323265880433
 20
225.6566519237894
 30
0.0
 11
258.6177889054233
 21
225.6566519237894
 31
0.0
  0
ARC
  5
3CC
330
70
100
AcDbEntity
  8
fixing
100
AcDbCircle
 10
258.6177889054233
 20
224.6566519237894
 30
0.0
 40
1.0
100
AcDbArc
 50
90.0
 51
138.1896851045197
  0
ARC
  5
3CD
330
70
100
AcDbEntity
  8
fixing
100
AcDbCircle
 10
257.4997549166728
 20
225.6566519237894
 30
0.0
 40
0.5
100
AcDbArc
 50
270.0
 51
318.1896851045197
  0
LINE
  5
3CE
330
70
100
AcDbEntity
  8
fixing
100
AcDbLine
 10
257.4997549166728
 20
225.1566519237894
 30
0.0
 11
251.2726390117896
 21
225.1566519237894
 31
0.0
  0
ARC
  5
3CF
330
70
100
AcDbEntity
  8
fixing
100
AcDbCircle
 10
251.2726390117896
 20
225.6566519237894
 30
0.0
 40
0.5
100
AcDbArc
 50
218.659808254413
 51
270.0
  0
LINE
  5
3D0
330
70
100
AcDbEntity
  8
fixing
100
AcDbLine
 10
256.6283249867556
 20
233.1566519237894
 30
0.0
 11
251.4363281893166
 21
233.1566519237894
 31
0.0
  0
ARC
  5
3D1
330
70
100
AcDbEntity
  8
fixing
100
AcDbCircle
 10
251.6323265880346
 20
229.1566519237894
 30
0.0
 40
6.4
100
AcDbArc
 50
323.614132183216
 51
38.68218745356369
  0
ARC
  5
3D2
330
70
100
AcDbEntity
  8
fixing
100
AcDbCircle
 10
256.3820634228614
 20
225.6566519237894
 30
0.0
 40
0.5
100
AcDbArc
 50
270.0
 51
323.614132183216
  0
ARC
  5
3D3
330
70
100
AcDbEntity
  8
fixing
100
AcDbCircle
 10
256.4323265880375
 20
229.1566519237894
 30
0.0
 40
6.4
100
AcDbArc
 50
141.3178125464363
 51
216.3858678167839
  0
ARC
  5
3D4
330
70
100
AcDbEntity
  8
fixing
100
AcDbCircle
 10
251.6825897532253
 20
225.6566519237894
 30
0.0
 40
0.5
100
AcDbArc
 50
216.3858678167839
 51
270.0
  0
LINE
  5
3D5
330
70
100
AcDbEntity
  8
fixing
100
AcDbLine
 10
250.0323265880433
 20
226.4066519237894
 30
0.0
 11
250.8822046070709
 21
225.3443044000123
 31
0.0
  0
ARC
  5
3D6
330
70
100
AcDbEntity
  8
fixing
100
AcDbCircle
 10
258.6177889054233
 20
241.6566519237894
 30
0.0
 40
1.0
100
AcDbArc
 50
221.8103148954803
 51
270.0
  0
ARC
  5
3D7
330
70
100
AcDbEntity
  8
fixing
100
AcDbCircle
 10
257.4997549166728
 20
240.6566519237894
 30
0.0
 40
0.5
100
AcDbArc
 50
41.8103148954803
 51
90.0
  0
LINE
  5
3D8
330
70
100
AcDbEntity
  8
fixing
100
AcDbLine
 10
257.4997549166728
 20
241.1566519237894
 30
0.0
 11
251.2726390117896
 21
241.1566519237894
 31
0.0
  0
ARC
  5
3D9
330
70
100
AcDbEntity
  8
fixing
100
AcDbCircle
 10
251.2726390117896
 20
240.6566519237894
 30
0.0
 40
0.5
100
AcDbArc
 50
90.0
 51
141.3401917455576
  0
ARC
  5
3DA
330
70
100
AcDbEntity
  8
fixing
100
AcDbCircle
 10
251.6323265880346
 20
237.1566519237894
 30
0.0
 40
6.4
100
AcDbArc
 50
321.3178125464362
 51
36.38586781678398
  0
ARC
  5
3DB
330
70
100
AcDbEntity
  8
fixing
100
AcDbCircle
 10
256.3820634228614
 20
240.6566519237894
 30
0.0
 40
0.5
100
AcDbArc
 50
36.38586781678398
 51
90.0
  0
ARC
  5
3DC
330
70
100
AcDbEntity
  8
fixing
100
AcDbCircle
 10
256.4323265880375
 20
237.1566519237894
 30
0.0
 40
6.4
100
AcDbArc
 50
143.614132183216
 51
218.6821874535637
  0
ARC
  5
3DD
330
70
100
AcDbEntity
  8
fixing
100
AcDbCircle
 10
251.6825897532253
 20
240.6566519237894
 30
0.0
 40
0.5
100
AcDbArc
 50
90.0
 51
143.614132183216
  0
LINE
  5
3DE
330
70
100
AcDbEntity
  8
fixing
100
AcDbLine
 10
250.0323265880433
 20
239.9066519237894
 30
0.0
 11
250.8822046070709
 21
240.9689994475666
 31
0.0
  0
LINE
  5
3DF
330
70
100
AcDbEntity
  8
Post
100
AcDbLine
 10
197.2323265880404
 20
201.15682055262
 30
0.0
 11
248.0323265880433
 21
201.15682055262
 31
0.0
  0
LINE
  5
3E0
330
70
100
AcDbEntity
  8
0
100
AcDbLine
 10
150.7323265880404
 20
198.1568205526673
 30
0.0
 11
150.7323265880404
 21
388.1566519237894
 31
0.0
  0
LINE
  5
3E1
330
70
100
AcDbEntity
  8
0
100
AcDbLine
 10
105.7322886465263
 20
198.1566519237894
 30
0.0
 11
105.7323265880404
 21
388.1566519237894
 31
0.0
  0
LINE
  5
3E2
330
70
100
AcDbEntity
  8
decking
100
AcDbLine
 10
195.7323265880404
 20
406.1566519237894
 30
0.0
 11
70.06478992155462
 21
406.1566519237894
 31
0.0
  0
LINE
  5
3E3
330
70
100
AcDbEntity
  8
ctrl
 48
0.25
100
AcDbLine
 10
269.3809554609034
 20
233.1566519237894
 30
0.0
 11
83.23232658804045
 21
233.1566519237894
 31
0.0
  0
LINE
  5
3E4
330
70
100
AcDbEntity
  8
ctrl
 48
0.25
100
AcDbLine
 10
271.8991385040572
 20
353.1566519237894
 30
0.0
 11
83.23232658804045
 21
353.1566519237894
 31
0.0
  0
LINE
  5
3E5
330
70
100
AcDbEntity
  8
fixing
100
AcDbLine
 10
94.73232658804045
 20
358.1566519237894
 30
0.0
 11
86.72625099016295
 21
358.1566519237894
 31
0.0
  0
LINE
  5
3E6
330
70
100
AcDbEntity
  8
fixing
100
AcDbLine
 10
102.7323265880404
 20
385.6566519237894
 30
0.0
 11
102.7323265880404
 21
320.6566519237894
 31
0.0
  0
LINE
  5
3E7
330
70
100
AcDbEntity
  8
fixing
100
AcDbLine
 10
94.73232658804045
 20
361.1566519237894
 30
0.0
 11
94.73232658804045
 21
345.1566519237894
 31
0.0
  0
LINE
  5
3E8
330
70
100
AcDbEntity
  8
fixing
100
AcDbLine
 10
102.7323265880404
 20
385.6566519237894
 30
0.0
 11
105.7323265880404
 21
385.6566519237894
 31
0.0
  0
LINE
  5
3E9
330
70
100
AcDbEntity
  8
fixing
100
AcDbLine
 10
105.7323265880404
 20
320.6566519237894
 30
0.0
 11
102.7323265880404
 21
320.6566519237894
 31
0.0
  0
LINE
  5
3EA
330
70
100
AcDbEntity
  8
fixing
100
AcDbLine
 10
94.73232658804045
 20
345.1566519237894
 30
0.0
 11
102.7323265880404
 21
345.1566519237894
 31
0.0
  0
LINE
  5
3EB
330
70
100
AcDbEntity
  8
fixing
100
AcDbLine
 10
96.13632818932821
 20
353.1566519237894
 30
0.0
 11
102.7323265880404
 21
353.1566519237894
 31
0.0
  0
ARC
  5
3EC
330
70
100
AcDbEntity
  8
fixing
100
AcDbCircle
 10
101.1323265880492
 20
349.1566519237894
 30
0.0
 40
6.4
100
AcDbArc
 50
141.3178125460955
 51
216.3858678167839
  0
ARC
  5
3ED
330
70
100
AcDbEntity
  8
fixing
100
AcDbCircle
 10
96.38258975322242
 20
345.6566519237894
 30
0.0
 40
0.5
100
AcDbArc
 50
216.3858678167839
 51
270.0
  0
LINE
  5
3EE
330
70
100
AcDbEntity
  8
fixing
100
AcDbLine
 10
94.73232658804045
 20
361.1566519237894
 30
0.0
 11
102.7323265880404
 21
361.1566519237894
 31
0.0
  0
ARC
  5
3EF
330
70
100
AcDbEntity
  8
fixing
100
AcDbCircle
 10
101.1323265880492
 20
357.1566519237894
 30
0.0
 40
6.4
100
AcDbArc
 50
143.614132183216
 51
218.6821874539044
  0
ARC
  5
3F0
330
70
100
AcDbEntity
  8
fixing
100
AcDbCircle
 10
96.38258975322242
 20
360.6566519237894
 30
0.0
 40
0.5
100
AcDbArc
 50
90.0
 51
143.614132183216
  0
LINE
  5
3F1
330
70
100
AcDbEntity
  8
fixing
100
AcDbLine
 10
94.73232658804045
 20
357.3566519237902
 30
0.0
 11
85.92625099016004
 21
357.3566519237902
 31
0.0
  0
LINE
  5
3F2
330
70
100
AcDbEntity
  8
fixing
100
AcDbLine
 10
94.73232658804045
 20
348.9566519237887
 30
0.0
 11
85.92625099016004
 21
348.9566519237887
 31
0.0
  0
LINE
  5
3F3
330
70
100
AcDbEntity
  8
fixing
100
AcDbLine
 10
94.73232658804045
 20
348.1566519237894
 30
0.0
 11
86.72625099016295
 21
348.1566519237894
 31
0.0
  0
LINE
  5
3F4
330
70
100
AcDbEntity
  8
fixing
100
AcDbLine
 10
86.72625099016295
 20
358.1566519237894
 30
0.0
 11
86.72625099016295
 21
348.1566519237894
 31
0.0
  0
LINE
  5
3F5
330
70
100
AcDbEntity
  8
fixing
100
AcDbLine
 10
85.92625099016004
 20
357.3566519237902
 30
0.0
 11
85.92625099016004
 21
348.9566519237887
 31
0.0
  0
LINE
  5
3F6
330
70
100
AcDbEntity
  8
fixing
100
AcDbLine
 10
85.92625099016004
 20
357.3566519237902
 30
0.0
 11
86.72625099016295
 21
358.1566519237894
 31
0.0
  0
LINE
  5
3F7
330
70
100
AcDbEntity
  8
fixing
100
AcDbLine
 10
85.92625099016004
 20
348.9566519237887
 30
0.0
 11
86.72625099016295
 21
348.1566519237894
 31
0.0
  0
LINE
  5
3F8
330
70
100
AcDbEntity
  8
fixing
100
AcDbLine
 10
94.73232658804045
 20
238.1566519237894
 30
0.0
 11
86.72625099016295
 21
238.1566519237894
 31
0.0
  0
LINE
  5
3F9
330
70
100
AcDbEntity
  8
fixing
100
AcDbLine
 10
102.7323265880404
 20
265.6566519237894
 30
0.0
 11
102.7323265880404
 21
200.6566519237894
 31
0.0
  0
LINE
  5
3FA
330
70
100
AcDbEntity
  8
fixing
100
AcDbLine
 10
94.73232658804045
 20
241.1566519237894
 30
0.0
 11
94.73232658804045
 21
225.1566519237894
 31
0.0
  0
LINE
  5
3FB
330
70
100
AcDbEntity
  8
fixing
100
AcDbLine
 10
102.7323265880404
 20
265.6566519237894
 30
0.0
 11
105.7323265880404
 21
265.6566519237894
 31
0.0
  0
LINE
  5
3FC
330
70
100
AcDbEntity
  8
fixing
100
AcDbLine
 10
105.7323265880404
 20
200.6566519237894
 30
0.0
 11
102.7323265880404
 21
200.6566519237894
 31
0.0
  0
LINE
  5
3FD
330
70
100
AcDbEntity
  8
fixing
100
AcDbLine
 10
94.73232658804045
 20
225.1566519237894
 30
0.0
 11
102.7323265880404
 21
225.1566519237894
 31
0.0
  0
LINE
  5
3FE
330
70
100
AcDbEntity
  8
fixing
100
AcDbLine
 10
96.13632818932821
 20
233.1566519237894
 30
0.0
 11
102.7323265880404
 21
233.1566519237894
 31
0.0
  0
ARC
  5
3FF
330
70
100
AcDbEntity
  8
fixing
100
AcDbCircle
 10
101.1323265880492
 20
229.1566519237894
 30
0.0
 40
6.4
100
AcDbArc
 50
141.3178125460955
 51
216.3858678167839
  0
ARC
  5
400
330
70
100
AcDbEntity
  8
fixing
100
AcDbCircle
 10
96.38258975322242
 20
225.6566519237894
 30
0.0
 40
0.5
100
AcDbArc
 50
216.3858678167839
 51
270.0
  0
LINE
  5
401
330
70
100
AcDbEntity
  8
fixing
100
AcDbLine
 10
94.73232658804045
 20
241.1566519237894
 30
0.0
 11
102.7323265880404
 21
241.1566519237894
 31
0.0
  0
ARC
  5
402
330
70
100
AcDbEntity
  8
fixing
100
AcDbCircle
 10
101.1323265880492
 20
237.1566519237894
 30
0.0
 40
6.4
100
AcDbArc
 50
143.614132183216
 51
218.6821874539044
  0
ARC
  5
403
330
70
100
AcDbEntity
  8
fixing
100
AcDbCircle
 10
96.38258975322242
 20
240.6566519237894
 30
0.0
 40
0.5
100
AcDbArc
 50
90.0
 51
143.614132183216
  0
LINE
  5
404
330
70
100
AcDbEntity
  8
fixing
100
AcDbLine
 10
94.73232658804045
 20
237.3566519237901
 30
0.0
 11
85.92625099016004
 21
237.3566519237901
 31
0.0
  0
LINE
  5
405
330
70
100
AcDbEntity
  8
fixing
100
AcDbLine
 10
94.73232658804045
 20
228.9566519237887
 30
0.0
 11
85.92625099016004
 21
228.9566519237887
 31
0.0
  0
LINE
  5
406
330
70
100
AcDbEntity
  8
fixing
100
AcDbLine
 10
94.73232658804045
 20
228.1566519237894
 30
0.0
 11
86.72625099016295
 21
228.1566519237894
 31
0.0
  0
LINE
  5
407
330
70
100
AcDbEntity
  8
fixing
100
AcDbLine
 10
86.72625099016295
 20
238.1566519237894
 30
0.0
 11
86.72625099016295
 21
228.1566519237894
 31
0.0
  0
LINE
  5
408
330
70
100
AcDbEntity
  8
fixing
100
AcDbLine
 10
85.92625099016004
 20
237.3566519237901
 30
0.0
 11
85.92625099016004
 21
228.9566519237887
 31
0.0
  0
LINE
  5
409
330
70
100
AcDbEntity
  8
fixing
100
AcDbLine
 10
85.92625099016004
 20
237.3566519237901
 30
0.0
 11
86.72625099016295
 21
238.1566519237894
 31
0.0
  0
LINE
  5
40A
330
70
100
AcDbEntity
  8
fixing
100
AcDbLine
 10
85.92625099016004
 20
228.9566519237887
 30
0.0
 11
86.72625099016295
 21
228.1566519237894
 31
0.0
  0
LINE
  5
40B
330
70
100
AcDbEntity
  8
0
100
AcDbLine
 10
195.7323265880404
 20
388.1566519237894
 30
0.0
 11
195.7323265880404
 21
198.15682055262
 31
0.0
  0
LINE
  5
40C
330
70
100
AcDbEntity
  8
fixing
  6
DASHED
 48
0.3
370
     5
100
AcDbLine
 10
248.0323265880579
 20
348.1566519237894
 30
0.0
 11
105.7323265880404
 21
348.1566519237894
 31
0.0
  0
LINE
  5
40D
330
70
100
AcDbEntity
  8
fixing
  6
DASHED
 48
0.3
370
     5
100
AcDbLine
 10
248.0323265880579
 20
348.9566519237887
 30
0.0
 11
105.7323265880404
 21
348.9566519237887
 31
0.0
  0
LINE
  5
40E
330
70
100
AcDbEntity
  8
fixing
  6
DASHED
 48
0.3
370
     5
100
AcDbLine
 10
248.0323265880579
 20
357.3566519237902
 30
0.0
 11
105.7323265880404
 21
357.3566519237902
 31
0.0
  0
LINE
  5
40F
330
70
100
AcDbEntity
  8
fixing
  6
DASHED
 48
0.3
370
     5
100
AcDbLine
 10
248.0323265880579
 20
358.1566519237894
 30
0.0
 11
105.7323265880404
 21
358.1566519237894
 31
0.0
  0
LINE
  5
410
330
70
100
AcDbEntity
  8
fixing
100
AcDbLine
 10
105.7323265880404
 20
348.1566519237894
 30
0.0
 11
105.7323265880404
 21
358.1566519237894
 31
0.0
  0
LINE
  5
411
330
70
100
AcDbEntity
  8
fixing
  6
DASHED
 48
0.3
370
     5
100
AcDbLine
 10
248.0323265880579
 20
228.1566519237894
 30
0.0
 11
105.7323265880404
 21
228.1566519237894
 31
0.0
  0
LINE
  5
412
330
70
100
AcDbEntity
  8
fixing
  6
DASHED
 48
0.3
370
     5
100
AcDbLine
 10
248.0323265880579
 20
228.9566519237887
 30
0.0
 11
105.7323265880404
 21
228.9566519237905
 31
0.0
  0
LINE
  5
413
330
70
100
AcDbEntity
  8
fixing
  6
DASHED
 48
0.3
370
     5
100
AcDbLine
 10
248.0323265880579
 20
237.3566519237901
 30
0.0
 11
105.7323265880404
 21
237.3566519237901
 31
0.0
  0
LINE
  5
414
330
70
100
AcDbEntity
  8
fixing
  6
DASHED
 48
0.3
370
     5
100
AcDbLine
 10
248.0323265880579
 20
238.1566519237894
 30
0.0
 11
105.7323265880404
 21
238.1566519237894
 31
0.0
  0
LINE
  5
415
330
70
100
AcDbEntity
  8
dim
100
AcDbLine
 10
281.2779513826681
 20
285.5847725725397
 30
0.0
 11
232.4522678434296
 21
285.5847725725397
 31
0.0
  0
LINE
  5
416
330
70
100
AcDbEntity
  8
shade 8
100
AcDbLine
 10
105.7323265880404
 20
198.15682055262
 30
0.0
 11
112.8375561135235
 21
228.1566519237894
 31
0.0
  0
LINE
  5
417
330
70
100
AcDbEntity
  8
shade 8
100
AcDbLine
 10
115.205979268203
 20
238.1566519237894
 30
0.0
 11
141.258633969408
 21
348.1566519237894
 31
0.0
  0
LINE
  5
418
330
70
100
AcDbEntity
  8
shade 8
100
AcDbLine
 10
143.6270571240693
 20
358.1566519237894
 30
0.0
 11
150.7323265880404
 21
388.1566519237894
 31
0.0
  0
LINE
  5
419
330
70
100
AcDbEntity
  8
shade 8
100
AcDbLine
 10
150.7323265880404
 20
198.1568205526673
 30
0.0
 11
143.6270970625483
 21
228.1566519237894
 31
0.0
  0
LINE
  5
41A
330
70
100
AcDbEntity
  8
shade 8
100
AcDbLine
 10
141.2586739078797
 20
238.1566519237894
 30
0.0
 11
115.2060192066638
 21
348.1566519237894
 31
0.0
  0
LINE
  5
41B
330
70
100
AcDbEntity
  8
shade 8
100
AcDbLine
 10
112.8375960519952
 20
358.1566519237894
 30
0.0
 11
105.7323265880404
 21
388.1566519237894
 31
0.0
  0
LINE
  5
41C
330
70
100
AcDbEntity
  8
shade 8
100
AcDbLine
 10
150.7323265880404
 20
198.1568205526673
 30
0.0
 11
157.837556113549
 21
228.1566519237894
 31
0.0
  0
LINE
  5
41D
330
70
100
AcDbEntity
  8
shade 8
100
AcDbLine
 10
160.2059792682175
 20
238.1566519237894
 30
0.0
 11
186.2586339694207
 21
348.1566519237894
 31
0.0
  0
LINE
  5
41E
330
70
100
AcDbEntity
  8
shade 8
100
AcDbLine
 10
188.6270571240875
 20
358.1566519237894
 30
0.0
 11
195.7323265880404
 21
388.1566519238094
 31
0.0
  0
LINE
  5
41F
330
70
100
AcDbEntity
  8
shade 8
100
AcDbLine
 10
195.7323265880404
 20
198.15682055262
 30
0.0
 11
188.6270970625337
 21
228.1566519237894
 31
0.0
  0
LINE
  5
420
330
70
100
AcDbEntity
  8
shade 8
100
AcDbLine
 10
186.2586739078633
 20
238.1566519237894
 30
0.0
 11
160.2060192066619
 21
348.1566519237894
 31
0.0
  0
LINE
  5
421
330
70
100
AcDbEntity
  8
shade 8
100
AcDbLine
 10
157.8375960519715
 20
358.1566519237894
 30
0.0
 11
150.7323265880404
 21
388.1566519237894
 31
0.0
  0
HATCH
  5
422
330
70
100
AcDbEntity
  8
shade 8
100
AcDbHatch
 10
0.0
 20
0.0
 30
0.0
210
0.0
220
0.0
230
1.0
  2
ANSI31
 70
     0
 71
     0
 91
       10
 92
        7
 72
     0
 73
     1
 93
        4
 10
200.232326588055
 20
348.1566519237894
 10
197.2323265880695
 20
348.1566519237894
 10
197.232326588055
 20
346.556651923789
 10
200.2323265880696
 20
346.556651923789
 97
        0
 92
        7
 72
     0
 73
     1
 93
        4
 10
202.2306652123225
 20
348.1566519237894
 10
200.2323265880696
 20
348.1566519237894
 10
200.232326588055
 20
346.556651923789
 10
202.2306652123225
 20
346.556651923789
 97
        0
 92
        7
 72
     0
 73
     1
 93
        4
 10
204.2265333379764
 20
348.1566519237894
 10
202.2306652123225
 20
348.1566519237894
 10
202.2306652123225
 20
346.556651923789
 10
204.226533337991
 20
346.556651923789
 97
        0
 92
        7
 72
     0
 73
     1
 93
        4
 10
218.975336925505
 20
348.1566519237894
 10
204.2265333379764
 20
348.1566519237894
 10
204.226533337991
 20
346.556651923789
 10
218.975336925505
 20
346.556651923789
 97
        0
 92
        7
 72
     0
 73
     1
 93
        4
 10
222.6269368977373
 20
348.1566519237894
 10
218.975336925505
 20
348.1566519237894
 10
218.975336925505
 20
346.556651923789
 10
222.6269368977373
 20
346.556651923789
 97
        0
 92
        7
 72
     0
 73
     1
 93
        4
 10
226.2679391642887
 20
348.1566519237894
 10
222.6269368977373
 20
348.1566519237894
 10
222.6269368977373
 20
346.556651923789
 10
226.2679391642887
 20
346.556651923789
 97
        0
 92
        7
 72
     0
 73
     1
 93
        4
 10
241.0419296171167
 20
348.1566519237894
 10
226.2679391643033
 20
348.1566519237894
 10
226.2679391642887
 20
346.556651923789
 10
241.0419296171167
 20
346.556651923789
 97
        0
 92
        7
 72
     0
 73
     1
 93
        4
 10
243.030657256284
 20
348.1566519237894
 10
241.0419296171312
 20
348.1566519237894
 10
241.0419296171312
 20
346.556651923789
 10
243.030657256284
 20
346.556651923789
 97
        0
 92
        7
 72
     0
 73
     1
 93
        4
 10
245.0323265880579
 20
348.1566519237894
 10
243.0306572562986
 20
348.1566519237894
 10
243.0306572562986
 20
346.556651923789
 10
245.0323265880288
 20
346.556651923789
 97
        0
 92
        7
 72
     0
 73
     1
 93
        4
 10
248.0323265880288
 20
348.1566519237894
 10
245.0323265880434
 20
348.1566519237894
 10
245.0323265880579
 20
346.556651923789
 10
248.0323265880579
 20
346.556651923789
 97
        0
 75
     0
 76
     1
 52
0.0
 41
0.75
 77
     0
 78
     1
 53
45.0
 43
-69786.6942487635
 44
-514.1512703145162
 45
-1.683798022700465
 46
1.683798022700466
 79
     0
 47
0.0445768482254879
 98
       10
 10
199.8716440798307
 20
347.7990875699142
 10
200.9419481343066
 20
347.6653486462309
 10
202.5028369051288
 20
347.6653486462309
 10
206.5611018030613
 20
347.5316284771288
 10
220.9657539931213
 20
347.487048835901
 10
224.3996939868666
 20
347.5762081183565
 10
228.6363811490883
 20
347.7545079286865
 10
241.7923452755931
 20
347.6207690050032
 10
243.8883860736678
 20
347.487048835901
 10
245.5384477214248
 20
347.487048835901
  0
LWPOLYLINE
  5
423
330
70
100
AcDbEntity
  8
shade 8
  6
DASHED
 48
0.25
100
AcDbPolyline
 90
        4
 70
     1
 43
0.0
 10
197.232326588055
 20
346.556651923789
 10
248.0323265880579
 20
346.556651923789
 10
248.0323265880433
 20
348.1566519237894
 10
197.232326588055
 20
348.1566519237894
  0
HATCH
  5
424
330
70
100
AcDbEntity
  8
shade 8
100
AcDbHatch
 10
0.0
 20
0.0
 30
0.0
210
0.0
220
0.0
230
1.0
  2
ANSI31
 70
     0
 71
     0
 91
       10
 92
        7
 72
     0
 73
     1
 93
        4
 10
200.2323265880404
 20
359.7566519237898
 10
197.232326588055
 20
359.7566519237898
 10
197.2323265880404
 20
358.1566519237894
 10
200.232326588055
 20
358.1566519237894
 97
        0
 92
        7
 72
     0
 73
     1
 93
        4
 10
202.2306652123079
 20
359.7566519237898
 10
200.232326588055
 20
359.7566519237898
 10
200.2323265880404
 20
358.1566519237894
 10
202.2306652123079
 20
358.1566519237894
 97
        0
 92
        7
 72
     0
 73
     1
 93
        4
 10
204.2265333379619
 20
359.7566519237898
 10
202.2306652123079
 20
359.7566519237898
 10
202.2306652123079
 20
358.1566519237894
 10
204.2265333379764
 20
358.1566519237894
 97
        0
 92
        7
 72
     0
 73
     1
 93
        4
 10
218.9753369254904
 20
359.7566519237898
 10
204.2265333379619
 20
359.7566519237898
 10
204.2265333379764
 20
358.1566519237894
 10
218.9753369254904
 20
358.1566519237894
 97
        0
 92
        7
 72
     0
 73
     1
 93
        4
 10
222.6269368977228
 20
359.7566519237898
 10
218.9753369254904
 20
359.7566519237898
 10
218.9753369254904
 20
358.1566519237894
 10
222.6269368977228
 20
358.1566519237894
 97
        0
 92
        7
 72
     0
 73
     1
 93
        4
 10
226.2679391642741
 20
359.7566519237898
 10
222.6269368977228
 20
359.7566519237898
 10
222.6269368977228
 20
358.1566519237894
 10
226.2679391642741
 20
358.1566519237894
 97
        0
 92
        7
 72
     0
 73
     1
 93
        4
 10
241.0419296171022
 20
359.7566519237898
 10
226.2679391642887
 20
359.7566519237898
 10
226.2679391642741
 20
358.1566519237894
 10
241.0419296171022
 20
358.1566519237894
 97
        0
 92
        7
 72
     0
 73
     1
 93
        4
 10
243.0306572562695
 20
359.7566519237898
 10
241.0419296171167
 20
359.7566519237898
 10
241.0419296171167
 20
358.1566519237894
 10
243.0306572562695
 20
358.1566519237894
 97
        0
 92
        7
 72
     0
 73
     1
 93
        4
 10
245.0323265880434
 20
359.7566519237898
 10
243.030657256284
 20
359.7566519237898
 10
243.030657256284
 20
358.1566519237894
 10
245.0323265880143
 20
358.1566519237894
 97
        0
 92
        7
 72
     0
 73
     1
 93
        4
 10
248.0323265880143
 20
359.7566519237898
 10
245.0323265880288
 20
359.7566519237898
 10
245.0323265880434
 20
358.1566519237894
 10
248.0323265880433
 20
358.1566519237894
 97
        0
 75
     0
 76
     1
 52
0.0
 41
0.75
 77
     0
 78
     1
 53
45.0
 43
-69786.69424876351
 44
-502.5512703145176
 45
-1.683798022700465
 46
1.683798022700466
 79
     0
 47
0.0445768482254879
 98
       10
 10
199.8716440798162
 20
359.3990875699128
 10
200.941948134292
 20
359.2653486462295
 10
202.5028369051142
 20
359.2653486462295
 10
206.5611018030468
 20
359.1316284771273
 10
220.9657539931068
 20
359.0870488358996
 10
224.3996939868521
 20
359.1762081183551
 10
228.6363811490737
 20
359.354507928685
 10
241.7923452755786
 20
359.2207690050017
 10
243.8883860736532
 20
359.0870488358996
 10
245.5384477214102
 20
359.0870488358996
  0
LWPOLYLINE
  5
425
330
70
100
AcDbEntity
  8
shade 8
  6
DASHED
 48
0.25
100
AcDbPolyline
 90
        4
 70
     1
 43
0.0
 10
197.2323265880404
 20
358.1566519237894
 10
248.0323265880433
 20
358.1566519237894
 10
248.0323265880288
 20
359.7566519237898
 10
197.2323265880404
 20
359.7566519237898
  0
HATCH
  5
426
330
70
100
AcDbEntity
  8
shade 8
100
AcDbHatch
 10
0.0
 20
0.0
 30
0.0
210
0.0
220
0.0
230
1.0
  2
ANSI31
 70
     0
 71
     0
 91
       10
 92
        7
 72
     0
 73
     1
 93
        4
 10
200.232326588055
 20
228.1566519237894
 10
197.2323265880695
 20
228.1566519237894
 10
197.232326588055
 20
226.5566519237891
 10
200.2323265880696
 20
226.5566519237891
 97
        0
 92
        7
 72
     0
 73
     1
 93
        4
 10
202.2306652123225
 20
228.1566519237894
 10
200.2323265880696
 20
228.1566519237894
 10
200.232326588055
 20
226.5566519237891
 10
202.2306652123225
 20
226.5566519237891
 97
        0
 92
        7
 72
     0
 73
     1
 93
        4
 10
204.2265333379764
 20
228.1566519237894
 10
202.2306652123225
 20
228.1566519237894
 10
202.2306652123225
 20
226.5566519237891
 10
204.226533337991
 20
226.5566519237891
 97
        0
 92
        7
 72
     0
 73
     1
 93
        4
 10
218.975336925505
 20
228.1566519237894
 10
204.2265333379764
 20
228.1566519237894
 10
204.226533337991
 20
226.5566519237891
 10
218.975336925505
 20
226.5566519237891
 97
        0
 92
        7
 72
     0
 73
     1
 93
        4
 10
222.6269368977373
 20
228.1566519237894
 10
218.975336925505
 20
228.1566519237894
 10
218.975336925505
 20
226.5566519237891
 10
222.6269368977373
 20
226.5566519237891
 97
        0
 92
        7
 72
     0
 73
     1
 93
        4
 10
226.2679391642887
 20
228.1566519237894
 10
222.6269368977373
 20
228.1566519237894
 10
222.6269368977373
 20
226.5566519237891
 10
226.2679391642887
 20
226.5566519237891
 97
        0
 92
        7
 72
     0
 73
     1
 93
        4
 10
241.0419296171167
 20
228.1566519237894
 10
226.2679391643033
 20
228.1566519237894
 10
226.2679391642887
 20
226.5566519237891
 10
241.0419296171167
 20
226.5566519237891
 97
        0
 92
        7
 72
     0
 73
     1
 93
        4
 10
243.030657256284
 20
228.1566519237894
 10
241.0419296171312
 20
228.1566519237894
 10
241.0419296171312
 20
226.5566519237891
 10
243.030657256284
 20
226.5566519237891
 97
        0
 92
        7
 72
     0
 73
     1
 93
        4
 10
245.0323265880579
 20
228.1566519237894
 10
243.0306572562986
 20
228.1566519237894
 10
243.0306572562986
 20
226.5566519237891
 10
245.0323265880288
 20
226.5566519237891
 97
        0
 92
        7
 72
     0
 73
     1
 93
        4
 10
248.0323265880288
 20
228.1566519237894
 10
245.0323265880434
 20
228.1566519237894
 10
245.0323265880579
 20
226.5566519237891
 10
248.0323265880579
 20
226.5566519237891
 97
        0
 75
     0
 76
     1
 52
0.0
 41
0.75
 77
     0
 78
     1
 53
45.0
 43
-69786.6942487635
 44
-634.1512703145162
 45
-1.683798022700465
 46
1.683798022700466
 79
     0
 47
0.0445768482254879
 98
       10
 10
199.8716440798307
 20
227.7990875699142
 10
200.9419481343066
 20
227.665348646231
 10
202.5028369051288
 20
227.665348646231
 10
206.5611018030613
 20
227.5316284771288
 10
220.9657539931213
 20
227.487048835901
 10
224.3996939868666
 20
227.5762081183565
 10
228.6363811490883
 20
227.7545079286865
 10
241.7923452755931
 20
227.6207690050032
 10
243.8883860736678
 20
227.487048835901
 10
245.5384477214248
 20
227.487048835901
  0
LWPOLYLINE
  5
427
330
70
100
AcDbEntity
  8
shade 8
  6
DASHED
 48
0.25
100
AcDbPolyline
 90
        4
 70
     1
 43
0.0
 10
197.232326588055
 20
226.5566519237891
 10
248.0323265880579
 20
226.5566519237891
 10
248.0323265880433
 20
228.1566519237894
 10
197.232326588055
 20
228.1566519237894
  0
HATCH
  5
428
330
70
100
AcDbEntity
  8
shade 8
100
AcDbHatch
 10
0.0
 20
0.0
 30
0.0
210
0.0
220
0.0
230
1.0
  2
ANSI31
 70
     0
 71
     0
 91
       10
 92
        7
 72
     0
 73
     1
 93
        4
 10
200.2323265880404
 20
239.7566519237898
 10
197.232326588055
 20
239.7566519237898
 10
197.2323265880404
 20
238.1566519237894
 10
200.232326588055
 20
238.1566519237894
 97
        0
 92
        7
 72
     0
 73
     1
 93
        4
 10
202.2306652123079
 20
239.7566519237898
 10
200.232326588055
 20
239.7566519237898
 10
200.2323265880404
 20
238.1566519237894
 10
202.2306652123079
 20
238.1566519237894
 97
        0
 92
        7
 72
     0
 73
     1
 93
        4
 10
204.2265333379619
 20
239.7566519237898
 10
202.2306652123079
 20
239.7566519237898
 10
202.2306652123079
 20
238.1566519237894
 10
204.2265333379764
 20
238.1566519237894
 97
        0
 92
        7
 72
     0
 73
     1
 93
        4
 10
218.9753369254904
 20
239.7566519237898
 10
204.2265333379619
 20
239.7566519237898
 10
204.2265333379764
 20
238.1566519237894
 10
218.9753369254904
 20
238.1566519237894
 97
        0
 92
        7
 72
     0
 73
     1
 93
        4
 10
222.6269368977228
 20
239.7566519237898
 10
218.9753369254904
 20
239.7566519237898
 10
218.9753369254904
 20
238.1566519237894
 10
222.6269368977228
 20
238.1566519237894
 97
        0
 92
        7
 72
     0
 73
     1
 93
        4
 10
226.2679391642741
 20
239.7566519237898
 10
222.6269368977228
 20
239.7566519237898
 10
222.6269368977228
 20
238.1566519237894
 10
226.2679391642741
 20
238.1566519237894
 97
        0
 92
        7
 72
     0
 73
     1
 93
        4
 10
241.0419296171022
 20
239.7566519237898
 10
226.2679391642887
 20
239.7566519237898
 10
226.2679391642741
 20
238.1566519237894
 10
241.0419296171022
 20
238.1566519237894
 97
        0
 92
        7
 72
     0
 73
     1
 93
        4
 10
243.0306572562695
 20
239.7566519237898
 10
241.0419296171167
 20
239.7566519237898
 10
241.0419296171167
 20
238.1566519237894
 10
243.0306572562695
 20
238.1566519237894
 97
        0
 92
        7
 72
     0
 73
     1
 93
        4
 10
245.0323265880434
 20
239.7566519237898
 10
243.030657256284
 20
239.7566519237898
 10
243.030657256284
 20
238.1566519237894
 10
245.0323265880143
 20
238.1566519237894
 97
        0
 92
        7
 72
     0
 73
     1
 93
        4
 10
248.0323265880143
 20
239.7566519237898
 10
245.0323265880288
 20
239.7566519237898
 10
245.0323265880434
 20
238.1566519237894
 10
248.0323265880433
 20
238.1566519237894
 97
        0
 75
     0
 76
     1
 52
0.0
 41
0.75
 77
     0
 78
     1
 53
45.0
 43
-69786.69424876351
 44
-622.5512703145176
 45
-1.683798022700465
 46
1.683798022700466
 79
     0
 47
0.0445768482254879
 98
       10
 10
199.8716440798162
 20
239.3990875699127
 10
200.941948134292
 20
239.2653486462295
 10
202.5028369051142
 20
239.2653486462295
 10
206.5611018030468
 20
239.1316284771273
 10
220.9657539931068
 20
239.0870488358995
 10
224.3996939868521
 20
239.1762081183551
 10
228.6363811490737
 20
239.354507928685
 10
241.7923452755786
 20
239.2207690050017
 10
243.8883860736532
 20
239.0870488358995
 10
245.5384477214102
 20
239.0870488358995
  0
LWPOLYLINE
  5
429
330
70
100
AcDbEntity
  8
shade 8
  6
DASHED
 48
0.25
100
AcDbPolyline
 90
        4
 70
     1
 43
0.0
 10
195.7323265880404
 20
238.1566519237894
 10
246.5323265880434
 20
238.1566519237894
 10
246.5323265880288
 20
239.7566519237898
 10
195.7323265880404
 20
239.7566519237898
  0
LINE
  5
42B
330
70
100
AcDbEntity
  8
fixing
100
AcDbLine
 10
105.7323265880404
 20
385.6566519237894
 30
0.0
 11
105.7323265880404
 21
320.6566519237894
 31
0.0
  0
LINE
  5
42C
330
70
100
AcDbEntity
  8
fixing
100
AcDbLine
 10
105.7323265880404
 20
265.6566519237894
 30
0.0
 11
105.7323265880404
 21
200.6566519237894
 31
0.0
  0
HATCH
  5
42D
330
70
100
AcDbEntity
  8
shade 8
100
AcDbHatch
 10
0.0
 20
0.0
 30
0.0
210
0.0
220
0.0
230
1.0
  2
SOLID
 70
     1
 71
     0
 91
        2
 92
        7
 72
     0
 73
     1
 93
        4
 10
195.7323265880404
 20
359.6563845291438
 10
197.2323265880404
 20
359.6563845291438
 10
197.2323265880404
 20
375.6563845291438
 10
195.7323265880404
 20
375.6563845291438
 97
        0
 92
        7
 72
     0
 73
     1
 93
        4
 10
197.2323265880404
 20
346.6563845291438
 10
195.7323265880404
 20
346.6563845291438
 10
195.7323265880404
 20
330.6563845291439
 10
197.2323265880404
 20
330.6563845291439
 97
        0
 75
     1
 76
     1
 47
0.1188044652130884
 98
        2
 10
196.4469057191745
 20
363.7540891621265
 10
196.8036182134674
 20
340.7060258350447
450
        0
451
        0
460
0.0
461
0.0
452
        0
462
1.0
453
        2
463
0.0
 63
     5
421
      255
463
1.0
 63
     2
421
 16776960
470
LINEAR
1001
GradientColor1ACI
1070
     5
1001
GradientColor2ACI
1070
     2
1001
ACAD
1010
0.0
1020
0.0
1030
0.0
  0
LINE
  5
42E
330
70
100
AcDbEntity
  8
baseplate
370
    15
100
AcDbLine
 10
195.7323265880404
 20
330.6563845291439
 30
0.0
 11
195.7323265880404
 21
375.6563845291438
 31
0.0
  0
LINE
  5
42F
330
70
100
AcDbEntity
  8
baseplate
370
    15
100
AcDbLine
 10
195.7323265880404
 20
375.6563845291438
 30
0.0
 11
197.2323265880404
 21
375.6563845291438
 31
0.0
  0
LINE
  5
430
330
70
100
AcDbEntity
  8
baseplate
370
    15
100
AcDbLine
 10
197.2323265880404
 20
375.6563845291438
 30
0.0
 11
197.2323265880404
 21
330.6563845291439
 31
0.0
  0
LINE
  5
431
330
70
100
AcDbEntity
  8
baseplate
370
    15
100
AcDbLine
 10
197.2323265880404
 20
330.6563845291439
 30
0.0
 11
195.7323265880404
 21
330.6563845291439
 31
0.0
  0
LINE
  5
432
330
70
100
AcDbEntity
  8
baseplate
370
    15
100
AcDbLine
 10
197.2323265880404
 20
346.6563845291438
 30
0.0
 11
195.7323265880404
 21
346.6563845291438
 31
0.0
  0
LINE
  5
433
330
70
100
AcDbEntity
  8
baseplate
370
    15
100
AcDbLine
 10
195.7323265880404
 20
359.6563845291438
 30
0.0
 11
197.2323265880404
 21
359.6563845291438
 31
0.0
  0
HATCH
  5
434
330
70
100
AcDbEntity
  8
shade 8
100
AcDbHatch
 10
0.0
 20
0.0
 30
0.0
210
0.0
220
0.0
230
1.0
  2
SOLID
 70
     1
 71
     0
 91
        2
 92
        7
 72
     0
 73
     1
 93
        4
 10
195.7323265880404
 20
239.6563845291457
 10
197.2323265880404
 20
239.6563845291457
 10
197.2323265880404
 20
255.6563845291456
 10
195.7323265880404
 20
255.6563845291456
 97
        0
 92
        7
 72
     0
 73
     1
 93
        4
 10
197.2323265880404
 20
226.6563845291457
 10
195.7323265880404
 20
226.6563845291457
 10
195.7323265880404
 20
210.6563845291457
 10
197.2323265880404
 20
210.6563845291457
 97
        0
 75
     1
 76
     1
 47
0.1188044652130884
 98
        2
 10
196.4469057191745
 20
243.7540891621283
 10
196.8036182134674
 20
220.7060258350466
450
        0
451
        0
460
0.0
461
0.0
452
        0
462
1.0
453
        2
463
0.0
 63
     5
421
      255
463
1.0
 63
     2
421
 16776960
470
LINEAR
1001
GradientColor1ACI
1070
     5
1001
GradientColor2ACI
1070
     2
1001
ACAD
1010
0.0
1020
0.0
1030
0.0
  0
LINE
  5
435
330
70
100
AcDbEntity
  8
baseplate
370
    15
100
AcDbLine
 10
195.7323265880404
 20
210.6563845291457
 30
0.0
 11
195.7323265880404
 21
255.6563845291456
 31
0.0
  0
LINE
  5
436
330
70
100
AcDbEntity
  8
baseplate
370
    15
100
AcDbLine
 10
195.7323265880404
 20
255.6563845291456
 30
0.0
 11
197.2323265880404
 21
255.6563845291456
 31
0.0
  0
LINE
  5
437
330
70
100
AcDbEntity
  8
baseplate
370
    15
100
AcDbLine
 10
197.2323265880404
 20
255.6563845291456
 30
0.0
 11
197.2323265880404
 21
210.6563845291457
 31
0.0
  0
LINE
  5
438
330
70
100
AcDbEntity
  8
baseplate
370
    15
100
AcDbLine
 10
197.2323265880404
 20
210.6563845291457
 30
0.0
 11
195.7323265880404
 21
210.6563845291457
 31
0.0
  0
LINE
  5
439
330
70
100
AcDbEntity
  8
baseplate
370
    15
100
AcDbLine
 10
197.2323265880404
 20
226.6563845291457
 30
0.0
 11
195.7323265880404
 21
226.6563845291457
 31
0.0
  0
LINE
  5
43A
330
70
100
AcDbEntity
  8
baseplate
370
    15
100
AcDbLine
 10
195.7323265880404
 20
239.6563845291457
 30
0.0
 11
197.2323265880404
 21
239.6563845291457
 31
0.0
  0
LINE
  5
43B
330
70
100
AcDbEntity
  8
decking
100
AcDbLine
 10
195.7323265880404
 20
406.1566519237894
 30
0.0
 11
195.7323265880404
 21
388.1566519237894
 31
0.0
  0
DIMENSION
  5
43C
330
70
100
AcDbEntity
  8
dim
100
AcDbDimension
  2
*D16
 10
60.44266565575154
 20
353.1566519237895
 30
0.0
 11
60.44266565575163
 21
293.1566519237896
 31
0.0
 70
   160
  1
120mm min
 71
     5
 42
120.0
 73
     0
 74
     0
 75
     0
  3
Spectrum 2
100
AcDbAlignedDimension
 13
83.23232658804045
 23
233.1566519237894
 33
0.0
 14
83.23232658804045
 24
353.1566519237894
 34
0.0
 50
90.0
100
AcDbRotatedDimension
1001
ACAD
1000
DSTYLE
1002
{
1070
    42
1040
2.0
1002
}
  0
LEADER
  5
43D
330
70
100
AcDbEntity
  8
dim
100
AcDbLeader
  3
Spectrum 2
 76
     2
 10
243.5323265880434
 20
445.8958653908411
 30
0.0
 10
281.2779513826681
 20
445.8958653908411
 30
0.0
211
1.0
221
-0.0000000000000002
231
0.0
213
-0.0000000000000031
223
-12.5
233
0.0
1001
ACAD
1000
DSTYLE
1002
{
1070
    41
1040
6.0
1070
    40
1040
1.0
1070
    50
1040
1.570796326794896
1070
    77
1070
     0
1002
}
  0
LEADER
  5
43E
330
70
100
AcDbEntity
  8
dim
100
AcDbLeader
  3
Spectrum 2
 76
     2
 10
232.4522678434296
 20
230.3102863136773
 30
0.0
 10
232.4522678434296
 20
285.5847725725397
 30
0.0
211
0.0000000000000003
221
1.0
231
0.0
213
12.5
223
-0.0000000000000038
233
0.0
1001
ACAD
1000
DSTYLE
1002
{
1070
    41
1040
6.0
1070
    40
1040
1.0
1070
    50
1040
1.570796326794896
1070
    77
1070
     0
1002
}
  0
DIMENSION
  5
43F
330
70
100
AcDbEntity
  8
dim
100
AcDbDimension
  2
*D17
 10
60.44266565575154
 20
353.1566519237895
 30
0.0
 11
60.44266565575163
 21
370.6566519237896
 31
0.0
 70
   160
  1
35 min
 71
     5
 42
35.00000000000006
 73
     0
 74
     0
 75
     0
  3
Spectrum 2
100
AcDbAlignedDimension
 13
69.91967548901448
 23
388.1566519237894
 33
0.0
 14
83.23232658804045
 24
353.1566519237894
 34
0.0
 50
270.0
100
AcDbRotatedDimension
1001
ACAD
1000
DSTYLE
1002
{
1070
    42
1040
2.0
1002
}
  0
DIMENSION
  5
440
330
70
100
AcDbEntity
  8
dim
100
AcDbDimension
  2
*D18
 10
195.7323265880404
 20
421.7896544343948
 30
0.0
 11
150.7323265880404
 21
421.7896544343948
 31
0.0
 70
   160
  1
90 min timber width
 71
     5
 42
90.0
 73
     0
 74
     0
 75
     0
  3
Spectrum 2
100
AcDbAlignedDimension
 13
105.7323265880404
 23
388.1566519237894
 33
0.0
 14
195.7323265880404
 24
406.1566519237894
 34
0.0
100
AcDbRotatedDimension
1001
ACAD
1000
DSTYLE
1002
{
1070
   340
1005
111
1070
   140
1040
2.25
1070
    42
1040
2.0
1070
    40
1040
2.0
1002
}
  0
DIMENSION
  5
441
330
70
100
AcDbEntity
  8
dim
100
AcDbDimension
  2
*D19
 10
60.44266565575158
 20
198.1566519237895
 30
0.0
 11
60.44266565575163
 21
215.6566519237896
 31
0.0
 70
   160
  1
35 min
 71
     5
 42
35.0
 73
     0
 74
     0
 75
     0
  3
Spectrum 2
100
AcDbAlignedDimension
 13
83.23232658804045
 23
233.1566519237894
 33
0.0
 14
82.73232658804046
 24
198.1566519237894
 34
0.0
 50
270.0
100
AcDbRotatedDimension
1001
ACAD
1000
DSTYLE
1002
{
1070
    42
1040
2.0
1002
}
  0
DIMENSION
  5
442
330
70
100
AcDbEntity
  8
dim
100
AcDbDimension
  2
*D20
 10
46.44266565574788
 20
388.1566519237896
 30
0.0
 11
46.44266565574798
 21
298.1566519237997
 31
0.0
 70
   160
  1
<> min section depth
 71
     5
 42
190.0000000000001
 73
     0
 74
     0
 75
     0
  3
Spectrum 2
100
AcDbAlignedDimension
 13
105.7322886465263
 23
198.1566519237894
 33
0.0
 14
69.91967548901448
 24
388.1566519237894
 34
0.0
 50
90.0
100
AcDbRotatedDimension
1001
ACAD
1000
DSTYLE
1002
{
1070
   340
1005
111
1002
}
  0
LEADER
  5
443
330
70
100
AcDbEntity
  8
dim
100
AcDbLeader
  3
Spectrum 2
 76
     2
 10
224.7679391642887
 20
409.6743971324394
 30
0.0
 10
281.2779513826681
 20
409.6743971324394
 30
0.0
211
1.0
221
-0.0000000000000002
231
0.0
213
-0.0000000000000031
223
-12.5
233
0.0
1001
ACAD
1000
DSTYLE
1002
{
1070
    40
1040
1.0
1070
    41
1040
6.0
1070
    50
1040
1.570796326794896
1070
    77
1070
     0
1002
}
  0
LEADER
  5
444
330
70
100
AcDbEntity
  8
dim
100
AcDbLeader
  3
Spectrum 2
 76
     2
 10
150.7323265880404
 20
326.5430555388411
 30
0.0
 10
281.2779513826681
 20
326.5430555388411
 30
0.0
211
1.0
221
-0.0000000000000002
231
0.0
213
-0.0000000000000031
223
-12.5
233
0.0
1001
ACAD
1000
DSTYLE
1002
{
1070
    40
1040
1.0
1070
    41
1040
6.0
1070
    50
1040
1.570796326794896
1070
    77
1070
     0
1002
}
  0
LEADER
  5
445
330
70
100
AcDbEntity
  8
dim
100
AcDbLeader
  3
Spectrum 2
 76
     2
 10
197.2323265880404
 20
371.0072600815146
 30
0.0
 10
281.2779513826681
 20
371.0072600815146
 30
0.0
211
1.0
221
-0.0000000000000002
231
0.0
213
-0.0000000000000031
223
-12.5
233
0.0
1001
ACAD
1000
DSTYLE
1002
{
1070
    40
1040
1.0
1070
    41
1040
6.0
1070
    50
1040
1.570796326794896
1070
    77
1070
     0
1002
}
  0
MTEXT
  5
446
330
70
100
AcDbEntity
  8
dim
100
AcDbMText
 10
283.9775006624259
 20
445.8456422041744
 30
0.0
 40
4.5
 41
75.0
 46
0.0
 71
     4
 72
     5
  1
50.8 x 50.8 post
  7
Calibri
 73
     1
 44
0.9333333333333333
  0
MTEXT
  5
447
330
70
100
AcDbEntity
  8
dim
100
AcDbMText
 10
283.9043313433649
 20
286.0786372153379
 30
0.0
 40
4.5
 41
93.73760037154807
 46
0.0
 71
     4
 72
     5
  1
Stainless fixings separated from  aluminium by plastic sleeve
  7
Calibri
 73
     1
 44
0.9333333333333333
  0
MTEXT
  5
448
330
70
100
AcDbEntity
  8
dim
370
     5
100
AcDbMText
 10
67.82348459470085
 20
370.489846776727
 30
0.0
 40
4.5
 41
39.36593251144224
 46
0.0
 71
     5
 72
     5
  1
edge\Pdistance
  7
Calibri
 11
0.0000000000000001
 21
1.0
 31
0.0
 73
     1
 44
0.9333333333333333
  0
MTEXT
  5
44A
330
70
100
AcDbEntity
  8
dim
100
AcDbMText
 10
283.9043313433649
 20
246.1757689875139
 30
0.0
 40
4.5
 41
90.73735401047452
 46
0.0
 71
     4
 72
     5
  1
Fixing consists of (2x) 316 S/S M10 threaded rod/bolt, nut and washer with 65 x 65 x 3 washer to timber
  7
Calibri
 73
     1
 44
0.9333333333333333
  0
MTEXT
  5
44B
330
70
100
AcDbEntity
  8
dim
370
     5
100
AcDbMText
 10
67.82348459470085
 20
215.7065292939659
 30
0.0
 40
4.5
 41
39.36593251144224
 46
0.0
 71
     5
 72
     5
  1
edge\Pdistance
  7
Calibri
 11
0.0000000000000001
 21
1.0
 31
0.0
 73
     1
 44
0.9333333333333333
  0
MTEXT
  5
44C
330
70
100
AcDbEntity
  8
dim
100
AcDbMText
 10
283.9775006624259
 20
410.6285122861954
 30
0.0
 40
4.5
 41
86.62404204197811
 46
0.0
 71
     4
 72
     5
  1
S14 Post stiffener (full length)
  7
Calibri
 73
     1
 44
0.9333333333333333
  0
MTEXT
  5
44D
330
70
100
AcDbEntity
  8
dim
100
AcDbMText
 10
283.9775006624259
 20
325.7671777240175
 30
0.0
 40
4.5
 41
87.31219318795774
 46
0.0
 71
     4
 72
     5
  1
Framing timber structure and connections as per approved design by others
  7
Calibri
 73
     1
 44
0.9333333333333333
  0
MTEXT
  5
44E
330
70
100
AcDbEntity
  8
dim
100
AcDbMText
 10
283.9775006624259
 20
371.2505057770576
 30
0.0
 40
4.5
 41
73.57939952713786
 46
0.0
 71
     4
 72
     5
  1
Rigid plastic separation washer where required
  7
Calibri
 73
     1
 44
0.9333333333333333
  0
LWPOLYLINE
  5
48C
330
70
100
AcDbEntity
  8
dim
370
    20
100
AcDbPolyline
 90
        4
 70
     1
 43
0.0
 10
383.9999999999982
 20
174.407107314146
 10
159.0000000000127
 20
174.4071073141551
 10
158.9999999999982
 20
144.4071073141588
 10
383.9999999999982
 20
144.4071073141497
  0
LINE
  5
48D
330
70
100
AcDbEntity
  8
dim
370
    20
100
AcDbLine
 10
158.9999999999836
 20
142.4071073141588
 30
0.0
 11
158.9999999999836
 21
88.40710731416427
 31
0.0
  0
LINE
  5
48E
330
70
100
AcDbEntity
  8
dim
370
    20
100
AcDbLine
 10
383.9999999999982
 20
124.4071073141497
 30
0.0
 11
158.9999999999836
 21
124.4071073141588
 31
0.0
  0
LINE
  5
48F
330
70
100
AcDbEntity
  8
dim
370
    20
100
AcDbLine
 10
146.9999999999981
 20
124.4071073141588
 30
0.0
 11
95.99999999999818
 21
124.4071073141606
 31
0.0
  0
LINE
  5
490
330
70
100
AcDbEntity
  8
dim
370
    20
100
AcDbLine
 10
383.9999999999982
 20
156.4071073141479
 30
0.0
 11
159.0000000000127
 21
156.4071073141569
 31
0.0
  0
MTEXT
  5
491
330
70
100
AcDbEntity
  8
dim
370
    20
100
AcDbMText
 10
153.9999999999836
 20
115.4071073141624
 30
0.0
 40
4.0
 41
53.99999999999636
 46
9.999999999998653
 71
     5
 72
     5
  1
Maximum post ctrs
  7
Calibri
 11
0.0000000000000001
 21
1.0
 31
0.0
 73
     1
 44
1.0
1001
ACAD
1000
ACAD_MTEXT_DEFINED_HEIGHT_BEGIN
1070
    46
1040
15.00000000000001
1000
ACAD_MTEXT_DEFINED_HEIGHT_END
  0
MTEXT
  5
492
330
70
100
AcDbEntity
  8
dim
370
    20
100
AcDbMText
 10
239.3571428571176
 20
150.4071073141528
 30
0.0
 40
4.5
 41
32.14285714284233
 46
11.99999999999592
 71
     5
 72
     5
  1
1.30m
  7
Calibri
 73
     1
 44
1.0
1001
ACAD
1000
ACAD_MTEXT_DEFINED_HEIGHT_BEGIN
1070
    46
1040
10.00000000000001
1000
ACAD_MTEXT_DEFINED_HEIGHT_END
  0
MTEXT
  5
494
330
70
100
AcDbEntity
  8
dim
370
    20
100
AcDbMText
 10
271.4999999999618
 20
150.4071073141509
 30
0.0
 40
4.5
 41
32.14285714284233
 46
12.00000000000428
 71
     5
 72
     5
  1
1.35m
  7
Calibri
 73
     1
 44
1.0
1001
ACAD
1000
ACAD_MTEXT_DEFINED_HEIGHT_BEGIN
1070
    46
1040
10.00000000000001
1000
ACAD_MTEXT_DEFINED_HEIGHT_END
  0
MTEXT
  5
496
330
70
100
AcDbEntity
  8
dim
370
    20
100
AcDbMText
 10
303.6428571427805
 20
150.407107314152
 30
0.0
 40
4.5
 41
32.14285714279867
 46
11.99999999999689
 71
     5
 72
     5
  1
1.40m
  7
Calibri
 73
     1
 44
1.0
1001
ACAD
1000
ACAD_MTEXT_DEFINED_HEIGHT_BEGIN
1070
    46
1040
10.00000000000001
1000
ACAD_MTEXT_DEFINED_HEIGHT_END
  0
MTEXT
  5
498
330
70
100
AcDbEntity
  8
dim
370
    20
100
AcDbMText
 10
335.7857142856028
 20
150.4071073141487
 30
0.0
 40
4.5
 41
32.14285714284233
 46
11.99999999999814
 71
     5
 72
     5
  1
1.45m
  7
Calibri
 73
     1
 44
1.0
1001
ACAD
1000
ACAD_MTEXT_DEFINED_HEIGHT_BEGIN
1070
    46
1040
10.00000000000001
1000
ACAD_MTEXT_DEFINED_HEIGHT_END
  0
MTEXT
  5
49A
330
70
100
AcDbEntity
  8
dim
370
    20
100
AcDbMText
 10
367.9285714285106
 20
150.4071073141487
 30
0.0
 40
4.5
 41
32.14285714297512
 46
11.99999999999814
 71
     5
 72
     5
  1
1.50m
  7
Calibri
 73
     1
 44
1.0
1001
ACAD
1000
ACAD_MTEXT_DEFINED_HEIGHT_BEGIN
1070
    46
1040
10.00000000000001
1000
ACAD_MTEXT_DEFINED_HEIGHT_END
  0
LINE
  5
49C
330
70
100
AcDbEntity
  8
dim
370
    20
100
AcDbLine
 10
95.99999999999818
 20
142.4071073141624
 30
0.0
 11
95.99999999999818
 21
88.40710731416608
 31
0.0
  0
LWPOLYLINE
  5
49D
330
70
100
AcDbEntity
  8
dim
370
    20
100
AcDbPolyline
 90
        4
 70
     1
 43
0.0
 10
148.9999999999836
 20
88.40710731416244
 10
383.9999999999836
 20
88.40710731415517
 10
383.9999999999982
 20
142.4071073141497
 10
148.9999999999836
 20
142.4071073141606
  0
LINE
  5
49E
330
70
100
AcDbEntity
  8
dim
370
    20
100
AcDbLine
 10
383.9999999999982
 20
106.4071073141515
 30
0.0
 11
158.9999999999836
 21
106.4071073141606
 31
0.0
  0
LINE
  5
49F
330
70
100
AcDbEntity
  8
dim
370
    20
100
AcDbLine
 10
146.9999999999836
 20
106.4071073141606
 30
0.0
 11
16.00000000001273
 21
106.4071073141642
 31
0.0
  0
MTEXT
  5
4A0
330
70
100
AcDbEntity
  8
dim
370
    20
100
AcDbMText
 10
121.4999999999982
 20
133.4071073141588
 30
0.0
 40
4.0
 41
50.99999999999273
 46
18.00000000000183
 71
     5
 72
     5
  1
Up to very high wind zone (50m/s)
  7
Calibri
 73
     1
 44
1.0
1001
ACAD
1000
ACAD_MTEXT_DEFINED_HEIGHT_BEGIN
1070
    46
1040
10.00000000000001
1000
ACAD_MTEXT_DEFINED_HEIGHT_END
  0
MTEXT
  5
4A1
330
70
100
AcDbEntity
  8
dim
370
    20
100
AcDbMText
 10
121.4999999999982
 20
115.4071073141606
 30
0.0
 40
4.0
 41
50.99999999999273
 46
17.9999999999982
 71
     5
 72
     5
  1
Extra high wind\Pzone (55m/s)
  7
Calibri
 73
     1
 44
1.0
1001
ACAD
1000
ACAD_MTEXT_DEFINED_HEIGHT_BEGIN
1070
    46
1040
10.00000000000001
1000
ACAD_MTEXT_DEFINED_HEIGHT_END
  0
MTEXT
  5
4A2
330
70
100
AcDbEntity
  8
dim
370
    20
100
AcDbMText
 10
121.4999999999982
 20
97.40710731416244
 30
0.0
 40
4.0
 41
50.99999999999273
 46
17.9999999999982
 71
     5
 72
     5
  1
All wind zones\P(up to 55m/s)
  7
Calibri
 73
     1
 44
1.0
1001
ACAD
1000
ACAD_MTEXT_DEFINED_HEIGHT_BEGIN
1070
    46
1040
10.00000000000001
1000
ACAD_MTEXT_DEFINED_HEIGHT_END
  0
MTEXT
  5
4A3
330
70
100
AcDbEntity
  8
dim
370
    20
100
AcDbMText
 10
53.49999999999818
 20
124.4071073141606
 30
0.0
 40
4.0
 41
75.0
 46
35.9999999999982
 71
     5
 72
     5
  1
Glass or Solid infill (Vista, Classic, Clearview)
  7
Calibri
 73
     1
 44
1.0
1001
ACAD
1000
ACAD_MTEXT_DEFINED_HEIGHT_BEGIN
1070
    46
1040
15.00000000000001
1000
ACAD_MTEXT_DEFINED_HEIGHT_END
  0
MTEXT
  5
4A4
330
70
100
AcDbEntity
  8
dim
370
    20
100
AcDbMText
 10
55.99999999999818
 20
97.40710731416427
 30
0.0
 40
4.0
 41
79.99999999999272
 46
17.99999999999638
 71
     5
 72
     5
  1
35% max closed area (Settler, Heritage, Face hung fin)
  7
Calibri
 73
     1
 44
1.0
1001
ACAD
1000
ACAD_MTEXT_DEFINED_HEIGHT_BEGIN
1070
    46
1040
15.00000000000001
1000
ACAD_MTEXT_DEFINED_HEIGHT_END
  0
LWPOLYLINE
  5
4A5
330
70
100
AcDbEntity
  8
dim
370
    20
100
AcDbPolyline
 90
        4
 70
     1
 43
0.0
 10
146.9999999999836
 20
142.4071073141588
 10
15.99999999999818
 20
142.4071073141624
 10
15.99999999999818
 20
88.40710731416608
 10
146.9999999999836
 20
88.40710731416244
  0
LINE
  5
4AC
330
70
100
AcDbEntity
  8
dim
100
AcDbLine
 10
282.7942844697755
 20
244.9958476960055
 30
0.0
 11
260.3168178806882
 21
244.9958476960055
 31
0.0
  0
SOLID
  5
4AD
330
70
100
AcDbEntity
  8
dim
100
AcDbTrace
 10
261.3168178806882
 20
240.8889568115846
 30
0.0
 11
260.3168178806882
 21
234.8889568115846
 31
0.0
 12
259.3168178806882
 22
240.8889568115846
 32
0.0
 13
259.3168178806882
 23
240.8889568115846
 33
0.0
1001
ACAD
1000
DSTYLE
1002
{
1070
    41
1040
6.0
1070
    40
1040
1.0
1070
    50
1040
1.570796326794896
1070
    77
1070
     0
1002
}
  0
LWPOLYLINE
  5
4AE
330
70
100
AcDbEntity
  8
dim
100
AcDbPolyline
 90
        2
 70
     0
 43
0.0
 10
260.3168178806882
 20
240.3830177747295
 10
260.3168178806882
 20
244.9958476960055
1001
ACAD
1000
DSTYLE
1002
{
1070
    41
1040
6.0
1070
    40
1040
1.0
1070
    50
1040
1.570796326794896
1070
    77
1070
     0
1002
}
  0
MTEXT
  5
4AF
330
70
100
AcDbEntity
  8
dim
100
AcDbMText
 10
271.4999999999982
 20
165.4071073141497
 30
0.0
 40
4.0
 41
225.0
 46
17.9999999999891
 71
     5
 72
     5
  1
Leverage height {\Lmax} (distance from top of handrail to centreline of the upper fixing)
  7
Calibri
 73
     1
 44
1.0
1001
ACAD
1000
ACAD_MTEXT_DEFINED_HEIGHT_BEGIN
1070
    46
1040
15.00000000000001
1000
ACAD_MTEXT_DEFINED_HEIGHT_END
  0
LINE
  5
4B0
330
70
100
AcDbEntity
  8
Spigot
 48
0.2
100
AcDbLine
 10
201.8002378519213
 20
529.875867665878
 30
0.0
 11
201.8002378519213
 21
201.15682055262
 31
0.0
  0
LINE
  5
4B1
330
70
100
AcDbEntity
  8
Spigot
 48
0.2
100
AcDbLine
 10
203.3831205754959
 20
530.420004020716
 30
0.0
 11
203.3831205754941
 21
201.15682055262
 31
0.0
  0
LINE
  5
4B2
330
70
100
AcDbEntity
  8
Spigot
 48
0.2
100
AcDbLine
 10
205.9522167721316
 20
531.1205463847405
 30
0.0
 11
205.9522167721298
 21
201.15682055262
 31
0.0
  0
LINE
  5
4B3
330
70
100
AcDbEntity
  8
Spigot
 48
0.2
100
AcDbLine
 10
217.3635754371117
 20
530.3820470412395
 30
0.0
 11
217.3635754371117
 21
201.15682055262
 31
0.0
  0
LINE
  5
4B4
330
70
100
AcDbEntity
  8
Spigot
 48
0.2
100
AcDbLine
 10
243.4536359435242
 20
525.7708263320371
 30
0.0
 11
243.4536359435242
 21
201.15682055262
 31
0.0
  0
LINE
  5
4B5
330
70
100
AcDbEntity
  8
Spigot
 48
0.2
100
AcDbLine
 10
241.8707532199496
 20
525.2007320987913
 30
0.0
 11
241.8707532199496
 21
201.15682055262
 31
0.0
  0
LINE
  5
4B6
330
70
100
AcDbEntity
  8
Spigot
 48
0.2
100
AcDbLine
 10
239.301657023314
 20
524.4763050595998
 30
0.0
 11
239.3016570233121
 21
201.15682055262
 31
0.0
  0
LINE
  5
4B7
330
70
100
AcDbEntity
  8
Spigot
 48
0.2
100
AcDbLine
 10
227.8902983583339
 20
525.4575606394812
 30
0.0
 11
227.8902983583339
 21
201.15682055262
 31
0.0
  0
MTEXT
  5
568
330
70
100
AcDbEntity
  8
dim
100
AcDbMText
 10
200.0
 20
567.6080283128794
 30
0.0
 40
9.0
 41
399.9999999999989
 46
433.9900056883013
 71
     2
 72
     5
  1
{\fArial Narrow|b1|i0|c0|p34;\LCLEARSPAN\l FACE FIXED TO WET TIMBER\P- BOLT THROUGH WITH STIFFENER}
  7
Arial Narrow
 73
     1
 44
0.8333333333333335
1001
ACAD
1000
ACAD_MTEXT_DEFINED_HEIGHT_BEGIN
1070
    46
1040
433.9900056883013
1000
ACAD_MTEXT_DEFINED_HEIGHT_END
  0
LINE
  5
57C
330
70
100
AcDbEntity
  8
title
100
AcDbLine
 10
121.846000000005
 20
31.67800000000177
 30
0.0
 11
121.846000000005
 21
24.36187306453764
 31
0.0
  0
ARC
  5
57D
330
70
100
AcDbEntity
  8
title
100
AcDbCircle
 10
112.3420000000187
 20
30.88600000000049
 30
0.0
 40
1.583999999999994
100
AcDbArc
 50
0.0
 51
180.0
  0
LINE
  5
57E
330
70
100
AcDbEntity
  8
title
100
AcDbLine
 10
108.3820000000269
 20
34.63812693546249
 30
0.0
 11
110.7580000000162
 21
34.84599999999961
 31
0.0
  0
LINE
  5
57F
330
70
100
AcDbEntity
  8
title
100
AcDbLine
 10
110.7580000000162
 20
34.84599999999961
 30
0.0
 11
110.7580000000162
 21
33.77343503836352
 31
0.0
  0
ARC
  5
580
330
70
100
AcDbEntity
  8
title
100
AcDbCircle
 10
113.1340000000054
 20
31.67800000000177
 30
0.0
 40
3.167999999999932
100
AcDbArc
 50
28.95502437187666
 51
138.590377890727
  0
ARC
  5
581
330
70
100
AcDbEntity
  8
title
100
AcDbCircle
 10
118.6779999999999
 20
31.67800000000177
 30
0.0
 40
3.168000000000042
100
AcDbArc
 50
0.0
 51
151.0449756281233
  0
ARC
  5
582
330
70
100
AcDbEntity
  8
title
100
AcDbCircle
 10
117.8860000000131
 20
30.88600000000049
 30
0.0
 40
1.583999999999994
100
AcDbArc
 50
0.0
 51
180.0
  0
HATCH
  5
583
330
70
100
AcDbEntity
  8
title
100
AcDbHatch
 10
0.0
 20
0.0
 30
0.0
210
0.0
220
0.0
230
1.0
  2
SOLID
 70
     1
 71
     0
 91
        2
 92
        7
 72
     1
 73
     1
 93
        8
 10
48.78399999999965
 20
34.84599999999961
 42
0.2416525696711335
 10
46.2100000000064
 20
33.52482105251154
 42
0.0
 10
46.2100000000064
 20
34.84599999999961
 42
0.0
 10
43.83400000001711
 20
34.63812693546249
 42
0.0
 10
43.83400000001711
 20
20.97612693546223
 42
0.0
 10
46.2100000000064
 20
21.18399999999935
 42
0.0
 10
46.2100000000064
 20
25.4751789474886
 42
0.2416525696711312
 10
48.78399999999965
 20
24.15400000000052
 42
1.0
 97
        0
 92
       20
 93
        1
 72
     3
 10
48.98200000000361
 20
29.50000000000189
 11
0.0
 21
3.168
 40
0.8432858722721601
 50
0.0
 51
360.0
 73
     1
 97
        0
 75
     0
 76
     1
 47
0.0533697688817678
 98
        2
 10
51.79775989484915
 20
32.74767840057218
 10
51.79775989484915
 20
32.74767840057218
450
        0
451
        0
460
0.0
461
0.0
452
        0
462
0.0
453
        0
470

1001
ACAD
1010
0.0
1020
0.0
1030
0.0
  0
HATCH
  5
584
330
70
100
AcDbEntity
  8
title
 62
     8
100
AcDbHatch
 10
0.0
 20
0.0
 30
0.0
210
0.0
220
0.0
230
1.0
  2
SOLID
 70
     1
 71
     0
 91
        1
 92
        7
 72
     1
 73
     1
 93
        8
 10
30.76600000001781
 20
32.86600000000005
 42
0.4142135623730951
 10
28.78600000000734
 20
34.84599999999961
 42
0.0
 10
22.05400000001828
 20
34.84599999999961
 42
0.4142135623730951
 10
20.0740000000078
 20
32.86600000000005
 42
0.0
 10
20.0740000000078
 20
26.13400000000008
 42
0.4142135623730974
 10
22.05400000001828
 20
24.15400000000052
 42
0.0
 10
28.78600000000734
 20
24.15400000000052
 42
0.4142135623730926
 10
30.76600000001781
 20
26.13400000000008
 42
0.0
 97
        0
 75
     0
 76
     1
 47
0.1082592480357776
 98
        1
 10
26.46459899171896
 20
28.9163880632387
450
        0
451
        0
460
0.0
461
0.0
452
        0
462
0.0
453
        0
470

1001
ACAD
1010
0.0
1020
0.0
1030
0.0
  0
HATCH
  5
585
330
70
100
AcDbEntity
  8
title
100
AcDbHatch
 10
0.0
 20
0.0
 30
0.0
210
0.0
220
0.0
230
1.0
  2
SOLID
 70
     1
 71
     0
 91
        1
 92
        7
 72
     1
 73
     1
 93
        2
 10
17.50000000001455
 20
24.15400000000052
 42
0.0
 10
17.50000000001455
 20
34.84599999999961
 42
1.0
 97
        0
 75
     0
 76
     1
 47
0.0533697688817678
 98
        1
 10
14.58491007513657
 20
30.95125203735558
450
        0
451
        0
460
0.0
461
0.0
452
        0
462
0.0
453
        0
470

1001
ACAD
1010
0.0
1020
0.0
1030
0.0
  0
HATCH
  5
586
330
70
100
AcDbEntity
  8
title
100
AcDbHatch
 10
0.0
 20
0.0
 30
0.0
210
0.0
220
0.0
230
1.0
  2
SOLID
 70
     1
 71
     0
 91
        1
 92
        7
 72
     1
 73
     1
 93
       20
 10
38.62840371190396
 20
26.63843393964823
 42
-0.3012846663385126
 10
36.15939541660191
 20
26.77641420678817
 42
0.0
 10
35.14992521407839
 20
27.52973131314691
 42
0.0
 10
33.56338198813319
 20
26.19846347739992
 42
0.0
 10
34.49073105522257
 20
25.33614209012201
 42
0.4458507091054388
 10
41.03417541283124
 20
25.92477982770477
 42
0.3326569577304132
 10
41.03417541283124
 20
28.71922017229924
 42
0.1735965709070794
 10
38.55193656381743
 20
30.36239387457142
 42
0.0
 10
36.96384954494715
 20
30.75267264948532
 42
-0.0722414400542119
 10
36.36759628810978
 20
30.994433939648
 42
-0.5734605933816534
 10
36.36759628810978
 20
32.3615660603519
 42
-0.301284666338504
 10
38.83660458344093
 20
32.22358579321196
 42
0.0
 10
39.84607478593535
 20
31.47026868685687
 42
0.0
 10
41.43261801190965
 20
32.80153652260385
 42
0.0
 10
40.50526894479117
 20
33.66385790987813
 42
0.4458507091054385
 10
33.96182458718249
 20
33.07522017229901
 42
0.3326569577304224
 10
33.96182458718249
 20
30.28077982770453
 42
0.1735965709070752
 10
36.44406343619631
 20
28.63760612543235
 42
0.0
 10
38.03215045509569
 20
28.24732735051846
 42
-0.0722414400542143
 10
38.62840371190396
 20
28.00556606035213
 42
-0.5734605933816371
 97
        0
 75
     0
 76
     1
 47
0.0533697688817678
 98
        1
 10
40.1687433997431
 20
27.35839931092603
450
        0
451
        0
460
0.0
461
0.0
452
        0
462
0.0
453
        0
470

1001
ACAD
1010
0.0
1020
0.0
1030
0.0
  0
HATCH
  5
587
330
70
100
AcDbEntity
  8
title
100
AcDbHatch
 10
0.0
 20
0.0
 30
0.0
210
0.0
220
0.0
230
1.0
  2
SOLID
 70
     1
 71
     0
 91
        1
 92
        7
 72
     1
 73
     1
 93
        4
 10
77.26592913740024
 20
25.48863354306202
 42
0.0
 10
76.00343964919739
 20
27.29165538918285
 42
-2.463129903974627
 10
76.00343964919739
 20
31.70834461081729
 42
0.0
 10
77.26592913740024
 20
33.51136645694175
 42
2.213691826143602
 97
        0
 75
     0
 76
     1
 47
0.0407585876075802
 98
        1
 10
72.26106739130045
 20
24.93107292920293
450
        0
451
        0
460
0.0
461
0.0
452
        0
462
0.0
453
        0
470

1001
ACAD
1010
0.0
1020
0.0
1030
0.0
  0
HATCH
  5
588
330
70
100
AcDbEntity
  8
title
100
AcDbHatch
 10
0.0
 20
0.0
 30
0.0
210
0.0
220
0.0
230
1.0
  2
SOLID
 70
     1
 71
     0
 91
        2
 92
        7
 72
     1
 73
     1
 93
        6
 10
66.48738223592227
 20
31.7843231298303
 42
1.817188575814173
 10
61.6540000000241
 20
24.15400000000052
 42
0.1736979194000531
 10
65.92840120497567
 20
25.68510408303889
 42
0.0
 10
64.96244437199493
 20
27.75660519628407
 42
-0.2061487455951641
 10
61.6540000000241
 20
26.3320000000004
 42
-0.2063556810793467
 10
59.35074576425541
 20
27.32485772295156
 42
0.0
 97
        0
 92
       22
 72
     1
 73
     1
 93
        2
 10
58.50737238772854
 20
29.13263278640632
 42
-0.6328959439340069
 10
63.36357821930142
 20
32.16712697712689
 42
0.0
 97
        0
 75
     0
 76
     1
 47
0.0407585876075802
 98
        2
 10
60.23121407961298
 20
29.2889809734316
 10
60.23121407961298
 20
29.2889809734316
450
        0
451
        0
460
0.0
461
0.0
452
        0
462
0.0
453
        0
470

1001
ACAD
1010
0.0
1020
0.0
1030
0.0
  0
HATCH
  5
589
330
70
100
AcDbEntity
  8
title
100
AcDbHatch
 10
0.0
 20
0.0
 30
0.0
210
0.0
220
0.0
230
1.0
  2
SOLID
 70
     1
 71
     0
 91
        1
 92
        7
 72
     1
 73
     1
 93
       16
 10
83.6320000000269
 20
32.27199999999909
 42
0.0
 10
85.81000000001223
 20
32.27199999999909
 42
0.0
 10
85.81000000001223
 20
34.44999999999897
 42
0.0
 10
83.6320000000269
 20
34.44999999999897
 42
0.0
 10
83.6320000000269
 20
37.22199999999982
 42
0.0
 10
81.05800000000455
 20
36.28514061699941
 42
0.0
 10
81.05800000000455
 20
34.44999999999897
 42
0.0
 10
79.85804016400653
 20
34.44999999999897
 42
0.0
 10
79.47400000000198
 20
32.27199999999909
 42
0.0
 10
81.05800000000455
 20
32.27199999999909
 42
0.0
 10
81.05800000000455
 20
27.322000000002
 42
0.4142135623731022
 10
84.22600000000967
 20
24.15400000000052
 42
0.0
 10
85.82040665890962
 20
24.15400000000052
 42
0.0
 10
86.4040000000241
 20
26.3320000000004
 42
0.0
 10
85.21600000000034
 20
26.3320000000004
 42
-0.4142135623730937
 10
83.6320000000269
 20
27.91599999999933
 42
0.0
 97
        0
 75
     0
 76
     1
 47
0.0407585876075802
 98
        1
 10
82.83765024012245
 20
28.40125975688177
450
        0
451
        0
460
0.0
461
0.0
452
        0
462
0.0
453
        0
470

1001
ACAD
1010
0.0
1020
0.0
1030
0.0
  0
HATCH
  5
58A
330
70
100
AcDbEntity
  8
title
100
AcDbHatch
 10
0.0
 20
0.0
 30
0.0
210
0.0
220
0.0
230
1.0
  2
SOLID
 70
     1
 71
     0
 91
        1
 92
        7
 72
     1
 73
     1
 93
       15
 10
108.3820000000269
 20
24.15400000000052
 42
0.0
 10
110.7580000000162
 20
24.36187306453764
 42
0.0
 10
110.7580000000162
 20
30.88600000000049
 42
-1.0
 10
113.9260000000213
 20
30.88600000000049
 42
0.0
 10
113.9260000000213
 20
24.15400000000052
 42
0.0
 10
116.3020000000106
 20
24.36187306453764
 42
0.0
 10
116.3020000000106
 20
30.88600000000049
 42
-1.0
 10
119.4700000000157
 20
30.88600000000049
 42
0.0
 10
119.4700000000157
 20
24.15400000000052
 42
0.0
 10
121.846000000005
 20
24.36187306453764
 42
0.0
 10
121.846000000005
 20
31.67800000000177
 42
0.7745966692414762
 10
115.9060000000027
 20
33.21170140509828
 42
0.5185464877096924
 10
110.7580000000162
 20
33.77343503836352
 42
0.0
 10
110.7580000000162
 20
34.84599999999961
 42
0.0
 10
108.3820000000269
 20
34.63812693546249
 42
0.0
 97
        0
 75
     0
 76
     1
 47
0.0407585876075802
 98
        1
 10
109.4809501451527
 20
27.19072908702408
450
        0
451
        0
460
0.0
461
0.0
452
        0
462
0.0
453
        0
470

1001
ACAD
1010
0.0
1020
0.0
1030
0.0
  0
HATCH
  5
58B
330
70
100
AcDbEntity
  8
title
100
AcDbHatch
 10
0.0
 20
0.0
 30
0.0
210
0.0
220
0.0
230
1.0
  2
SOLID
 70
     1
 71
     0
 91
        1
 92
        7
 72
     1
 73
     1
 93
        8
 10
91.35400000000663
 20
33.26200000000069
 42
0.0
 10
91.35400000000663
 20
34.64799999999929
 42
0.0
 10
88.97800000001735
 20
34.44012693546217
 42
0.0
 10
88.97800000001735
 20
24.15400000000052
 42
0.0
 10
91.35400000000663
 20
24.36187306453764
 42
0.0
 10
91.35400000000663
 20
29.10400000000125
 42
-0.4091883002397951
 10
94.46755188899988
 20
32.27153206822011
 42
0.0
 10
94.91800000001967
 20
34.82615025094317
 42
0.2626681772803663
 97
        0
 75
     0
 76
     1
 47
0.0407585876075802
 98
        1
 10
89.05442035272427
 20
28.88547166063115
450
        0
451
        0
460
0.0
461
0.0
452
        0
462
0.0
453
        0
470

1001
ACAD
1010
0.0
1020
0.0
1030
0.0
  0
HATCH
  5
58C
330
70
100
AcDbEntity
  8
title
100
AcDbHatch
 10
0.0
 20
0.0
 30
0.0
210
0.0
220
0.0
230
1.0
  2
SOLID
 70
     1
 71
     0
 91
        1
 92
        7
 72
     1
 73
     1
 93
       11
 10
96.7000000000262
 20
27.322000000002
 42
0.4142135623730939
 10
99.86800000000222
 20
24.15400000000052
 42
0.1844830881382527
 10
103.0360000000073
 20
25.36406832364271
 42
0.0
 10
103.0360000000073
 20
24.15400000000052
 42
0.0
 10
105.4120000000257
 20
24.36187306453764
 42
0.0
 10
105.4120000000257
 20
34.84599999999961
 42
0.0
 10
103.0360000000073
 20
34.63812693546249
 42
0.0
 10
103.0360000000073
 20
28.31199999999997
 42
-1.0
 10
99.07600000001549
 20
28.31199999999997
 42
0.0
 10
99.07600000001549
 20
34.84599999999961
 42
0.0
 10
96.7000000000262
 20
34.63812693546249
 42
0.0
 97
        0
 75
     0
 76
     1
 47
0.0407585876075802
 98
        1
 10
97.45109683343617
 20
28.23985548546814
450
        0
451
        0
460
0.0
461
0.0
452
        0
462
0.0
453
        0
470

1001
ACAD
1010
0.0
1020
0.0
1030
0.0
  0
LWPOLYLINE
  5
58D
330
70
100
AcDbEntity
  8
title
100
AcDbPolyline
 90
        8
 70
     1
 43
0.0
 10
48.78399999999965
 20
24.15400000000052
 42
-0.2416525696711377
 10
46.2100000000064
 20
25.4751789474886
 10
46.2100000000064
 20
21.18399999999935
 10
43.83400000001711
 20
20.97612693546223
 10
43.83400000001711
 20
34.63812693546249
 10
46.2100000000064
 20
34.84599999999961
 10
46.2100000000064
 20
33.52482105251154
 42
-0.2416525696711376
 10
48.78399999999965
 20
34.84599999999961
 42
-0.9999999999999998
  0
LWPOLYLINE
  5
58E
330
70
100
AcDbEntity
  8
title
 62
     8
100
AcDbPolyline
 90
        8
 70
     1
 43
0.0
 10
28.78600000000734
 20
34.84599999999961
 42
-0.4142135623730951
 10
30.76600000001781
 20
32.86600000000005
 10
30.76600000001781
 20
26.13400000000008
 42
-0.4142135623730951
 10
28.78600000000734
 20
24.15400000000052
 10
22.05400000001828
 20
24.15400000000052
 42
-0.4142135623730951
 10
20.0740000000078
 20
26.13400000000008
 10
20.0740000000078
 20
32.86600000000005
 42
-0.4142135623730951
 10
22.05400000001828
 20
34.84599999999961
  0
LWPOLYLINE
  5
58F
330
70
100
AcDbEntity
  8
title
100
AcDbPolyline
 90
        2
 70
     1
 43
0.0
 10
17.50000000001455
 20
34.84599999999961
 42
0.9999999999999998
 10
17.50000000001455
 20
24.15400000000052
  0
LWPOLYLINE
  5
590
330
70
100
AcDbEntity
  8
title
100
AcDbPolyline
 90
       20
 70
     1
 43
0.0
 10
41.03417541283124
 20
25.92477982770477
 42
0.3326569577304226
 10
41.03417541283124
 20
28.71922017229924
 42
0.1735965709070816
 10
38.55193656381743
 20
30.36239387457142
 10
36.96384954494715
 20
30.75267264948532
 42
-0.0722414400542184
 10
36.36759628810978
 20
30.994433939648
 42
-0.5734605933816416
 10
36.36759628810978
 20
32.3615660603519
 42
-0.3012846663385096
 10
38.83660458344093
 20
32.22358579321196
 10
39.84607478593535
 20
31.47026868685687
 10
41.43261801190965
 20
32.80153652260385
 10
40.50526894479117
 20
33.66385790987813
 42
0.4458507091054321
 10
33.96182458718249
 20
33.07522017229901
 42
0.3326569577304224
 10
33.96182458718249
 20
30.28077982770453
 42
0.1735965709070817
 10
36.44406343619631
 20
28.63760612543235
 10
38.03215045509569
 20
28.24732735051846
 42
-0.0722414400542175
 10
38.62840371190396
 20
28.00556606035213
 42
-0.5734605933816429
 10
38.62840371190396
 20
26.63843393964823
 42
-0.3012846663385095
 10
36.15939541660191
 20
26.77641420678817
 10
35.14992521407839
 20
27.52973131314691
 10
33.56338198813319
 20
26.19846347739992
 10
34.49073105522257
 20
25.33614209012201
 42
0.4458507091054351
  0
LWPOLYLINE
  5
591
330
70
100
AcDbEntity
  8
title
100
AcDbPolyline
 90
        4
 70
     1
 43
0.0
 10
76.00343964919739
 20
31.70834461081729
 10
77.26592913740024
 20
33.51136645694175
 42
2.213691826143604
 10
77.26592913740024
 20
25.48863354306202
 10
76.00343964919739
 20
27.29165538918285
 42
-2.463129903974627
  0
LWPOLYLINE
  5
592
330
70
100
AcDbEntity
  8
title
100
AcDbPolyline
 90
        6
 70
     1
 43
0.0
 10
61.6540000000241
 20
26.3320000000004
 42
-0.2063556810793417
 10
59.35074576425541
 20
27.32485772295156
 10
66.48738223592227
 20
31.7843231298303
 42
1.817188575814202
 10
61.6540000000241
 20
24.15400000000052
 42
0.1736979194000479
 10
65.92840120497567
 20
25.68510408303889
 10
64.96244437199493
 20
27.75660519628407
 42
-0.2061487455951671
  0
LWPOLYLINE
  5
593
330
70
100
AcDbEntity
  8
title
100
AcDbPolyline
 90
       16
 70
     1
 43
0.0
 10
83.6320000000269
 20
34.44999999999897
 10
83.6320000000269
 20
37.22199999999982
 10
81.05800000000455
 20
36.28514061699941
 10
81.05800000000455
 20
34.44999999999897
 10
79.85804016400653
 20
34.44999999999897
 10
79.47400000000198
 20
32.27199999999909
 10
81.05800000000455
 20
32.27199999999909
 10
81.05800000000455
 20
27.322000000002
 42
0.4142135623730951
 10
84.22600000000967
 20
24.15400000000052
 10
85.82040665890962
 20
24.15400000000052
 10
86.4040000000241
 20
26.3320000000004
 10
85.21600000000034
 20
26.3320000000004
 42
-0.4142135623730951
 10
83.6320000000269
 20
27.91599999999933
 10
83.6320000000269
 20
32.27199999999909
 10
85.81000000001223
 20
32.27199999999909
 10
85.81000000001223
 20
34.44999999999897
  0
ELLIPSE
  5
594
330
70
100
AcDbEntity
  8
title
100
AcDbEllipse
 10
48.98200000000361
 20
29.50000000000189
 30
0.0
 11
0.0
 21
3.168
 31
0.0
210
0.0
220
0.0
230
1.0
 40
0.8432858722721602
 41
0.0
 42
6.283185307179586
  0
LWPOLYLINE
  5
595
330
70
100
AcDbEntity
  8
title
100
AcDbPolyline
 90
        2
 70
     1
 43
0.0
 10
58.50737238772854
 20
29.13263278640632
 10
63.36357821930142
 20
32.16712697712689
 42
0.632895943934007
  0
LWPOLYLINE
  5
596
330
70
100
AcDbEntity
  8
title
100
AcDbPolyline
 90
        9
 70
     0
 43
0.0
 10
94.92150004634458
 20
34.84599999999961
 10
94.46755188899988
 20
32.27153206822011
 42
0.4091883002397918
 10
91.35400000000663
 20
29.10400000000125
 10
91.35400000000663
 20
24.36187306453764
 10
88.97800000001735
 20
24.15400000000052
 10
88.97800000001735
 20
34.44012693546217
 10
91.35400000000663
 20
34.64799999999929
 10
91.35400000000663
 20
33.26200000000069
 42
-0.262668177280371
 10
94.91800000001967
 20
34.82615025094317
  0
LWPOLYLINE
  5
597
330
70
100
AcDbEntity
  8
title
100
AcDbPolyline
 90
       11
 70
     1
 43
0.0
 10
103.0360000000073
 20
28.31199999999997
 42
-0.9999999999999998
 10
99.07600000001549
 20
28.31199999999997
 10
99.07600000001549
 20
34.84599999999961
 10
96.7000000000262
 20
34.63812693546249
 10
96.7000000000262
 20
27.322000000002
 42
0.4142135623730951
 10
99.86800000000222
 20
24.15400000000052
 42
0.184483088138253
 10
103.0360000000073
 20
25.36406832364271
 10
103.0360000000073
 20
24.15400000000052
 10
105.4120000000257
 20
24.36187306453764
 10
105.4120000000257
 20
34.84599999999961
 10
103.0360000000073
 20
34.63812693546249
  0
LINE
  5
598
330
70
100
AcDbEntity
  8
title
100
AcDbLine
 10
116.3020000000106
 20
30.88600000000049
 30
0.0
 11
116.3020000000106
 21
24.36187306453764
 31
0.0
  0
LINE
  5
599
330
70
100
AcDbEntity
  8
title
100
AcDbLine
 10
116.3020000000106
 20
24.36187306453764
 30
0.0
 11
113.9260000000213
 21
24.15400000000052
 31
0.0
  0
LINE
  5
59A
330
70
100
AcDbEntity
  8
title
100
AcDbLine
 10
113.9260000000213
 20
24.15400000000052
 30
0.0
 11
113.9260000000213
 21
30.88600000000049
 31
0.0
  0
LINE
  5
59B
330
70
100
AcDbEntity
  8
title
100
AcDbLine
 10
110.7580000000162
 20
30.88600000000049
 30
0.0
 11
110.7580000000162
 21
24.36187306453764
 31
0.0
  0
LINE
  5
59C
330
70
100
AcDbEntity
  8
title
100
AcDbLine
 10
110.7580000000162
 20
24.36187306453764
 30
0.0
 11
108.3820000000269
 21
24.15400000000052
 31
0.0
  0
LINE
  5
59D
330
70
100
AcDbEntity
  8
title
100
AcDbLine
 10
108.3820000000269
 20
24.15400000000052
 30
0.0
 11
108.3820000000269
 21
34.63812693546249
 31
0.0
  0
LINE
  5
59E
330
70
100
AcDbEntity
  8
title
100
AcDbLine
 10
121.846000000005
 20
24.36187306453764
 30
0.0
 11
119.4700000000157
 21
24.15400000000052
 31
0.0
  0
LINE
  5
59F
330
70
100
AcDbEntity
  8
title
100
AcDbLine
 10
119.4700000000157
 20
24.15400000000052
 30
0.0
 11
119.4700000000157
 21
30.88600000000049
 31
0.0
  0
MTEXT
  5
5A8
330
70
100
AcDbEntity
  8
0
100
AcDbMText
 10
391.0
 20
34.4939330629132
 30
0.0
 40
10.0
 41
69.3415025044867
 46
0.0
 71
     6
 72
     5
  1
{\fArial|b0|i0|c0|p34;BL.3.1.22}
  7
Arial Narrow
 73
     1
 44
1.0
  0
MTEXT
  5
5A9
102
{ACAD_XDICTIONARY
360
5AA
102
}
330
70
100
AcDbEntity
  8
0
100
AcDbMText
 10
391.1160196939018
 20
19.89854106251011
 30
0.0
 40
4.0
 41
42.1548074414593
 46
11.36832070896309
 71
     6
 72
     5
  1
Rev:B 18.1.22
  7
Arial Narrow
 73
     1
 44
0.8333333333333335
1001
ACAD
1000
ACAD_MTEXT_DEFINED_HEIGHT_BEGIN
1070
    46
1040
35.50427969761552
1000
ACAD_MTEXT_DEFINED_HEIGHT_END
  0
MTEXT
  5
5B2
330
70
100
AcDbEntity
  8
dim
370
    20
100
AcDbMText
 10
239.3571428571085
 20
133.4071073141516
 30
0.0
 40
4.5
 41
32.14285714287143
 46
17.99999999999314
 71
     5
 72
     5
  1
1.06m
  7
Calibri
 73
     1
 44
1.0
1001
ACAD
1000
ACAD_MTEXT_DEFINED_HEIGHT_BEGIN
1070
    46
1040
10.00000000000001
1000
ACAD_MTEXT_DEFINED_HEIGHT_END
  0
MTEXT
  5
5B4
330
70
100
AcDbEntity
  8
dim
370
    20
100
AcDbMText
 10
274.2705506532693
 20
133.4071073141498
 30
0.0
 40
4.5
 41
25.0
 46
17.99999999999456
 71
     5
 72
     5
  1
0.99m
  7
Calibri
 73
     1
 44
1.0
1001
ACAD
1000
ACAD_MTEXT_DEFINED_HEIGHT_BEGIN
1070
    46
1040
10.00000000000001
1000
ACAD_MTEXT_DEFINED_HEIGHT_END
  0
MTEXT
  5
5B6
330
70
100
AcDbEntity
  8
dim
370
    20
100
AcDbMText
 10
303.7392787380104
 20
133.4071073141498
 30
0.0
 40
4.5
 41
25.00000000002911
 46
17.99999999999638
 71
     5
 72
     5
  1
0.92m
  7
Calibri
 73
     1
 44
1.0
1001
ACAD
1000
ACAD_MTEXT_DEFINED_HEIGHT_BEGIN
1070
    46
1040
10.00000000000001
1000
ACAD_MTEXT_DEFINED_HEIGHT_END
  0
MTEXT
  5
5B8
330
70
100
AcDbEntity
  8
dim
370
    20
100
AcDbMText
 10
335.7857142856483
 20
133.4071073141519
 30
0.0
 40
4.5
 41
32.14285714284233
 46
18.00000000000172
 71
     5
 72
     5
  1
0.81m
  7
Calibri
 73
     1
 44
1.0
1001
ACAD
1000
ACAD_MTEXT_DEFINED_HEIGHT_BEGIN
1070
    46
1040
10.00000000000001
1000
ACAD_MTEXT_DEFINED_HEIGHT_END
  0
MTEXT
  5
5BA
330
70
100
AcDbEntity
  8
dim
370
    20
100
AcDbMText
 10
367.9285714285216
 20
133.4071073141505
 30
0.0
 40
4.5
 41
32.14285714296057
 46
18.00000000000149
 71
     5
 72
     5
  1
0.72m
  7
Calibri
 73
     1
 44
1.0
1001
ACAD
1000
ACAD_MTEXT_DEFINED_HEIGHT_BEGIN
1070
    46
1040
10.00000000000001
1000
ACAD_MTEXT_DEFINED_HEIGHT_END
  0
MTEXT
  5
5CD
330
70
100
AcDbEntity
  8
dim
370
    20
100
AcDbMText
 10
239.3571428571085
 20
115.4071073141566
 30
0.0
 40
4.5
 41
32.14285714287143
 46
17.9999999999995
 71
     5
 72
     5
  1
0.87m
  7
Calibri
 73
     1
 44
1.0
1001
ACAD
1000
ACAD_MTEXT_DEFINED_HEIGHT_BEGIN
1070
    46
1040
10.00000000000001
1000
ACAD_MTEXT_DEFINED_HEIGHT_END
  0
MTEXT
  5
5CE
330
70
100
AcDbEntity
  8
dim
370
    20
100
AcDbMText
 10
274.2705506532693
 20
115.4071073141498
 30
0.0
 40
4.5
 41
25.36126936820802
 46
17.99999999999456
 71
     5
 72
     5
  1
0.81m
  7
Calibri
 73
     1
 44
1.0
1001
ACAD
1000
ACAD_MTEXT_DEFINED_HEIGHT_BEGIN
1070
    46
1040
10.00000000000001
1000
ACAD_MTEXT_DEFINED_HEIGHT_END
  0
MTEXT
  5
5CF
330
70
100
AcDbEntity
  8
dim
370
    20
100
AcDbMText
 10
303.7392787380104
 20
115.4071073141498
 30
0.0
 40
4.5
 41
25.00000000002911
 46
17.99999999999638
 71
     5
 72
     5
  1
0.74m
  7
Calibri
 73
     1
 44
1.0
1001
ACAD
1000
ACAD_MTEXT_DEFINED_HEIGHT_BEGIN
1070
    46
1040
10.00000000000001
1000
ACAD_MTEXT_DEFINED_HEIGHT_END
  0
MTEXT
  5
5D0
330
70
100
AcDbEntity
  8
dim
370
    20
100
AcDbMText
 10
335.7857142856483
 20
115.4071073141519
 30
0.0
 40
4.5
 41
32.14285714284233
 46
17.99999999999797
 71
     5
 72
     5
  1
0.65m
  7
Calibri
 73
     1
 44
1.0
1001
ACAD
1000
ACAD_MTEXT_DEFINED_HEIGHT_BEGIN
1070
    46
1040
10.00000000000001
1000
ACAD_MTEXT_DEFINED_HEIGHT_END
  0
MTEXT
  5
5D1
330
70
100
AcDbEntity
  8
dim
370
    20
100
AcDbMText
 10
367.9285714285324
 20
115.4071073141513
 30
0.0
 40
4.5
 41
32.14285714294056
 46
17.99999999999689
 71
     5
 72
     5
  1
0.58m
  7
Calibri
 73
     1
 44
1.0
1001
ACAD
1000
ACAD_MTEXT_DEFINED_HEIGHT_BEGIN
1070
    46
1040
10.00000000000001
1000
ACAD_MTEXT_DEFINED_HEIGHT_END
  0
MTEXT
  5
5D2
330
70
100
AcDbEntity
  8
0
100
AcDbMText
 10
200.0
 20
29.50000000000007
 30
0.0
 40
5.5
 41
126.0
 46
0.0
 71
     5
 72
     5
  1
0800 355 366\Pinfo@spectrum.co.nz\Pwww.spectrum.co.nz
  7
Calibri
 73
     1
 44
1.0
1001
ACAD
1000
ACAD_MTEXT_COLUMN_INFO_BEGIN
1070
    75
1070
     2
1070
    79
1070
     0
1070
    76
1070
     1
1070
    78
1070
     0
1070
    48
1040
126.0
1070
    49
1040
75.0
1070
    50
1070
     1
1040
35.00000000000146
1000
ACAD_MTEXT_COLUMN_INFO_END
  0
MTEXT
  5
5DF
330
70
100
AcDbEntity
  8
dim
370
    20
100
AcDbMText
 10
239.3571428571085
 20
97.4071073141612
 30
0.0
 40
4.5
 41
32.14285714287326
 46
17.99999999999405
 71
     5
 72
     5
  1
1.06m
  7
Calibri
 73
     1
 44
1.0
1001
ACAD
1000
ACAD_MTEXT_DEFINED_HEIGHT_BEGIN
1070
    46
1040
10.00000000000001
1000
ACAD_MTEXT_DEFINED_HEIGHT_END
  0
MTEXT
  5
5E0
330
70
100
AcDbEntity
  8
dim
370
    20
100
AcDbMText
 10
274.2705506532893
 20
97.40710731415347
 30
0.0
 40
4.5
 41
25.0
 46
17.99999999999456
 71
     5
 72
     5
  1
0.99m
  7
Calibri
 73
     1
 44
1.0
1001
ACAD
1000
ACAD_MTEXT_DEFINED_HEIGHT_BEGIN
1070
    46
1040
10.00000000000001
1000
ACAD_MTEXT_DEFINED_HEIGHT_END
  0
MTEXT
  5
5E1
330
70
100
AcDbEntity
  8
dim
370
    20
100
AcDbMText
 10
303.7392787380304
 20
97.40710731415347
 30
0.0
 40
4.5
 41
25.00000000002911
 46
17.99999999999638
 71
     5
 72
     5
  1
0.92m
  7
Calibri
 73
     1
 44
1.0
1001
ACAD
1000
ACAD_MTEXT_DEFINED_HEIGHT_BEGIN
1070
    46
1040
10.00000000000001
1000
ACAD_MTEXT_DEFINED_HEIGHT_END
  0
MTEXT
  5
5E2
330
70
100
AcDbEntity
  8
dim
370
    20
100
AcDbMText
 10
335.7857142856501
 20
97.4071073141558
 30
0.0
 40
4.5
 41
32.14285714284233
 46
17.99999999999752
 71
     5
 72
     5
  1
0.81m
  7
Calibri
 73
     1
 44
1.0
1001
ACAD
1000
ACAD_MTEXT_DEFINED_HEIGHT_BEGIN
1070
    46
1040
10.00000000000001
1000
ACAD_MTEXT_DEFINED_HEIGHT_END
  0
MTEXT
  5
5E3
330
70
100
AcDbEntity
  8
dim
370
    20
100
AcDbMText
 10
367.9285714285324
 20
97.4071073141525
 30
0.0
 40
4.5
 41
32.14285714294056
 46
17.9999999999982
 71
     5
 72
     5
  1
0.72m
  7
Calibri
 73
     1
 44
1.0
1001
ACAD
1000
ACAD_MTEXT_DEFINED_HEIGHT_BEGIN
1070
    46
1040
10.00000000000001
1000
ACAD_MTEXT_DEFINED_HEIGHT_END
  0
MTEXT
  5
5E6
102
{ACAD_XDICTIONARY
360
5E7
102
}
330
70
100
AcDbEntity
  8
0
100
AcDbMText
 10
274.1927834194485
 20
29.50000000000007
 30
0.0
 40
3.25
 41
77.51234181714244
 46
0.0
 71
     4
 72
     5
  1
Balustrade.\Psubject to change\Pwithout notice.
  7
Calibri
 73
     1
 44
1.0
1001
ACAD
1000
ACAD_MTEXT_COLUMN_INFO_BEGIN
1070
    75
1070
     2
1070
    79
1070
     0
1070
    76
1070
     1
1070
    78
1070
     0
1070
    48
1040
77.51234181714244
1070
    49
1040
75.0
1070
    50
1070
     1
1040
0.0
1000
ACAD_MTEXT_COLUMN_INFO_END
  0
MTEXT
  5
5E8
102
{ACAD_XDICTIONARY
360
5E9
102
}
330
70
100
AcDbEntity
  8
dim
100
AcDbMText
 10
4.41749472178526
 20
82.85629993762276
 30
0.0
 40
4.5
 41
400.3596694944863
 46
79.5676245593404
 71
     1
 72
     5
  3
\pi-13.5,l18,t18;-       Applicable to occupancy types A, B, C3 & E.\P-^IThis fixing detail PS1 should be used in conjunction with the appropriate system PS1.\P-^IThis is a balustrade connection detail. Deck design, construction and  water-proofing is 
  1
the responsibility of others. For all other applications or non-standard or site specific connections not covered under the standard detail manual please contact Spectrum.
  7
Calibri
 73
     1
 44
0.9333333333333333
1001
ACAD
1000
ACAD_MTEXT_DEFINED_HEIGHT_BEGIN
1070
    46
1040
75.2852101506287
1000
ACAD_MTEXT_DEFINED_HEIGHT_END
  0
MTEXT
  5
5EA
330
70
100
AcDbEntity
  8
0
100
AcDbMText
 10
8.290334991865165
 20
82.8815364232906
 30
0.0
 40
4.5
 41
329.6444955504266
 46
85.60397865527193
 71
     1
 72
     5
  1
{\fArial|b0|i0|c0|p34;■}
  7
Arial Narrow
 73
     1
 44
0.9333333333333333
1001
ACAD
1000
ACAD_MTEXT_DEFINED_HEIGHT_BEGIN
1070
    46
1040
85.60397865527193
1000
ACAD_MTEXT_DEFINED_HEIGHT_END
  0
MTEXT
  5
5EB
330
70
100
AcDbEntity
  8
0
100
AcDbMText
 10
8.290334991865165
 20
75.52691890458307
 30
0.0
 40
4.5
 41
329.6444955504266
 46
85.60397865527193
 71
     1
 72
     5
  1
{\fArial|b0|i0|c0|p34;■}
  7
Arial Narrow
 73
     1
 44
0.9333333333333333
1001
ACAD
1000
ACAD_MTEXT_DEFINED_HEIGHT_BEGIN
1070
    46
1040
85.60397865527193
1000
ACAD_MTEXT_DEFINED_HEIGHT_END
  0
MTEXT
  5
5EC
330
70
100
AcDbEntity
  8
0
100
AcDbMText
 10
8.290334991865165
 20
68.20554087210992
 30
0.0
 40
4.5
 41
329.6444955504266
 46
85.60397865527193
 71
     1
 72
     5
  1
{\fArial|b0|i0|c0|p34;■}
  7
Arial Narrow
 73
     1
 44
0.9333333333333333
1001
ACAD
1000
ACAD_MTEXT_DEFINED_HEIGHT_BEGIN
1070
    46
1040
85.60397865527193
1000
ACAD_MTEXT_DEFINED_HEIGHT_END
  0
LINE
  5
5F8
330
70
100
AcDbEntity
  8
dim
370
    20
100
AcDbLine
 10
191.142857142855
 20
88.4071073141666
 30
0.0
 11
191.142857142855
 21
142.4071073141593
 31
0.0
  0
LINE
  5
5F9
330
70
100
AcDbEntity
  8
dim
370
    20
100
AcDbLine
 10
191.142857142855
 20
144.4071073141575
 30
0.0
 11
191.1428571428405
 21
156.4071073141574
 31
0.0
  0
LINE
  5
5FA
330
70
100
AcDbEntity
  8
dim
370
    20
100
AcDbLine
 10
255.4285714285397
 20
88.40710731415851
 30
0.0
 11
255.4285714285397
 21
142.407107314153
 31
0.0
  0
LINE
  5
5FB
330
70
100
AcDbEntity
  8
dim
370
    20
100
AcDbLine
 10
255.4285714285397
 20
144.4071073141512
 30
0.0
 11
255.4285714285397
 21
156.4071073141494
 31
0.0
  0
LINE
  5
5FC
330
70
100
AcDbEntity
  8
dim
370
    20
100
AcDbLine
 10
319.7142857142244
 20
88.40710731415898
 30
0.0
 11
319.7142857141953
 21
142.4071073141535
 31
0.0
  0
LINE
  5
5FD
330
70
100
AcDbEntity
  8
dim
370
    20
100
AcDbLine
 10
319.7142857141953
 20
144.4071073141535
 30
0.0
 11
319.7142857141807
 21
156.4071073141517
 31
0.0
  0
LINE
  5
5FE
330
70
100
AcDbEntity
  8
dim
370
    20
100
AcDbLine
 10
351.8571428570667
 20
88.40710731415693
 30
0.0
 11
351.8571428570376
 21
142.4071073141496
 31
0.0
  0
LINE
  5
5FF
330
70
100
AcDbEntity
  8
dim
370
    20
100
AcDbLine
 10
351.857142857023
 20
144.4071073141496
 30
0.0
 11
351.857142857023
 21
156.4071073141478
 31
0.0
  0
LINE
  5
600
330
70
100
AcDbEntity
  8
dim
370
    20
100
AcDbLine
 10
287.571428571382
 20
88.40710731415727
 30
0.0
 11
287.571428571382
 21
142.4071073141518
 31
0.0
  0
LINE
  5
601
330
70
100
AcDbEntity
  8
dim
370
    20
100
AcDbLine
 10
287.571428571382
 20
144.40710731415
 30
0.0
 11
287.571428571382
 21
156.4071073141481
 31
0.0
  0
LINE
  5
602
330
70
100
AcDbEntity
  8
dim
370
    20
100
AcDbLine
 10
223.2857142856974
 20
88.40710731415988
 30
0.0
 11
223.2857142856974
 21
142.4071073141544
 31
0.0
  0
LINE
  5
603
330
70
100
AcDbEntity
  8
dim
370
    20
100
AcDbLine
 10
223.2857142856974
 20
144.4071073141526
 30
0.0
 11
223.2857142856974
 21
156.4071073141507
 31
0.0
  0
MTEXT
  5
604
330
70
100
AcDbEntity
  8
dim
370
    20
100
AcDbMText
 10
207.2142857142771
 20
150.4071073141528
 30
0.0
 40
4.5
 41
32.14285714284233
 46
12.00000000000326
 71
     5
 72
     5
  1
1.25m
  7
Calibri
 73
     1
 44
1.0
1001
ACAD
1000
ACAD_MTEXT_DEFINED_HEIGHT_BEGIN
1070
    46
1040
10.00000000000001
1000
ACAD_MTEXT_DEFINED_HEIGHT_END
  0
MTEXT
  5
605
330
70
100
AcDbEntity
  8
dim
370
    20
100
AcDbMText
 10
175.0714285714202
 20
150.4071073141541
 30
0.0
 40
4.5
 41
32.14285714284233
 46
12.00000000000326
 71
     5
 72
     5
  1
1.20m
  7
Calibri
 73
     1
 44
1.0
1001
ACAD
1000
ACAD_MTEXT_DEFINED_HEIGHT_BEGIN
1070
    46
1040
10.00000000000001
1000
ACAD_MTEXT_DEFINED_HEIGHT_END
  0
MTEXT
  5
606
330
70
100
AcDbEntity
  8
dim
370
    20
100
AcDbMText
 10
175.0714285714039
 20
133.4071073141541
 30
0.0
 40
4.5
 41
32.14285714284233
 46
17.9999999999982
 71
     5
 72
     5
  1
1.25m
  7
Calibri
 73
     1
 44
1.0
1001
ACAD
1000
ACAD_MTEXT_DEFINED_HEIGHT_BEGIN
1070
    46
1040
10.00000000000001
1000
ACAD_MTEXT_DEFINED_HEIGHT_END
  0
MTEXT
  5
607
330
70
100
AcDbEntity
  8
dim
370
    20
100
AcDbMText
 10
207.2142857142753
 20
133.4071073141528
 30
0.0
 40
4.5
 41
32.14285714284233
 46
17.9999999999982
 71
     5
 72
     5
  1
1.15m
  7
Calibri
 73
     1
 44
1.0
1001
ACAD
1000
ACAD_MTEXT_DEFINED_HEIGHT_BEGIN
1070
    46
1040
10.00000000000001
1000
ACAD_MTEXT_DEFINED_HEIGHT_END
  0
MTEXT
  5
608
330
70
100
AcDbEntity
  8
dim
370
    20
100
AcDbMText
 10
207.2142857142753
 20
115.4071073141546
 30
0.0
 40
4.5
 41
32.14285714284233
 46
17.9999999999982
 71
     5
 72
     5
  1
0.97m
  7
Calibri
 73
     1
 44
1.0
1001
ACAD
1000
ACAD_MTEXT_DEFINED_HEIGHT_BEGIN
1070
    46
1040
10.00000000000001
1000
ACAD_MTEXT_DEFINED_HEIGHT_END
  0
MTEXT
  5
609
330
70
100
AcDbEntity
  8
dim
370
    20
100
AcDbMText
 10
207.2142857142753
 20
97.40710731416193
 30
0.0
 40
4.5
 41
32.14285714284233
 46
17.9999999999982
 71
     5
 72
     5
  1
1.15m
  7
Calibri
 73
     1
 44
1.0
1001
ACAD
1000
ACAD_MTEXT_DEFINED_HEIGHT_BEGIN
1070
    46
1040
10.00000000000001
1000
ACAD_MTEXT_DEFINED_HEIGHT_END
  0
MTEXT
  5
60A
330
70
100
AcDbEntity
  8
dim
370
    20
100
AcDbMText
 10
175.0714285714039
 20
97.4071073141596
 30
0.0
 40
4.5
 41
32.14285714284233
 46
17.9999999999982
 71
     5
 72
     5
  1
1.25m
  7
Calibri
 73
     1
 44
1.0
1001
ACAD
1000
ACAD_MTEXT_DEFINED_HEIGHT_BEGIN
1070
    46
1040
10.00000000000001
1000
ACAD_MTEXT_DEFINED_HEIGHT_END
  0
MTEXT
  5
60B
330
70
100
AcDbEntity
  8
dim
370
    20
100
AcDbMText
 10
175.0714285714039
 20
115.4071073141559
 30
0.0
 40
4.5
 41
32.14285714284233
 46
17.9999999999982
 71
     5
 72
     5
  1
1.05m
  7
Calibri
 73
     1
 44
1.0
1001
ACAD
1000
ACAD_MTEXT_DEFINED_HEIGHT_BEGIN
1070
    46
1040
10.00000000000001
1000
ACAD_MTEXT_DEFINED_HEIGHT_END
  0
ENDSEC
  0
SECTION
  2
OBJECTS
  0
DICTIONARY
  5
C
330
0
100
AcDbDictionary
281
     1
  3
ACAD_CIP_PREVIOUS_PRODUCT_INFO
350
7E
  3
ACAD_COLOR
350
63
  3
ACAD_DETAILVIEWSTYLE
350
6A
  3
ACAD_GROUP
350
D
  3
ACAD_LAYOUT
350
62
  3
ACAD_MATERIAL
350
10
  3
ACAD_MLEADERSTYLE
350
66
  3
ACAD_MLINESTYLE
350
5F
  3
ACAD_PLOTSETTINGS
350
61
  3
ACAD_PLOTSTYLENAME
350
E
  3
ACAD_SCALELIST
350
42
  3
ACAD_SECTIONVIEWSTYLE
350
68
  3
ACAD_TABLESTYLE
350
64
  3
ACAD_VISUALSTYLE
350
29
  3
ACDB_RECOMPOSE_DATA
350
81A
  3
AcDbVariableDictionary
350
78
  3
AcDsDecomposeData
350
820
  0
DICTIONARY
  5
11F
330
2
100
AcDbDictionary
280
     1
281
     1
  3
ACAD_LAYERSTATES
360
120
  0
DICTIONARY
  5
FC
330
FB
100
AcDbDictionary
280
     1
281
     1
  0
DICTIONARY
  5
FE
330
FD
100
AcDbDictionary
280
     1
281
     1
  0
DICTIONARY
  5
101
330
100
100
AcDbDictionary
280
     1
281
     1
  0
DICTIONARY
  5
103
330
102
100
AcDbDictionary
280
     1
281
     1
  0
DICTIONARY
  5
105
330
104
100
AcDbDictionary
280
     1
281
     1
  0
DICTIONARY
  5
107
330
106
100
AcDbDictionary
280
     1
281
     1
  0
DICTIONARY
  5
109
330
108
100
AcDbDictionary
280
     1
281
     1
  0
DICTIONARY
  5
10D
330
10C
100
AcDbDictionary
280
     1
281
     1
  0
DICTIONARY
  5
10F
330
10E
100
AcDbDictionary
280
     1
281
     1
  0
DICTIONARY
  5
5AA
330
5A9
100
AcDbDictionary
280
     1
281
     1
  3
ACAD_MTEXT_2008_RT
360
817
  0
DICTIONARY
  5
5E7
330
5E6
100
AcDbDictionary
280
     1
281
     1
  3
ACAD_MTEXT_2008_RT
360
818
  0
DICTIONARY
  5
5E9
330
5E8
100
AcDbDictionary
280
     1
281
     1
  3
ACAD_MTEXT_2008_RT
360
819
  0
XRECORD
  5
7E
102
{ACAD_REACTORS
330
C
102
}
330
C
100
AcDbXrecord
280
     1
300
ACDLT
300
2022
300

  0
DICTIONARY
  5
63
102
{ACAD_REACTORS
330
C
102
}
330
C
100
AcDbDictionary
281
     1
  0
DICTIONARY
  5
6A
102
{ACAD_REACTORS
330
C
102
}
330
C
100
AcDbDictionary
281
     1
  3
Metric50
350
6B
  0
DICTIONARY
  5
D
102
{ACAD_REACTORS
330
C
102
}
330
C
100
AcDbDictionary
281
     1
  0
DICTIONARY
  5
62
102
{ACAD_REACTORS
330
C
102
}
330
C
100
AcDbDictionary
281
     1
  3
Layout1
350
6F
  3
Layout2
350
77
  3
Model
350
73
  0
DICTIONARY
  5
10
102
{ACAD_REACTORS
330
C
102
}
330
C
100
AcDbDictionary
281
     1
  3
ByBlock
350
19
  3
ByLayer
350
11
  3
Global
350
21
  0
DICTIONARY
  5
66
102
{ACAD_REACTORS
330
C
102
}
330
C
100
AcDbDictionary
281
     1
  3
Standard
350
67
  0
DICTIONARY
  5
5F
102
{ACAD_REACTORS
330
C
102
}
330
C
100
AcDbDictionary
281
     1
  3
Standard
350
60
  0
DICTIONARY
  5
61
102
{ACAD_REACTORS
330
C
102
}
330
C
100
AcDbDictionary
281
     1
  0
ACDBDICTIONARYWDFLT
  5
E
102
{ACAD_REACTORS
330
C
102
}
330
C
100
AcDbDictionary
281
     1
  3
Normal
350
F
100
AcDbDictionaryWithDefault
340
F
  0
DICTIONARY
  5
42
102
{ACAD_REACTORS
330
C
102
}
330
C
100
AcDbDictionary
281
     1
  3
A0
350
43
  3
A1
350
44
  3
A2
350
45
  3
A3
350
46
  3
A4
350
47
  3
A5
350
48
  3
A6
350
49
  3
A7
350
4A
  3
A8
350
4B
  3
A9
350
4C
  3
B0
350
4D
  3
B1
350
4E
  3
B2
350
4F
  3
B3
350
50
  3
B4
350
51
  3
B5
350
52
  3
B6
350
53
  0
DICTIONARY
  5
68
102
{ACAD_REACTORS
330
C
102
}
330
C
100
AcDbDictionary
281
     1
  3
Metric50
350
69
  0
DICTIONARY
  5
64
102
{ACAD_REACTORS
330
C
102
}
330
C
100
AcDbDictionary
281
     1
  3
Standard
350
65
  0
DICTIONARY
  5
29
102
{ACAD_REACTORS
330
C
102
}
330
C
100
AcDbDictionary
281
     1
  3
2dWireframe
350
2F
  3
Basic
350
2E
  3
Brighten
350
35
  3
ColorChange
350
39
  3
Conceptual
350
32
  3
Dim
350
34
  3
EdgeColorOff
350
41
  3
Facepattern
350
38
  3
Flat
350
2A
  3
FlatWithEdges
350
2B
  3
Gouraud
350
2C
  3
GouraudWithEdges
350
2D
  3
Hidden
350
31
  3
JitterOff
350
3F
  3
Linepattern
350
37
  3
OverhangOff
350
40
  3
Realistic
350
33
  3
Shaded
350
3E
  3
Shaded with edges
350
3D
  3
Shades of Gray
350
3A
  3
Sketchy
350
3B
  3
Thicken
350
36
  3
Wireframe
350
30
  3
X-Ray
350
3C
  0
XRECORD
  5
81A
102
{ACAD_REACTORS
330
C
102
}
330
C
100
AcDbXrecord
280
     1
 90
        1
330
65
330
5A9
330
5D2
330
5E6
330
5E8
  0
DICTIONARY
  5
78
102
{ACAD_REACTORS
330
C
102
}
330
C
100
AcDbDictionary
281
     1
  3
CANNOSCALE
350
7C1
  3
CENTEREXE
350
79
  3
CENTERLTYPEFILE
350
7A
  3
CMLEADERSTYLE
350
7BE
  3
CTABLESTYLE
350
7BD
  3
CVIEWDETAILSTYLE
350
7BF
  3
CVIEWSECTIONSTYLE
350
7C0
  3
XCLIPFRAME
350
7C2
  0
DICTIONARY
  5
820
102
{ACAD_REACTORS
330
C
102
}
330
C
100
AcDbDictionary
281
     1
  3
AcDsRecords
350
822
  3
AcDsSchemas
350
821
1001
ACAD
1070
     2
  0
DICTIONARY
  5
120
102
{ACAD_REACTORS
330
11F
102
}
330
11F
100
AcDbDictionary
281
     1
  0
XRECORD
  5
817
102
{ACAD_REACTORS
330
5AA
102
}
330
5AA
100
AcDbXrecord
280
     1
 40
4843.0
  1
\pxqr;Rev:B 18.1.22
  0
XRECORD
  5
818
102
{ACAD_REACTORS
330
5E7
102
}
330
5E7
100
AcDbXrecord
280
     1
 40
109764.0
  1
\pxql;Balustrade.\Psubject to change\Pwithout notice.
  0
XRECORD
  5
819
102
{ACAD_REACTORS
330
5E9
102
}
330
5E9
100
AcDbXrecord
280
     1
 40
8360855.0
  1
\pxi-3,l4,ql,t4;-       Applicable to occupancy types A, B, C3 & E.\P-^IThis fixing detail PS1 should be used in conjunction with the appropriate system PS1.\P-^IThis is a balustrade connection detail. Deck design, construction and  water-proofing is t
  1
he responsibility of others. For all other applications or non-standard or site specific connections not covered under the standard detail manual please contact Spectrum.
  0
ACDBDETAILVIEWSTYLE
  5
6B
102
{ACAD_XDICTIONARY
360
858
102
}
102
{ACAD_REACTORS
330
6A
102
}
330
6A
100
AcDbModelDocViewStyle
 70
     0
  3
Metric50
290
     0
100
AcDbDetailViewStyle
 70
     0
 71
     0
 90
        3
 71
     1
340
55
 62
   256
 40
5.0
340
0
 62
   256
 40
5.0
300

 40
0.36
280
     1
 71
     2
340
5D
 90
       25
 62
   256
 71
     3
340
55
 62
   256
 40
5.0
 90
        0
 40
15.0
 90
        1
300
%<\AcVar ViewDetailId>% (%<\AcVar ViewScale \f "%sn">%)
 71
     4
340
5D
 90
       25
 62
   256
340
5D
 90
       25
 62
   256
280
     0
  0
LAYOUT
  5
6F
102
{ACAD_REACTORS
330
62
102
}
330
62
100
AcDbPlotSettings
  1

  2
C:\Users\leeh\AppData\Roaming\Autodesk\AutoCAD LT 2022\R28\enu\plotters\AutoCAD PDF.pc3
  4

  6

 40
0.0
 41
0.0
 42
0.0
 43
0.0
 44
0.0
 45
0.0
 46
0.0
 47
0.0
 48
0.0
 49
0.0
140
0.0
141
0.0
142
1.0
143
1.0
 70
   688
 72
     0
 73
     0
 74
     5
  7

 75
    16
147
1.0
 76
     0
 77
     2
 78
   300
148
0.0
149
0.0
100
AcDbLayout
  1
Layout1
 70
     1
 71
     1
 10
0.0
 20
0.0
 11
420.0
 21
297.0
 12
0.0
 22
0.0
 32
0.0
 14
1.000000000000000E+20
 24
1.000000000000000E+20
 34
1.000000000000000E+20
 15
-1.000000000000000E+20
 25
-1.000000000000000E+20
 35
-1.000000000000000E+20
146
0.0
 13
0.0
 23
0.0
 33
0.0
 16
1.0
 26
0.0
 36
0.0
 17
0.0
 27
1.0
 37
0.0
 76
     0
330
6C
  0
LAYOUT
  5
77
102
{ACAD_REACTORS
330
62
102
}
330
62
100
AcDbPlotSettings
  1

  2
C:\Users\leeh\AppData\Roaming\Autodesk\AutoCAD LT 2022\R28\enu\plotters\AutoCAD PDF.pc3
  4

  6

 40
0.0
 41
0.0
 42
0.0
 43
0.0
 44
0.0
 45
0.0
 46
0.0
 47
0.0
 48
0.0
 49
0.0
140
0.0
141
0.0
142
1.0
143
1.0
 70
   688
 72
     0
 73
     0
 74
     5
  7

 75
    16
147
1.0
 76
     0
 77
     2
 78
   300
148
0.0
149
0.0
100
AcDbLayout
  1
Layout2
 70
     1
 71
     2
 10
0.0
 20
0.0
 11
12.0
 21
9.0
 12
0.0
 22
0.0
 32
0.0
 14
0.0
 24
0.0
 34
0.0
 15
0.0
 25
0.0
 35
0.0
146
0.0
 13
0.0
 23
0.0
 33
0.0
 16
1.0
 26
0.0
 36
0.0
 17
0.0
 27
1.0
 37
0.0
 76
     0
330
74
  0
LAYOUT
  5
73
102
{ACAD_REACTORS
330
62
102
}
330
62
100
AcDbPlotSettings
  1

  2
C:\Users\leeh\AppData\Roaming\Autodesk\AutoCAD LT 2022\R28\enu\plotters\AutoCAD PDF.pc3
  4

  6

 40
0.0
 41
0.0
 42
0.0
 43
0.0
 44
0.0
 45
0.0
 46
0.0
 47
0.0
 48
0.0
 49
0.0
140
0.0
141
0.0
142
1.0
143
1.0
 70
  1712
 72
     0
 73
     0
 74
     0
  7

 75
     0
147
1.0
 76
     0
 77
     2
 78
   300
148
0.0
149
0.0
100
AcDbLayout
  1
Model
 70
     1
 71
     0
 10
0.0
 20
0.0
 11
12.0
 21
9.0
 12
0.0
 22
0.0
 32
0.0
 14
0.0
 24
0.0
 34
0.0
 15
0.0
 25
0.0
 35
0.0
146
0.0
 13
0.0
 23
0.0
 33
0.0
 16
1.0
 26
0.0
 36
0.0
 17
0.0
 27
1.0
 37
0.0
 76
     0
330
70
331
57
  0
MATERIAL
  5
19
102
{ACAD_XDICTIONARY
360
1A
102
}
102
{ACAD_REACTORS
330
10
102
}
330
10
100
AcDbMaterial
  1
ByBlock
 72
     0
 43
0.0208333333333333
 43
0.0
 43
0.0
 43
0.0
 43
0.0
 43
0.0208333333333333
 43
0.0
 43
0.0
 43
0.0
 43
0.0
 43
1.0
 43
0.0
 43
0.0
 43
0.0
 43
0.0
 43
1.0
 77
     0
 47
0.0208333333333333
 47
0.0
 47
0.0
 47
0.0
 47
0.0
 47
0.0208333333333333
 47
0.0
 47
0.0
 47
0.0
 47
0.0
 47
1.0
 47
0.0
 47
0.0
 47
0.0
 47
0.0
 47
1.0
171
     0
 49
0.0208333333333333
 49
0.0
 49
0.0
 49
0.0
 49
0.0
 49
0.0208333333333333
 49
0.0
 49
0.0
 49
0.0
 49
0.0
 49
1.0
 49
0.0
 49
0.0
 49
0.0
 49
0.0
 49
1.0
175
     0
142
0.0208333333333333
142
0.0
142
0.0
142
0.0
142
0.0
142
0.0208333333333333
142
0.0
142
0.0
142
0.0
142
0.0
142
1.0
142
0.0
142
0.0
142
0.0
142
0.0
142
1.0
179
     0
144
0.0208333333333333
144
0.0
144
0.0
144
0.0
144
0.0
144
0.0208333333333333
144
0.0
144
0.0
144
0.0
144
0.0
144
1.0
144
0.0
144
0.0
144
0.0
144
0.0
144
1.0
147
0.0208333333333333
147
0.0
147
0.0
147
0.0
147
0.0
147
0.0208333333333333
147
0.0
147
0.0
147
0.0
147
0.0
147
1.0
147
0.0
147
0.0
147
0.0
147
0.0
147
1.0
  0
MATERIAL
  5
11
102
{ACAD_XDICTIONARY
360
12
102
}
102
{ACAD_REACTORS
330
10
102
}
330
10
100
AcDbMaterial
  1
ByLayer
 72
     0
 43
0.0208333333333333
 43
0.0
 43
0.0
 43
0.0
 43
0.0
 43
0.0208333333333333
 43
0.0
 43
0.0
 43
0.0
 43
0.0
 43
1.0
 43
0.0
 43
0.0
 43
0.0
 43
0.0
 43
1.0
 77
     0
 47
0.0208333333333333
 47
0.0
 47
0.0
 47
0.0
 47
0.0
 47
0.0208333333333333
 47
0.0
 47
0.0
 47
0.0
 47
0.0
 47
1.0
 47
0.0
 47
0.0
 47
0.0
 47
0.0
 47
1.0
171
     0
 49
0.0208333333333333
 49
0.0
 49
0.0
 49
0.0
 49
0.0
 49
0.0208333333333333
 49
0.0
 49
0.0
 49
0.0
 49
0.0
 49
1.0
 49
0.0
 49
0.0
 49
0.0
 49
0.0
 49
1.0
175
     0
142
0.0208333333333333
142
0.0
142
0.0
142
0.0
142
0.0
142
0.0208333333333333
142
0.0
142
0.0
142
0.0
142
0.0
142
1.0
142
0.0
142
0.0
142
0.0
142
0.0
142
1.0
179
     0
144
0.0208333333333333
144
0.0
144
0.0
144
0.0
144
0.0
144
0.0208333333333333
144
0.0
144
0.0
144
0.0
144
0.0
144
1.0
144
0.0
144
0.0
144
0.0
144
0.0
144
1.0
147
0.0208333333333333
147
0.0
147
0.0
147
0.0
147
0.0
147
0.0208333333333333
147
0.0
147
0.0
147
0.0
147
0.0
147
1.0
147
0.0
147
0.0
147
0.0
147
0.0
147
1.0
  0
MATERIAL
  5
21
102
{ACAD_XDICTIONARY
360
22
102
}
102
{ACAD_REACTORS
330
10
102
}
330
10
100
AcDbMaterial
  1
Global
 72
     0
 43
0.0208333333333333
 43
0.0
 43
0.0
 43
0.0
 43
0.0
 43
0.0208333333333333
 43
0.0
 43
0.0
 43
0.0
 43
0.0
 43
1.0
 43
0.0
 43
0.0
 43
0.0
 43
0.0
 43
1.0
 77
     0
 47
0.0208333333333333
 47
0.0
 47
0.0
 47
0.0
 47
0.0
 47
0.0208333333333333
 47
0.0
 47
0.0
 47
0.0
 47
0.0
 47
1.0
 47
0.0
 47
0.0
 47
0.0
 47
0.0
 47
1.0
171
     0
 49
0.0208333333333333
 49
0.0
 49
0.0
 49
0.0
 49
0.0
 49
0.0208333333333333
 49
0.0
 49
0.0
 49
0.0
 49
0.0
 49
1.0
 49
0.0
 49
0.0
 49
0.0
 49
0.0
 49
1.0
175
     0
142
0.0208333333333333
142
0.0
142
0.0
142
0.0
142
0.0
142
0.0208333333333333
142
0.0
142
0.0
142
0.0
142
0.0
142
1.0
142
0.0
142
0.0
142
0.0
142
0.0
142
1.0
179
     0
144
0.0208333333333333
144
0.0
144
0.0
144
0.0
144
0.0
144
0.0208333333333333
144
0.0
144
0.0
144
0.0
144
0.0
144
1.0
144
0.0
144
0.0
144
0.0
144
0.0
144
1.0
147
0.0208333333333333
147
0.0
147
0.0
147
0.0
147
0.0
147
0.0208333333333333
147
0.0
147
0.0
147
0.0
147
0.0
147
1.0
147
0.0
147
0.0
147
0.0
147
0.0
147
1.0
  0
MLEADERSTYLE
  5
67
102
{ACAD_XDICTIONARY
360
854
102
}
102
{ACAD_REACTORS
330
66
102
}
330
66
100
AcDbMLeaderStyle
170
     2
171
     1
172
     0
 90
        2
 40
0.0
 41
0.0
173
     1
 91
-1056964608
340
5B
 92
       -2
290
     1
 42
0.09
291
     1
 43
0.36
  3
Standard
 44
0.18
300

342
55
174
     1
178
     6
175
     1
176
     0
 93
-1056964608
 45
0.18
292
     0
297
     0
 46
0.18
 94
-1056964608
 47
1.0
 49
1.0
140
1.0
293
     1
141
0.0
294
     1
177
     0
142
1.0
295
     0
296
     0
143
0.125
1001
ACAD_MLEADERVER
1070
     2
  0
MLINESTYLE
  5
60
102
{ACAD_REACTORS
330
5F
102
}
330
5F
100
AcDbMlineStyle
  2
STANDARD
 70
     0
  3

 62
   256
 51
90.0
 52
90.0
 71
     2
 49
0.5
 62
   256
  6
BYLAYER
 49
-0.5
 62
   256
  6
BYLAYER
  0
ACDBPLACEHOLDER
  5
F
102
{ACAD_REACTORS
330
E
102
}
330
E
  0
SCALE
  5
43
102
{ACAD_REACTORS
330
42
102
}
330
42
100
AcDbScale
 70
     0
300
1:1
140
1.0
141
1.0
290
     1
  0
SCALE
  5
44
102
{ACAD_REACTORS
330
42
102
}
330
42
100
AcDbScale
 70
     0
300
1:2
140
1.0
141
2.0
290
     0
  0
SCALE
  5
45
102
{ACAD_REACTORS
330
42
102
}
330
42
100
AcDbScale
 70
     0
300
1:4
140
1.0
141
4.0
290
     0
  0
SCALE
  5
46
102
{ACAD_REACTORS
330
42
102
}
330
42
100
AcDbScale
 70
     0
300
1:5
140
1.0
141
5.0
290
     0
  0
SCALE
  5
47
102
{ACAD_REACTORS
330
42
102
}
330
42
100
AcDbScale
 70
     0
300
1:8
140
1.0
141
8.0
290
     0
  0
SCALE
  5
48
102
{ACAD_REACTORS
330
42
102
}
330
42
100
AcDbScale
 70
     0
300
1:10
140
1.0
141
10.0
290
     0
  0
SCALE
  5
49
102
{ACAD_REACTORS
330
42
102
}
330
42
100
AcDbScale
 70
     0
300
1:16
140
1.0
141
16.0
290
     0
  0
SCALE
  5
4A
102
{ACAD_REACTORS
330
42
102
}
330
42
100
AcDbScale
 70
     0
300
1:20
140
1.0
141
20.0
290
     0
  0
SCALE
  5
4B
102
{ACAD_REACTORS
330
42
102
}
330
42
100
AcDbScale
 70
     0
300
1:30
140
1.0
141
30.0
290
     0
  0
SCALE
  5
4C
102
{ACAD_REACTORS
330
42
102
}
330
42
100
AcDbScale
 70
     0
300
1:40
140
1.0
141
40.0
290
     0
  0
SCALE
  5
4D
102
{ACAD_REACTORS
330
42
102
}
330
42
100
AcDbScale
 70
     0
300
1:50
140
1.0
141
50.0
290
     0
  0
SCALE
  5
4E
102
{ACAD_REACTORS
330
42
102
}
330
42
100
AcDbScale
 70
     0
300
1:100
140
1.0
141
100.0
290
     0
  0
SCALE
  5
4F
102
{ACAD_REACTORS
330
42
102
}
330
42
100
AcDbScale
 70
     0
300
2:1
140
2.0
141
1.0
290
     0
  0
SCALE
  5
50
102
{ACAD_REACTORS
330
42
102
}
330
42
100
AcDbScale
 70
     0
300
4:1
140
4.0
141
1.0
290
     0
  0
SCALE
  5
51
102
{ACAD_REACTORS
330
42
102
}
330
42
100
AcDbScale
 70
     0
300
8:1
140
8.0
141
1.0
290
     0
  0
SCALE
  5
52
102
{ACAD_REACTORS
330
42
102
}
330
42
100
AcDbScale
 70
     0
300
10:1
140
10.0
141
1.0
290
     0
  0
SCALE
  5
53
102
{ACAD_REACTORS
330
42
102
}
330
42
100
AcDbScale
 70
     0
300
100:1
140
100.0
141
1.0
290
     0
  0
ACDBSECTIONVIEWSTYLE
  5
69
102
{ACAD_XDICTIONARY
360
856
102
}
102
{ACAD_REACTORS
330
68
102
}
330
68
100
AcDbModelDocViewStyle
 70
     0
  3
Metric50
290
     0
100
AcDbSectionViewStyle
 70
     0
 71
     0
 90
      102
 71
     1
340
55
 62
   256
 40
5.0
340
0
340
0
 62
   256
 40
5.0
300
I, O, Q, S, X, Z
 40
10.0
 90
        0
 40
2.5
 90
        0
 71
     2
340
5D
 90
       25
 62
   256
340
5D
 90
       50
 62
   256
 40
5.0
 40
2.5
 40
5.0
 71
     3
340
55
 62
   256
 40
5.0
 90
        0
 40
15.0
 90
        1
300
%<\AcVar ViewSectionStartId>%-%<\AcVar ViewSectionEndId>% (%<\AcVar ViewScale \f "%sn">%)
 71
     4
 62
   256
 62
   257
300
ANSI31
 40
1.0
 90
        0
290
     0
290
     0
 90
        6
 40
0.0
 40
1.570796326794896
 40
0.2617993877991494
 40
1.308996938995747
 40
-0.2617993877991494
 40
1.832595714594046
  0
TABLESTYLE
  5
65
102
{ACAD_XDICTIONARY
360
815
102
}
102
{ACAD_REACTORS
330
64
102
}
330
64
100
AcDbTableStyle
  3
Standard
 70
     0
 71
     0
 40
1.5
 41
1.5
280
     0
281
     0
  7
Standard
140
4.5
170
     2
 62
     0
 63
     7
283
     0
 90
      512
 91
        0
  1

274
    -2
284
     1
 64
     0
275
    -2
285
     1
 65
     0
276
    -2
286
     1
 66
     0
277
    -2
287
     1
 67
     0
278
    -2
288
     1
 68
     0
279
    -2
289
     1
 69
     0
  7
Standard
140
6.0
170
     5
 62
     0
 63
     7
283
     0
 90
      512
 91
        0
  1

274
    -2
284
     1
 64
     0
275
    -2
285
     1
 65
     0
276
    -2
286
     1
 66
     0
277
    -2
287
     1
 67
     0
278
    -2
288
     1
 68
     0
279
    -2
289
     1
 69
     0
  7
Standard
140
4.5
170
     5
 62
     0
 63
     7
283
     0
 90
      512
 91
        0
  1

274
    -2
284
     1
 64
     0
275
    -2
285
     1
 65
     0
276
    -2
286
     1
 66
     0
277
    -2
287
     1
 67
     0
278
    -2
288
     1
 68
     0
279
    -2
289
     1
 69
     0
  0
VISUALSTYLE
  5
2F
102
{ACAD_XDICTIONARY
360
82D
102
}
102
{ACAD_REACTORS
330
29
102
}
330
29
100
AcDbVisualStyle
  2
2dWireframe
 70
     4
 71
     0
 72
     2
 73
     0
 90
        0
 40
-0.6
 41
-30.0
 62
     5
 63
     7
421
 16777215
 74
     1
 91
        4
 64
     7
 65
   257
 75
     1
175
     1
 42
1.0
 92
        0
 66
   257
 43
1.0
 76
     1
 77
     6
 78
     2
 67
     7
 79
     5
170
     0
171
     0
290
     0
174
     0
 93
        1
 44
0.0
173
     0
291
     0
 45
0.0
1001
ACAD
1000
AcDbSavedByObjectVersion
1070
     0
  0
VISUALSTYLE
  5
2E
102
{ACAD_XDICTIONARY
360
82B
102
}
102
{ACAD_REACTORS
330
29
102
}
330
29
100
AcDbVisualStyle
  2
Basic
 70
     7
 71
     1
 72
     0
 73
     1
 90
        0
 40
-0.6
 41
-30.0
 62
     5
 63
     7
421
 16777215
 74
     0
 91
        4
 64
     7
 65
   257
 75
     1
175
     1
 42
1.0
 92
        8
 66
     7
 43
1.0
 76
     1
 77
     6
 78
     2
 67
     7
 79
     5
170
     0
171
     0
290
     0
174
     0
 93
        1
 44
0.0
173
     0
291
     1
 45
0.0
1001
ACAD
1000
AcDbSavedByObjectVersion
1070
     0
  0
VISUALSTYLE
  5
35
102
{ACAD_XDICTIONARY
360
839
102
}
102
{ACAD_REACTORS
330
29
102
}
330
29
100
AcDbVisualStyle
  2
Brighten
 70
    12
 71
     2
 72
     2
 73
     0
 90
        0
 40
-0.6
 41
-30.0
 62
     5
 63
     7
421
 16777215
 74
     1
 91
        4
 64
     7
 65
   257
 75
     1
175
     1
 42
1.0
 92
        8
 66
     7
 43
1.0
 76
     1
 77
     6
 78
     2
 67
     7
 79
     5
170
     0
171
     0
290
     0
174
     0
 93
        1
 44
50.0
173
     0
291
     1
 45
0.0
1001
ACAD
1000
AcDbSavedByObjectVersion
1070
     0
  0
VISUALSTYLE
  5
39
102
{ACAD_XDICTIONARY
360
841
102
}
102
{ACAD_REACTORS
330
29
102
}
330
29
100
AcDbVisualStyle
  2
ColorChange
 70
    16
 71
     2
 72
     2
 73
     3
 90
        0
 40
-0.6
 41
-30.0
 62
     5
 63
     8
421
  8421504
 74
     1
 91
        4
 64
     7
 65
   257
 75
     1
175
     1
 42
1.0
 92
        8
 66
     8
424
  8421504
 43
1.0
 76
     1
 77
     6
 78
     2
 67
     7
 79
     5
170
     0
171
     0
290
     0
174
     0
 93
        1
 44
0.0
173
     0
291
     1
 45
0.0
1001
ACAD
1000
AcDbSavedByObjectVersion
1070
     0
  0
VISUALSTYLE
  5
32
102
{ACAD_XDICTIONARY
360
833
102
}
102
{ACAD_REACTORS
330
29
102
}
330
29
100
AcDbVisualStyle
  2
Conceptual
 70
     9
 71
     3
 72
     2
 73
     0
 90
        0
 40
-0.6
 41
-30.0
 62
     5
 63
     7
421
 16777215
 74
     2
 91
        2
 64
     7
 65
   257
 75
     1
175
     1
 42
179.0
 92
        8
 66
     7
 43
1.0
 76
     1
 77
     6
 78
     2
 67
     7
 79
     3
170
     0
171
     0
290
     0
174
     0
 93
        1
 44
0.0
173
     0
291
     0
 45
0.0
1001
ACAD
1000
AcDbSavedByObjectVersion
1070
     0
  0
VISUALSTYLE
  5
34
102
{ACAD_XDICTIONARY
360
837
102
}
102
{ACAD_REACTORS
330
29
102
}
330
29
100
AcDbVisualStyle
  2
Dim
 70
    11
 71
     2
 72
     2
 73
     0
 90
        0
 40
-0.6
 41
-30.0
 62
     5
 63
     7
421
 16777215
 74
     1
 91
        4
 64
     7
 65
   257
 75
     1
175
     1
 42
1.0
 92
        8
 66
     7
 43
1.0
 76
     1
 77
     6
 78
     2
 67
     7
 79
     5
170
     0
171
     0
290
     0
174
     0
 93
        1
 44
-50.0
173
     0
291
     1
 45
0.0
1001
ACAD
1000
AcDbSavedByObjectVersion
1070
     0
  0
VISUALSTYLE
  5
41
102
{ACAD_XDICTIONARY
360
851
102
}
102
{ACAD_REACTORS
330
29
102
}
330
29
100
AcDbVisualStyle
  2
EdgeColorOff
 70
    22
 71
     2
 72
     2
 73
     0
 90
        0
 40
-0.6
 41
-30.0
 62
     5
 63
     7
421
 16777215
 74
     1
 91
        4
 64
     7
 65
   257
 75
     1
175
     1
 42
1.0
 92
        8
 66
     7
 43
1.0
 76
     1
 77
     6
 78
     2
 67
     7
 79
     5
170
     0
171
     0
290
     0
174
     0
 93
        1
 44
0.0
173
     0
291
     1
 45
0.0
1001
ACAD
1000
AcDbSavedByObjectVersion
1070
     0
  0
VISUALSTYLE
  5
38
102
{ACAD_XDICTIONARY
360
83F
102
}
102
{ACAD_REACTORS
330
29
102
}
330
29
100
AcDbVisualStyle
  2
Facepattern
 70
    15
 71
     2
 72
     2
 73
     0
 90
        0
 40
-0.6
 41
-30.0
 62
     5
 63
     7
421
 16777215
 74
     1
 91
        4
 64
     7
 65
   257
 75
     1
175
     1
 42
1.0
 92
        8
 66
     7
 43
1.0
 76
     1
 77
     6
 78
     2
 67
     7
 79
     5
170
     0
171
     0
290
     0
174
     0
 93
        1
 44
0.0
173
     0
291
     1
 45
0.0
1001
ACAD
1000
AcDbSavedByObjectVersion
1070
     0
  0
VISUALSTYLE
  5
2A
102
{ACAD_XDICTIONARY
360
823
102
}
102
{ACAD_REACTORS
330
29
102
}
330
29
100
AcDbVisualStyle
  2
Flat
 70
     0
 71
     2
 72
     1
 73
     1
 90
        2
 40
-0.6
 41
30.0
 62
     5
 63
     7
421
 16777215
 74
     0
 91
        0
 64
     7
 65
   257
 75
     1
175
     1
 42
1.0
 92
        8
 66
     7
 43
1.0
 76
     1
 77
     6
 78
     2
 67
     7
 79
     5
170
     0
171
     0
290
     0
174
     0
 93
       13
 44
0.0
173
     0
291
     1
 45
0.0
1001
ACAD
1000
AcDbSavedByObjectVersion
1070
     0
  0
VISUALSTYLE
  5
2B
102
{ACAD_XDICTIONARY
360
825
102
}
102
{ACAD_REACTORS
330
29
102
}
330
29
100
AcDbVisualStyle
  2
FlatWithEdges
 70
     1
 71
     2
 72
     1
 73
     1
 90
        2
 40
-0.6
 41
30.0
 62
     5
 63
     7
421
 16777215
 74
     1
 91
        0
 64
     7
 65
   257
 75
     1
175
     1
 42
1.0
 92
        0
 66
   257
 43
1.0
 76
     1
 77
     6
 78
     2
 67
     7
 79
     5
170
     0
171
     0
290
     0
174
     0
 93
       13
 44
0.0
173
     0
291
     1
 45
0.0
1001
ACAD
1000
AcDbSavedByObjectVersion
1070
     0
  0
VISUALSTYLE
  5
2C
102
{ACAD_XDICTIONARY
360
827
102
}
102
{ACAD_REACTORS
330
29
102
}
330
29
100
AcDbVisualStyle
  2
Gouraud
 70
     2
 71
     2
 72
     2
 73
     1
 90
        2
 40
-0.6
 41
30.0
 62
     5
 63
     7
421
 16777215
 74
     0
 91
        0
 64
     7
 65
   257
 75
     1
175
     1
 42
1.0
 92
        0
 66
     7
 43
1.0
 76
     1
 77
     6
 78
     2
 67
     7
 79
     5
170
     0
171
     0
290
     0
174
     0
 93
       13
 44
0.0
173
     0
291
     1
 45
0.0
1001
ACAD
1000
AcDbSavedByObjectVersion
1070
     0
  0
VISUALSTYLE
  5
2D
102
{ACAD_XDICTIONARY
360
829
102
}
102
{ACAD_REACTORS
330
29
102
}
330
29
100
AcDbVisualStyle
  2
GouraudWithEdges
 70
     3
 71
     2
 72
     2
 73
     1
 90
        2
 40
-0.6
 41
30.0
 62
     5
 63
     7
421
 16777215
 74
     1
 91
        0
 64
     7
 65
   257
 75
     1
175
     1
 42
1.0
 92
        0
 66
   257
 43
1.0
 76
     1
 77
     6
 78
     2
 67
     7
 79
     5
170
     0
171
     0
290
     0
174
     0
 93
       13
 44
0.0
173
     0
291
     1
 45
0.0
1001
ACAD
1000
AcDbSavedByObjectVersion
1070
     0
  0
VISUALSTYLE
  5
31
102
{ACAD_XDICTIONARY
360
831
102
}
102
{ACAD_REACTORS
330
29
102
}
330
29
100
AcDbVisualStyle
  2
Hidden
 70
     6
 71
     1
 72
     2
 73
     2
 90
        0
 40
-0.6
 41
-30.0
 62
     5
 63
     7
421
 16777215
 74
     2
 91
        2
 64
     7
 65
   257
 75
     2
175
     1
 42
40.0
 92
        0
 66
   257
 43
1.0
 76
     1
 77
     6
 78
     2
 67
     7
 79
     3
170
     0
171
     0
290
     0
174
     0
 93
        1
 44
0.0
173
     0
291
     0
 45
0.0
1001
ACAD
1000
AcDbSavedByObjectVersion
1070
     0
  0
VISUALSTYLE
  5
3F
102
{ACAD_XDICTIONARY
360
84D
102
}
102
{ACAD_REACTORS
330
29
102
}
330
29
100
AcDbVisualStyle
  2
JitterOff
 70
    20
 71
     2
 72
     2
 73
     0
 90
        0
 40
-0.6
 41
-30.0
 62
     5
 63
     7
421
 16777215
 74
     1
 91
        4
 64
     7
 65
   257
 75
     1
175
     1
 42
1.0
 92
       10
 66
     7
 43
1.0
 76
     1
 77
     6
 78
     2
 67
     7
 79
     5
170
     0
171
     0
290
     0
174
     0
 93
        1
 44
0.0
173
     0
291
     1
 45
0.0
1001
ACAD
1000
AcDbSavedByObjectVersion
1070
     0
  0
VISUALSTYLE
  5
37
102
{ACAD_XDICTIONARY
360
83D
102
}
102
{ACAD_REACTORS
330
29
102
}
330
29
100
AcDbVisualStyle
  2
Linepattern
 70
    14
 71
     2
 72
     2
 73
     0
 90
        0
 40
-0.6
 41
-30.0
 62
     5
 63
     7
421
 16777215
 74
     1
 91
        4
 64
     7
 65
   257
 75
     7
175
     7
 42
1.0
 92
        8
 66
     7
 43
1.0
 76
     1
 77
     6
 78
     2
 67
     7
 79
     5
170
     0
171
     0
290
     0
174
     0
 93
        1
 44
0.0
173
     0
291
     1
 45
0.0
1001
ACAD
1000
AcDbSavedByObjectVersion
1070
     0
  0
VISUALSTYLE
  5
40
102
{ACAD_XDICTIONARY
360
84F
102
}
102
{ACAD_REACTORS
330
29
102
}
330
29
100
AcDbVisualStyle
  2
OverhangOff
 70
    21
 71
     2
 72
     2
 73
     0
 90
        0
 40
-0.6
 41
-30.0
 62
     5
 63
     7
421
 16777215
 74
     1
 91
        4
 64
     7
 65
   257
 75
     1
175
     1
 42
1.0
 92
        9
 66
     7
 43
1.0
 76
     1
 77
     6
 78
     2
 67
     7
 79
     5
170
     0
171
     0
290
     0
174
     0
 93
        1
 44
0.0
173
     0
291
     1
 45
0.0
1001
ACAD
1000
AcDbSavedByObjectVersion
1070
     0
  0
VISUALSTYLE
  5
33
102
{ACAD_XDICTIONARY
360
835
102
}
102
{ACAD_REACTORS
330
29
102
}
330
29
100
AcDbVisualStyle
  2
Realistic
 70
     8
 71
     2
 72
     3
 73
     0
 90
        2
 40
-0.6
 41
30.0
 62
     5
 63
     7
421
 16777215
 74
     0
 91
        0
 64
     7
 65
   257
 75
     1
175
     1
 42
1.0
 92
        8
 66
   257
 43
1.0
 76
     1
 77
     6
 78
     2
 67
     7
 79
     3
170
     0
171
     0
290
     0
174
     0
 93
       13
 44
0.0
173
     0
291
     0
 45
0.0
1001
ACAD
1000
AcDbSavedByObjectVersion
1070
     0
  0
VISUALSTYLE
  5
3E
102
{ACAD_XDICTIONARY
360
84B
102
}
102
{ACAD_REACTORS
330
29
102
}
330
29
100
AcDbVisualStyle
  2
Shaded
 70
    27
 71
     2
 72
     2
 73
     1
 90
        2
 40
-0.6
 41
30.0
 62
     5
 63
     7
421
 16777215
 74
     0
 91
        4
 64
     7
 65
   257
 75
     1
175
     1
 42
1.0
 92
        8
 66
   257
 43
1.0
 76
     1
 77
     6
 78
     2
 67
     8
425
  7895160
 79
     3
170
     0
171
     0
290
     0
174
     0
 93
        5
 44
0.0
173
     0
291
     0
 45
0.0
1001
ACAD
1000
AcDbSavedByObjectVersion
1070
     0
  0
VISUALSTYLE
  5
3D
102
{ACAD_XDICTIONARY
360
849
102
}
102
{ACAD_REACTORS
330
29
102
}
330
29
100
AcDbVisualStyle
  2
Shaded with edges
 70
    26
 71
     2
 72
     2
 73
     1
 90
        2
 40
-0.6
 41
30.0
 62
     5
 63
     7
421
 16777215
 74
     1
 91
        2
 64
     7
 65
   257
 75
     2
175
     1
 42
1.0
 92
        8
 66
   257
 43
1.0
 76
     1
 77
     6
 78
     2
 67
     7
 79
     3
170
     0
171
     0
290
     0
174
     0
 93
        5
 44
0.0
173
     0
291
     0
 45
0.0
1001
ACAD
1000
AcDbSavedByObjectVersion
1070
     0
  0
VISUALSTYLE
  5
3A
102
{ACAD_XDICTIONARY
360
843
102
}
102
{ACAD_REACTORS
330
29
102
}
330
29
100
AcDbVisualStyle
  2
Shades of Gray
 70
    23
 71
     2
 72
     2
 73
     3
 90
        0
 40
-0.6
 41
-30.0
 62
     5
 63
     7
421
 16777215
 74
     2
 91
        2
 64
     7
 65
     7
 75
     1
175
     1
 42
40.0
 92
        8
 66
     7
 43
1.0
 76
     1
 77
     6
 78
     2
 67
     7
 79
     3
170
     0
171
     0
290
     0
174
     0
 93
        1
 44
0.0
173
     0
291
     0
 45
0.0
1001
ACAD
1000
AcDbSavedByObjectVersion
1070
     0
  0
VISUALSTYLE
  5
3B
102
{ACAD_XDICTIONARY
360
845
102
}
102
{ACAD_REACTORS
330
29
102
}
330
29
100
AcDbVisualStyle
  2
Sketchy
 70
    24
 71
     1
 72
     2
 73
     2
 90
        0
 40
-0.6
 41
-30.0
 62
     5
 63
     7
421
 16777215
 74
     2
 91
        2
 64
     7
 65
     7
 75
     1
175
     1
 42
40.0
 92
       11
 66
     7
 43
1.0
 76
     1
 77
     6
 78
     2
 67
     7
 79
     6
170
     0
171
     0
290
     0
174
     0
 93
        1
 44
0.0
173
     0
291
     0
 45
0.0
1001
ACAD
1000
AcDbSavedByObjectVersion
1070
     0
  0
VISUALSTYLE
  5
36
102
{ACAD_XDICTIONARY
360
83B
102
}
102
{ACAD_REACTORS
330
29
102
}
330
29
100
AcDbVisualStyle
  2
Thicken
 70
    13
 71
     2
 72
     2
 73
     0
 90
        0
 40
-0.6
 41
-30.0
 62
     5
 63
     7
421
 16777215
 74
     1
 91
        4
 64
     7
 65
   257
 75
     1
175
     1
 42
1.0
 92
       12
 66
     7
 43
1.0
 76
     1
 77
     6
 78
     2
 67
     7
 79
     5
170
     0
171
     0
290
     0
174
     0
 93
        1
 44
0.0
173
     0
291
     1
 45
0.0
1001
ACAD
1000
AcDbSavedByObjectVersion
1070
     0
  0
VISUALSTYLE
  5
30
102
{ACAD_XDICTIONARY
360
82F
102
}
102
{ACAD_REACTORS
330
29
102
}
330
29
100
AcDbVisualStyle
  2
Wireframe
 70
     5
 71
     0
 72
     2
 73
     0
 90
        0
 40
-0.6
 41
-30.0
 62
     5
 63
     7
421
 16777215
 74
     1
 91
        4
 64
     7
 65
   257
 75
     1
175
     1
 42
1.0
 92
        0
 66
   257
 43
1.0
 76
     1
 77
     6
 78
     2
 67
     7
 79
     3
170
     0
171
     0
290
     0
174
     0
 93
        1
 44
0.0
173
     0
291
     0
 45
0.0
1001
ACAD
1000
AcDbSavedByObjectVersion
1070
     0
  0
VISUALSTYLE
  5
3C
102
{ACAD_XDICTIONARY
360
847
102
}
102
{ACAD_REACTORS
330
29
102
}
330
29
100
AcDbVisualStyle
  2
X-Ray
 70
    25
 71
     2
 72
     2
 73
     1
 90
        1
 40
0.5
 41
-30.0
 62
     5
 63
     7
421
 16777215
 74
     1
 91
        0
 64
     7
 65
   257
 75
     1
175
     1
 42
1.0
 92
        8
 66
     7
 43
1.0
 76
     1
 77
     6
 78
     2
 67
     7
 79
     3
170
     0
171
     0
290
     0
174
     0
 93
       13
 44
0.0
173
     0
291
     0
 45
0.0
1001
ACAD
1000
AcDbSavedByObjectVersion
1070
     0
  0
DICTIONARYVAR
  5
7C1
102
{ACAD_REACTORS
330
78
102
}
330
78
100
DictionaryVariables
280
     0
  1
1:1
  0
DICTIONARYVAR
  5
79
102
{ACAD_REACTORS
330
78
102
}
330
78
100
DictionaryVariables
280
     0
  1
3.500000
  0
DICTIONARYVAR
  5
7A
102
{ACAD_REACTORS
330
78
102
}
330
78
100
DictionaryVariables
280
     0
  1
acadiso.lin
  0
DICTIONARYVAR
  5
7BE
102
{ACAD_REACTORS
330
78
102
}
330
78
100
DictionaryVariables
280
     0
  1
STANDARD
  0
DICTIONARYVAR
  5
7BD
102
{ACAD_REACTORS
330
78
102
}
330
78
100
DictionaryVariables
280
     0
  1
STANDARD
  0
DICTIONARYVAR
  5
7BF
102
{ACAD_REACTORS
330
78
102
}
330
78
100
DictionaryVariables
280
     0
  1
Metric50
  0
DICTIONARYVAR
  5
7C0
102
{ACAD_REACTORS
330
78
102
}
330
78
100
DictionaryVariables
280
     0
  1
Metric50
  0
DICTIONARYVAR
  5
7C2
102
{ACAD_REACTORS
330
78
102
}
330
78
100
DictionaryVariables
280
     0
  1
2
  0
DICTIONARY
  5
822
102
{ACAD_REACTORS
330
820
102
}
330
820
100
AcDbDictionary
281
     1
  0
DICTIONARY
  5
821
102
{ACAD_REACTORS
330
820
102
}
330
820
100
AcDbDictionary
281
     1
  3
2594982574640
350
81B
  3
2594982574656
350
81C
  3
2594982574672
350
81D
  3
2594982574688
350
81E
  3
2594982574704
350
81F
  0
DICTIONARY
  5
858
330
6B
100
AcDbDictionary
280
     1
281
     1
  3
ACAD_XREC_ROUNDTRIP
360
859
  0
DICTIONARY
  5
1A
330
19
100
AcDbDictionary
280
     1
281
     1
  3
BUMPTILE
360
1C
  3
DIFFUSETILE
360
1B
  3
OPACITYTILE
360
1F
  3
REFLECTIONTILE
360
1E
  3
REFRACTIONTILE
360
20
  3
SPECULARTILE
360
1D
  0
DICTIONARY
  5
12
330
11
100
AcDbDictionary
280
     1
281
     1
  3
BUMPTILE
360
14
  3
DIFFUSETILE
360
13
  3
OPACITYTILE
360
17
  3
REFLECTIONTILE
360
16
  3
REFRACTIONTILE
360
18
  3
SPECULARTILE
360
15
  0
DICTIONARY
  5
22
330
21
100
AcDbDictionary
280
     1
281
     1
  3
BUMPTILE
360
24
  3
DIFFUSETILE
360
23
  3
OPACITYTILE
360
27
  3
REFLECTIONTILE
360
26
  3
REFRACTIONTILE
360
28
  3
SPECULARTILE
360
25
  0
DICTIONARY
  5
854
330
67
100
AcDbDictionary
280
     1
281
     1
  3
ACAD_XREC_ROUNDTRIP
360
855
  0
DICTIONARY
  5
856
330
69
100
AcDbDictionary
280
     1
281
     1
  3
ACAD_XREC_ROUNDTRIP
360
857
  0
DICTIONARY
  5
815
330
65
100
AcDbDictionary
280
     1
281
     1
  3
ACAD_ROUNDTRIP_2008_TABLESTYLE_CELLSTYLEMAP
360
816
  0
DICTIONARY
  5
82D
330
2F
100
AcDbDictionary
280
     1
281
     1
  3
ACAD_XREC_ROUNDTRIP
360
82E
  0
DICTIONARY
  5
82B
330
2E
100
AcDbDictionary
280
     1
281
     1
  3
ACAD_XREC_ROUNDTRIP
360
82C
  0
DICTIONARY
  5
839
330
35
100
AcDbDictionary
280
     1
281
     1
  3
ACAD_XREC_ROUNDTRIP
360
83A
  0
DICTIONARY
  5
841
330
39
100
AcDbDictionary
280
     1
281
     1
  3
ACAD_XREC_ROUNDTRIP
360
842
  0
DICTIONARY
  5
833
330
32
100
AcDbDictionary
280
     1
281
     1
  3
ACAD_XREC_ROUNDTRIP
360
834
  0
DICTIONARY
  5
837
330
34
100
AcDbDictionary
280
     1
281
     1
  3
ACAD_XREC_ROUNDTRIP
360
838
  0
DICTIONARY
  5
851
330
41
100
AcDbDictionary
280
     1
281
     1
  3
ACAD_XREC_ROUNDTRIP
360
852
  0
DICTIONARY
  5
83F
330
38
100
AcDbDictionary
280
     1
281
     1
  3
ACAD_XREC_ROUNDTRIP
360
840
  0
DICTIONARY
  5
823
330
2A
100
AcDbDictionary
280
     1
281
     1
  3
ACAD_XREC_ROUNDTRIP
360
824
  0
DICTIONARY
  5
825
330
2B
100
AcDbDictionary
280
     1
281
     1
  3
ACAD_XREC_ROUNDTRIP
360
826
  0
DICTIONARY
  5
827
330
2C
100
AcDbDictionary
280
     1
281
     1
  3
ACAD_XREC_ROUNDTRIP
360
828
  0
DICTIONARY
  5
829
330
2D
100
AcDbDictionary
280
     1
281
     1
  3
ACAD_XREC_ROUNDTRIP
360
82A
  0
DICTIONARY
  5
831
330
31
100
AcDbDictionary
280
     1
281
     1
  3
ACAD_XREC_ROUNDTRIP
360
832
  0
DICTIONARY
  5
84D
330
3F
100
AcDbDictionary
280
     1
281
     1
  3
ACAD_XREC_ROUNDTRIP
360
84E
  0
DICTIONARY
  5
83D
330
37
100
AcDbDictionary
280
     1
281
     1
  3
ACAD_XREC_ROUNDTRIP
360
83E
  0
DICTIONARY
  5
84F
330
40
100
AcDbDictionary
280
     1
281
     1
  3
ACAD_XREC_ROUNDTRIP
360
850
  0
DICTIONARY
  5
835
330
33
100
AcDbDictionary
280
     1
281
     1
  3
ACAD_XREC_ROUNDTRIP
360
836
  0
DICTIONARY
  5
84B
330
3E
100
AcDbDictionary
280
     1
281
     1
  3
ACAD_XREC_ROUNDTRIP
360
84C
  0
DICTIONARY
  5
849
330
3D
100
AcDbDictionary
280
     1
281
     1
  3
ACAD_XREC_ROUNDTRIP
360
84A
  0
DICTIONARY
  5
843
330
3A
100
AcDbDictionary
280
     1
281
     1
  3
ACAD_XREC_ROUNDTRIP
360
844
  0
DICTIONARY
  5
845
330
3B
100
AcDbDictionary
280
     1
281
     1
  3
ACAD_XREC_ROUNDTRIP
360
846
  0
DICTIONARY
  5
83B
330
36
100
AcDbDictionary
280
     1
281
     1
  3
ACAD_XREC_ROUNDTRIP
360
83C
  0
DICTIONARY
  5
82F
330
30
100
AcDbDictionary
280
     1
281
     1
  3
ACAD_XREC_ROUNDTRIP
360
830
  0
DICTIONARY
  5
847
330
3C
100
AcDbDictionary
280
     1
281
     1
  3
ACAD_XREC_ROUNDTRIP
360
848
  0
XRECORD
  5
81B
102
{ACAD_REACTORS
330
821
102
}
330
821
100
AcDbXrecord
280
     1
  1
AcDb_Thumbnail_Schema
102
{ATTRRECORD
341
81C
  2
AcDbDs::TreatedAsObjectData
280
     1
291
     1
102
ATTRRECORD}
102
{ATTRRECORD
341
81D
  2
AcDbDs::Legacy
280
     1
291
     1
102
ATTRRECORD}
  2
AcDbDs::ID
280
    10
 91
        8
102
{ATTRRECORD
341
81E
  2
AcDs:Indexable
280
     1
291
     1
102
ATTRRECORD}
102
{ATTRRECORD
341
81F
  2
AcDbDs::HandleAttribute
280
     7
282
     1
102
ATTRRECORD}
  2
Thumbnail_Data
280
    15
 91
        0
  0
XRECORD
  5
81C
102
{ACAD_REACTORS
330
821
102
}
330
821
100
AcDbXrecord
280
     1
  1
AcDbDs::TreatedAsObjectDataSchema
  2
AcDbDs::TreatedAsObjectData
280
     1
 91
        0
  0
XRECORD
  5
81D
102
{ACAD_REACTORS
330
821
102
}
330
821
100
AcDbXrecord
280
     1
  1
AcDbDs::LegacySchema
  2
AcDbDs::Legacy
280
     1
 91
        0
  0
XRECORD
  5
81E
102
{ACAD_REACTORS
330
821
102
}
330
821
100
AcDbXrecord
280
     1
  1
AcDbDs::IndexedPropertySchema
  2
AcDs:Indexable
280
     1
 91
        0
  0
XRECORD
  5
81F
102
{ACAD_REACTORS
330
821
102
}
330
821
100
AcDbXrecord
280
     1
  1
AcDbDs::HandleAttributeSchema
  2
AcDbDs::HandleAttribute
280
     7
 91
        1
284
     1
  0
XRECORD
  5
859
102
{ACAD_REACTORS
330
858
102
}
330
858
100
AcDbXrecord
280
     1
102
DISPLAYNAME
  1
Metric50
102
FLAGS
 90
        0
  0
XRECORD
  5
1C
102
{ACAD_REACTORS
330
1A
102
}
330
1A
100
AcDbXrecord
280
     1
270
     1
271
     1
  0
XRECORD
  5
1B
102
{ACAD_REACTORS
330
1A
102
}
330
1A
100
AcDbXrecord
280
     1
270
     1
271
     1
  0
XRECORD
  5
1F
102
{ACAD_REACTORS
330
1A
102
}
330
1A
100
AcDbXrecord
280
     1
270
     1
271
     1
  0
XRECORD
  5
1E
102
{ACAD_REACTORS
330
1A
102
}
330
1A
100
AcDbXrecord
280
     1
270
     1
271
     1
  0
XRECORD
  5
20
102
{ACAD_REACTORS
330
1A
102
}
330
1A
100
AcDbXrecord
280
     1
270
     1
271
     1
  0
XRECORD
  5
1D
102
{ACAD_REACTORS
330
1A
102
}
330
1A
100
AcDbXrecord
280
     1
270
     1
271
     1
  0
XRECORD
  5
14
102
{ACAD_REACTORS
330
12
102
}
330
12
100
AcDbXrecord
280
     1
270
     1
271
     1
  0
XRECORD
  5
13
102
{ACAD_REACTORS
330
12
102
}
330
12
100
AcDbXrecord
280
     1
270
     1
271
     1
  0
XRECORD
  5
17
102
{ACAD_REACTORS
330
12
102
}
330
12
100
AcDbXrecord
280
     1
270
     1
271
     1
  0
XRECORD
  5
16
102
{ACAD_REACTORS
330
12
102
}
330
12
100
AcDbXrecord
280
     1
270
     1
271
     1
  0
XRECORD
  5
18
102
{ACAD_REACTORS
330
12
102
}
330
12
100
AcDbXrecord
280
     1
270
     1
271
     1
  0
XRECORD
  5
15
102
{ACAD_REACTORS
330
12
102
}
330
12
100
AcDbXrecord
280
     1
270
     1
271
     1
  0
XRECORD
  5
24
102
{ACAD_REACTORS
330
22
102
}
330
22
100
AcDbXrecord
280
     1
270
     1
271
     1
  0
XRECORD
  5
23
102
{ACAD_REACTORS
330
22
102
}
330
22
100
AcDbXrecord
280
     1
270
     1
271
     1
  0
XRECORD
  5
27
102
{ACAD_REACTORS
330
22
102
}
330
22
100
AcDbXrecord
280
     1
270
     1
271
     1
  0
XRECORD
  5
26
102
{ACAD_REACTORS
330
22
102
}
330
22
100
AcDbXrecord
280
     1
270
     1
271
     1
  0
XRECORD
  5
28
102
{ACAD_REACTORS
330
22
102
}
330
22
100
AcDbXrecord
280
     1
270
     1
271
     1
  0
XRECORD
  5
25
102
{ACAD_REACTORS
330
22
102
}
330
22
100
AcDbXrecord
280
     1
270
     1
271
     1
  0
XRECORD
  5
855
102
{ACAD_REACTORS
330
854
102
}
330
854
100
AcDbXrecord
280
     1
102
ACAD_ROUNDTRIP_2012_MLEADER_STYLE
298
     1
  0
XRECORD
  5
857
102
{ACAD_REACTORS
330
856
102
}
330
856
100
AcDbXrecord
280
     1
102
DISPLAYNAME
  1
Metric50
102
FLAGS
 90
        0
  0
CELLSTYLEMAP
  5
816
102
{ACAD_REACTORS
330
815
102
}
330
815
100
AcDbCellStyleMap
 90
        3
300
CELLSTYLE
  1
TABLEFORMAT_BEGIN
 90
        5
170
     1
 91
        0
 92
    32768
 62
   257
 93
        1
300
CONTENTFORMAT
  1
CONTENTFORMAT_BEGIN
 90
        0
 91
        0
 92
      512
 93
        0
300

 40
0.0
140
1.0
 94
        5
 62
     0
340
55
144
6.0
309
CONTENTFORMAT_END
171
     1
301
MARGIN
  1
CELLMARGIN_BEGIN
 40
1.5
 40
1.5
 40
1.5
 40
1.5
 40
4.5
 40
4.5
309
CELLMARGIN_END
 94
        6
 95
        1
302
GRIDFORMAT
  1
GRIDFORMAT_BEGIN
 90
        0
 91
        1
 62
     0
 92
       -2
340
0
 93
        0
 40
1.125
309
GRIDFORMAT_END
 95
        2
302
GRIDFORMAT
  1
GRIDFORMAT_BEGIN
 90
        0
 91
        1
 62
     0
 92
       -2
340
0
 93
        0
 40
1.125
309
GRIDFORMAT_END
 95
        4
302
GRIDFORMAT
  1
GRIDFORMAT_BEGIN
 90
        0
 91
        1
 62
     0
 92
       -2
340
0
 93
        0
 40
1.125
309
GRIDFORMAT_END
 95
        8
302
GRIDFORMAT
  1
GRIDFORMAT_BEGIN
 90
        0
 91
        1
 62
     0
 92
       -2
340
0
 93
        0
 40
1.125
309
GRIDFORMAT_END
 95
       16
302
GRIDFORMAT
  1
GRIDFORMAT_BEGIN
 90
        0
 91
        1
 62
     0
 92
       -2
340
0
 93
        0
 40
1.125
309
GRIDFORMAT_END
 95
       32
302
GRIDFORMAT
  1
GRIDFORMAT_BEGIN
 90
        0
 91
        1
 62
     0
 92
       -2
340
0
 93
        0
 40
1.125
309
GRIDFORMAT_END
309
TABLEFORMAT_END
  1
CELLSTYLE_BEGIN
 90
        1
 91
        1
300
_TITLE
309
CELLSTYLE_END
300
CELLSTYLE
  1
TABLEFORMAT_BEGIN
 90
        5
170
     1
 91
        0
 92
        0
 62
   257
 93
        1
300
CONTENTFORMAT
  1
CONTENTFORMAT_BEGIN
 90
        0
 91
        0
 92
      512
 93
        0
300

 40
0.0
140
1.0
 94
        5
 62
     0
340
55
144
4.5
309
CONTENTFORMAT_END
171
     1
301
MARGIN
  1
CELLMARGIN_BEGIN
 40
1.5
 40
1.5
 40
1.5
 40
1.5
 40
4.5
 40
4.5
309
CELLMARGIN_END
 94
        6
 95
        1
302
GRIDFORMAT
  1
GRIDFORMAT_BEGIN
 90
        0
 91
        1
 62
     0
 92
       -2
340
0
 93
        0
 40
1.125
309
GRIDFORMAT_END
 95
        2
302
GRIDFORMAT
  1
GRIDFORMAT_BEGIN
 90
        0
 91
        1
 62
     0
 92
       -2
340
0
 93
        0
 40
1.125
309
GRIDFORMAT_END
 95
        4
302
GRIDFORMAT
  1
GRIDFORMAT_BEGIN
 90
        0
 91
        1
 62
     0
 92
       -2
340
0
 93
        0
 40
1.125
309
GRIDFORMAT_END
 95
        8
302
GRIDFORMAT
  1
GRIDFORMAT_BEGIN
 90
        0
 91
        1
 62
     0
 92
       -2
340
0
 93
        0
 40
1.125
309
GRIDFORMAT_END
 95
       16
302
GRIDFORMAT
  1
GRIDFORMAT_BEGIN
 90
        0
 91
        1
 62
     0
 92
       -2
340
0
 93
        0
 40
1.125
309
GRIDFORMAT_END
 95
       32
302
GRIDFORMAT
  1
GRIDFORMAT_BEGIN
 90
        0
 91
        1
 62
     0
 92
       -2
340
0
 93
        0
 40
1.125
309
GRIDFORMAT_END
309
TABLEFORMAT_END
  1
CELLSTYLE_BEGIN
 90
        2
 91
        1
300
_HEADER
309
CELLSTYLE_END
300
CELLSTYLE
  1
TABLEFORMAT_BEGIN
 90
        5
170
     1
 91
        0
 92
        0
 62
   257
 93
        1
300
CONTENTFORMAT
  1
CONTENTFORMAT_BEGIN
 90
        0
 91
        0
 92
      512
 93
        0
300

 40
0.0
140
1.0
 94
        2
 62
     0
340
55
144
4.5
309
CONTENTFORMAT_END
171
     1
301
MARGIN
  1
CELLMARGIN_BEGIN
 40
1.5
 40
1.5
 40
1.5
 40
1.5
 40
4.5
 40
4.5
309
CELLMARGIN_END
 94
        6
 95
        1
302
GRIDFORMAT
  1
GRIDFORMAT_BEGIN
 90
        0
 91
        1
 62
     0
 92
       -2
340
0
 93
        0
 40
1.125
309
GRIDFORMAT_END
 95
        2
302
GRIDFORMAT
  1
GRIDFORMAT_BEGIN
 90
        0
 91
        1
 62
     0
 92
       -2
340
0
 93
        0
 40
1.125
309
GRIDFORMAT_END
 95
        4
302
GRIDFORMAT
  1
GRIDFORMAT_BEGIN
 90
        0
 91
        1
 62
     0
 92
       -2
340
0
 93
        0
 40
1.125
309
GRIDFORMAT_END
 95
        8
302
GRIDFORMAT
  1
GRIDFORMAT_BEGIN
 90
        0
 91
        1
 62
     0
 92
       -2
340
0
 93
        0
 40
1.125
309
GRIDFORMAT_END
 95
       16
302
GRIDFORMAT
  1
GRIDFORMAT_BEGIN
 90
        0
 91
        1
 62
     0
 92
       -2
340
0
 93
        0
 40
1.125
309
GRIDFORMAT_END
 95
       32
302
GRIDFORMAT
  1
GRIDFORMAT_BEGIN
 90
        0
 91
        1
 62
     0
 92
       -2
340
0
 93
        0
 40
1.125
309
GRIDFORMAT_END
309
TABLEFORMAT_END
  1
CELLSTYLE_BEGIN
 90
        3
 91
        2
300
_DATA
309
CELLSTYLE_END
  0
XRECORD
  5
82E
102
{ACAD_REACTORS
330
82D
102
}
330
82D
100
AcDbXrecord
280
     1
102
RTVSPost2010Prop28
280
     1
102
RTVSPost2010PropOp28
 70
     1
102
RTVSPost2010Prop29
280
     1
102
RTVSPost2010PropOp29
 70
     1
102
RTVSPost2010Prop30
280
     0
102
RTVSPost2010PropOp30
 70
     1
102
RTVSPost2010Prop31
280
     0
102
RTVSPost2010PropOp31
 70
     1
102
RTVSPost2010Prop32
280
     0
102
RTVSPost2010PropOp32
 70
     1
102
RTVSPost2010Prop33
280
     0
102
RTVSPost2010PropOp33
 70
     1
102
RTVSPost2010Prop34
280
     0
102
RTVSPost2010PropOp34
 70
     1
102
RTVSPost2010Prop35
280
     0
102
RTVSPost2010PropOp35
 70
     1
102
RTVSPost2010Prop36
280
     0
102
RTVSPost2010PropOp36
 70
     1
102
RTVSPost2010Prop37
 90
       50
102
RTVSPost2010PropOp37
 70
     1
102
RTVSPost2010Prop38
140
0.0
102
RTVSPost2010PropOp38
 70
     1
102
RTVSPost2010Prop39
140
1.0
102
RTVSPost2010PropOp39
 70
     1
102
RTVSPost2010Prop40
 90
        0
102
RTVSPost2010PropOp40
 70
     1
102
RTVSPost2010Prop41ColorIndex
 90
       18
102
RTVSPost2010Prop41ColorRGB
 90
        0
102
RTVSPost2010PropOp41
 70
     1
102
RTVSPost2010Prop42
 90
       50
102
RTVSPost2010PropOp42
 70
     1
102
RTVSPost2010Prop43
 90
        3
102
RTVSPost2010PropOp43
 70
     1
102
RTVSPost2010Prop44ColorIndex
 90
        5
102
RTVSPost2010Prop44ColorRGB
 90
      255
102
RTVSPost2010PropOp44
 70
     1
102
RTVSPost2010Prop45
280
     0
102
RTVSPost2010PropOp45
 70
     1
102
RTVSPost2010Prop46
 90
       50
102
RTVSPost2010PropOp46
 70
     1
102
RTVSPost2010Prop47
 90
       50
102
RTVSPost2010PropOp47
 70
     1
102
RTVSPost2010Prop48
 90
       50
102
RTVSPost2010PropOp48
 70
     1
102
RTVSPost2010Prop49
280
     0
102
RTVSPost2010PropOp49
 70
     1
102
RTVSPost2010Prop50
 90
       50
102
RTVSPost2010PropOp50
 70
     1
102
RTVSPost2010Prop51ColorIndex
 90
      256
102
RTVSPost2010Prop51ColorRGB
 90
-16777216
102
RTVSPost2010PropOp51
 70
     0
102
RTVSPost2010Prop52
140
1.0
102
RTVSPost2010PropOp52
 70
     0
102
RTVSPost2010Prop53
 90
        2
102
RTVSPost2010PropOp53
 70
     1
102
RTVSPost2010Prop54
  1
strokes_ogs.tif
102
RTVSPost2010PropOp54
 70
     1
102
RTVSPost2010Prop55
280
     0
102
RTVSPost2010PropOp55
 70
     1
102
RTVSPost2010Prop56
140
1.0
102
RTVSPost2010PropOp56
 70
     1
102
RTVSPost2010Prop57
140
1.0
102
RTVSPost2010PropOp57
 70
     1
102
RTVSPropertyOp0
 70
     1
102
RTVSPropertyOp1
 70
     1
102
RTVSPropertyOp2
 70
     1
102
RTVSPropertyOp3
 70
     1
102
RTVSPropertyOp4
 70
     1
102
RTVSPropertyOp5
 70
     1
102
RTVSPropertyOp6
 70
     1
102
RTVSPropertyOp7
 70
     1
102
RTVSPropertyOp8
 70
     1
102
RTVSPropertyOp9
 70
     1
102
RTVSPropertyOp10
 70
     1
102
RTVSPropertyOp11
 70
     1
102
RTVSPropertyOp12
 70
     1
102
RTVSPropertyOp13
 70
     1
102
RTVSPropertyOp14
 70
     1
102
RTVSPropertyOp15
 70
     1
102
RTVSPropertyOp16
 70
     1
102
RTVSPropertyOp17
 70
     1
102
RTVSPropertyOp18
 70
     1
102
RTVSPropertyOp19
 70
     1
102
RTVSPropertyOp20
 70
     1
102
RTVSPropertyOp21
 70
     1
102
RTVSPropertyOp22
 70
     1
102
RTVSPropertyOp23
 70
     1
102
RTVSPropertyOp24
 70
     1
102
RTVSPropertyOp25
 70
     1
102
RTVSPropertyOp26
 70
     1
102
RTVSPropertyOp27
 70
     1
102
RTVSPropertyOp28
 70
     1
102
RTVSPropertyOp29
 70
     1
102
RTVSPropertyOp30
 70
     1
102
RTVSPropertyOp31
 70
     1
102
RTVSPropertyOp32
 70
     1
102
RTVSPropertyOp33
 70
     1
102
RTVSPropertyOp34
 70
     1
102
RTVSPropertyOp35
 70
     1
102
RTVSPropertyOp36
 70
     1
102
RTVSPropertyOp37
 70
     1
102
RTVSPropertyOp38
 70
     1
102
RTVSPropertyOp39
 70
     1
102
RTVSPropertyOp40
 70
     1
102
RTVSPropertyOp41
 70
     1
102
RTVSPropertyOp42
 70
     1
102
RTVSPropertyOp43
 70
     1
102
RTVSPropertyOp44
 70
     1
102
RTVSPropertyOp45
 70
     1
102
RTVSPropertyOp46
 70
     1
102
RTVSPropertyOp47
 70
     1
102
RTVSPropertyOp48
 70
     1
102
RTVSPropertyOp49
 70
     1
102
RTVSPropertyOp50
 70
     1
102
RTVSPropertyOp51
 70
     0
102
RTVSPropertyOp52
 70
     0
102
RTVSPropertyOp53
 70
     1
102
RTVSPropertyOp54
 70
     1
102
RTVSPropertyOp55
 70
     1
102
RTVSPropertyOp56
 70
     1
102
RTVSPropertyOp57
 70
     1
102
RTVSPropertyOp58
 70
     1
102
RTVSPropertyOp59
 70
     1
102
RTVSPropertyOp60
 70
     1
102
RTVSPropertyOp61
 70
     1
102
RTVSPropertyOp62
 70
     1
  0
XRECORD
  5
82C
102
{ACAD_REACTORS
330
82B
102
}
330
82B
100
AcDbXrecord
280
     1
102
RTVSPost2010Prop28
280
     0
102
RTVSPost2010PropOp28
 70
     1
102
RTVSPost2010Prop29
280
     1
102
RTVSPost2010PropOp29
 70
     1
102
RTVSPost2010Prop30
280
     1
102
RTVSPost2010PropOp30
 70
     1
102
RTVSPost2010Prop31
280
     0
102
RTVSPost2010PropOp31
 70
     1
102
RTVSPost2010Prop32
280
     0
102
RTVSPost2010PropOp32
 70
     1
102
RTVSPost2010Prop33
280
     0
102
RTVSPost2010PropOp33
 70
     1
102
RTVSPost2010Prop34
280
     0
102
RTVSPost2010PropOp34
 70
     1
102
RTVSPost2010Prop35
280
     0
102
RTVSPost2010PropOp35
 70
     1
102
RTVSPost2010Prop36
280
     0
102
RTVSPost2010PropOp36
 70
     1
102
RTVSPost2010Prop37
 90
       50
102
RTVSPost2010PropOp37
 70
     1
102
RTVSPost2010Prop38
140
0.0
102
RTVSPost2010PropOp38
 70
     1
102
RTVSPost2010Prop39
140
1.0
102
RTVSPost2010PropOp39
 70
     1
102
RTVSPost2010Prop40
 90
        0
102
RTVSPost2010PropOp40
 70
     1
102
RTVSPost2010Prop41ColorIndex
 90
       18
102
RTVSPost2010Prop41ColorRGB
 90
        0
102
RTVSPost2010PropOp41
 70
     1
102
RTVSPost2010Prop42
 90
       50
102
RTVSPost2010PropOp42
 70
     1
102
RTVSPost2010Prop43
 90
        3
102
RTVSPost2010PropOp43
 70
     1
102
RTVSPost2010Prop44ColorIndex
 90
        5
102
RTVSPost2010Prop44ColorRGB
 90
      255
102
RTVSPost2010PropOp44
 70
     1
102
RTVSPost2010Prop45
280
     0
102
RTVSPost2010PropOp45
 70
     1
102
RTVSPost2010Prop46
 90
       50
102
RTVSPost2010PropOp46
 70
     1
102
RTVSPost2010Prop47
 90
       50
102
RTVSPost2010PropOp47
 70
     1
102
RTVSPost2010Prop48
 90
       50
102
RTVSPost2010PropOp48
 70
     1
102
RTVSPost2010Prop49
280
     0
102
RTVSPost2010PropOp49
 70
     1
102
RTVSPost2010Prop50
 90
       50
102
RTVSPost2010PropOp50
 70
     1
102
RTVSPost2010Prop51ColorIndex
 90
      256
102
RTVSPost2010Prop51ColorRGB
 90
-16777216
102
RTVSPost2010PropOp51
 70
     0
102
RTVSPost2010Prop52
140
1.0
102
RTVSPost2010PropOp52
 70
     0
102
RTVSPost2010Prop53
 90
        2
102
RTVSPost2010PropOp53
 70
     1
102
RTVSPost2010Prop54
  1
strokes_ogs.tif
102
RTVSPost2010PropOp54
 70
     1
102
RTVSPost2010Prop55
280
     0
102
RTVSPost2010PropOp55
 70
     1
102
RTVSPost2010Prop56
140
1.0
102
RTVSPost2010PropOp56
 70
     1
102
RTVSPost2010Prop57
140
1.0
102
RTVSPost2010PropOp57
 70
     1
102
RTVSPropertyOp0
 70
     1
102
RTVSPropertyOp1
 70
     1
102
RTVSPropertyOp2
 70
     1
102
RTVSPropertyOp3
 70
     1
102
RTVSPropertyOp4
 70
     1
102
RTVSPropertyOp5
 70
     1
102
RTVSPropertyOp6
 70
     1
102
RTVSPropertyOp7
 70
     1
102
RTVSPropertyOp8
 70
     1
102
RTVSPropertyOp9
 70
     1
102
RTVSPropertyOp10
 70
     1
102
RTVSPropertyOp11
 70
     1
102
RTVSPropertyOp12
 70
     1
102
RTVSPropertyOp13
 70
     1
102
RTVSPropertyOp14
 70
     1
102
RTVSPropertyOp15
 70
     1
102
RTVSPropertyOp16
 70
     1
102
RTVSPropertyOp17
 70
     1
102
RTVSPropertyOp18
 70
     1
102
RTVSPropertyOp19
 70
     1
102
RTVSPropertyOp20
 70
     1
102
RTVSPropertyOp21
 70
     1
102
RTVSPropertyOp22
 70
     1
102
RTVSPropertyOp23
 70
     1
102
RTVSPropertyOp24
 70
     1
102
RTVSPropertyOp25
 70
     1
102
RTVSPropertyOp26
 70
     1
102
RTVSPropertyOp27
 70
     1
102
RTVSPropertyOp28
 70
     1
102
RTVSPropertyOp29
 70
     1
102
RTVSPropertyOp30
 70
     1
102
RTVSPropertyOp31
 70
     1
102
RTVSPropertyOp32
 70
     1
102
RTVSPropertyOp33
 70
     1
102
RTVSPropertyOp34
 70
     1
102
RTVSPropertyOp35
 70
     1
102
RTVSPropertyOp36
 70
     1
102
RTVSPropertyOp37
 70
     1
102
RTVSPropertyOp38
 70
     1
102
RTVSPropertyOp39
 70
     1
102
RTVSPropertyOp40
 70
     1
102
RTVSPropertyOp41
 70
     1
102
RTVSPropertyOp42
 70
     1
102
RTVSPropertyOp43
 70
     1
102
RTVSPropertyOp44
 70
     1
102
RTVSPropertyOp45
 70
     1
102
RTVSPropertyOp46
 70
     1
102
RTVSPropertyOp47
 70
     1
102
RTVSPropertyOp48
 70
     1
102
RTVSPropertyOp49
 70
     1
102
RTVSPropertyOp50
 70
     1
102
RTVSPropertyOp51
 70
     0
102
RTVSPropertyOp52
 70
     0
102
RTVSPropertyOp53
 70
     1
102
RTVSPropertyOp54
 70
     1
102
RTVSPropertyOp55
 70
     1
102
RTVSPropertyOp56
 70
     1
102
RTVSPropertyOp57
 70
     1
102
RTVSPropertyOp58
 70
     1
102
RTVSPropertyOp59
 70
     1
102
RTVSPropertyOp60
 70
     1
102
RTVSPropertyOp61
 70
     1
102
RTVSPropertyOp62
 70
     1
  0
XRECORD
  5
83A
102
{ACAD_REACTORS
330
839
102
}
330
839
100
AcDbXrecord
280
     1
102
RTVSPost2010Prop28
280
     0
102
RTVSPost2010PropOp28
 70
     1
102
RTVSPost2010Prop29
280
     1
102
RTVSPost2010PropOp29
 70
     1
102
RTVSPost2010Prop30
280
     1
102
RTVSPost2010PropOp30
 70
     1
102
RTVSPost2010Prop31
280
     0
102
RTVSPost2010PropOp31
 70
     1
102
RTVSPost2010Prop32
280
     0
102
RTVSPost2010PropOp32
 70
     1
102
RTVSPost2010Prop33
280
     0
102
RTVSPost2010PropOp33
 70
     1
102
RTVSPost2010Prop34
280
     0
102
RTVSPost2010PropOp34
 70
     1
102
RTVSPost2010Prop35
280
     0
102
RTVSPost2010PropOp35
 70
     1
102
RTVSPost2010Prop36
280
     0
102
RTVSPost2010PropOp36
 70
     1
102
RTVSPost2010Prop37
 90
       50
102
RTVSPost2010PropOp37
 70
     1
102
RTVSPost2010Prop38
140
0.0
102
RTVSPost2010PropOp38
 70
     1
102
RTVSPost2010Prop39
140
1.0
102
RTVSPost2010PropOp39
 70
     1
102
RTVSPost2010Prop40
 90
        0
102
RTVSPost2010PropOp40
 70
     1
102
RTVSPost2010Prop41ColorIndex
 90
       18
102
RTVSPost2010Prop41ColorRGB
 90
        0
102
RTVSPost2010PropOp41
 70
     1
102
RTVSPost2010Prop42
 90
       50
102
RTVSPost2010PropOp42
 70
     1
102
RTVSPost2010Prop43
 90
        3
102
RTVSPost2010PropOp43
 70
     1
102
RTVSPost2010Prop44ColorIndex
 90
        5
102
RTVSPost2010Prop44ColorRGB
 90
      255
102
RTVSPost2010PropOp44
 70
     1
102
RTVSPost2010Prop45
280
     0
102
RTVSPost2010PropOp45
 70
     1
102
RTVSPost2010Prop46
 90
       50
102
RTVSPost2010PropOp46
 70
     1
102
RTVSPost2010Prop47
 90
       50
102
RTVSPost2010PropOp47
 70
     1
102
RTVSPost2010Prop48
 90
       50
102
RTVSPost2010PropOp48
 70
     1
102
RTVSPost2010Prop49
280
     0
102
RTVSPost2010PropOp49
 70
     1
102
RTVSPost2010Prop50
 90
       50
102
RTVSPost2010PropOp50
 70
     1
102
RTVSPost2010Prop51ColorIndex
 90
      256
102
RTVSPost2010Prop51ColorRGB
 90
-16777216
102
RTVSPost2010PropOp51
 70
     0
102
RTVSPost2010Prop52
140
1.0
102
RTVSPost2010PropOp52
 70
     0
102
RTVSPost2010Prop53
 90
        2
102
RTVSPost2010PropOp53
 70
     1
102
RTVSPost2010Prop54
  1
strokes_ogs.tif
102
RTVSPost2010PropOp54
 70
     1
102
RTVSPost2010Prop55
280
     0
102
RTVSPost2010PropOp55
 70
     1
102
RTVSPost2010Prop56
140
1.0
102
RTVSPost2010PropOp56
 70
     1
102
RTVSPost2010Prop57
140
1.0
102
RTVSPost2010PropOp57
 70
     1
102
RTVSPropertyOp0
 70
     1
102
RTVSPropertyOp1
 70
     1
102
RTVSPropertyOp2
 70
     1
102
RTVSPropertyOp3
 70
     1
102
RTVSPropertyOp4
 70
     1
102
RTVSPropertyOp5
 70
     1
102
RTVSPropertyOp6
 70
     1
102
RTVSPropertyOp7
 70
     1
102
RTVSPropertyOp8
 70
     1
102
RTVSPropertyOp9
 70
     1
102
RTVSPropertyOp10
 70
     1
102
RTVSPropertyOp11
 70
     1
102
RTVSPropertyOp12
 70
     1
102
RTVSPropertyOp13
 70
     1
102
RTVSPropertyOp14
 70
     1
102
RTVSPropertyOp15
 70
     1
102
RTVSPropertyOp16
 70
     1
102
RTVSPropertyOp17
 70
     1
102
RTVSPropertyOp18
 70
     1
102
RTVSPropertyOp19
 70
     1
102
RTVSPropertyOp20
 70
     1
102
RTVSPropertyOp21
 70
     1
102
RTVSPropertyOp22
 70
     1
102
RTVSPropertyOp23
 70
     1
102
RTVSPropertyOp24
 70
     1
102
RTVSPropertyOp25
 70
     1
102
RTVSPropertyOp26
 70
     1
102
RTVSPropertyOp27
 70
     1
102
RTVSPropertyOp28
 70
     1
102
RTVSPropertyOp29
 70
     1
102
RTVSPropertyOp30
 70
     1
102
RTVSPropertyOp31
 70
     1
102
RTVSPropertyOp32
 70
     1
102
RTVSPropertyOp33
 70
     1
102
RTVSPropertyOp34
 70
     1
102
RTVSPropertyOp35
 70
     1
102
RTVSPropertyOp36
 70
     1
102
RTVSPropertyOp37
 70
     1
102
RTVSPropertyOp38
 70
     1
102
RTVSPropertyOp39
 70
     1
102
RTVSPropertyOp40
 70
     1
102
RTVSPropertyOp41
 70
     1
102
RTVSPropertyOp42
 70
     1
102
RTVSPropertyOp43
 70
     1
102
RTVSPropertyOp44
 70
     1
102
RTVSPropertyOp45
 70
     1
102
RTVSPropertyOp46
 70
     1
102
RTVSPropertyOp47
 70
     1
102
RTVSPropertyOp48
 70
     1
102
RTVSPropertyOp49
 70
     1
102
RTVSPropertyOp50
 70
     1
102
RTVSPropertyOp51
 70
     0
102
RTVSPropertyOp52
 70
     0
102
RTVSPropertyOp53
 70
     1
102
RTVSPropertyOp54
 70
     1
102
RTVSPropertyOp55
 70
     1
102
RTVSPropertyOp56
 70
     1
102
RTVSPropertyOp57
 70
     1
102
RTVSPropertyOp58
 70
     1
102
RTVSPropertyOp59
 70
     1
102
RTVSPropertyOp60
 70
     1
102
RTVSPropertyOp61
 70
     1
102
RTVSPropertyOp62
 70
     1
  0
XRECORD
  5
842
102
{ACAD_REACTORS
330
841
102
}
330
841
100
AcDbXrecord
280
     1
102
RTVSPost2010Prop28
280
     0
102
RTVSPost2010PropOp28
 70
     1
102
RTVSPost2010Prop29
280
     1
102
RTVSPost2010PropOp29
 70
     1
102
RTVSPost2010Prop30
280
     1
102
RTVSPost2010PropOp30
 70
     1
102
RTVSPost2010Prop31
280
     0
102
RTVSPost2010PropOp31
 70
     1
102
RTVSPost2010Prop32
280
     0
102
RTVSPost2010PropOp32
 70
     1
102
RTVSPost2010Prop33
280
     0
102
RTVSPost2010PropOp33
 70
     1
102
RTVSPost2010Prop34
280
     0
102
RTVSPost2010PropOp34
 70
     1
102
RTVSPost2010Prop35
280
     0
102
RTVSPost2010PropOp35
 70
     1
102
RTVSPost2010Prop36
280
     0
102
RTVSPost2010PropOp36
 70
     1
102
RTVSPost2010Prop37
 90
       50
102
RTVSPost2010PropOp37
 70
     1
102
RTVSPost2010Prop38
140
0.0
102
RTVSPost2010PropOp38
 70
     1
102
RTVSPost2010Prop39
140
1.0
102
RTVSPost2010PropOp39
 70
     1
102
RTVSPost2010Prop40
 90
        0
102
RTVSPost2010PropOp40
 70
     1
102
RTVSPost2010Prop41ColorIndex
 90
       18
102
RTVSPost2010Prop41ColorRGB
 90
        0
102
RTVSPost2010PropOp41
 70
     1
102
RTVSPost2010Prop42
 90
       50
102
RTVSPost2010PropOp42
 70
     1
102
RTVSPost2010Prop43
 90
        3
102
RTVSPost2010PropOp43
 70
     1
102
RTVSPost2010Prop44ColorIndex
 90
        5
102
RTVSPost2010Prop44ColorRGB
 90
      255
102
RTVSPost2010PropOp44
 70
     1
102
RTVSPost2010Prop45
280
     0
102
RTVSPost2010PropOp45
 70
     1
102
RTVSPost2010Prop46
 90
       50
102
RTVSPost2010PropOp46
 70
     1
102
RTVSPost2010Prop47
 90
       50
102
RTVSPost2010PropOp47
 70
     1
102
RTVSPost2010Prop48
 90
       50
102
RTVSPost2010PropOp48
 70
     1
102
RTVSPost2010Prop49
280
     0
102
RTVSPost2010PropOp49
 70
     1
102
RTVSPost2010Prop50
 90
       50
102
RTVSPost2010PropOp50
 70
     1
102
RTVSPost2010Prop51ColorIndex
 90
      256
102
RTVSPost2010Prop51ColorRGB
 90
-16777216
102
RTVSPost2010PropOp51
 70
     0
102
RTVSPost2010Prop52
140
1.0
102
RTVSPost2010PropOp52
 70
     0
102
RTVSPost2010Prop53
 90
        2
102
RTVSPost2010PropOp53
 70
     1
102
RTVSPost2010Prop54
  1
strokes_ogs.tif
102
RTVSPost2010PropOp54
 70
     1
102
RTVSPost2010Prop55
280
     0
102
RTVSPost2010PropOp55
 70
     1
102
RTVSPost2010Prop56
140
1.0
102
RTVSPost2010PropOp56
 70
     1
102
RTVSPost2010Prop57
140
1.0
102
RTVSPost2010PropOp57
 70
     1
102
RTVSPropertyOp0
 70
     1
102
RTVSPropertyOp1
 70
     1
102
RTVSPropertyOp2
 70
     1
102
RTVSPropertyOp3
 70
     1
102
RTVSPropertyOp4
 70
     1
102
RTVSPropertyOp5
 70
     1
102
RTVSPropertyOp6
 70
     1
102
RTVSPropertyOp7
 70
     1
102
RTVSPropertyOp8
 70
     1
102
RTVSPropertyOp9
 70
     1
102
RTVSPropertyOp10
 70
     1
102
RTVSPropertyOp11
 70
     1
102
RTVSPropertyOp12
 70
     1
102
RTVSPropertyOp13
 70
     1
102
RTVSPropertyOp14
 70
     1
102
RTVSPropertyOp15
 70
     1
102
RTVSPropertyOp16
 70
     1
102
RTVSPropertyOp17
 70
     1
102
RTVSPropertyOp18
 70
     1
102
RTVSPropertyOp19
 70
     1
102
RTVSPropertyOp20
 70
     1
102
RTVSPropertyOp21
 70
     1
102
RTVSPropertyOp22
 70
     1
102
RTVSPropertyOp23
 70
     1
102
RTVSPropertyOp24
 70
     1
102
RTVSPropertyOp25
 70
     1
102
RTVSPropertyOp26
 70
     1
102
RTVSPropertyOp27
 70
     1
102
RTVSPropertyOp28
 70
     1
102
RTVSPropertyOp29
 70
     1
102
RTVSPropertyOp30
 70
     1
102
RTVSPropertyOp31
 70
     1
102
RTVSPropertyOp32
 70
     1
102
RTVSPropertyOp33
 70
     1
102
RTVSPropertyOp34
 70
     1
102
RTVSPropertyOp35
 70
     1
102
RTVSPropertyOp36
 70
     1
102
RTVSPropertyOp37
 70
     1
102
RTVSPropertyOp38
 70
     1
102
RTVSPropertyOp39
 70
     1
102
RTVSPropertyOp40
 70
     1
102
RTVSPropertyOp41
 70
     1
102
RTVSPropertyOp42
 70
     1
102
RTVSPropertyOp43
 70
     1
102
RTVSPropertyOp44
 70
     1
102
RTVSPropertyOp45
 70
     1
102
RTVSPropertyOp46
 70
     1
102
RTVSPropertyOp47
 70
     1
102
RTVSPropertyOp48
 70
     1
102
RTVSPropertyOp49
 70
     1
102
RTVSPropertyOp50
 70
     1
102
RTVSPropertyOp51
 70
     0
102
RTVSPropertyOp52
 70
     0
102
RTVSPropertyOp53
 70
     1
102
RTVSPropertyOp54
 70
     1
102
RTVSPropertyOp55
 70
     1
102
RTVSPropertyOp56
 70
     1
102
RTVSPropertyOp57
 70
     1
102
RTVSPropertyOp58
 70
     1
102
RTVSPropertyOp59
 70
     1
102
RTVSPropertyOp60
 70
     1
102
RTVSPropertyOp61
 70
     1
102
RTVSPropertyOp62
 70
     1
  0
XRECORD
  5
834
102
{ACAD_REACTORS
330
833
102
}
330
833
100
AcDbXrecord
280
     1
102
RTVSPost2010Prop28
280
     0
102
RTVSPost2010PropOp28
 70
     1
102
RTVSPost2010Prop29
280
     1
102
RTVSPost2010PropOp29
 70
     1
102
RTVSPost2010Prop30
280
     1
102
RTVSPost2010PropOp30
 70
     1
102
RTVSPost2010Prop31
280
     0
102
RTVSPost2010PropOp31
 70
     1
102
RTVSPost2010Prop32
280
     0
102
RTVSPost2010PropOp32
 70
     1
102
RTVSPost2010Prop33
280
     0
102
RTVSPost2010PropOp33
 70
     1
102
RTVSPost2010Prop34
280
     0
102
RTVSPost2010PropOp34
 70
     1
102
RTVSPost2010Prop35
280
     0
102
RTVSPost2010PropOp35
 70
     1
102
RTVSPost2010Prop36
280
     0
102
RTVSPost2010PropOp36
 70
     1
102
RTVSPost2010Prop37
 90
       50
102
RTVSPost2010PropOp37
 70
     1
102
RTVSPost2010Prop38
140
0.0
102
RTVSPost2010PropOp38
 70
     1
102
RTVSPost2010Prop39
140
1.0
102
RTVSPost2010PropOp39
 70
     1
102
RTVSPost2010Prop40
 90
        0
102
RTVSPost2010PropOp40
 70
     1
102
RTVSPost2010Prop41ColorIndex
 90
       18
102
RTVSPost2010Prop41ColorRGB
 90
        0
102
RTVSPost2010PropOp41
 70
     1
102
RTVSPost2010Prop42
 90
       50
102
RTVSPost2010PropOp42
 70
     1
102
RTVSPost2010Prop43
 90
        3
102
RTVSPost2010PropOp43
 70
     1
102
RTVSPost2010Prop44ColorIndex
 90
        5
102
RTVSPost2010Prop44ColorRGB
 90
      255
102
RTVSPost2010PropOp44
 70
     1
102
RTVSPost2010Prop45
280
     0
102
RTVSPost2010PropOp45
 70
     1
102
RTVSPost2010Prop46
 90
       50
102
RTVSPost2010PropOp46
 70
     1
102
RTVSPost2010Prop47
 90
       50
102
RTVSPost2010PropOp47
 70
     1
102
RTVSPost2010Prop48
 90
       50
102
RTVSPost2010PropOp48
 70
     1
102
RTVSPost2010Prop49
280
     0
102
RTVSPost2010PropOp49
 70
     1
102
RTVSPost2010Prop50
 90
       50
102
RTVSPost2010PropOp50
 70
     1
102
RTVSPost2010Prop51ColorIndex
 90
      256
102
RTVSPost2010Prop51ColorRGB
 90
-16777216
102
RTVSPost2010PropOp51
 70
     0
102
RTVSPost2010Prop52
140
1.0
102
RTVSPost2010PropOp52
 70
     0
102
RTVSPost2010Prop53
 90
        2
102
RTVSPost2010PropOp53
 70
     1
102
RTVSPost2010Prop54
  1
strokes_ogs.tif
102
RTVSPost2010PropOp54
 70
     1
102
RTVSPost2010Prop55
280
     0
102
RTVSPost2010PropOp55
 70
     1
102
RTVSPost2010Prop56
140
1.0
102
RTVSPost2010PropOp56
 70
     1
102
RTVSPost2010Prop57
140
1.0
102
RTVSPost2010PropOp57
 70
     1
102
RTVSPropertyOp0
 70
     1
102
RTVSPropertyOp1
 70
     1
102
RTVSPropertyOp2
 70
     1
102
RTVSPropertyOp3
 70
     1
102
RTVSPropertyOp4
 70
     1
102
RTVSPropertyOp5
 70
     1
102
RTVSPropertyOp6
 70
     1
102
RTVSPropertyOp7
 70
     1
102
RTVSPropertyOp8
 70
     1
102
RTVSPropertyOp9
 70
     1
102
RTVSPropertyOp10
 70
     1
102
RTVSPropertyOp11
 70
     1
102
RTVSPropertyOp12
 70
     1
102
RTVSPropertyOp13
 70
     1
102
RTVSPropertyOp14
 70
     1
102
RTVSPropertyOp15
 70
     1
102
RTVSPropertyOp16
 70
     1
102
RTVSPropertyOp17
 70
     1
102
RTVSPropertyOp18
 70
     1
102
RTVSPropertyOp19
 70
     1
102
RTVSPropertyOp20
 70
     1
102
RTVSPropertyOp21
 70
     1
102
RTVSPropertyOp22
 70
     1
102
RTVSPropertyOp23
 70
     1
102
RTVSPropertyOp24
 70
     1
102
RTVSPropertyOp25
 70
     1
102
RTVSPropertyOp26
 70
     1
102
RTVSPropertyOp27
 70
     1
102
RTVSPropertyOp28
 70
     1
102
RTVSPropertyOp29
 70
     1
102
RTVSPropertyOp30
 70
     1
102
RTVSPropertyOp31
 70
     1
102
RTVSPropertyOp32
 70
     1
102
RTVSPropertyOp33
 70
     1
102
RTVSPropertyOp34
 70
     1
102
RTVSPropertyOp35
 70
     1
102
RTVSPropertyOp36
 70
     1
102
RTVSPropertyOp37
 70
     1
102
RTVSPropertyOp38
 70
     1
102
RTVSPropertyOp39
 70
     1
102
RTVSPropertyOp40
 70
     1
102
RTVSPropertyOp41
 70
     1
102
RTVSPropertyOp42
 70
     1
102
RTVSPropertyOp43
 70
     1
102
RTVSPropertyOp44
 70
     1
102
RTVSPropertyOp45
 70
     1
102
RTVSPropertyOp46
 70
     1
102
RTVSPropertyOp47
 70
     1
102
RTVSPropertyOp48
 70
     1
102
RTVSPropertyOp49
 70
     1
102
RTVSPropertyOp50
 70
     1
102
RTVSPropertyOp51
 70
     0
102
RTVSPropertyOp52
 70
     0
102
RTVSPropertyOp53
 70
     1
102
RTVSPropertyOp54
 70
     1
102
RTVSPropertyOp55
 70
     1
102
RTVSPropertyOp56
 70
     1
102
RTVSPropertyOp57
 70
     1
102
RTVSPropertyOp58
 70
     1
102
RTVSPropertyOp59
 70
     1
102
RTVSPropertyOp60
 70
     1
102
RTVSPropertyOp61
 70
     1
102
RTVSPropertyOp62
 70
     1
  0
XRECORD
  5
838
102
{ACAD_REACTORS
330
837
102
}
330
837
100
AcDbXrecord
280
     1
102
RTVSPost2010Prop28
280
     0
102
RTVSPost2010PropOp28
 70
     1
102
RTVSPost2010Prop29
280
     1
102
RTVSPost2010PropOp29
 70
     1
102
RTVSPost2010Prop30
280
     1
102
RTVSPost2010PropOp30
 70
     1
102
RTVSPost2010Prop31
280
     0
102
RTVSPost2010PropOp31
 70
     1
102
RTVSPost2010Prop32
280
     0
102
RTVSPost2010PropOp32
 70
     1
102
RTVSPost2010Prop33
280
     0
102
RTVSPost2010PropOp33
 70
     1
102
RTVSPost2010Prop34
280
     0
102
RTVSPost2010PropOp34
 70
     1
102
RTVSPost2010Prop35
280
     0
102
RTVSPost2010PropOp35
 70
     1
102
RTVSPost2010Prop36
280
     0
102
RTVSPost2010PropOp36
 70
     1
102
RTVSPost2010Prop37
 90
       50
102
RTVSPost2010PropOp37
 70
     1
102
RTVSPost2010Prop38
140
0.0
102
RTVSPost2010PropOp38
 70
     1
102
RTVSPost2010Prop39
140
1.0
102
RTVSPost2010PropOp39
 70
     1
102
RTVSPost2010Prop40
 90
        0
102
RTVSPost2010PropOp40
 70
     1
102
RTVSPost2010Prop41ColorIndex
 90
       18
102
RTVSPost2010Prop41ColorRGB
 90
        0
102
RTVSPost2010PropOp41
 70
     1
102
RTVSPost2010Prop42
 90
       50
102
RTVSPost2010PropOp42
 70
     1
102
RTVSPost2010Prop43
 90
        3
102
RTVSPost2010PropOp43
 70
     1
102
RTVSPost2010Prop44ColorIndex
 90
        5
102
RTVSPost2010Prop44ColorRGB
 90
      255
102
RTVSPost2010PropOp44
 70
     1
102
RTVSPost2010Prop45
280
     0
102
RTVSPost2010PropOp45
 70
     1
102
RTVSPost2010Prop46
 90
       50
102
RTVSPost2010PropOp46
 70
     1
102
RTVSPost2010Prop47
 90
       50
102
RTVSPost2010PropOp47
 70
     1
102
RTVSPost2010Prop48
 90
       50
102
RTVSPost2010PropOp48
 70
     1
102
RTVSPost2010Prop49
280
     0
102
RTVSPost2010PropOp49
 70
     1
102
RTVSPost2010Prop50
 90
       50
102
RTVSPost2010PropOp50
 70
     1
102
RTVSPost2010Prop51ColorIndex
 90
      256
102
RTVSPost2010Prop51ColorRGB
 90
-16777216
102
RTVSPost2010PropOp51
 70
     0
102
RTVSPost2010Prop52
140
1.0
102
RTVSPost2010PropOp52
 70
     0
102
RTVSPost2010Prop53
 90
        2
102
RTVSPost2010PropOp53
 70
     1
102
RTVSPost2010Prop54
  1
strokes_ogs.tif
102
RTVSPost2010PropOp54
 70
     1
102
RTVSPost2010Prop55
280
     0
102
RTVSPost2010PropOp55
 70
     1
102
RTVSPost2010Prop56
140
1.0
102
RTVSPost2010PropOp56
 70
     1
102
RTVSPost2010Prop57
140
1.0
102
RTVSPost2010PropOp57
 70
     1
102
RTVSPropertyOp0
 70
     1
102
RTVSPropertyOp1
 70
     1
102
RTVSPropertyOp2
 70
     1
102
RTVSPropertyOp3
 70
     1
102
RTVSPropertyOp4
 70
     1
102
RTVSPropertyOp5
 70
     1
102
RTVSPropertyOp6
 70
     1
102
RTVSPropertyOp7
 70
     1
102
RTVSPropertyOp8
 70
     1
102
RTVSPropertyOp9
 70
     1
102
RTVSPropertyOp10
 70
     1
102
RTVSPropertyOp11
 70
     1
102
RTVSPropertyOp12
 70
     1
102
RTVSPropertyOp13
 70
     1
102
RTVSPropertyOp14
 70
     1
102
RTVSPropertyOp15
 70
     1
102
RTVSPropertyOp16
 70
     1
102
RTVSPropertyOp17
 70
     1
102
RTVSPropertyOp18
 70
     1
102
RTVSPropertyOp19
 70
     1
102
RTVSPropertyOp20
 70
     1
102
RTVSPropertyOp21
 70
     1
102
RTVSPropertyOp22
 70
     1
102
RTVSPropertyOp23
 70
     1
102
RTVSPropertyOp24
 70
     1
102
RTVSPropertyOp25
 70
     1
102
RTVSPropertyOp26
 70
     1
102
RTVSPropertyOp27
 70
     1
102
RTVSPropertyOp28
 70
     1
102
RTVSPropertyOp29
 70
     1
102
RTVSPropertyOp30
 70
     1
102
RTVSPropertyOp31
 70
     1
102
RTVSPropertyOp32
 70
     1
102
RTVSPropertyOp33
 70
     1
102
RTVSPropertyOp34
 70
     1
102
RTVSPropertyOp35
 70
     1
102
RTVSPropertyOp36
 70
     1
102
RTVSPropertyOp37
 70
     1
102
RTVSPropertyOp38
 70
     1
102
RTVSPropertyOp39
 70
     1
102
RTVSPropertyOp40
 70
     1
102
RTVSPropertyOp41
 70
     1
102
RTVSPropertyOp42
 70
     1
102
RTVSPropertyOp43
 70
     1
102
RTVSPropertyOp44
 70
     1
102
RTVSPropertyOp45
 70
     1
102
RTVSPropertyOp46
 70
     1
102
RTVSPropertyOp47
 70
     1
102
RTVSPropertyOp48
 70
     1
102
RTVSPropertyOp49
 70
     1
102
RTVSPropertyOp50
 70
     1
102
RTVSPropertyOp51
 70
     0
102
RTVSPropertyOp52
 70
     0
102
RTVSPropertyOp53
 70
     1
102
RTVSPropertyOp54
 70
     1
102
RTVSPropertyOp55
 70
     1
102
RTVSPropertyOp56
 70
     1
102
RTVSPropertyOp57
 70
     1
102
RTVSPropertyOp58
 70
     1
102
RTVSPropertyOp59
 70
     1
102
RTVSPropertyOp60
 70
     1
102
RTVSPropertyOp61
 70
     1
102
RTVSPropertyOp62
 70
     1
  0
XRECORD
  5
852
102
{ACAD_REACTORS
330
851
102
}
330
851
100
AcDbXrecord
280
     1
102
RTVSPost2010Prop28
280
     0
102
RTVSPost2010PropOp28
 70
     0
102
RTVSPost2010Prop29
280
     1
102
RTVSPost2010PropOp29
 70
     0
102
RTVSPost2010Prop30
280
     1
102
RTVSPost2010PropOp30
 70
     0
102
RTVSPost2010Prop31
280
     0
102
RTVSPost2010PropOp31
 70
     0
102
RTVSPost2010Prop32
280
     0
102
RTVSPost2010PropOp32
 70
     0
102
RTVSPost2010Prop33
280
     0
102
RTVSPost2010PropOp33
 70
     0
102
RTVSPost2010Prop34
280
     0
102
RTVSPost2010PropOp34
 70
     0
102
RTVSPost2010Prop35
280
     0
102
RTVSPost2010PropOp35
 70
     0
102
RTVSPost2010Prop36
280
     0
102
RTVSPost2010PropOp36
 70
     0
102
RTVSPost2010Prop37
 90
       50
102
RTVSPost2010PropOp37
 70
     0
102
RTVSPost2010Prop38
140
0.0
102
RTVSPost2010PropOp38
 70
     0
102
RTVSPost2010Prop39
140
1.0
102
RTVSPost2010PropOp39
 70
     0
102
RTVSPost2010Prop40
 90
        0
102
RTVSPost2010PropOp40
 70
     0
102
RTVSPost2010Prop41ColorIndex
 90
       18
102
RTVSPost2010Prop41ColorRGB
 90
        0
102
RTVSPost2010PropOp41
 70
     0
102
RTVSPost2010Prop42
 90
       50
102
RTVSPost2010PropOp42
 70
     0
102
RTVSPost2010Prop43
 90
        3
102
RTVSPost2010PropOp43
 70
     0
102
RTVSPost2010Prop44ColorIndex
 90
        5
102
RTVSPost2010Prop44ColorRGB
 90
      255
102
RTVSPost2010PropOp44
 70
     0
102
RTVSPost2010Prop45
280
     0
102
RTVSPost2010PropOp45
 70
     0
102
RTVSPost2010Prop46
 90
       50
102
RTVSPost2010PropOp46
 70
     0
102
RTVSPost2010Prop47
 90
       50
102
RTVSPost2010PropOp47
 70
     0
102
RTVSPost2010Prop48
 90
       50
102
RTVSPost2010PropOp48
 70
     0
102
RTVSPost2010Prop49
280
     0
102
RTVSPost2010PropOp49
 70
     0
102
RTVSPost2010Prop50
 90
       50
102
RTVSPost2010PropOp50
 70
     0
102
RTVSPost2010Prop51ColorIndex
 90
      256
102
RTVSPost2010Prop51ColorRGB
 90
-16777216
102
RTVSPost2010PropOp51
 70
     0
102
RTVSPost2010Prop52
140
1.0
102
RTVSPost2010PropOp52
 70
     0
102
RTVSPost2010Prop53
 90
        2
102
RTVSPost2010PropOp53
 70
     0
102
RTVSPost2010Prop54
  1
strokes_ogs.tif
102
RTVSPost2010PropOp54
 70
     0
102
RTVSPost2010Prop55
280
     0
102
RTVSPost2010PropOp55
 70
     0
102
RTVSPost2010Prop56
140
1.0
102
RTVSPost2010PropOp56
 70
     0
102
RTVSPost2010Prop57
140
1.0
102
RTVSPost2010PropOp57
 70
     0
102
RTVSPropertyOp0
 70
     0
102
RTVSPropertyOp1
 70
     0
102
RTVSPropertyOp2
 70
     0
102
RTVSPropertyOp3
 70
     0
102
RTVSPropertyOp4
 70
     0
102
RTVSPropertyOp5
 70
     0
102
RTVSPropertyOp6
 70
     0
102
RTVSPropertyOp7
 70
     0
102
RTVSPropertyOp8
 70
     0
102
RTVSPropertyOp9
 70
     0
102
RTVSPropertyOp10
 70
     0
102
RTVSPropertyOp11
 70
     0
102
RTVSPropertyOp12
 70
     0
102
RTVSPropertyOp13
 70
     0
102
RTVSPropertyOp14
 70
     2
102
RTVSPropertyOp15
 70
     0
102
RTVSPropertyOp16
 70
     0
102
RTVSPropertyOp17
 70
     0
102
RTVSPropertyOp18
 70
     0
102
RTVSPropertyOp19
 70
     0
102
RTVSPropertyOp20
 70
     0
102
RTVSPropertyOp21
 70
     0
102
RTVSPropertyOp22
 70
     0
102
RTVSPropertyOp23
 70
     0
102
RTVSPropertyOp24
 70
     0
102
RTVSPropertyOp25
 70
     0
102
RTVSPropertyOp26
 70
     0
102
RTVSPropertyOp27
 70
     0
102
RTVSPropertyOp28
 70
     0
102
RTVSPropertyOp29
 70
     0
102
RTVSPropertyOp30
 70
     0
102
RTVSPropertyOp31
 70
     0
102
RTVSPropertyOp32
 70
     0
102
RTVSPropertyOp33
 70
     0
102
RTVSPropertyOp34
 70
     0
102
RTVSPropertyOp35
 70
     0
102
RTVSPropertyOp36
 70
     0
102
RTVSPropertyOp37
 70
     0
102
RTVSPropertyOp38
 70
     0
102
RTVSPropertyOp39
 70
     0
102
RTVSPropertyOp40
 70
     0
102
RTVSPropertyOp41
 70
     0
102
RTVSPropertyOp42
 70
     0
102
RTVSPropertyOp43
 70
     0
102
RTVSPropertyOp44
 70
     0
102
RTVSPropertyOp45
 70
     0
102
RTVSPropertyOp46
 70
     0
102
RTVSPropertyOp47
 70
     0
102
RTVSPropertyOp48
 70
     0
102
RTVSPropertyOp49
 70
     0
102
RTVSPropertyOp50
 70
     0
102
RTVSPropertyOp51
 70
     0
102
RTVSPropertyOp52
 70
     0
102
RTVSPropertyOp53
 70
     0
102
RTVSPropertyOp54
 70
     0
102
RTVSPropertyOp55
 70
     0
102
RTVSPropertyOp56
 70
     0
102
RTVSPropertyOp57
 70
     0
102
RTVSPropertyOp58
 70
     0
102
RTVSPropertyOp59
 70
     0
102
RTVSPropertyOp60
 70
     0
102
RTVSPropertyOp61
 70
     0
102
RTVSPropertyOp62
 70
     0
  0
XRECORD
  5
840
102
{ACAD_REACTORS
330
83F
102
}
330
83F
100
AcDbXrecord
280
     1
102
RTVSPost2010Prop28
280
     0
102
RTVSPost2010PropOp28
 70
     1
102
RTVSPost2010Prop29
280
     1
102
RTVSPost2010PropOp29
 70
     1
102
RTVSPost2010Prop30
280
     1
102
RTVSPost2010PropOp30
 70
     1
102
RTVSPost2010Prop31
280
     0
102
RTVSPost2010PropOp31
 70
     1
102
RTVSPost2010Prop32
280
     0
102
RTVSPost2010PropOp32
 70
     1
102
RTVSPost2010Prop33
280
     0
102
RTVSPost2010PropOp33
 70
     1
102
RTVSPost2010Prop34
280
     0
102
RTVSPost2010PropOp34
 70
     1
102
RTVSPost2010Prop35
280
     0
102
RTVSPost2010PropOp35
 70
     1
102
RTVSPost2010Prop36
280
     0
102
RTVSPost2010PropOp36
 70
     1
102
RTVSPost2010Prop37
 90
       50
102
RTVSPost2010PropOp37
 70
     1
102
RTVSPost2010Prop38
140
0.0
102
RTVSPost2010PropOp38
 70
     1
102
RTVSPost2010Prop39
140
1.0
102
RTVSPost2010PropOp39
 70
     1
102
RTVSPost2010Prop40
 90
        0
102
RTVSPost2010PropOp40
 70
     1
102
RTVSPost2010Prop41ColorIndex
 90
       18
102
RTVSPost2010Prop41ColorRGB
 90
        0
102
RTVSPost2010PropOp41
 70
     1
102
RTVSPost2010Prop42
 90
       50
102
RTVSPost2010PropOp42
 70
     1
102
RTVSPost2010Prop43
 90
        3
102
RTVSPost2010PropOp43
 70
     1
102
RTVSPost2010Prop44ColorIndex
 90
        5
102
RTVSPost2010Prop44ColorRGB
 90
      255
102
RTVSPost2010PropOp44
 70
     1
102
RTVSPost2010Prop45
280
     0
102
RTVSPost2010PropOp45
 70
     1
102
RTVSPost2010Prop46
 90
       50
102
RTVSPost2010PropOp46
 70
     1
102
RTVSPost2010Prop47
 90
       50
102
RTVSPost2010PropOp47
 70
     1
102
RTVSPost2010Prop48
 90
       50
102
RTVSPost2010PropOp48
 70
     1
102
RTVSPost2010Prop49
280
     0
102
RTVSPost2010PropOp49
 70
     1
102
RTVSPost2010Prop50
 90
       50
102
RTVSPost2010PropOp50
 70
     1
102
RTVSPost2010Prop51ColorIndex
 90
      256
102
RTVSPost2010Prop51ColorRGB
 90
-16777216
102
RTVSPost2010PropOp51
 70
     0
102
RTVSPost2010Prop52
140
1.0
102
RTVSPost2010PropOp52
 70
     0
102
RTVSPost2010Prop53
 90
        2
102
RTVSPost2010PropOp53
 70
     1
102
RTVSPost2010Prop54
  1
strokes_ogs.tif
102
RTVSPost2010PropOp54
 70
     1
102
RTVSPost2010Prop55
280
     0
102
RTVSPost2010PropOp55
 70
     1
102
RTVSPost2010Prop56
140
1.0
102
RTVSPost2010PropOp56
 70
     1
102
RTVSPost2010Prop57
140
1.0
102
RTVSPost2010PropOp57
 70
     1
102
RTVSPropertyOp0
 70
     1
102
RTVSPropertyOp1
 70
     1
102
RTVSPropertyOp2
 70
     1
102
RTVSPropertyOp3
 70
     1
102
RTVSPropertyOp4
 70
     1
102
RTVSPropertyOp5
 70
     1
102
RTVSPropertyOp6
 70
     1
102
RTVSPropertyOp7
 70
     1
102
RTVSPropertyOp8
 70
     1
102
RTVSPropertyOp9
 70
     1
102
RTVSPropertyOp10
 70
     1
102
RTVSPropertyOp11
 70
     1
102
RTVSPropertyOp12
 70
     1
102
RTVSPropertyOp13
 70
     1
102
RTVSPropertyOp14
 70
     1
102
RTVSPropertyOp15
 70
     1
102
RTVSPropertyOp16
 70
     1
102
RTVSPropertyOp17
 70
     1
102
RTVSPropertyOp18
 70
     1
102
RTVSPropertyOp19
 70
     1
102
RTVSPropertyOp20
 70
     1
102
RTVSPropertyOp21
 70
     1
102
RTVSPropertyOp22
 70
     1
102
RTVSPropertyOp23
 70
     1
102
RTVSPropertyOp24
 70
     1
102
RTVSPropertyOp25
 70
     1
102
RTVSPropertyOp26
 70
     1
102
RTVSPropertyOp27
 70
     1
102
RTVSPropertyOp28
 70
     1
102
RTVSPropertyOp29
 70
     1
102
RTVSPropertyOp30
 70
     1
102
RTVSPropertyOp31
 70
     1
102
RTVSPropertyOp32
 70
     1
102
RTVSPropertyOp33
 70
     1
102
RTVSPropertyOp34
 70
     1
102
RTVSPropertyOp35
 70
     1
102
RTVSPropertyOp36
 70
     1
102
RTVSPropertyOp37
 70
     1
102
RTVSPropertyOp38
 70
     1
102
RTVSPropertyOp39
 70
     1
102
RTVSPropertyOp40
 70
     1
102
RTVSPropertyOp41
 70
     1
102
RTVSPropertyOp42
 70
     1
102
RTVSPropertyOp43
 70
     1
102
RTVSPropertyOp44
 70
     1
102
RTVSPropertyOp45
 70
     1
102
RTVSPropertyOp46
 70
     1
102
RTVSPropertyOp47
 70
     1
102
RTVSPropertyOp48
 70
     1
102
RTVSPropertyOp49
 70
     1
102
RTVSPropertyOp50
 70
     1
102
RTVSPropertyOp51
 70
     0
102
RTVSPropertyOp52
 70
     0
102
RTVSPropertyOp53
 70
     1
102
RTVSPropertyOp54
 70
     1
102
RTVSPropertyOp55
 70
     1
102
RTVSPropertyOp56
 70
     1
102
RTVSPropertyOp57
 70
     1
102
RTVSPropertyOp58
 70
     1
102
RTVSPropertyOp59
 70
     1
102
RTVSPropertyOp60
 70
     1
102
RTVSPropertyOp61
 70
     1
102
RTVSPropertyOp62
 70
     1
  0
XRECORD
  5
824
102
{ACAD_REACTORS
330
823
102
}
330
823
100
AcDbXrecord
280
     1
102
RTVSPost2010Prop28
280
     0
102
RTVSPost2010PropOp28
 70
     1
102
RTVSPost2010Prop29
280
     1
102
RTVSPost2010PropOp29
 70
     1
102
RTVSPost2010Prop30
280
     1
102
RTVSPost2010PropOp30
 70
     1
102
RTVSPost2010Prop31
280
     0
102
RTVSPost2010PropOp31
 70
     1
102
RTVSPost2010Prop32
280
     0
102
RTVSPost2010PropOp32
 70
     1
102
RTVSPost2010Prop33
280
     0
102
RTVSPost2010PropOp33
 70
     1
102
RTVSPost2010Prop34
280
     0
102
RTVSPost2010PropOp34
 70
     1
102
RTVSPost2010Prop35
280
     0
102
RTVSPost2010PropOp35
 70
     1
102
RTVSPost2010Prop36
280
     0
102
RTVSPost2010PropOp36
 70
     1
102
RTVSPost2010Prop37
 90
       50
102
RTVSPost2010PropOp37
 70
     1
102
RTVSPost2010Prop38
140
0.0
102
RTVSPost2010PropOp38
 70
     1
102
RTVSPost2010Prop39
140
1.0
102
RTVSPost2010PropOp39
 70
     1
102
RTVSPost2010Prop40
 90
        0
102
RTVSPost2010PropOp40
 70
     1
102
RTVSPost2010Prop41ColorIndex
 90
       18
102
RTVSPost2010Prop41ColorRGB
 90
        0
102
RTVSPost2010PropOp41
 70
     1
102
RTVSPost2010Prop42
 90
       50
102
RTVSPost2010PropOp42
 70
     1
102
RTVSPost2010Prop43
 90
        3
102
RTVSPost2010PropOp43
 70
     1
102
RTVSPost2010Prop44ColorIndex
 90
        5
102
RTVSPost2010Prop44ColorRGB
 90
      255
102
RTVSPost2010PropOp44
 70
     1
102
RTVSPost2010Prop45
280
     0
102
RTVSPost2010PropOp45
 70
     1
102
RTVSPost2010Prop46
 90
       50
102
RTVSPost2010PropOp46
 70
     1
102
RTVSPost2010Prop47
 90
       50
102
RTVSPost2010PropOp47
 70
     1
102
RTVSPost2010Prop48
 90
       50
102
RTVSPost2010PropOp48
 70
     1
102
RTVSPost2010Prop49
280
     0
102
RTVSPost2010PropOp49
 70
     1
102
RTVSPost2010Prop50
 90
       50
102
RTVSPost2010PropOp50
 70
     1
102
RTVSPost2010Prop51ColorIndex
 90
      256
102
RTVSPost2010Prop51ColorRGB
 90
-16777216
102
RTVSPost2010PropOp51
 70
     0
102
RTVSPost2010Prop52
140
1.0
102
RTVSPost2010PropOp52
 70
     0
102
RTVSPost2010Prop53
 90
        2
102
RTVSPost2010PropOp53
 70
     1
102
RTVSPost2010Prop54
  1
strokes_ogs.tif
102
RTVSPost2010PropOp54
 70
     1
102
RTVSPost2010Prop55
280
     0
102
RTVSPost2010PropOp55
 70
     1
102
RTVSPost2010Prop56
140
1.0
102
RTVSPost2010PropOp56
 70
     1
102
RTVSPost2010Prop57
140
1.0
102
RTVSPost2010PropOp57
 70
     1
102
RTVSPropertyOp0
 70
     1
102
RTVSPropertyOp1
 70
     1
102
RTVSPropertyOp2
 70
     1
102
RTVSPropertyOp3
 70
     1
102
RTVSPropertyOp4
 70
     1
102
RTVSPropertyOp5
 70
     1
102
RTVSPropertyOp6
 70
     1
102
RTVSPropertyOp7
 70
     1
102
RTVSPropertyOp8
 70
     1
102
RTVSPropertyOp9
 70
     1
102
RTVSPropertyOp10
 70
     1
102
RTVSPropertyOp11
 70
     1
102
RTVSPropertyOp12
 70
     1
102
RTVSPropertyOp13
 70
     1
102
RTVSPropertyOp14
 70
     1
102
RTVSPropertyOp15
 70
     1
102
RTVSPropertyOp16
 70
     1
102
RTVSPropertyOp17
 70
     1
102
RTVSPropertyOp18
 70
     1
102
RTVSPropertyOp19
 70
     1
102
RTVSPropertyOp20
 70
     1
102
RTVSPropertyOp21
 70
     1
102
RTVSPropertyOp22
 70
     1
102
RTVSPropertyOp23
 70
     1
102
RTVSPropertyOp24
 70
     1
102
RTVSPropertyOp25
 70
     1
102
RTVSPropertyOp26
 70
     1
102
RTVSPropertyOp27
 70
     1
102
RTVSPropertyOp28
 70
     1
102
RTVSPropertyOp29
 70
     1
102
RTVSPropertyOp30
 70
     1
102
RTVSPropertyOp31
 70
     1
102
RTVSPropertyOp32
 70
     1
102
RTVSPropertyOp33
 70
     1
102
RTVSPropertyOp34
 70
     1
102
RTVSPropertyOp35
 70
     1
102
RTVSPropertyOp36
 70
     1
102
RTVSPropertyOp37
 70
     1
102
RTVSPropertyOp38
 70
     1
102
RTVSPropertyOp39
 70
     1
102
RTVSPropertyOp40
 70
     1
102
RTVSPropertyOp41
 70
     1
102
RTVSPropertyOp42
 70
     1
102
RTVSPropertyOp43
 70
     1
102
RTVSPropertyOp44
 70
     1
102
RTVSPropertyOp45
 70
     1
102
RTVSPropertyOp46
 70
     1
102
RTVSPropertyOp47
 70
     1
102
RTVSPropertyOp48
 70
     1
102
RTVSPropertyOp49
 70
     1
102
RTVSPropertyOp50
 70
     1
102
RTVSPropertyOp51
 70
     0
102
RTVSPropertyOp52
 70
     0
102
RTVSPropertyOp53
 70
     1
102
RTVSPropertyOp54
 70
     1
102
RTVSPropertyOp55
 70
     1
102
RTVSPropertyOp56
 70
     1
102
RTVSPropertyOp57
 70
     1
102
RTVSPropertyOp58
 70
     1
102
RTVSPropertyOp59
 70
     1
102
RTVSPropertyOp60
 70
     1
102
RTVSPropertyOp61
 70
     1
102
RTVSPropertyOp62
 70
     1
  0
XRECORD
  5
826
102
{ACAD_REACTORS
330
825
102
}
330
825
100
AcDbXrecord
280
     1
102
RTVSPost2010Prop28
280
     0
102
RTVSPost2010PropOp28
 70
     1
102
RTVSPost2010Prop29
280
     1
102
RTVSPost2010PropOp29
 70
     1
102
RTVSPost2010Prop30
280
     1
102
RTVSPost2010PropOp30
 70
     1
102
RTVSPost2010Prop31
280
     0
102
RTVSPost2010PropOp31
 70
     1
102
RTVSPost2010Prop32
280
     0
102
RTVSPost2010PropOp32
 70
     1
102
RTVSPost2010Prop33
280
     0
102
RTVSPost2010PropOp33
 70
     1
102
RTVSPost2010Prop34
280
     0
102
RTVSPost2010PropOp34
 70
     1
102
RTVSPost2010Prop35
280
     0
102
RTVSPost2010PropOp35
 70
     1
102
RTVSPost2010Prop36
280
     0
102
RTVSPost2010PropOp36
 70
     1
102
RTVSPost2010Prop37
 90
       50
102
RTVSPost2010PropOp37
 70
     1
102
RTVSPost2010Prop38
140
0.0
102
RTVSPost2010PropOp38
 70
     1
102
RTVSPost2010Prop39
140
1.0
102
RTVSPost2010PropOp39
 70
     1
102
RTVSPost2010Prop40
 90
        0
102
RTVSPost2010PropOp40
 70
     1
102
RTVSPost2010Prop41ColorIndex
 90
       18
102
RTVSPost2010Prop41ColorRGB
 90
        0
102
RTVSPost2010PropOp41
 70
     1
102
RTVSPost2010Prop42
 90
       50
102
RTVSPost2010PropOp42
 70
     1
102
RTVSPost2010Prop43
 90
        3
102
RTVSPost2010PropOp43
 70
     1
102
RTVSPost2010Prop44ColorIndex
 90
        5
102
RTVSPost2010Prop44ColorRGB
 90
      255
102
RTVSPost2010PropOp44
 70
     1
102
RTVSPost2010Prop45
280
     0
102
RTVSPost2010PropOp45
 70
     1
102
RTVSPost2010Prop46
 90
       50
102
RTVSPost2010PropOp46
 70
     1
102
RTVSPost2010Prop47
 90
       50
102
RTVSPost2010PropOp47
 70
     1
102
RTVSPost2010Prop48
 90
       50
102
RTVSPost2010PropOp48
 70
     1
102
RTVSPost2010Prop49
280
     0
102
RTVSPost2010PropOp49
 70
     1
102
RTVSPost2010Prop50
 90
       50
102
RTVSPost2010PropOp50
 70
     1
102
RTVSPost2010Prop51ColorIndex
 90
      256
102
RTVSPost2010Prop51ColorRGB
 90
-16777216
102
RTVSPost2010PropOp51
 70
     0
102
RTVSPost2010Prop52
140
1.0
102
RTVSPost2010PropOp52
 70
     0
102
RTVSPost2010Prop53
 90
        2
102
RTVSPost2010PropOp53
 70
     1
102
RTVSPost2010Prop54
  1
strokes_ogs.tif
102
RTVSPost2010PropOp54
 70
     1
102
RTVSPost2010Prop55
280
     0
102
RTVSPost2010PropOp55
 70
     1
102
RTVSPost2010Prop56
140
1.0
102
RTVSPost2010PropOp56
 70
     1
102
RTVSPost2010Prop57
140
1.0
102
RTVSPost2010PropOp57
 70
     1
102
RTVSPropertyOp0
 70
     1
102
RTVSPropertyOp1
 70
     1
102
RTVSPropertyOp2
 70
     1
102
RTVSPropertyOp3
 70
     1
102
RTVSPropertyOp4
 70
     1
102
RTVSPropertyOp5
 70
     1
102
RTVSPropertyOp6
 70
     1
102
RTVSPropertyOp7
 70
     1
102
RTVSPropertyOp8
 70
     1
102
RTVSPropertyOp9
 70
     1
102
RTVSPropertyOp10
 70
     1
102
RTVSPropertyOp11
 70
     1
102
RTVSPropertyOp12
 70
     1
102
RTVSPropertyOp13
 70
     1
102
RTVSPropertyOp14
 70
     1
102
RTVSPropertyOp15
 70
     1
102
RTVSPropertyOp16
 70
     1
102
RTVSPropertyOp17
 70
     1
102
RTVSPropertyOp18
 70
     1
102
RTVSPropertyOp19
 70
     1
102
RTVSPropertyOp20
 70
     1
102
RTVSPropertyOp21
 70
     1
102
RTVSPropertyOp22
 70
     1
102
RTVSPropertyOp23
 70
     1
102
RTVSPropertyOp24
 70
     1
102
RTVSPropertyOp25
 70
     1
102
RTVSPropertyOp26
 70
     1
102
RTVSPropertyOp27
 70
     1
102
RTVSPropertyOp28
 70
     1
102
RTVSPropertyOp29
 70
     1
102
RTVSPropertyOp30
 70
     1
102
RTVSPropertyOp31
 70
     1
102
RTVSPropertyOp32
 70
     1
102
RTVSPropertyOp33
 70
     1
102
RTVSPropertyOp34
 70
     1
102
RTVSPropertyOp35
 70
     1
102
RTVSPropertyOp36
 70
     1
102
RTVSPropertyOp37
 70
     1
102
RTVSPropertyOp38
 70
     1
102
RTVSPropertyOp39
 70
     1
102
RTVSPropertyOp40
 70
     1
102
RTVSPropertyOp41
 70
     1
102
RTVSPropertyOp42
 70
     1
102
RTVSPropertyOp43
 70
     1
102
RTVSPropertyOp44
 70
     1
102
RTVSPropertyOp45
 70
     1
102
RTVSPropertyOp46
 70
     1
102
RTVSPropertyOp47
 70
     1
102
RTVSPropertyOp48
 70
     1
102
RTVSPropertyOp49
 70
     1
102
RTVSPropertyOp50
 70
     1
102
RTVSPropertyOp51
 70
     0
102
RTVSPropertyOp52
 70
     0
102
RTVSPropertyOp53
 70
     1
102
RTVSPropertyOp54
 70
     1
102
RTVSPropertyOp55
 70
     1
102
RTVSPropertyOp56
 70
     1
102
RTVSPropertyOp57
 70
     1
102
RTVSPropertyOp58
 70
     1
102
RTVSPropertyOp59
 70
     1
102
RTVSPropertyOp60
 70
     1
102
RTVSPropertyOp61
 70
     1
102
RTVSPropertyOp62
 70
     1
  0
XRECORD
  5
828
102
{ACAD_REACTORS
330
827
102
}
330
827
100
AcDbXrecord
280
     1
102
RTVSPost2010Prop28
280
     0
102
RTVSPost2010PropOp28
 70
     1
102
RTVSPost2010Prop29
280
     1
102
RTVSPost2010PropOp29
 70
     1
102
RTVSPost2010Prop30
280
     1
102
RTVSPost2010PropOp30
 70
     1
102
RTVSPost2010Prop31
280
     0
102
RTVSPost2010PropOp31
 70
     1
102
RTVSPost2010Prop32
280
     0
102
RTVSPost2010PropOp32
 70
     1
102
RTVSPost2010Prop33
280
     0
102
RTVSPost2010PropOp33
 70
     1
102
RTVSPost2010Prop34
280
     0
102
RTVSPost2010PropOp34
 70
     1
102
RTVSPost2010Prop35
280
     0
102
RTVSPost2010PropOp35
 70
     1
102
RTVSPost2010Prop36
280
     0
102
RTVSPost2010PropOp36
 70
     1
102
RTVSPost2010Prop37
 90
       50
102
RTVSPost2010PropOp37
 70
     1
102
RTVSPost2010Prop38
140
0.0
102
RTVSPost2010PropOp38
 70
     1
102
RTVSPost2010Prop39
140
1.0
102
RTVSPost2010PropOp39
 70
     1
102
RTVSPost2010Prop40
 90
        0
102
RTVSPost2010PropOp40
 70
     1
102
RTVSPost2010Prop41ColorIndex
 90
       18
102
RTVSPost2010Prop41ColorRGB
 90
        0
102
RTVSPost2010PropOp41
 70
     1
102
RTVSPost2010Prop42
 90
       50
102
RTVSPost2010PropOp42
 70
     1
102
RTVSPost2010Prop43
 90
        3
102
RTVSPost2010PropOp43
 70
     1
102
RTVSPost2010Prop44ColorIndex
 90
        5
102
RTVSPost2010Prop44ColorRGB
 90
      255
102
RTVSPost2010PropOp44
 70
     1
102
RTVSPost2010Prop45
280
     0
102
RTVSPost2010PropOp45
 70
     1
102
RTVSPost2010Prop46
 90
       50
102
RTVSPost2010PropOp46
 70
     1
102
RTVSPost2010Prop47
 90
       50
102
RTVSPost2010PropOp47
 70
     1
102
RTVSPost2010Prop48
 90
       50
102
RTVSPost2010PropOp48
 70
     1
102
RTVSPost2010Prop49
280
     0
102
RTVSPost2010PropOp49
 70
     1
102
RTVSPost2010Prop50
 90
       50
102
RTVSPost2010PropOp50
 70
     1
102
RTVSPost2010Prop51ColorIndex
 90
      256
102
RTVSPost2010Prop51ColorRGB
 90
-16777216
102
RTVSPost2010PropOp51
 70
     0
102
RTVSPost2010Prop52
140
1.0
102
RTVSPost2010PropOp52
 70
     0
102
RTVSPost2010Prop53
 90
        2
102
RTVSPost2010PropOp53
 70
     1
102
RTVSPost2010Prop54
  1
strokes_ogs.tif
102
RTVSPost2010PropOp54
 70
     1
102
RTVSPost2010Prop55
280
     0
102
RTVSPost2010PropOp55
 70
     1
102
RTVSPost2010Prop56
140
1.0
102
RTVSPost2010PropOp56
 70
     1
102
RTVSPost2010Prop57
140
1.0
102
RTVSPost2010PropOp57
 70
     1
102
RTVSPropertyOp0
 70
     1
102
RTVSPropertyOp1
 70
     1
102
RTVSPropertyOp2
 70
     1
102
RTVSPropertyOp3
 70
     1
102
RTVSPropertyOp4
 70
     1
102
RTVSPropertyOp5
 70
     1
102
RTVSPropertyOp6
 70
     1
102
RTVSPropertyOp7
 70
     1
102
RTVSPropertyOp8
 70
     1
102
RTVSPropertyOp9
 70
     1
102
RTVSPropertyOp10
 70
     1
102
RTVSPropertyOp11
 70
     1
102
RTVSPropertyOp12
 70
     1
102
RTVSPropertyOp13
 70
     1
102
RTVSPropertyOp14
 70
     1
102
RTVSPropertyOp15
 70
     1
102
RTVSPropertyOp16
 70
     1
102
RTVSPropertyOp17
 70
     1
102
RTVSPropertyOp18
 70
     1
102
RTVSPropertyOp19
 70
     1
102
RTVSPropertyOp20
 70
     1
102
RTVSPropertyOp21
 70
     1
102
RTVSPropertyOp22
 70
     1
102
RTVSPropertyOp23
 70
     1
102
RTVSPropertyOp24
 70
     1
102
RTVSPropertyOp25
 70
     1
102
RTVSPropertyOp26
 70
     1
102
RTVSPropertyOp27
 70
     1
102
RTVSPropertyOp28
 70
     1
102
RTVSPropertyOp29
 70
     1
102
RTVSPropertyOp30
 70
     1
102
RTVSPropertyOp31
 70
     1
102
RTVSPropertyOp32
 70
     1
102
RTVSPropertyOp33
 70
     1
102
RTVSPropertyOp34
 70
     1
102
RTVSPropertyOp35
 70
     1
102
RTVSPropertyOp36
 70
     1
102
RTVSPropertyOp37
 70
     1
102
RTVSPropertyOp38
 70
     1
102
RTVSPropertyOp39
 70
     1
102
RTVSPropertyOp40
 70
     1
102
RTVSPropertyOp41
 70
     1
102
RTVSPropertyOp42
 70
     1
102
RTVSPropertyOp43
 70
     1
102
RTVSPropertyOp44
 70
     1
102
RTVSPropertyOp45
 70
     1
102
RTVSPropertyOp46
 70
     1
102
RTVSPropertyOp47
 70
     1
102
RTVSPropertyOp48
 70
     1
102
RTVSPropertyOp49
 70
     1
102
RTVSPropertyOp50
 70
     1
102
RTVSPropertyOp51
 70
     0
102
RTVSPropertyOp52
 70
     0
102
RTVSPropertyOp53
 70
     1
102
RTVSPropertyOp54
 70
     1
102
RTVSPropertyOp55
 70
     1
102
RTVSPropertyOp56
 70
     1
102
RTVSPropertyOp57
 70
     1
102
RTVSPropertyOp58
 70
     1
102
RTVSPropertyOp59
 70
     1
102
RTVSPropertyOp60
 70
     1
102
RTVSPropertyOp61
 70
     1
102
RTVSPropertyOp62
 70
     1
  0
XRECORD
  5
82A
102
{ACAD_REACTORS
330
829
102
}
330
829
100
AcDbXrecord
280
     1
102
RTVSPost2010Prop28
280
     0
102
RTVSPost2010PropOp28
 70
     1
102
RTVSPost2010Prop29
280
     1
102
RTVSPost2010PropOp29
 70
     1
102
RTVSPost2010Prop30
280
     1
102
RTVSPost2010PropOp30
 70
     1
102
RTVSPost2010Prop31
280
     0
102
RTVSPost2010PropOp31
 70
     1
102
RTVSPost2010Prop32
280
     0
102
RTVSPost2010PropOp32
 70
     1
102
RTVSPost2010Prop33
280
     0
102
RTVSPost2010PropOp33
 70
     1
102
RTVSPost2010Prop34
280
     0
102
RTVSPost2010PropOp34
 70
     1
102
RTVSPost2010Prop35
280
     0
102
RTVSPost2010PropOp35
 70
     1
102
RTVSPost2010Prop36
280
     0
102
RTVSPost2010PropOp36
 70
     1
102
RTVSPost2010Prop37
 90
       50
102
RTVSPost2010PropOp37
 70
     1
102
RTVSPost2010Prop38
140
0.0
102
RTVSPost2010PropOp38
 70
     1
102
RTVSPost2010Prop39
140
1.0
102
RTVSPost2010PropOp39
 70
     1
102
RTVSPost2010Prop40
 90
        0
102
RTVSPost2010PropOp40
 70
     1
102
RTVSPost2010Prop41ColorIndex
 90
       18
102
RTVSPost2010Prop41ColorRGB
 90
        0
102
RTVSPost2010PropOp41
 70
     1
102
RTVSPost2010Prop42
 90
       50
102
RTVSPost2010PropOp42
 70
     1
102
RTVSPost2010Prop43
 90
        3
102
RTVSPost2010PropOp43
 70
     1
102
RTVSPost2010Prop44ColorIndex
 90
        5
102
RTVSPost2010Prop44ColorRGB
 90
      255
102
RTVSPost2010PropOp44
 70
     1
102
RTVSPost2010Prop45
280
     0
102
RTVSPost2010PropOp45
 70
     1
102
RTVSPost2010Prop46
 90
       50
102
RTVSPost2010PropOp46
 70
     1
102
RTVSPost2010Prop47
 90
       50
102
RTVSPost2010PropOp47
 70
     1
102
RTVSPost2010Prop48
 90
       50
102
RTVSPost2010PropOp48
 70
     1
102
RTVSPost2010Prop49
280
     0
102
RTVSPost2010PropOp49
 70
     1
102
RTVSPost2010Prop50
 90
       50
102
RTVSPost2010PropOp50
 70
     1
102
RTVSPost2010Prop51ColorIndex
 90
      256
102
RTVSPost2010Prop51ColorRGB
 90
-16777216
102
RTVSPost2010PropOp51
 70
     0
102
RTVSPost2010Prop52
140
1.0
102
RTVSPost2010PropOp52
 70
     0
102
RTVSPost2010Prop53
 90
        2
102
RTVSPost2010PropOp53
 70
     1
102
RTVSPost2010Prop54
  1
strokes_ogs.tif
102
RTVSPost2010PropOp54
 70
     1
102
RTVSPost2010Prop55
280
     0
102
RTVSPost2010PropOp55
 70
     1
102
RTVSPost2010Prop56
140
1.0
102
RTVSPost2010PropOp56
 70
     1
102
RTVSPost2010Prop57
140
1.0
102
RTVSPost2010PropOp57
 70
     1
102
RTVSPropertyOp0
 70
     1
102
RTVSPropertyOp1
 70
     1
102
RTVSPropertyOp2
 70
     1
102
RTVSPropertyOp3
 70
     1
102
RTVSPropertyOp4
 70
     1
102
RTVSPropertyOp5
 70
     1
102
RTVSPropertyOp6
 70
     1
102
RTVSPropertyOp7
 70
     1
102
RTVSPropertyOp8
 70
     1
102
RTVSPropertyOp9
 70
     1
102
RTVSPropertyOp10
 70
     1
102
RTVSPropertyOp11
 70
     1
102
RTVSPropertyOp12
 70
     1
102
RTVSPropertyOp13
 70
     1
102
RTVSPropertyOp14
 70
     1
102
RTVSPropertyOp15
 70
     1
102
RTVSPropertyOp16
 70
     1
102
RTVSPropertyOp17
 70
     1
102
RTVSPropertyOp18
 70
     1
102
RTVSPropertyOp19
 70
     1
102
RTVSPropertyOp20
 70
     1
102
RTVSPropertyOp21
 70
     1
102
RTVSPropertyOp22
 70
     1
102
RTVSPropertyOp23
 70
     1
102
RTVSPropertyOp24
 70
     1
102
RTVSPropertyOp25
 70
     1
102
RTVSPropertyOp26
 70
     1
102
RTVSPropertyOp27
 70
     1
102
RTVSPropertyOp28
 70
     1
102
RTVSPropertyOp29
 70
     1
102
RTVSPropertyOp30
 70
     1
102
RTVSPropertyOp31
 70
     1
102
RTVSPropertyOp32
 70
     1
102
RTVSPropertyOp33
 70
     1
102
RTVSPropertyOp34
 70
     1
102
RTVSPropertyOp35
 70
     1
102
RTVSPropertyOp36
 70
     1
102
RTVSPropertyOp37
 70
     1
102
RTVSPropertyOp38
 70
     1
102
RTVSPropertyOp39
 70
     1
102
RTVSPropertyOp40
 70
     1
102
RTVSPropertyOp41
 70
     1
102
RTVSPropertyOp42
 70
     1
102
RTVSPropertyOp43
 70
     1
102
RTVSPropertyOp44
 70
     1
102
RTVSPropertyOp45
 70
     1
102
RTVSPropertyOp46
 70
     1
102
RTVSPropertyOp47
 70
     1
102
RTVSPropertyOp48
 70
     1
102
RTVSPropertyOp49
 70
     1
102
RTVSPropertyOp50
 70
     1
102
RTVSPropertyOp51
 70
     0
102
RTVSPropertyOp52
 70
     0
102
RTVSPropertyOp53
 70
     1
102
RTVSPropertyOp54
 70
     1
102
RTVSPropertyOp55
 70
     1
102
RTVSPropertyOp56
 70
     1
102
RTVSPropertyOp57
 70
     1
102
RTVSPropertyOp58
 70
     1
102
RTVSPropertyOp59
 70
     1
102
RTVSPropertyOp60
 70
     1
102
RTVSPropertyOp61
 70
     1
102
RTVSPropertyOp62
 70
     1
  0
XRECORD
  5
832
102
{ACAD_REACTORS
330
831
102
}
330
831
100
AcDbXrecord
280
     1
102
RTVSPost2010Prop28
280
     0
102
RTVSPost2010PropOp28
 70
     1
102
RTVSPost2010Prop29
280
     1
102
RTVSPost2010PropOp29
 70
     1
102
RTVSPost2010Prop30
280
     1
102
RTVSPost2010PropOp30
 70
     1
102
RTVSPost2010Prop31
280
     0
102
RTVSPost2010PropOp31
 70
     1
102
RTVSPost2010Prop32
280
     0
102
RTVSPost2010PropOp32
 70
     1
102
RTVSPost2010Prop33
280
     0
102
RTVSPost2010PropOp33
 70
     1
102
RTVSPost2010Prop34
280
     0
102
RTVSPost2010PropOp34
 70
     1
102
RTVSPost2010Prop35
280
     0
102
RTVSPost2010PropOp35
 70
     1
102
RTVSPost2010Prop36
280
     0
102
RTVSPost2010PropOp36
 70
     1
102
RTVSPost2010Prop37
 90
       50
102
RTVSPost2010PropOp37
 70
     1
102
RTVSPost2010Prop38
140
0.0
102
RTVSPost2010PropOp38
 70
     1
102
RTVSPost2010Prop39
140
1.0
102
RTVSPost2010PropOp39
 70
     1
102
RTVSPost2010Prop40
 90
        0
102
RTVSPost2010PropOp40
 70
     1
102
RTVSPost2010Prop41ColorIndex
 90
       18
102
RTVSPost2010Prop41ColorRGB
 90
        0
102
RTVSPost2010PropOp41
 70
     1
102
RTVSPost2010Prop42
 90
       50
102
RTVSPost2010PropOp42
 70
     1
102
RTVSPost2010Prop43
 90
        3
102
RTVSPost2010PropOp43
 70
     1
102
RTVSPost2010Prop44ColorIndex
 90
        5
102
RTVSPost2010Prop44ColorRGB
 90
      255
102
RTVSPost2010PropOp44
 70
     1
102
RTVSPost2010Prop45
280
     0
102
RTVSPost2010PropOp45
 70
     1
102
RTVSPost2010Prop46
 90
       50
102
RTVSPost2010PropOp46
 70
     1
102
RTVSPost2010Prop47
 90
       50
102
RTVSPost2010PropOp47
 70
     1
102
RTVSPost2010Prop48
 90
       50
102
RTVSPost2010PropOp48
 70
     1
102
RTVSPost2010Prop49
280
     0
102
RTVSPost2010PropOp49
 70
     1
102
RTVSPost2010Prop50
 90
       50
102
RTVSPost2010PropOp50
 70
     1
102
RTVSPost2010Prop51ColorIndex
 90
      256
102
RTVSPost2010Prop51ColorRGB
 90
-16777216
102
RTVSPost2010PropOp51
 70
     0
102
RTVSPost2010Prop52
140
1.0
102
RTVSPost2010PropOp52
 70
     0
102
RTVSPost2010Prop53
 90
        2
102
RTVSPost2010PropOp53
 70
     1
102
RTVSPost2010Prop54
  1
strokes_ogs.tif
102
RTVSPost2010PropOp54
 70
     1
102
RTVSPost2010Prop55
280
     0
102
RTVSPost2010PropOp55
 70
     1
102
RTVSPost2010Prop56
140
1.0
102
RTVSPost2010PropOp56
 70
     1
102
RTVSPost2010Prop57
140
1.0
102
RTVSPost2010PropOp57
 70
     1
102
RTVSPropertyOp0
 70
     1
102
RTVSPropertyOp1
 70
     1
102
RTVSPropertyOp2
 70
     1
102
RTVSPropertyOp3
 70
     1
102
RTVSPropertyOp4
 70
     1
102
RTVSPropertyOp5
 70
     1
102
RTVSPropertyOp6
 70
     1
102
RTVSPropertyOp7
 70
     1
102
RTVSPropertyOp8
 70
     1
102
RTVSPropertyOp9
 70
     1
102
RTVSPropertyOp10
 70
     1
102
RTVSPropertyOp11
 70
     1
102
RTVSPropertyOp12
 70
     1
102
RTVSPropertyOp13
 70
     1
102
RTVSPropertyOp14
 70
     1
102
RTVSPropertyOp15
 70
     1
102
RTVSPropertyOp16
 70
     1
102
RTVSPropertyOp17
 70
     1
102
RTVSPropertyOp18
 70
     1
102
RTVSPropertyOp19
 70
     1
102
RTVSPropertyOp20
 70
     1
102
RTVSPropertyOp21
 70
     1
102
RTVSPropertyOp22
 70
     1
102
RTVSPropertyOp23
 70
     1
102
RTVSPropertyOp24
 70
     1
102
RTVSPropertyOp25
 70
     1
102
RTVSPropertyOp26
 70
     1
102
RTVSPropertyOp27
 70
     1
102
RTVSPropertyOp28
 70
     1
102
RTVSPropertyOp29
 70
     1
102
RTVSPropertyOp30
 70
     1
102
RTVSPropertyOp31
 70
     1
102
RTVSPropertyOp32
 70
     1
102
RTVSPropertyOp33
 70
     1
102
RTVSPropertyOp34
 70
     1
102
RTVSPropertyOp35
 70
     1
102
RTVSPropertyOp36
 70
     1
102
RTVSPropertyOp37
 70
     1
102
RTVSPropertyOp38
 70
     1
102
RTVSPropertyOp39
 70
     1
102
RTVSPropertyOp40
 70
     1
102
RTVSPropertyOp41
 70
     1
102
RTVSPropertyOp42
 70
     1
102
RTVSPropertyOp43
 70
     1
102
RTVSPropertyOp44
 70
     1
102
RTVSPropertyOp45
 70
     1
102
RTVSPropertyOp46
 70
     1
102
RTVSPropertyOp47
 70
     1
102
RTVSPropertyOp48
 70
     1
102
RTVSPropertyOp49
 70
     1
102
RTVSPropertyOp50
 70
     1
102
RTVSPropertyOp51
 70
     0
102
RTVSPropertyOp52
 70
     0
102
RTVSPropertyOp53
 70
     1
102
RTVSPropertyOp54
 70
     1
102
RTVSPropertyOp55
 70
     1
102
RTVSPropertyOp56
 70
     1
102
RTVSPropertyOp57
 70
     1
102
RTVSPropertyOp58
 70
     1
102
RTVSPropertyOp59
 70
     1
102
RTVSPropertyOp60
 70
     1
102
RTVSPropertyOp61
 70
     1
102
RTVSPropertyOp62
 70
     1
  0
XRECORD
  5
84E
102
{ACAD_REACTORS
330
84D
102
}
330
84D
100
AcDbXrecord
280
     1
102
RTVSPost2010Prop28
280
     0
102
RTVSPost2010PropOp28
 70
     0
102
RTVSPost2010Prop29
280
     1
102
RTVSPost2010PropOp29
 70
     0
102
RTVSPost2010Prop30
280
     1
102
RTVSPost2010PropOp30
 70
     0
102
RTVSPost2010Prop31
280
     0
102
RTVSPost2010PropOp31
 70
     0
102
RTVSPost2010Prop32
280
     0
102
RTVSPost2010PropOp32
 70
     0
102
RTVSPost2010Prop33
280
     0
102
RTVSPost2010PropOp33
 70
     0
102
RTVSPost2010Prop34
280
     0
102
RTVSPost2010PropOp34
 70
     0
102
RTVSPost2010Prop35
280
     0
102
RTVSPost2010PropOp35
 70
     0
102
RTVSPost2010Prop36
280
     0
102
RTVSPost2010PropOp36
 70
     0
102
RTVSPost2010Prop37
 90
       50
102
RTVSPost2010PropOp37
 70
     0
102
RTVSPost2010Prop38
140
0.0
102
RTVSPost2010PropOp38
 70
     0
102
RTVSPost2010Prop39
140
1.0
102
RTVSPost2010PropOp39
 70
     0
102
RTVSPost2010Prop40
 90
        0
102
RTVSPost2010PropOp40
 70
     0
102
RTVSPost2010Prop41ColorIndex
 90
       18
102
RTVSPost2010Prop41ColorRGB
 90
        0
102
RTVSPost2010PropOp41
 70
     0
102
RTVSPost2010Prop42
 90
       50
102
RTVSPost2010PropOp42
 70
     0
102
RTVSPost2010Prop43
 90
        3
102
RTVSPost2010PropOp43
 70
     0
102
RTVSPost2010Prop44ColorIndex
 90
        5
102
RTVSPost2010Prop44ColorRGB
 90
      255
102
RTVSPost2010PropOp44
 70
     0
102
RTVSPost2010Prop45
280
     0
102
RTVSPost2010PropOp45
 70
     0
102
RTVSPost2010Prop46
 90
       50
102
RTVSPost2010PropOp46
 70
     0
102
RTVSPost2010Prop47
 90
       50
102
RTVSPost2010PropOp47
 70
     0
102
RTVSPost2010Prop48
 90
       50
102
RTVSPost2010PropOp48
 70
     0
102
RTVSPost2010Prop49
280
     0
102
RTVSPost2010PropOp49
 70
     0
102
RTVSPost2010Prop50
 90
       50
102
RTVSPost2010PropOp50
 70
     0
102
RTVSPost2010Prop51ColorIndex
 90
      256
102
RTVSPost2010Prop51ColorRGB
 90
-16777216
102
RTVSPost2010PropOp51
 70
     0
102
RTVSPost2010Prop52
140
1.0
102
RTVSPost2010PropOp52
 70
     0
102
RTVSPost2010Prop53
 90
        2
102
RTVSPost2010PropOp53
 70
     0
102
RTVSPost2010Prop54
  1
strokes_ogs.tif
102
RTVSPost2010PropOp54
 70
     0
102
RTVSPost2010Prop55
280
     0
102
RTVSPost2010PropOp55
 70
     0
102
RTVSPost2010Prop56
140
1.0
102
RTVSPost2010PropOp56
 70
     0
102
RTVSPost2010Prop57
140
1.0
102
RTVSPost2010PropOp57
 70
     0
102
RTVSPropertyOp0
 70
     0
102
RTVSPropertyOp1
 70
     0
102
RTVSPropertyOp2
 70
     0
102
RTVSPropertyOp3
 70
     0
102
RTVSPropertyOp4
 70
     0
102
RTVSPropertyOp5
 70
     0
102
RTVSPropertyOp6
 70
     0
102
RTVSPropertyOp7
 70
     0
102
RTVSPropertyOp8
 70
     0
102
RTVSPropertyOp9
 70
     0
102
RTVSPropertyOp10
 70
     0
102
RTVSPropertyOp11
 70
     0
102
RTVSPropertyOp12
 70
     0
102
RTVSPropertyOp13
 70
     0
102
RTVSPropertyOp14
 70
     2
102
RTVSPropertyOp15
 70
     0
102
RTVSPropertyOp16
 70
     0
102
RTVSPropertyOp17
 70
     0
102
RTVSPropertyOp18
 70
     0
102
RTVSPropertyOp19
 70
     0
102
RTVSPropertyOp20
 70
     0
102
RTVSPropertyOp21
 70
     0
102
RTVSPropertyOp22
 70
     0
102
RTVSPropertyOp23
 70
     0
102
RTVSPropertyOp24
 70
     0
102
RTVSPropertyOp25
 70
     0
102
RTVSPropertyOp26
 70
     0
102
RTVSPropertyOp27
 70
     0
102
RTVSPropertyOp28
 70
     0
102
RTVSPropertyOp29
 70
     0
102
RTVSPropertyOp30
 70
     0
102
RTVSPropertyOp31
 70
     0
102
RTVSPropertyOp32
 70
     0
102
RTVSPropertyOp33
 70
     0
102
RTVSPropertyOp34
 70
     0
102
RTVSPropertyOp35
 70
     0
102
RTVSPropertyOp36
 70
     0
102
RTVSPropertyOp37
 70
     0
102
RTVSPropertyOp38
 70
     0
102
RTVSPropertyOp39
 70
     0
102
RTVSPropertyOp40
 70
     0
102
RTVSPropertyOp41
 70
     0
102
RTVSPropertyOp42
 70
     0
102
RTVSPropertyOp43
 70
     0
102
RTVSPropertyOp44
 70
     0
102
RTVSPropertyOp45
 70
     0
102
RTVSPropertyOp46
 70
     0
102
RTVSPropertyOp47
 70
     0
102
RTVSPropertyOp48
 70
     0
102
RTVSPropertyOp49
 70
     0
102
RTVSPropertyOp50
 70
     0
102
RTVSPropertyOp51
 70
     0
102
RTVSPropertyOp52
 70
     0
102
RTVSPropertyOp53
 70
     0
102
RTVSPropertyOp54
 70
     0
102
RTVSPropertyOp55
 70
     0
102
RTVSPropertyOp56
 70
     0
102
RTVSPropertyOp57
 70
     0
102
RTVSPropertyOp58
 70
     0
102
RTVSPropertyOp59
 70
     0
102
RTVSPropertyOp60
 70
     0
102
RTVSPropertyOp61
 70
     0
102
RTVSPropertyOp62
 70
     0
  0
XRECORD
  5
83E
102
{ACAD_REACTORS
330
83D
102
}
330
83D
100
AcDbXrecord
280
     1
102
RTVSPost2010Prop28
280
     0
102
RTVSPost2010PropOp28
 70
     1
102
RTVSPost2010Prop29
280
     1
102
RTVSPost2010PropOp29
 70
     1
102
RTVSPost2010Prop30
280
     1
102
RTVSPost2010PropOp30
 70
     1
102
RTVSPost2010Prop31
280
     0
102
RTVSPost2010PropOp31
 70
     1
102
RTVSPost2010Prop32
280
     0
102
RTVSPost2010PropOp32
 70
     1
102
RTVSPost2010Prop33
280
     0
102
RTVSPost2010PropOp33
 70
     1
102
RTVSPost2010Prop34
280
     0
102
RTVSPost2010PropOp34
 70
     1
102
RTVSPost2010Prop35
280
     0
102
RTVSPost2010PropOp35
 70
     1
102
RTVSPost2010Prop36
280
     0
102
RTVSPost2010PropOp36
 70
     1
102
RTVSPost2010Prop37
 90
       50
102
RTVSPost2010PropOp37
 70
     1
102
RTVSPost2010Prop38
140
0.0
102
RTVSPost2010PropOp38
 70
     1
102
RTVSPost2010Prop39
140
1.0
102
RTVSPost2010PropOp39
 70
     1
102
RTVSPost2010Prop40
 90
        0
102
RTVSPost2010PropOp40
 70
     1
102
RTVSPost2010Prop41ColorIndex
 90
       18
102
RTVSPost2010Prop41ColorRGB
 90
        0
102
RTVSPost2010PropOp41
 70
     1
102
RTVSPost2010Prop42
 90
       50
102
RTVSPost2010PropOp42
 70
     1
102
RTVSPost2010Prop43
 90
        3
102
RTVSPost2010PropOp43
 70
     1
102
RTVSPost2010Prop44ColorIndex
 90
        5
102
RTVSPost2010Prop44ColorRGB
 90
      255
102
RTVSPost2010PropOp44
 70
     1
102
RTVSPost2010Prop45
280
     0
102
RTVSPost2010PropOp45
 70
     1
102
RTVSPost2010Prop46
 90
       50
102
RTVSPost2010PropOp46
 70
     1
102
RTVSPost2010Prop47
 90
       50
102
RTVSPost2010PropOp47
 70
     1
102
RTVSPost2010Prop48
 90
       50
102
RTVSPost2010PropOp48
 70
     1
102
RTVSPost2010Prop49
280
     0
102
RTVSPost2010PropOp49
 70
     1
102
RTVSPost2010Prop50
 90
       50
102
RTVSPost2010PropOp50
 70
     1
102
RTVSPost2010Prop51ColorIndex
 90
      256
102
RTVSPost2010Prop51ColorRGB
 90
-16777216
102
RTVSPost2010PropOp51
 70
     0
102
RTVSPost2010Prop52
140
1.0
102
RTVSPost2010PropOp52
 70
     0
102
RTVSPost2010Prop53
 90
        2
102
RTVSPost2010PropOp53
 70
     1
102
RTVSPost2010Prop54
  1
strokes_ogs.tif
102
RTVSPost2010PropOp54
 70
     1
102
RTVSPost2010Prop55
280
     0
102
RTVSPost2010PropOp55
 70
     1
102
RTVSPost2010Prop56
140
1.0
102
RTVSPost2010PropOp56
 70
     1
102
RTVSPost2010Prop57
140
1.0
102
RTVSPost2010PropOp57
 70
     1
102
RTVSPropertyOp0
 70
     1
102
RTVSPropertyOp1
 70
     1
102
RTVSPropertyOp2
 70
     1
102
RTVSPropertyOp3
 70
     1
102
RTVSPropertyOp4
 70
     1
102
RTVSPropertyOp5
 70
     1
102
RTVSPropertyOp6
 70
     1
102
RTVSPropertyOp7
 70
     1
102
RTVSPropertyOp8
 70
     1
102
RTVSPropertyOp9
 70
     1
102
RTVSPropertyOp10
 70
     1
102
RTVSPropertyOp11
 70
     1
102
RTVSPropertyOp12
 70
     1
102
RTVSPropertyOp13
 70
     1
102
RTVSPropertyOp14
 70
     1
102
RTVSPropertyOp15
 70
     1
102
RTVSPropertyOp16
 70
     1
102
RTVSPropertyOp17
 70
     1
102
RTVSPropertyOp18
 70
     1
102
RTVSPropertyOp19
 70
     1
102
RTVSPropertyOp20
 70
     1
102
RTVSPropertyOp21
 70
     1
102
RTVSPropertyOp22
 70
     1
102
RTVSPropertyOp23
 70
     1
102
RTVSPropertyOp24
 70
     1
102
RTVSPropertyOp25
 70
     1
102
RTVSPropertyOp26
 70
     1
102
RTVSPropertyOp27
 70
     1
102
RTVSPropertyOp28
 70
     1
102
RTVSPropertyOp29
 70
     1
102
RTVSPropertyOp30
 70
     1
102
RTVSPropertyOp31
 70
     1
102
RTVSPropertyOp32
 70
     1
102
RTVSPropertyOp33
 70
     1
102
RTVSPropertyOp34
 70
     1
102
RTVSPropertyOp35
 70
     1
102
RTVSPropertyOp36
 70
     1
102
RTVSPropertyOp37
 70
     1
102
RTVSPropertyOp38
 70
     1
102
RTVSPropertyOp39
 70
     1
102
RTVSPropertyOp40
 70
     1
102
RTVSPropertyOp41
 70
     1
102
RTVSPropertyOp42
 70
     1
102
RTVSPropertyOp43
 70
     1
102
RTVSPropertyOp44
 70
     1
102
RTVSPropertyOp45
 70
     1
102
RTVSPropertyOp46
 70
     1
102
RTVSPropertyOp47
 70
     1
102
RTVSPropertyOp48
 70
     1
102
RTVSPropertyOp49
 70
     1
102
RTVSPropertyOp50
 70
     1
102
RTVSPropertyOp51
 70
     0
102
RTVSPropertyOp52
 70
     0
102
RTVSPropertyOp53
 70
     1
102
RTVSPropertyOp54
 70
     1
102
RTVSPropertyOp55
 70
     1
102
RTVSPropertyOp56
 70
     1
102
RTVSPropertyOp57
 70
     1
102
RTVSPropertyOp58
 70
     1
102
RTVSPropertyOp59
 70
     1
102
RTVSPropertyOp60
 70
     1
102
RTVSPropertyOp61
 70
     1
102
RTVSPropertyOp62
 70
     1
  0
XRECORD
  5
850
102
{ACAD_REACTORS
330
84F
102
}
330
84F
100
AcDbXrecord
280
     1
102
RTVSPost2010Prop28
280
     0
102
RTVSPost2010PropOp28
 70
     0
102
RTVSPost2010Prop29
280
     1
102
RTVSPost2010PropOp29
 70
     0
102
RTVSPost2010Prop30
280
     1
102
RTVSPost2010PropOp30
 70
     0
102
RTVSPost2010Prop31
280
     0
102
RTVSPost2010PropOp31
 70
     0
102
RTVSPost2010Prop32
280
     0
102
RTVSPost2010PropOp32
 70
     0
102
RTVSPost2010Prop33
280
     0
102
RTVSPost2010PropOp33
 70
     0
102
RTVSPost2010Prop34
280
     0
102
RTVSPost2010PropOp34
 70
     0
102
RTVSPost2010Prop35
280
     0
102
RTVSPost2010PropOp35
 70
     0
102
RTVSPost2010Prop36
280
     0
102
RTVSPost2010PropOp36
 70
     0
102
RTVSPost2010Prop37
 90
       50
102
RTVSPost2010PropOp37
 70
     0
102
RTVSPost2010Prop38
140
0.0
102
RTVSPost2010PropOp38
 70
     0
102
RTVSPost2010Prop39
140
1.0
102
RTVSPost2010PropOp39
 70
     0
102
RTVSPost2010Prop40
 90
        0
102
RTVSPost2010PropOp40
 70
     0
102
RTVSPost2010Prop41ColorIndex
 90
       18
102
RTVSPost2010Prop41ColorRGB
 90
        0
102
RTVSPost2010PropOp41
 70
     0
102
RTVSPost2010Prop42
 90
       50
102
RTVSPost2010PropOp42
 70
     0
102
RTVSPost2010Prop43
 90
        3
102
RTVSPost2010PropOp43
 70
     0
102
RTVSPost2010Prop44ColorIndex
 90
        5
102
RTVSPost2010Prop44ColorRGB
 90
      255
102
RTVSPost2010PropOp44
 70
     0
102
RTVSPost2010Prop45
280
     0
102
RTVSPost2010PropOp45
 70
     0
102
RTVSPost2010Prop46
 90
       50
102
RTVSPost2010PropOp46
 70
     0
102
RTVSPost2010Prop47
 90
       50
102
RTVSPost2010PropOp47
 70
     0
102
RTVSPost2010Prop48
 90
       50
102
RTVSPost2010PropOp48
 70
     0
102
RTVSPost2010Prop49
280
     0
102
RTVSPost2010PropOp49
 70
     0
102
RTVSPost2010Prop50
 90
       50
102
RTVSPost2010PropOp50
 70
     0
102
RTVSPost2010Prop51ColorIndex
 90
      256
102
RTVSPost2010Prop51ColorRGB
 90
-16777216
102
RTVSPost2010PropOp51
 70
     0
102
RTVSPost2010Prop52
140
1.0
102
RTVSPost2010PropOp52
 70
     0
102
RTVSPost2010Prop53
 90
        2
102
RTVSPost2010PropOp53
 70
     0
102
RTVSPost2010Prop54
  1
strokes_ogs.tif
102
RTVSPost2010PropOp54
 70
     0
102
RTVSPost2010Prop55
280
     0
102
RTVSPost2010PropOp55
 70
     0
102
RTVSPost2010Prop56
140
1.0
102
RTVSPost2010PropOp56
 70
     0
102
RTVSPost2010Prop57
140
1.0
102
RTVSPost2010PropOp57
 70
     0
102
RTVSPropertyOp0
 70
     0
102
RTVSPropertyOp1
 70
     0
102
RTVSPropertyOp2
 70
     0
102
RTVSPropertyOp3
 70
     0
102
RTVSPropertyOp4
 70
     0
102
RTVSPropertyOp5
 70
     0
102
RTVSPropertyOp6
 70
     0
102
RTVSPropertyOp7
 70
     0
102
RTVSPropertyOp8
 70
     0
102
RTVSPropertyOp9
 70
     0
102
RTVSPropertyOp10
 70
     0
102
RTVSPropertyOp11
 70
     0
102
RTVSPropertyOp12
 70
     0
102
RTVSPropertyOp13
 70
     0
102
RTVSPropertyOp14
 70
     2
102
RTVSPropertyOp15
 70
     0
102
RTVSPropertyOp16
 70
     0
102
RTVSPropertyOp17
 70
     0
102
RTVSPropertyOp18
 70
     0
102
RTVSPropertyOp19
 70
     0
102
RTVSPropertyOp20
 70
     0
102
RTVSPropertyOp21
 70
     0
102
RTVSPropertyOp22
 70
     0
102
RTVSPropertyOp23
 70
     0
102
RTVSPropertyOp24
 70
     0
102
RTVSPropertyOp25
 70
     0
102
RTVSPropertyOp26
 70
     0
102
RTVSPropertyOp27
 70
     0
102
RTVSPropertyOp28
 70
     0
102
RTVSPropertyOp29
 70
     0
102
RTVSPropertyOp30
 70
     0
102
RTVSPropertyOp31
 70
     0
102
RTVSPropertyOp32
 70
     0
102
RTVSPropertyOp33
 70
     0
102
RTVSPropertyOp34
 70
     0
102
RTVSPropertyOp35
 70
     0
102
RTVSPropertyOp36
 70
     0
102
RTVSPropertyOp37
 70
     0
102
RTVSPropertyOp38
 70
     0
102
RTVSPropertyOp39
 70
     0
102
RTVSPropertyOp40
 70
     0
102
RTVSPropertyOp41
 70
     0
102
RTVSPropertyOp42
 70
     0
102
RTVSPropertyOp43
 70
     0
102
RTVSPropertyOp44
 70
     0
102
RTVSPropertyOp45
 70
     0
102
RTVSPropertyOp46
 70
     0
102
RTVSPropertyOp47
 70
     0
102
RTVSPropertyOp48
 70
     0
102
RTVSPropertyOp49
 70
     0
102
RTVSPropertyOp50
 70
     0
102
RTVSPropertyOp51
 70
     0
102
RTVSPropertyOp52
 70
     0
102
RTVSPropertyOp53
 70
     0
102
RTVSPropertyOp54
 70
     0
102
RTVSPropertyOp55
 70
     0
102
RTVSPropertyOp56
 70
     0
102
RTVSPropertyOp57
 70
     0
102
RTVSPropertyOp58
 70
     0
102
RTVSPropertyOp59
 70
     0
102
RTVSPropertyOp60
 70
     0
102
RTVSPropertyOp61
 70
     0
102
RTVSPropertyOp62
 70
     0
  0
XRECORD
  5
836
102
{ACAD_REACTORS
330
835
102
}
330
835
100
AcDbXrecord
280
     1
102
RTVSPost2010Prop28
280
     0
102
RTVSPost2010PropOp28
 70
     1
102
RTVSPost2010Prop29
280
     1
102
RTVSPost2010PropOp29
 70
     1
102
RTVSPost2010Prop30
280
     1
102
RTVSPost2010PropOp30
 70
     1
102
RTVSPost2010Prop31
280
     0
102
RTVSPost2010PropOp31
 70
     1
102
RTVSPost2010Prop32
280
     0
102
RTVSPost2010PropOp32
 70
     1
102
RTVSPost2010Prop33
280
     0
102
RTVSPost2010PropOp33
 70
     1
102
RTVSPost2010Prop34
280
     0
102
RTVSPost2010PropOp34
 70
     1
102
RTVSPost2010Prop35
280
     0
102
RTVSPost2010PropOp35
 70
     1
102
RTVSPost2010Prop36
280
     0
102
RTVSPost2010PropOp36
 70
     1
102
RTVSPost2010Prop37
 90
       50
102
RTVSPost2010PropOp37
 70
     1
102
RTVSPost2010Prop38
140
0.0
102
RTVSPost2010PropOp38
 70
     1
102
RTVSPost2010Prop39
140
1.0
102
RTVSPost2010PropOp39
 70
     1
102
RTVSPost2010Prop40
 90
        0
102
RTVSPost2010PropOp40
 70
     1
102
RTVSPost2010Prop41ColorIndex
 90
       18
102
RTVSPost2010Prop41ColorRGB
 90
        0
102
RTVSPost2010PropOp41
 70
     1
102
RTVSPost2010Prop42
 90
       50
102
RTVSPost2010PropOp42
 70
     1
102
RTVSPost2010Prop43
 90
        3
102
RTVSPost2010PropOp43
 70
     1
102
RTVSPost2010Prop44ColorIndex
 90
        5
102
RTVSPost2010Prop44ColorRGB
 90
      255
102
RTVSPost2010PropOp44
 70
     1
102
RTVSPost2010Prop45
280
     0
102
RTVSPost2010PropOp45
 70
     1
102
RTVSPost2010Prop46
 90
       50
102
RTVSPost2010PropOp46
 70
     1
102
RTVSPost2010Prop47
 90
       50
102
RTVSPost2010PropOp47
 70
     1
102
RTVSPost2010Prop48
 90
       50
102
RTVSPost2010PropOp48
 70
     1
102
RTVSPost2010Prop49
280
     0
102
RTVSPost2010PropOp49
 70
     1
102
RTVSPost2010Prop50
 90
       50
102
RTVSPost2010PropOp50
 70
     1
102
RTVSPost2010Prop51ColorIndex
 90
      256
102
RTVSPost2010Prop51ColorRGB
 90
-16777216
102
RTVSPost2010PropOp51
 70
     0
102
RTVSPost2010Prop52
140
1.0
102
RTVSPost2010PropOp52
 70
     0
102
RTVSPost2010Prop53
 90
        2
102
RTVSPost2010PropOp53
 70
     1
102
RTVSPost2010Prop54
  1
strokes_ogs.tif
102
RTVSPost2010PropOp54
 70
     1
102
RTVSPost2010Prop55
280
     0
102
RTVSPost2010PropOp55
 70
     1
102
RTVSPost2010Prop56
140
1.0
102
RTVSPost2010PropOp56
 70
     1
102
RTVSPost2010Prop57
140
1.0
102
RTVSPost2010PropOp57
 70
     1
102
RTVSPropertyOp0
 70
     1
102
RTVSPropertyOp1
 70
     1
102
RTVSPropertyOp2
 70
     1
102
RTVSPropertyOp3
 70
     1
102
RTVSPropertyOp4
 70
     1
102
RTVSPropertyOp5
 70
     1
102
RTVSPropertyOp6
 70
     1
102
RTVSPropertyOp7
 70
     1
102
RTVSPropertyOp8
 70
     1
102
RTVSPropertyOp9
 70
     1
102
RTVSPropertyOp10
 70
     1
102
RTVSPropertyOp11
 70
     1
102
RTVSPropertyOp12
 70
     1
102
RTVSPropertyOp13
 70
     1
102
RTVSPropertyOp14
 70
     1
102
RTVSPropertyOp15
 70
     1
102
RTVSPropertyOp16
 70
     1
102
RTVSPropertyOp17
 70
     1
102
RTVSPropertyOp18
 70
     1
102
RTVSPropertyOp19
 70
     1
102
RTVSPropertyOp20
 70
     1
102
RTVSPropertyOp21
 70
     1
102
RTVSPropertyOp22
 70
     1
102
RTVSPropertyOp23
 70
     1
102
RTVSPropertyOp24
 70
     1
102
RTVSPropertyOp25
 70
     1
102
RTVSPropertyOp26
 70
     1
102
RTVSPropertyOp27
 70
     1
102
RTVSPropertyOp28
 70
     1
102
RTVSPropertyOp29
 70
     1
102
RTVSPropertyOp30
 70
     1
102
RTVSPropertyOp31
 70
     1
102
RTVSPropertyOp32
 70
     1
102
RTVSPropertyOp33
 70
     1
102
RTVSPropertyOp34
 70
     1
102
RTVSPropertyOp35
 70
     1
102
RTVSPropertyOp36
 70
     1
102
RTVSPropertyOp37
 70
     1
102
RTVSPropertyOp38
 70
     1
102
RTVSPropertyOp39
 70
     1
102
RTVSPropertyOp40
 70
     1
102
RTVSPropertyOp41
 70
     1
102
RTVSPropertyOp42
 70
     1
102
RTVSPropertyOp43
 70
     1
102
RTVSPropertyOp44
 70
     1
102
RTVSPropertyOp45
 70
     1
102
RTVSPropertyOp46
 70
     1
102
RTVSPropertyOp47
 70
     1
102
RTVSPropertyOp48
 70
     1
102
RTVSPropertyOp49
 70
     1
102
RTVSPropertyOp50
 70
     1
102
RTVSPropertyOp51
 70
     0
102
RTVSPropertyOp52
 70
     0
102
RTVSPropertyOp53
 70
     1
102
RTVSPropertyOp54
 70
     1
102
RTVSPropertyOp55
 70
     1
102
RTVSPropertyOp56
 70
     1
102
RTVSPropertyOp57
 70
     1
102
RTVSPropertyOp58
 70
     1
102
RTVSPropertyOp59
 70
     1
102
RTVSPropertyOp60
 70
     1
102
RTVSPropertyOp61
 70
     1
102
RTVSPropertyOp62
 70
     1
  0
XRECORD
  5
84C
102
{ACAD_REACTORS
330
84B
102
}
330
84B
100
AcDbXrecord
280
     1
102
RTVSPost2010Prop28
280
     0
102
RTVSPost2010PropOp28
 70
     1
102
RTVSPost2010Prop29
280
     1
102
RTVSPost2010PropOp29
 70
     1
102
RTVSPost2010Prop30
280
     1
102
RTVSPost2010PropOp30
 70
     1
102
RTVSPost2010Prop31
280
     0
102
RTVSPost2010PropOp31
 70
     1
102
RTVSPost2010Prop32
280
     0
102
RTVSPost2010PropOp32
 70
     1
102
RTVSPost2010Prop33
280
     0
102
RTVSPost2010PropOp33
 70
     1
102
RTVSPost2010Prop34
280
     0
102
RTVSPost2010PropOp34
 70
     1
102
RTVSPost2010Prop35
280
     0
102
RTVSPost2010PropOp35
 70
     1
102
RTVSPost2010Prop36
280
     0
102
RTVSPost2010PropOp36
 70
     1
102
RTVSPost2010Prop37
 90
       50
102
RTVSPost2010PropOp37
 70
     1
102
RTVSPost2010Prop38
140
0.0
102
RTVSPost2010PropOp38
 70
     1
102
RTVSPost2010Prop39
140
1.0
102
RTVSPost2010PropOp39
 70
     1
102
RTVSPost2010Prop40
 90
        0
102
RTVSPost2010PropOp40
 70
     1
102
RTVSPost2010Prop41ColorIndex
 90
       18
102
RTVSPost2010Prop41ColorRGB
 90
        0
102
RTVSPost2010PropOp41
 70
     1
102
RTVSPost2010Prop42
 90
       50
102
RTVSPost2010PropOp42
 70
     1
102
RTVSPost2010Prop43
 90
        3
102
RTVSPost2010PropOp43
 70
     1
102
RTVSPost2010Prop44ColorIndex
 90
        5
102
RTVSPost2010Prop44ColorRGB
 90
      255
102
RTVSPost2010PropOp44
 70
     1
102
RTVSPost2010Prop45
280
     0
102
RTVSPost2010PropOp45
 70
     1
102
RTVSPost2010Prop46
 90
       50
102
RTVSPost2010PropOp46
 70
     1
102
RTVSPost2010Prop47
 90
       50
102
RTVSPost2010PropOp47
 70
     1
102
RTVSPost2010Prop48
 90
       50
102
RTVSPost2010PropOp48
 70
     1
102
RTVSPost2010Prop49
280
     0
102
RTVSPost2010PropOp49
 70
     1
102
RTVSPost2010Prop50
 90
       50
102
RTVSPost2010PropOp50
 70
     1
102
RTVSPost2010Prop51ColorIndex
 90
      256
102
RTVSPost2010Prop51ColorRGB
 90
-16777216
102
RTVSPost2010PropOp51
 70
     0
102
RTVSPost2010Prop52
140
1.0
102
RTVSPost2010PropOp52
 70
     0
102
RTVSPost2010Prop53
 90
        2
102
RTVSPost2010PropOp53
 70
     1
102
RTVSPost2010Prop54
  1
strokes_ogs.tif
102
RTVSPost2010PropOp54
 70
     1
102
RTVSPost2010Prop55
280
     0
102
RTVSPost2010PropOp55
 70
     1
102
RTVSPost2010Prop56
140
1.0
102
RTVSPost2010PropOp56
 70
     1
102
RTVSPost2010Prop57
140
1.0
102
RTVSPost2010PropOp57
 70
     1
102
RTVSPropertyOp0
 70
     1
102
RTVSPropertyOp1
 70
     1
102
RTVSPropertyOp2
 70
     1
102
RTVSPropertyOp3
 70
     1
102
RTVSPropertyOp4
 70
     1
102
RTVSPropertyOp5
 70
     1
102
RTVSPropertyOp6
 70
     1
102
RTVSPropertyOp7
 70
     1
102
RTVSPropertyOp8
 70
     1
102
RTVSPropertyOp9
 70
     1
102
RTVSPropertyOp10
 70
     1
102
RTVSPropertyOp11
 70
     1
102
RTVSPropertyOp12
 70
     1
102
RTVSPropertyOp13
 70
     1
102
RTVSPropertyOp14
 70
     1
102
RTVSPropertyOp15
 70
     1
102
RTVSPropertyOp16
 70
     1
102
RTVSPropertyOp17
 70
     1
102
RTVSPropertyOp18
 70
     1
102
RTVSPropertyOp19
 70
     1
102
RTVSPropertyOp20
 70
     1
102
RTVSPropertyOp21
 70
     1
102
RTVSPropertyOp22
 70
     1
102
RTVSPropertyOp23
 70
     1
102
RTVSPropertyOp24
 70
     1
102
RTVSPropertyOp25
 70
     1
102
RTVSPropertyOp26
 70
     1
102
RTVSPropertyOp27
 70
     1
102
RTVSPropertyOp28
 70
     1
102
RTVSPropertyOp29
 70
     1
102
RTVSPropertyOp30
 70
     1
102
RTVSPropertyOp31
 70
     1
102
RTVSPropertyOp32
 70
     1
102
RTVSPropertyOp33
 70
     1
102
RTVSPropertyOp34
 70
     1
102
RTVSPropertyOp35
 70
     1
102
RTVSPropertyOp36
 70
     1
102
RTVSPropertyOp37
 70
     1
102
RTVSPropertyOp38
 70
     1
102
RTVSPropertyOp39
 70
     1
102
RTVSPropertyOp40
 70
     1
102
RTVSPropertyOp41
 70
     1
102
RTVSPropertyOp42
 70
     1
102
RTVSPropertyOp43
 70
     1
102
RTVSPropertyOp44
 70
     1
102
RTVSPropertyOp45
 70
     1
102
RTVSPropertyOp46
 70
     1
102
RTVSPropertyOp47
 70
     1
102
RTVSPropertyOp48
 70
     1
102
RTVSPropertyOp49
 70
     1
102
RTVSPropertyOp50
 70
     1
102
RTVSPropertyOp51
 70
     0
102
RTVSPropertyOp52
 70
     0
102
RTVSPropertyOp53
 70
     1
102
RTVSPropertyOp54
 70
     1
102
RTVSPropertyOp55
 70
     1
102
RTVSPropertyOp56
 70
     1
102
RTVSPropertyOp57
 70
     1
102
RTVSPropertyOp58
 70
     1
102
RTVSPropertyOp59
 70
     1
102
RTVSPropertyOp60
 70
     1
102
RTVSPropertyOp61
 70
     1
102
RTVSPropertyOp62
 70
     1
  0
XRECORD
  5
84A
102
{ACAD_REACTORS
330
849
102
}
330
849
100
AcDbXrecord
280
     1
102
RTVSPost2010Prop28
280
     0
102
RTVSPost2010PropOp28
 70
     1
102
RTVSPost2010Prop29
280
     1
102
RTVSPost2010PropOp29
 70
     1
102
RTVSPost2010Prop30
280
     1
102
RTVSPost2010PropOp30
 70
     1
102
RTVSPost2010Prop31
280
     0
102
RTVSPost2010PropOp31
 70
     1
102
RTVSPost2010Prop32
280
     0
102
RTVSPost2010PropOp32
 70
     1
102
RTVSPost2010Prop33
280
     0
102
RTVSPost2010PropOp33
 70
     1
102
RTVSPost2010Prop34
280
     0
102
RTVSPost2010PropOp34
 70
     1
102
RTVSPost2010Prop35
280
     0
102
RTVSPost2010PropOp35
 70
     1
102
RTVSPost2010Prop36
280
     0
102
RTVSPost2010PropOp36
 70
     1
102
RTVSPost2010Prop37
 90
       50
102
RTVSPost2010PropOp37
 70
     1
102
RTVSPost2010Prop38
140
0.0
102
RTVSPost2010PropOp38
 70
     1
102
RTVSPost2010Prop39
140
1.0
102
RTVSPost2010PropOp39
 70
     1
102
RTVSPost2010Prop40
 90
        0
102
RTVSPost2010PropOp40
 70
     1
102
RTVSPost2010Prop41ColorIndex
 90
       18
102
RTVSPost2010Prop41ColorRGB
 90
        0
102
RTVSPost2010PropOp41
 70
     1
102
RTVSPost2010Prop42
 90
       50
102
RTVSPost2010PropOp42
 70
     1
102
RTVSPost2010Prop43
 90
        3
102
RTVSPost2010PropOp43
 70
     1
102
RTVSPost2010Prop44ColorIndex
 90
        5
102
RTVSPost2010Prop44ColorRGB
 90
      255
102
RTVSPost2010PropOp44
 70
     1
102
RTVSPost2010Prop45
280
     0
102
RTVSPost2010PropOp45
 70
     1
102
RTVSPost2010Prop46
 90
       50
102
RTVSPost2010PropOp46
 70
     1
102
RTVSPost2010Prop47
 90
       50
102
RTVSPost2010PropOp47
 70
     1
102
RTVSPost2010Prop48
 90
       50
102
RTVSPost2010PropOp48
 70
     1
102
RTVSPost2010Prop49
280
     0
102
RTVSPost2010PropOp49
 70
     1
102
RTVSPost2010Prop50
 90
       50
102
RTVSPost2010PropOp50
 70
     1
102
RTVSPost2010Prop51ColorIndex
 90
      256
102
RTVSPost2010Prop51ColorRGB
 90
-16777216
102
RTVSPost2010PropOp51
 70
     0
102
RTVSPost2010Prop52
140
1.0
102
RTVSPost2010PropOp52
 70
     0
102
RTVSPost2010Prop53
 90
        2
102
RTVSPost2010PropOp53
 70
     1
102
RTVSPost2010Prop54
  1
strokes_ogs.tif
102
RTVSPost2010PropOp54
 70
     1
102
RTVSPost2010Prop55
280
     0
102
RTVSPost2010PropOp55
 70
     1
102
RTVSPost2010Prop56
140
1.0
102
RTVSPost2010PropOp56
 70
     1
102
RTVSPost2010Prop57
140
1.0
102
RTVSPost2010PropOp57
 70
     1
102
RTVSPropertyOp0
 70
     1
102
RTVSPropertyOp1
 70
     1
102
RTVSPropertyOp2
 70
     1
102
RTVSPropertyOp3
 70
     1
102
RTVSPropertyOp4
 70
     1
102
RTVSPropertyOp5
 70
     1
102
RTVSPropertyOp6
 70
     1
102
RTVSPropertyOp7
 70
     1
102
RTVSPropertyOp8
 70
     1
102
RTVSPropertyOp9
 70
     1
102
RTVSPropertyOp10
 70
     1
102
RTVSPropertyOp11
 70
     1
102
RTVSPropertyOp12
 70
     1
102
RTVSPropertyOp13
 70
     1
102
RTVSPropertyOp14
 70
     1
102
RTVSPropertyOp15
 70
     1
102
RTVSPropertyOp16
 70
     1
102
RTVSPropertyOp17
 70
     1
102
RTVSPropertyOp18
 70
     1
102
RTVSPropertyOp19
 70
     1
102
RTVSPropertyOp20
 70
     1
102
RTVSPropertyOp21
 70
     1
102
RTVSPropertyOp22
 70
     1
102
RTVSPropertyOp23
 70
     1
102
RTVSPropertyOp24
 70
     1
102
RTVSPropertyOp25
 70
     1
102
RTVSPropertyOp26
 70
     1
102
RTVSPropertyOp27
 70
     1
102
RTVSPropertyOp28
 70
     1
102
RTVSPropertyOp29
 70
     1
102
RTVSPropertyOp30
 70
     1
102
RTVSPropertyOp31
 70
     1
102
RTVSPropertyOp32
 70
     1
102
RTVSPropertyOp33
 70
     1
102
RTVSPropertyOp34
 70
     1
102
RTVSPropertyOp35
 70
     1
102
RTVSPropertyOp36
 70
     1
102
RTVSPropertyOp37
 70
     1
102
RTVSPropertyOp38
 70
     1
102
RTVSPropertyOp39
 70
     1
102
RTVSPropertyOp40
 70
     1
102
RTVSPropertyOp41
 70
     1
102
RTVSPropertyOp42
 70
     1
102
RTVSPropertyOp43
 70
     1
102
RTVSPropertyOp44
 70
     1
102
RTVSPropertyOp45
 70
     1
102
RTVSPropertyOp46
 70
     1
102
RTVSPropertyOp47
 70
     1
102
RTVSPropertyOp48
 70
     1
102
RTVSPropertyOp49
 70
     1
102
RTVSPropertyOp50
 70
     1
102
RTVSPropertyOp51
 70
     0
102
RTVSPropertyOp52
 70
     0
102
RTVSPropertyOp53
 70
     1
102
RTVSPropertyOp54
 70
     1
102
RTVSPropertyOp55
 70
     1
102
RTVSPropertyOp56
 70
     1
102
RTVSPropertyOp57
 70
     1
102
RTVSPropertyOp58
 70
     1
102
RTVSPropertyOp59
 70
     1
102
RTVSPropertyOp60
 70
     1
102
RTVSPropertyOp61
 70
     1
102
RTVSPropertyOp62
 70
     1
  0
XRECORD
  5
844
102
{ACAD_REACTORS
330
843
102
}
330
843
100
AcDbXrecord
280
     1
102
RTVSPost2010Prop28
280
     0
102
RTVSPost2010PropOp28
 70
     1
102
RTVSPost2010Prop29
280
     1
102
RTVSPost2010PropOp29
 70
     1
102
RTVSPost2010Prop30
280
     1
102
RTVSPost2010PropOp30
 70
     1
102
RTVSPost2010Prop31
280
     0
102
RTVSPost2010PropOp31
 70
     1
102
RTVSPost2010Prop32
280
     0
102
RTVSPost2010PropOp32
 70
     1
102
RTVSPost2010Prop33
280
     0
102
RTVSPost2010PropOp33
 70
     1
102
RTVSPost2010Prop34
280
     0
102
RTVSPost2010PropOp34
 70
     1
102
RTVSPost2010Prop35
280
     0
102
RTVSPost2010PropOp35
 70
     1
102
RTVSPost2010Prop36
280
     0
102
RTVSPost2010PropOp36
 70
     1
102
RTVSPost2010Prop37
 90
       50
102
RTVSPost2010PropOp37
 70
     1
102
RTVSPost2010Prop38
140
0.0
102
RTVSPost2010PropOp38
 70
     1
102
RTVSPost2010Prop39
140
1.0
102
RTVSPost2010PropOp39
 70
     1
102
RTVSPost2010Prop40
 90
        0
102
RTVSPost2010PropOp40
 70
     1
102
RTVSPost2010Prop41ColorIndex
 90
       18
102
RTVSPost2010Prop41ColorRGB
 90
        0
102
RTVSPost2010PropOp41
 70
     1
102
RTVSPost2010Prop42
 90
       50
102
RTVSPost2010PropOp42
 70
     1
102
RTVSPost2010Prop43
 90
        3
102
RTVSPost2010PropOp43
 70
     1
102
RTVSPost2010Prop44ColorIndex
 90
        5
102
RTVSPost2010Prop44ColorRGB
 90
      255
102
RTVSPost2010PropOp44
 70
     1
102
RTVSPost2010Prop45
280
     0
102
RTVSPost2010PropOp45
 70
     1
102
RTVSPost2010Prop46
 90
       50
102
RTVSPost2010PropOp46
 70
     1
102
RTVSPost2010Prop47
 90
       50
102
RTVSPost2010PropOp47
 70
     1
102
RTVSPost2010Prop48
 90
       50
102
RTVSPost2010PropOp48
 70
     1
102
RTVSPost2010Prop49
280
     0
102
RTVSPost2010PropOp49
 70
     1
102
RTVSPost2010Prop50
 90
       50
102
RTVSPost2010PropOp50
 70
     1
102
RTVSPost2010Prop51ColorIndex
 90
      256
102
RTVSPost2010Prop51ColorRGB
 90
-16777216
102
RTVSPost2010PropOp51
 70
     0
102
RTVSPost2010Prop52
140
1.0
102
RTVSPost2010PropOp52
 70
     0
102
RTVSPost2010Prop53
 90
        2
102
RTVSPost2010PropOp53
 70
     1
102
RTVSPost2010Prop54
  1
strokes_ogs.tif
102
RTVSPost2010PropOp54
 70
     1
102
RTVSPost2010Prop55
280
     0
102
RTVSPost2010PropOp55
 70
     1
102
RTVSPost2010Prop56
140
1.0
102
RTVSPost2010PropOp56
 70
     1
102
RTVSPost2010Prop57
140
1.0
102
RTVSPost2010PropOp57
 70
     1
102
RTVSPropertyOp0
 70
     1
102
RTVSPropertyOp1
 70
     1
102
RTVSPropertyOp2
 70
     1
102
RTVSPropertyOp3
 70
     1
102
RTVSPropertyOp4
 70
     1
102
RTVSPropertyOp5
 70
     1
102
RTVSPropertyOp6
 70
     1
102
RTVSPropertyOp7
 70
     1
102
RTVSPropertyOp8
 70
     1
102
RTVSPropertyOp9
 70
     1
102
RTVSPropertyOp10
 70
     1
102
RTVSPropertyOp11
 70
     1
102
RTVSPropertyOp12
 70
     1
102
RTVSPropertyOp13
 70
     1
102
RTVSPropertyOp14
 70
     1
102
RTVSPropertyOp15
 70
     1
102
RTVSPropertyOp16
 70
     1
102
RTVSPropertyOp17
 70
     1
102
RTVSPropertyOp18
 70
     1
102
RTVSPropertyOp19
 70
     1
102
RTVSPropertyOp20
 70
     1
102
RTVSPropertyOp21
 70
     1
102
RTVSPropertyOp22
 70
     1
102
RTVSPropertyOp23
 70
     1
102
RTVSPropertyOp24
 70
     1
102
RTVSPropertyOp25
 70
     1
102
RTVSPropertyOp26
 70
     1
102
RTVSPropertyOp27
 70
     1
102
RTVSPropertyOp28
 70
     1
102
RTVSPropertyOp29
 70
     1
102
RTVSPropertyOp30
 70
     1
102
RTVSPropertyOp31
 70
     1
102
RTVSPropertyOp32
 70
     1
102
RTVSPropertyOp33
 70
     1
102
RTVSPropertyOp34
 70
     1
102
RTVSPropertyOp35
 70
     1
102
RTVSPropertyOp36
 70
     1
102
RTVSPropertyOp37
 70
     1
102
RTVSPropertyOp38
 70
     1
102
RTVSPropertyOp39
 70
     1
102
RTVSPropertyOp40
 70
     1
102
RTVSPropertyOp41
 70
     1
102
RTVSPropertyOp42
 70
     1
102
RTVSPropertyOp43
 70
     1
102
RTVSPropertyOp44
 70
     1
102
RTVSPropertyOp45
 70
     1
102
RTVSPropertyOp46
 70
     1
102
RTVSPropertyOp47
 70
     1
102
RTVSPropertyOp48
 70
     1
102
RTVSPropertyOp49
 70
     1
102
RTVSPropertyOp50
 70
     1
102
RTVSPropertyOp51
 70
     0
102
RTVSPropertyOp52
 70
     0
102
RTVSPropertyOp53
 70
     1
102
RTVSPropertyOp54
 70
     1
102
RTVSPropertyOp55
 70
     1
102
RTVSPropertyOp56
 70
     1
102
RTVSPropertyOp57
 70
     1
102
RTVSPropertyOp58
 70
     1
102
RTVSPropertyOp59
 70
     1
102
RTVSPropertyOp60
 70
     1
102
RTVSPropertyOp61
 70
     1
102
RTVSPropertyOp62
 70
     1
  0
XRECORD
  5
846
102
{ACAD_REACTORS
330
845
102
}
330
845
100
AcDbXrecord
280
     1
102
RTVSPost2010Prop28
280
     0
102
RTVSPost2010PropOp28
 70
     1
102
RTVSPost2010Prop29
280
     1
102
RTVSPost2010PropOp29
 70
     1
102
RTVSPost2010Prop30
280
     1
102
RTVSPost2010PropOp30
 70
     1
102
RTVSPost2010Prop31
280
     0
102
RTVSPost2010PropOp31
 70
     1
102
RTVSPost2010Prop32
280
     0
102
RTVSPost2010PropOp32
 70
     1
102
RTVSPost2010Prop33
280
     0
102
RTVSPost2010PropOp33
 70
     1
102
RTVSPost2010Prop34
280
     0
102
RTVSPost2010PropOp34
 70
     1
102
RTVSPost2010Prop35
280
     0
102
RTVSPost2010PropOp35
 70
     1
102
RTVSPost2010Prop36
280
     0
102
RTVSPost2010PropOp36
 70
     1
102
RTVSPost2010Prop37
 90
       50
102
RTVSPost2010PropOp37
 70
     1
102
RTVSPost2010Prop38
140
0.0
102
RTVSPost2010PropOp38
 70
     1
102
RTVSPost2010Prop39
140
1.0
102
RTVSPost2010PropOp39
 70
     1
102
RTVSPost2010Prop40
 90
        0
102
RTVSPost2010PropOp40
 70
     1
102
RTVSPost2010Prop41ColorIndex
 90
       18
102
RTVSPost2010Prop41ColorRGB
 90
        0
102
RTVSPost2010PropOp41
 70
     1
102
RTVSPost2010Prop42
 90
       50
102
RTVSPost2010PropOp42
 70
     1
102
RTVSPost2010Prop43
 90
        3
102
RTVSPost2010PropOp43
 70
     1
102
RTVSPost2010Prop44ColorIndex
 90
        5
102
RTVSPost2010Prop44ColorRGB
 90
      255
102
RTVSPost2010PropOp44
 70
     1
102
RTVSPost2010Prop45
280
     0
102
RTVSPost2010PropOp45
 70
     1
102
RTVSPost2010Prop46
 90
       50
102
RTVSPost2010PropOp46
 70
     1
102
RTVSPost2010Prop47
 90
       50
102
RTVSPost2010PropOp47
 70
     1
102
RTVSPost2010Prop48
 90
       50
102
RTVSPost2010PropOp48
 70
     1
102
RTVSPost2010Prop49
280
     0
102
RTVSPost2010PropOp49
 70
     1
102
RTVSPost2010Prop50
 90
       50
102
RTVSPost2010PropOp50
 70
     1
102
RTVSPost2010Prop51ColorIndex
 90
      256
102
RTVSPost2010Prop51ColorRGB
 90
-16777216
102
RTVSPost2010PropOp51
 70
     0
102
RTVSPost2010Prop52
140
1.0
102
RTVSPost2010PropOp52
 70
     0
102
RTVSPost2010Prop53
 90
        2
102
RTVSPost2010PropOp53
 70
     1
102
RTVSPost2010Prop54
  1
strokes_ogs.tif
102
RTVSPost2010PropOp54
 70
     1
102
RTVSPost2010Prop55
280
     0
102
RTVSPost2010PropOp55
 70
     1
102
RTVSPost2010Prop56
140
1.0
102
RTVSPost2010PropOp56
 70
     1
102
RTVSPost2010Prop57
140
1.0
102
RTVSPost2010PropOp57
 70
     1
102
RTVSPropertyOp0
 70
     1
102
RTVSPropertyOp1
 70
     1
102
RTVSPropertyOp2
 70
     1
102
RTVSPropertyOp3
 70
     1
102
RTVSPropertyOp4
 70
     1
102
RTVSPropertyOp5
 70
     1
102
RTVSPropertyOp6
 70
     1
102
RTVSPropertyOp7
 70
     1
102
RTVSPropertyOp8
 70
     1
102
RTVSPropertyOp9
 70
     1
102
RTVSPropertyOp10
 70
     1
102
RTVSPropertyOp11
 70
     1
102
RTVSPropertyOp12
 70
     1
102
RTVSPropertyOp13
 70
     1
102
RTVSPropertyOp14
 70
     1
102
RTVSPropertyOp15
 70
     1
102
RTVSPropertyOp16
 70
     1
102
RTVSPropertyOp17
 70
     1
102
RTVSPropertyOp18
 70
     1
102
RTVSPropertyOp19
 70
     1
102
RTVSPropertyOp20
 70
     1
102
RTVSPropertyOp21
 70
     1
102
RTVSPropertyOp22
 70
     1
102
RTVSPropertyOp23
 70
     1
102
RTVSPropertyOp24
 70
     1
102
RTVSPropertyOp25
 70
     1
102
RTVSPropertyOp26
 70
     1
102
RTVSPropertyOp27
 70
     1
102
RTVSPropertyOp28
 70
     1
102
RTVSPropertyOp29
 70
     1
102
RTVSPropertyOp30
 70
     1
102
RTVSPropertyOp31
 70
     1
102
RTVSPropertyOp32
 70
     1
102
RTVSPropertyOp33
 70
     1
102
RTVSPropertyOp34
 70
     1
102
RTVSPropertyOp35
 70
     1
102
RTVSPropertyOp36
 70
     1
102
RTVSPropertyOp37
 70
     1
102
RTVSPropertyOp38
 70
     1
102
RTVSPropertyOp39
 70
     1
102
RTVSPropertyOp40
 70
     1
102
RTVSPropertyOp41
 70
     1
102
RTVSPropertyOp42
 70
     1
102
RTVSPropertyOp43
 70
     1
102
RTVSPropertyOp44
 70
     1
102
RTVSPropertyOp45
 70
     1
102
RTVSPropertyOp46
 70
     1
102
RTVSPropertyOp47
 70
     1
102
RTVSPropertyOp48
 70
     1
102
RTVSPropertyOp49
 70
     1
102
RTVSPropertyOp50
 70
     1
102
RTVSPropertyOp51
 70
     0
102
RTVSPropertyOp52
 70
     0
102
RTVSPropertyOp53
 70
     1
102
RTVSPropertyOp54
 70
     1
102
RTVSPropertyOp55
 70
     1
102
RTVSPropertyOp56
 70
     1
102
RTVSPropertyOp57
 70
     1
102
RTVSPropertyOp58
 70
     1
102
RTVSPropertyOp59
 70
     1
102
RTVSPropertyOp60
 70
     1
102
RTVSPropertyOp61
 70
     1
102
RTVSPropertyOp62
 70
     1
  0
XRECORD
  5
83C
102
{ACAD_REACTORS
330
83B
102
}
330
83B
100
AcDbXrecord
280
     1
102
RTVSPost2010Prop28
280
     0
102
RTVSPost2010PropOp28
 70
     1
102
RTVSPost2010Prop29
280
     1
102
RTVSPost2010PropOp29
 70
     1
102
RTVSPost2010Prop30
280
     1
102
RTVSPost2010PropOp30
 70
     1
102
RTVSPost2010Prop31
280
     0
102
RTVSPost2010PropOp31
 70
     1
102
RTVSPost2010Prop32
280
     0
102
RTVSPost2010PropOp32
 70
     1
102
RTVSPost2010Prop33
280
     0
102
RTVSPost2010PropOp33
 70
     1
102
RTVSPost2010Prop34
280
     0
102
RTVSPost2010PropOp34
 70
     1
102
RTVSPost2010Prop35
280
     0
102
RTVSPost2010PropOp35
 70
     1
102
RTVSPost2010Prop36
280
     0
102
RTVSPost2010PropOp36
 70
     1
102
RTVSPost2010Prop37
 90
       50
102
RTVSPost2010PropOp37
 70
     1
102
RTVSPost2010Prop38
140
0.0
102
RTVSPost2010PropOp38
 70
     1
102
RTVSPost2010Prop39
140
1.0
102
RTVSPost2010PropOp39
 70
     1
102
RTVSPost2010Prop40
 90
        0
102
RTVSPost2010PropOp40
 70
     1
102
RTVSPost2010Prop41ColorIndex
 90
       18
102
RTVSPost2010Prop41ColorRGB
 90
        0
102
RTVSPost2010PropOp41
 70
     1
102
RTVSPost2010Prop42
 90
       50
102
RTVSPost2010PropOp42
 70
     1
102
RTVSPost2010Prop43
 90
        3
102
RTVSPost2010PropOp43
 70
     1
102
RTVSPost2010Prop44ColorIndex
 90
        5
102
RTVSPost2010Prop44ColorRGB
 90
      255
102
RTVSPost2010PropOp44
 70
     1
102
RTVSPost2010Prop45
280
     0
102
RTVSPost2010PropOp45
 70
     1
102
RTVSPost2010Prop46
 90
       50
102
RTVSPost2010PropOp46
 70
     1
102
RTVSPost2010Prop47
 90
       50
102
RTVSPost2010PropOp47
 70
     1
102
RTVSPost2010Prop48
 90
       50
102
RTVSPost2010PropOp48
 70
     1
102
RTVSPost2010Prop49
280
     0
102
RTVSPost2010PropOp49
 70
     1
102
RTVSPost2010Prop50
 90
       50
102
RTVSPost2010PropOp50
 70
     1
102
RTVSPost2010Prop51ColorIndex
 90
      256
102
RTVSPost2010Prop51ColorRGB
 90
-16777216
102
RTVSPost2010PropOp51
 70
     0
102
RTVSPost2010Prop52
140
1.0
102
RTVSPost2010PropOp52
 70
     0
102
RTVSPost2010Prop53
 90
        2
102
RTVSPost2010PropOp53
 70
     1
102
RTVSPost2010Prop54
  1
strokes_ogs.tif
102
RTVSPost2010PropOp54
 70
     1
102
RTVSPost2010Prop55
280
     0
102
RTVSPost2010PropOp55
 70
     1
102
RTVSPost2010Prop56
140
1.0
102
RTVSPost2010PropOp56
 70
     1
102
RTVSPost2010Prop57
140
1.0
102
RTVSPost2010PropOp57
 70
     1
102
RTVSPropertyOp0
 70
     1
102
RTVSPropertyOp1
 70
     1
102
RTVSPropertyOp2
 70
     1
102
RTVSPropertyOp3
 70
     1
102
RTVSPropertyOp4
 70
     1
102
RTVSPropertyOp5
 70
     1
102
RTVSPropertyOp6
 70
     1
102
RTVSPropertyOp7
 70
     1
102
RTVSPropertyOp8
 70
     1
102
RTVSPropertyOp9
 70
     1
102
RTVSPropertyOp10
 70
     1
102
RTVSPropertyOp11
 70
     1
102
RTVSPropertyOp12
 70
     1
102
RTVSPropertyOp13
 70
     1
102
RTVSPropertyOp14
 70
     1
102
RTVSPropertyOp15
 70
     1
102
RTVSPropertyOp16
 70
     1
102
RTVSPropertyOp17
 70
     1
102
RTVSPropertyOp18
 70
     1
102
RTVSPropertyOp19
 70
     1
102
RTVSPropertyOp20
 70
     1
102
RTVSPropertyOp21
 70
     1
102
RTVSPropertyOp22
 70
     1
102
RTVSPropertyOp23
 70
     1
102
RTVSPropertyOp24
 70
     1
102
RTVSPropertyOp25
 70
     1
102
RTVSPropertyOp26
 70
     1
102
RTVSPropertyOp27
 70
     1
102
RTVSPropertyOp28
 70
     1
102
RTVSPropertyOp29
 70
     1
102
RTVSPropertyOp30
 70
     1
102
RTVSPropertyOp31
 70
     1
102
RTVSPropertyOp32
 70
     1
102
RTVSPropertyOp33
 70
     1
102
RTVSPropertyOp34
 70
     1
102
RTVSPropertyOp35
 70
     1
102
RTVSPropertyOp36
 70
     1
102
RTVSPropertyOp37
 70
     1
102
RTVSPropertyOp38
 70
     1
102
RTVSPropertyOp39
 70
     1
102
RTVSPropertyOp40
 70
     1
102
RTVSPropertyOp41
 70
     1
102
RTVSPropertyOp42
 70
     1
102
RTVSPropertyOp43
 70
     1
102
RTVSPropertyOp44
 70
     1
102
RTVSPropertyOp45
 70
     1
102
RTVSPropertyOp46
 70
     1
102
RTVSPropertyOp47
 70
     1
102
RTVSPropertyOp48
 70
     1
102
RTVSPropertyOp49
 70
     1
102
RTVSPropertyOp50
 70
     1
102
RTVSPropertyOp51
 70
     0
102
RTVSPropertyOp52
 70
     0
102
RTVSPropertyOp53
 70
     1
102
RTVSPropertyOp54
 70
     1
102
RTVSPropertyOp55
 70
     1
102
RTVSPropertyOp56
 70
     1
102
RTVSPropertyOp57
 70
     1
102
RTVSPropertyOp58
 70
     1
102
RTVSPropertyOp59
 70
     1
102
RTVSPropertyOp60
 70
     1
102
RTVSPropertyOp61
 70
     1
102
RTVSPropertyOp62
 70
     1
  0
XRECORD
  5
830
102
{ACAD_REACTORS
330
82F
102
}
330
82F
100
AcDbXrecord
280
     1
102
RTVSPost2010Prop28
280
     0
102
RTVSPost2010PropOp28
 70
     1
102
RTVSPost2010Prop29
280
     1
102
RTVSPost2010PropOp29
 70
     1
102
RTVSPost2010Prop30
280
     1
102
RTVSPost2010PropOp30
 70
     1
102
RTVSPost2010Prop31
280
     0
102
RTVSPost2010PropOp31
 70
     1
102
RTVSPost2010Prop32
280
     0
102
RTVSPost2010PropOp32
 70
     1
102
RTVSPost2010Prop33
280
     0
102
RTVSPost2010PropOp33
 70
     1
102
RTVSPost2010Prop34
280
     0
102
RTVSPost2010PropOp34
 70
     1
102
RTVSPost2010Prop35
280
     0
102
RTVSPost2010PropOp35
 70
     1
102
RTVSPost2010Prop36
280
     0
102
RTVSPost2010PropOp36
 70
     1
102
RTVSPost2010Prop37
 90
       50
102
RTVSPost2010PropOp37
 70
     1
102
RTVSPost2010Prop38
140
0.0
102
RTVSPost2010PropOp38
 70
     1
102
RTVSPost2010Prop39
140
1.0
102
RTVSPost2010PropOp39
 70
     1
102
RTVSPost2010Prop40
 90
        0
102
RTVSPost2010PropOp40
 70
     1
102
RTVSPost2010Prop41ColorIndex
 90
       18
102
RTVSPost2010Prop41ColorRGB
 90
        0
102
RTVSPost2010PropOp41
 70
     1
102
RTVSPost2010Prop42
 90
       50
102
RTVSPost2010PropOp42
 70
     1
102
RTVSPost2010Prop43
 90
        3
102
RTVSPost2010PropOp43
 70
     1
102
RTVSPost2010Prop44ColorIndex
 90
        5
102
RTVSPost2010Prop44ColorRGB
 90
      255
102
RTVSPost2010PropOp44
 70
     1
102
RTVSPost2010Prop45
280
     0
102
RTVSPost2010PropOp45
 70
     1
102
RTVSPost2010Prop46
 90
       50
102
RTVSPost2010PropOp46
 70
     1
102
RTVSPost2010Prop47
 90
       50
102
RTVSPost2010PropOp47
 70
     1
102
RTVSPost2010Prop48
 90
       50
102
RTVSPost2010PropOp48
 70
     1
102
RTVSPost2010Prop49
280
     0
102
RTVSPost2010PropOp49
 70
     1
102
RTVSPost2010Prop50
 90
       50
102
RTVSPost2010PropOp50
 70
     1
102
RTVSPost2010Prop51ColorIndex
 90
      256
102
RTVSPost2010Prop51ColorRGB
 90
-16777216
102
RTVSPost2010PropOp51
 70
     0
102
RTVSPost2010Prop52
140
1.0
102
RTVSPost2010PropOp52
 70
     0
102
RTVSPost2010Prop53
 90
        2
102
RTVSPost2010PropOp53
 70
     1
102
RTVSPost2010Prop54
  1
strokes_ogs.tif
102
RTVSPost2010PropOp54
 70
     1
102
RTVSPost2010Prop55
280
     0
102
RTVSPost2010PropOp55
 70
     1
102
RTVSPost2010Prop56
140
1.0
102
RTVSPost2010PropOp56
 70
     1
102
RTVSPost2010Prop57
140
1.0
102
RTVSPost2010PropOp57
 70
     1
102
RTVSPropertyOp0
 70
     1
102
RTVSPropertyOp1
 70
     1
102
RTVSPropertyOp2
 70
     1
102
RTVSPropertyOp3
 70
     1
102
RTVSPropertyOp4
 70
     1
102
RTVSPropertyOp5
 70
     1
102
RTVSPropertyOp6
 70
     1
102
RTVSPropertyOp7
 70
     1
102
RTVSPropertyOp8
 70
     1
102
RTVSPropertyOp9
 70
     1
102
RTVSPropertyOp10
 70
     1
102
RTVSPropertyOp11
 70
     1
102
RTVSPropertyOp12
 70
     1
102
RTVSPropertyOp13
 70
     1
102
RTVSPropertyOp14
 70
     1
102
RTVSPropertyOp15
 70
     1
102
RTVSPropertyOp16
 70
     1
102
RTVSPropertyOp17
 70
     1
102
RTVSPropertyOp18
 70
     1
102
RTVSPropertyOp19
 70
     1
102
RTVSPropertyOp20
 70
     1
102
RTVSPropertyOp21
 70
     1
102
RTVSPropertyOp22
 70
     1
102
RTVSPropertyOp23
 70
     1
102
RTVSPropertyOp24
 70
     1
102
RTVSPropertyOp25
 70
     1
102
RTVSPropertyOp26
 70
     1
102
RTVSPropertyOp27
 70
     1
102
RTVSPropertyOp28
 70
     1
102
RTVSPropertyOp29
 70
     1
102
RTVSPropertyOp30
 70
     1
102
RTVSPropertyOp31
 70
     1
102
RTVSPropertyOp32
 70
     1
102
RTVSPropertyOp33
 70
     1
102
RTVSPropertyOp34
 70
     1
102
RTVSPropertyOp35
 70
     1
102
RTVSPropertyOp36
 70
     1
102
RTVSPropertyOp37
 70
     1
102
RTVSPropertyOp38
 70
     1
102
RTVSPropertyOp39
 70
     1
102
RTVSPropertyOp40
 70
     1
102
RTVSPropertyOp41
 70
     1
102
RTVSPropertyOp42
 70
     1
102
RTVSPropertyOp43
 70
     1
102
RTVSPropertyOp44
 70
     1
102
RTVSPropertyOp45
 70
     1
102
RTVSPropertyOp46
 70
     1
102
RTVSPropertyOp47
 70
     1
102
RTVSPropertyOp48
 70
     1
102
RTVSPropertyOp49
 70
     1
102
RTVSPropertyOp50
 70
     1
102
RTVSPropertyOp51
 70
     0
102
RTVSPropertyOp52
 70
     0
102
RTVSPropertyOp53
 70
     1
102
RTVSPropertyOp54
 70
     1
102
RTVSPropertyOp55
 70
     1
102
RTVSPropertyOp56
 70
     1
102
RTVSPropertyOp57
 70
     1
102
RTVSPropertyOp58
 70
     1
102
RTVSPropertyOp59
 70
     1
102
RTVSPropertyOp60
 70
     1
102
RTVSPropertyOp61
 70
     1
102
RTVSPropertyOp62
 70
     1
  0
XRECORD
  5
848
102
{ACAD_REACTORS
330
847
102
}
330
847
100
AcDbXrecord
280
     1
102
RTVSPost2010Prop28
280
     0
102
RTVSPost2010PropOp28
 70
     1
102
RTVSPost2010Prop29
280
     1
102
RTVSPost2010PropOp29
 70
     1
102
RTVSPost2010Prop30
280
     1
102
RTVSPost2010PropOp30
 70
     1
102
RTVSPost2010Prop31
280
     0
102
RTVSPost2010PropOp31
 70
     1
102
RTVSPost2010Prop32
280
     0
102
RTVSPost2010PropOp32
 70
     1
102
RTVSPost2010Prop33
280
     0
102
RTVSPost2010PropOp33
 70
     1
102
RTVSPost2010Prop34
280
     0
102
RTVSPost2010PropOp34
 70
     1
102
RTVSPost2010Prop35
280
     0
102
RTVSPost2010PropOp35
 70
     1
102
RTVSPost2010Prop36
280
     0
102
RTVSPost2010PropOp36
 70
     1
102
RTVSPost2010Prop37
 90
       50
102
RTVSPost2010PropOp37
 70
     1
102
RTVSPost2010Prop38
140
0.0
102
RTVSPost2010PropOp38
 70
     1
102
RTVSPost2010Prop39
140
1.0
102
RTVSPost2010PropOp39
 70
     1
102
RTVSPost2010Prop40
 90
        0
102
RTVSPost2010PropOp40
 70
     1
102
RTVSPost2010Prop41ColorIndex
 90
       18
102
RTVSPost2010Prop41ColorRGB
 90
        0
102
RTVSPost2010PropOp41
 70
     1
102
RTVSPost2010Prop42
 90
       50
102
RTVSPost2010PropOp42
 70
     1
102
RTVSPost2010Prop43
 90
        3
102
RTVSPost2010PropOp43
 70
     1
102
RTVSPost2010Prop44ColorIndex
 90
        5
102
RTVSPost2010Prop44ColorRGB
 90
      255
102
RTVSPost2010PropOp44
 70
     1
102
RTVSPost2010Prop45
280
     0
102
RTVSPost2010PropOp45
 70
     1
102
RTVSPost2010Prop46
 90
       50
102
RTVSPost2010PropOp46
 70
     1
102
RTVSPost2010Prop47
 90
       50
102
RTVSPost2010PropOp47
 70
     1
102
RTVSPost2010Prop48
 90
       50
102
RTVSPost2010PropOp48
 70
     1
102
RTVSPost2010Prop49
280
     0
102
RTVSPost2010PropOp49
 70
     1
102
RTVSPost2010Prop50
 90
       50
102
RTVSPost2010PropOp50
 70
     1
102
RTVSPost2010Prop51ColorIndex
 90
      256
102
RTVSPost2010Prop51ColorRGB
 90
-16777216
102
RTVSPost2010PropOp51
 70
     0
102
RTVSPost2010Prop52
140
1.0
102
RTVSPost2010PropOp52
 70
     0
102
RTVSPost2010Prop53
 90
        2
102
RTVSPost2010PropOp53
 70
     1
102
RTVSPost2010Prop54
  1
strokes_ogs.tif
102
RTVSPost2010PropOp54
 70
     1
102
RTVSPost2010Prop55
280
     0
102
RTVSPost2010PropOp55
 70
     1
102
RTVSPost2010Prop56
140
1.0
102
RTVSPost2010PropOp56
 70
     1
102
RTVSPost2010Prop57
140
1.0
102
RTVSPost2010PropOp57
 70
     1
102
RTVSPropertyOp0
 70
     1
102
RTVSPropertyOp1
 70
     1
102
RTVSPropertyOp2
 70
     1
102
RTVSPropertyOp3
 70
     1
102
RTVSPropertyOp4
 70
     1
102
RTVSPropertyOp5
 70
     1
102
RTVSPropertyOp6
 70
     1
102
RTVSPropertyOp7
 70
     1
102
RTVSPropertyOp8
 70
     1
102
RTVSPropertyOp9
 70
     1
102
RTVSPropertyOp10
 70
     1
102
RTVSPropertyOp11
 70
     1
102
RTVSPropertyOp12
 70
     1
102
RTVSPropertyOp13
 70
     1
102
RTVSPropertyOp14
 70
     1
102
RTVSPropertyOp15
 70
     1
102
RTVSPropertyOp16
 70
     1
102
RTVSPropertyOp17
 70
     1
102
RTVSPropertyOp18
 70
     1
102
RTVSPropertyOp19
 70
     1
102
RTVSPropertyOp20
 70
     1
102
RTVSPropertyOp21
 70
     1
102
RTVSPropertyOp22
 70
     1
102
RTVSPropertyOp23
 70
     1
102
RTVSPropertyOp24
 70
     1
102
RTVSPropertyOp25
 70
     1
102
RTVSPropertyOp26
 70
     1
102
RTVSPropertyOp27
 70
     1
102
RTVSPropertyOp28
 70
     1
102
RTVSPropertyOp29
 70
     1
102
RTVSPropertyOp30
 70
     1
102
RTVSPropertyOp31
 70
     1
102
RTVSPropertyOp32
 70
     1
102
RTVSPropertyOp33
 70
     1
102
RTVSPropertyOp34
 70
     1
102
RTVSPropertyOp35
 70
     1
102
RTVSPropertyOp36
 70
     1
102
RTVSPropertyOp37
 70
     1
102
RTVSPropertyOp38
 70
     1
102
RTVSPropertyOp39
 70
     1
102
RTVSPropertyOp40
 70
     1
102
RTVSPropertyOp41
 70
     1
102
RTVSPropertyOp42
 70
     1
102
RTVSPropertyOp43
 70
     1
102
RTVSPropertyOp44
 70
     1
102
RTVSPropertyOp45
 70
     1
102
RTVSPropertyOp46
 70
     1
102
RTVSPropertyOp47
 70
     1
102
RTVSPropertyOp48
 70
     1
102
RTVSPropertyOp49
 70
     1
102
RTVSPropertyOp50
 70
     1
102
RTVSPropertyOp51
 70
     0
102
RTVSPropertyOp52
 70
     0
102
RTVSPropertyOp53
 70
     1
102
RTVSPropertyOp54
 70
     1
102
RTVSPropertyOp55
 70
     1
102
RTVSPropertyOp56
 70
     1
102
RTVSPropertyOp57
 70
     1
102
RTVSPropertyOp58
 70
     1
102
RTVSPropertyOp59
 70
     1
102
RTVSPropertyOp60
 70
     1
102
RTVSPropertyOp61
 70
     1
102
RTVSPropertyOp62
 70
     1
  0
ENDSEC
  0
EOF
