  0
SECTION
  2
HEADER
  9
$ACADVER
  1
AC1021
  9
$ACADMAINTVER
 70
    50
  9
$DWGCODEPAGE
  3
ANSI_1252
  9
$LASTSAVEDBY
  1
leeh
  9
$INSBASE
 10
0.0
 20
0.0
 30
0.0
  9
$EXTMIN
 10
7.833039482111871
 20
15.78368581284439
 30
-0.0015258207003583
  9
$EXTMAX
 10
393.5704543903994
 20
570.2052944576646
 30
0.0000000349246037
  9
$LIMMIN
 10
0.0
 20
0.0
  9
$LIMMAX
 10
420.0
 20
297.0
  9
$ORTHOMODE
 70
     0
  9
$REGENMODE
 70
     1
  9
$FILLMODE
 70
     1
  9
$QTEXTMODE
 70
     0
  9
$MIRRTEXT
 70
     0
  9
$LTSCALE
 40
1.0
  9
$ATTMODE
 70
     1
  9
$TEXTSIZE
 40
2.5
  9
$TRACEWID
 40
1.0
  9
$TEXTSTYLE
  7
Standard
  9
$CLAYER
  8
0
  9
$CELTYPE
  6
ByLayer
  9
$CECOLOR
 62
   256
  9
$CELTSCALE
 40
1.0
  9
$DISPSILH
 70
     0
  9
$DIMSCALE
 40
1.0
  9
$DIMASZ
 40
2.5
  9
$DIMEXO
 40
0.625
  9
$DIMDLI
 40
3.75
  9
$DIMRND
 40
0.0
  9
$DIMDLE
 40
0.0
  9
$DIMEXE
 40
1.25
  9
$DIMTP
 40
0.0
  9
$DIMTM
 40
0.0
  9
$DIMTXT
 40
2.5
  9
$DIMCEN
 40
2.5
  9
$DIMTSZ
 40
0.0
  9
$DIMTOL
 70
     0
  9
$DIMLIM
 70
     0
  9
$DIMTIH
 70
     0
  9
$DIMTOH
 70
     0
  9
$DIMSE1
 70
     0
  9
$DIMSE2
 70
     0
  9
$DIMTAD
 70
     1
  9
$DIMZIN
 70
     8
  9
$DIMBLK
  1

  9
$DIMASO
 70
     1
  9
$DIMSHO
 70
     1
  9
$DIMPOST
  1

  9
$DIMAPOST
  1

  9
$DIMALT
 70
     0
  9
$DIMALTD
 70
     3
  9
$DIMALTF
 40
0.03937007874016
  9
$DIMLFAC
 40
1.0
  9
$DIMTOFL
 70
     1
  9
$DIMTVP
 40
0.0
  9
$DIMTIX
 70
     0
  9
$DIMSOXD
 70
     0
  9
$DIMSAH
 70
     0
  9
$DIMBLK1
  1

  9
$DIMBLK2
  1

  9
$DIMSTYLE
  2
ISO-25
  9
$DIMCLRD
 70
     0
  9
$DIMCLRE
 70
     0
  9
$DIMCLRT
 70
     0
  9
$DIMTFAC
 40
1.0
  9
$DIMGAP
 40
0.625
  9
$DIMJUST
 70
     0
  9
$DIMSD1
 70
     0
  9
$DIMSD2
 70
     0
  9
$DIMTOLJ
 70
     0
  9
$DIMTZIN
 70
     8
  9
$DIMALTZ
 70
     0
  9
$DIMALTTZ
 70
     0
  9
$DIMUPT
 70
     0
  9
$DIMDEC
 70
     2
  9
$DIMTDEC
 70
     2
  9
$DIMALTU
 70
     2
  9
$DIMALTTD
 70
     3
  9
$DIMTXSTY
  7
Standard
  9
$DIMAUNIT
 70
     0
  9
$DIMADEC
 70
     0
  9
$DIMALTRND
 40
0.0
  9
$DIMAZIN
 70
     0
  9
$DIMDSEP
 70
    44
  9
$DIMATFIT
 70
     3
  9
$DIMFRAC
 70
     0
  9
$DIMLDRBLK
  1

  9
$DIMLUNIT
 70
     2
  9
$DIMLWD
 70
    -2
  9
$DIMLWE
 70
    -2
  9
$DIMTMOVE
 70
     0
  9
$DIMFXL
 40
1.0
  9
$DIMFXLON
 70
     0
  9
$DIMJOGANG
 40
1.570796326794896
  9
$DIMTFILL
 70
     0
  9
$DIMTFILLCLR
 70
     0
  9
$DIMARCSYM
 70
     0
  9
$DIMLTYPE
  6

  9
$DIMLTEX1
  6

  9
$DIMLTEX2
  6

  9
$LUNITS
 70
     2
  9
$LUPREC
 70
     4
  9
$SKETCHINC
 40
1.0
  9
$FILLETRAD
 40
0.0
  9
$AUNITS
 70
     0
  9
$AUPREC
 70
     0
  9
$MENU
  1
.
  9
$ELEVATION
 40
0.0
  9
$PELEVATION
 40
0.0
  9
$THICKNESS
 40
0.0
  9
$LIMCHECK
 70
     0
  9
$CHAMFERA
 40
0.0
  9
$CHAMFERB
 40
0.0
  9
$CHAMFERC
 40
0.0
  9
$CHAMFERD
 40
0.0
  9
$SKPOLY
 70
     0
  9
$TDCREATE
 40
2459601.333113426
  9
$TDUCREATE
 40
2459600.791446760
  9
$TDUPDATE
 40
2459601.340243056
  9
$TDUUPDATE
 40
2459600.798576389
  9
$TDINDWG
 40
0.0028240741
  9
$TDUSRTIMER
 40
0.0028240741
  9
$USRTIMER
 70
     1
  9
$ANGBASE
 50
0.0
  9
$ANGDIR
 70
     0
  9
$PDMODE
 70
     0
  9
$PDSIZE
 40
0.0
  9
$PLINEWID
 40
0.0
  9
$SPLFRAME
 70
     0
  9
$SPLINETYPE
 70
     6
  9
$SPLINESEGS
 70
     8
  9
$HANDSEED
  5
82A
  9
$SURFTAB1
 70
     6
  9
$SURFTAB2
 70
     6
  9
$SURFTYPE
 70
     6
  9
$SURFU
 70
     6
  9
$SURFV
 70
     6
  9
$UCSBASE
  2

  9
$UCSNAME
  2

  9
$UCSORG
 10
0.0
 20
0.0
 30
0.0
  9
$UCSXDIR
 10
1.0
 20
0.0
 30
0.0
  9
$UCSYDIR
 10
0.0
 20
1.0
 30
0.0
  9
$UCSORTHOREF
  2

  9
$UCSORTHOVIEW
 70
     0
  9
$UCSORGTOP
 10
0.0
 20
0.0
 30
0.0
  9
$UCSORGBOTTOM
 10
0.0
 20
0.0
 30
0.0
  9
$UCSORGLEFT
 10
0.0
 20
0.0
 30
0.0
  9
$UCSORGRIGHT
 10
0.0
 20
0.0
 30
0.0
  9
$UCSORGFRONT
 10
0.0
 20
0.0
 30
0.0
  9
$UCSORGBACK
 10
0.0
 20
0.0
 30
0.0
  9
$PUCSBASE
  2

  9
$PUCSNAME
  2

  9
$PUCSORG
 10
0.0
 20
0.0
 30
0.0
  9
$PUCSXDIR
 10
1.0
 20
0.0
 30
0.0
  9
$PUCSYDIR
 10
0.0
 20
1.0
 30
0.0
  9
$PUCSORTHOREF
  2

  9
$PUCSORTHOVIEW
 70
     0
  9
$PUCSORGTOP
 10
0.0
 20
0.0
 30
0.0
  9
$PUCSORGBOTTOM
 10
0.0
 20
0.0
 30
0.0
  9
$PUCSORGLEFT
 10
0.0
 20
0.0
 30
0.0
  9
$PUCSORGRIGHT
 10
0.0
 20
0.0
 30
0.0
  9
$PUCSORGFRONT
 10
0.0
 20
0.0
 30
0.0
  9
$PUCSORGBACK
 10
0.0
 20
0.0
 30
0.0
  9
$USERI1
 70
     0
  9
$USERI2
 70
     0
  9
$USERI3
 70
     0
  9
$USERI4
 70
     0
  9
$USERI5
 70
     0
  9
$USERR1
 40
0.0
  9
$USERR2
 40
0.0
  9
$USERR3
 40
0.0
  9
$USERR4
 40
0.0
  9
$USERR5
 40
0.0
  9
$WORLDVIEW
 70
     1
  9
$SHADEDGE
 70
     3
  9
$SHADEDIF
 70
    70
  9
$TILEMODE
 70
     1
  9
$MAXACTVP
 70
    64
  9
$PINSBASE
 10
0.0
 20
0.0
 30
0.0
  9
$PLIMCHECK
 70
     0
  9
$PEXTMIN
 10
1.000000000000000E+20
 20
1.000000000000000E+20
 30
1.000000000000000E+20
  9
$PEXTMAX
 10
-1.000000000000000E+20
 20
-1.000000000000000E+20
 30
-1.000000000000000E+20
  9
$PLIMMIN
 10
0.0
 20
0.0
  9
$PLIMMAX
 10
420.0
 20
297.0
  9
$UNITMODE
 70
     0
  9
$VISRETAIN
 70
     1
  9
$PLINEGEN
 70
     0
  9
$PSLTSCALE
 70
     1
  9
$TREEDEPTH
 70
  3020
  9
$CMLSTYLE
  2
Standard
  9
$CMLJUST
 70
     0
  9
$CMLSCALE
 40
20.0
  9
$PROXYGRAPHICS
 70
     1
  9
$MEASUREMENT
 70
     1
  9
$CELWEIGHT
370
    -1
  9
$ENDCAPS
280
     0
  9
$JOINSTYLE
280
     0
  9
$LWDISPLAY
290
     0
  9
$INSUNITS
 70
     4
  9
$HYPERLINKBASE
  1

  9
$STYLESHEET
  1

  9
$XEDIT
290
     1
  9
$CEPSNTYPE
380
     0
  9
$PSTYLEMODE
290
     1
  9
$FINGERPRINTGUID
  2
{AD24A49B-31A2-7041-B83E-7EB58EB1E1CB}
  9
$VERSIONGUID
  2
{B691993D-FF96-7C4A-8197-6019478E5D6F}
  9
$EXTNAMES
290
     1
  9
$PSVPSCALE
 40
0.0
  9
$OLESTARTUP
290
     0
  9
$SORTENTS
280
   127
  9
$INDEXCTL
280
     0
  9
$HIDETEXT
280
     1
  9
$XCLIPFRAME
290
     0
  9
$HALOGAP
280
     0
  9
$OBSCOLOR
 70
   257
  9
$OBSLTYPE
280
     0
  9
$INTERSECTIONDISPLAY
280
     0
  9
$INTERSECTIONCOLOR
 70
   257
  9
$DIMASSOC
280
     2
  9
$PROJECTNAME
  1

  9
$CAMERADISPLAY
290
     0
  9
$LENSLENGTH
 40
50.0
  9
$CAMERAHEIGHT
 40
0.0
  9
$STEPSPERSEC
 40
2.0
  9
$STEPSIZE
 40
6.0
  9
$3DDWFPREC
 40
2.0
  9
$PSOLWIDTH
 40
0.25
  9
$PSOLHEIGHT
 40
4.0
  9
$LOFTANG1
 40
1.570796326794896
  9
$LOFTANG2
 40
1.570796326794896
  9
$LOFTMAG1
 40
0.0
  9
$LOFTMAG2
 40
0.0
  9
$LOFTPARAM
 70
     7
  9
$LOFTNORMALS
280
     1
  9
$LATITUDE
 40
37.795
  9
$LONGITUDE
 40
-122.394
  9
$NORTHDIRECTION
 40
0.0
  9
$TIMEZONE
 70
 -8000
  9
$LIGHTGLYPHDISPLAY
280
     1
  9
$TILEMODELIGHTSYNCH
280
     1
  9
$CMATERIAL
347
11
  9
$SOLIDHIST
280
     0
  9
$SHOWHIST
280
     1
  9
$DWFFRAME
280
     2
  9
$DGNFRAME
280
     0
  9
$REALWORLDSCALE
290
     1
  9
$INTERFERECOLOR
 62
     1
  9
$INTERFEREOBJVS
345
33
  9
$INTERFEREVPVS
346
30
  9
$CSHADOW
280
     0
  9
$SHADOWPLANELOCATION
 40
0.0
  0
ENDSEC
  0
SECTION
  2
CLASSES
  0
CLASS
  1
ACDBDICTIONARYWDFLT
  2
AcDbDictionaryWithDefault
  3
ObjectDBX Classes
 90
        0
 91
        1
280
     0
281
     0
  0
CLASS
  1
MATERIAL
  2
AcDbMaterial
  3
ObjectDBX Classes
 90
     1153
 91
        3
280
     0
281
     0
  0
CLASS
  1
VISUALSTYLE
  2
AcDbVisualStyle
  3
ObjectDBX Classes
 90
     4095
 91
       24
280
     0
281
     0
  0
CLASS
  1
SCALE
  2
AcDbScale
  3
ObjectDBX Classes
 90
     1153
 91
       17
280
     0
281
     0
  0
CLASS
  1
TABLESTYLE
  2
AcDbTableStyle
  3
ObjectDBX Classes
 90
     4095
 91
        1
280
     0
281
     0
  0
CLASS
  1
MLEADERSTYLE
  2
AcDbMLeaderStyle
  3
ACDB_MLEADERSTYLE_CLASS
 90
     4095
 91
        1
280
     0
281
     0
  0
CLASS
  1
ACDBSECTIONVIEWSTYLE
  2
AcDbSectionViewStyle
  3
ObjectDBX Classes
 90
     1025
 91
        1
280
     0
281
     0
  0
CLASS
  1
ACDBDETAILVIEWSTYLE
  2
AcDbDetailViewStyle
  3
ObjectDBX Classes
 90
     1025
 91
        1
280
     0
281
     0
  0
CLASS
  1
DICTIONARYVAR
  2
AcDbDictionaryVar
  3
ObjectDBX Classes
 90
        0
 91
        8
280
     0
281
     0
  0
CLASS
  1
ACDB_HATCHVIEWCONTEXTDATA_CLASS
  2
AcDbHatchViewContextData
  3
ObjectDBX Classes
 90
     1153
 91
        0
280
     0
281
     0
  0
CLASS
  1
ACDB_HATCHSCALECONTEXTDATA_CLASS
  2
AcDbHatchScaleContextData
  3
ObjectDBX Classes
 90
     1153
 91
        0
280
     0
281
     0
  0
CLASS
  1
DIMASSOC
  2
AcDbDimAssoc
  3
"AcDbDimAssoc|Product Desc:     AcDim ARX App For Dimension|Company:          Autodesk, Inc.|WEB Address:      www.autodesk.com"
 90
        0
 91
        1
280
     0
281
     0
  0
CLASS
  1
SORTENTSTABLE
  2
AcDbSortentsTable
  3
ObjectDBX Classes
 90
        0
 91
        0
280
     0
281
     0
  0
CLASS
  1
CELLSTYLEMAP
  2
AcDbCellStyleMap
  3
ObjectDBX Classes
 90
     1152
 91
        3
280
     0
281
     0
  0
ENDSEC
  0
SECTION
  2
TABLES
  0
TABLE
  2
VPORT
  5
8
330
0
100
AcDbSymbolTable
 70
     1
  0
VPORT
  5
57
330
8
100
AcDbSymbolTableRecord
100
AcDbViewportTableRecord
  2
*Active
 70
     0
 10
0.0
 20
0.0
 11
1.0
 21
1.0
 12
200.7017469362556
 22
292.9944901352545
 13
0.0
 23
0.0
 14
10.0
 24
10.0
 15
10.0
 25
10.0
 16
0.0
 26
0.0
 36
1.0
 17
0.0
 27
0.0
 37
0.0
 40
558.8987683377797
 41
2.466307277628032
 42
50.0
 43
0.0
 44
0.0
 50
0.0
 51
0.0
 71
     0
 72
  1000
 73
     1
 74
     3
 75
     0
 76
     0
 77
     0
 78
     0
281
     0
 65
     1
110
0.0
120
0.0
130
0.0
111
1.0
121
0.0
131
0.0
112
0.0
122
1.0
132
0.0
 79
     0
146
0.0
348
2F
 60
     2
 61
     5
292
     1
282
     1
141
0.0
142
0.0
 63
   250
421
  3355443
1001
ACAD_NAV_VCDISPLAY
1070
     1
  0
ENDTAB
  0
TABLE
  2
LTYPE
  5
5
330
0
100
AcDbSymbolTable
 70
     3
  0
LTYPE
  5
5B
330
5
100
AcDbSymbolTableRecord
100
AcDbLinetypeTableRecord
  2
ByBlock
 70
     0
  3

 72
    65
 73
     0
 40
0.0
  0
LTYPE
  5
5C
330
5
100
AcDbSymbolTableRecord
100
AcDbLinetypeTableRecord
  2
ByLayer
 70
     0
  3

 72
    65
 73
     0
 40
0.0
  0
LTYPE
  5
5D
330
5
100
AcDbSymbolTableRecord
100
AcDbLinetypeTableRecord
  2
Continuous
 70
     0
  3
Solid line
 72
    65
 73
     0
 40
0.0
  0
LTYPE
  5
F7
330
5
100
AcDbSymbolTableRecord
100
AcDbLinetypeTableRecord
  2
CENTER
 70
     0
  3
Center ____ _ ____ _ ____ _ ____ _ ____ _ ____
 72
    65
 73
     4
 40
50.8
 49
31.75
 74
     0
 49
-6.349999999999999
 74
     0
 49
6.349999999999999
 74
     0
 49
-6.349999999999999
 74
     0
  0
LTYPE
  5
F8
330
5
100
AcDbSymbolTableRecord
100
AcDbLinetypeTableRecord
  2
DASHED
 70
     0
  3
Dashed __ __ __ __ __ __ __ __ __ __ __ __ __ _
 72
    65
 73
     2
 40
19.05
 49
12.7
 74
     0
 49
-6.349999999999999
 74
     0
  0
ENDTAB
  0
TABLE
  2
LAYER
  5
2
102
{ACAD_XDICTIONARY
360
11F
102
}
330
0
100
AcDbSymbolTable
 70
    13
  0
LAYER
  5
54
330
2
100
AcDbSymbolTableRecord
100
AcDbLayerTableRecord
  2
0
 70
     0
 62
     7
  6
Continuous
370
    -3
390
F
347
21
  0
LAYER
  5
FB
102
{ACAD_XDICTIONARY
360
FC
102
}
330
2
100
AcDbSymbolTableRecord
100
AcDbLayerTableRecord
  2
dim
 70
     0
 62
     7
  6
Continuous
370
     5
390
F
347
21
  0
LAYER
  5
FD
102
{ACAD_XDICTIONARY
360
FE
102
}
330
2
100
AcDbSymbolTableRecord
100
AcDbLayerTableRecord
  2
Post
 70
     0
 62
     3
  6
Continuous
370
    -3
390
F
347
21
1001
AcAecLayerStandard
1000

1000

  0
LAYER
  5
FF
330
2
100
AcDbSymbolTableRecord
100
AcDbLayerTableRecord
  2
Defpoints
 70
     0
 62
     7
  6
Continuous
290
     0
370
    -3
390
F
347
21
  0
LAYER
  5
100
102
{ACAD_XDICTIONARY
360
101
102
}
330
2
100
AcDbSymbolTableRecord
100
AcDbLayerTableRecord
  2
fixing
 70
     0
 62
     4
  6
Continuous
370
     5
390
F
347
21
1001
AcAecLayerStandard
1000

1000

  0
LAYER
  5
102
102
{ACAD_XDICTIONARY
360
103
102
}
330
2
100
AcDbSymbolTableRecord
100
AcDbLayerTableRecord
  2
Spigot
 70
     0
 62
     6
  6
DASHED
370
     9
390
F
347
21
  0
LAYER
  5
104
102
{ACAD_XDICTIONARY
360
105
102
}
330
2
100
AcDbSymbolTableRecord
100
AcDbLayerTableRecord
  2
baseplate
 70
     0
 62
     7
  6
Continuous
370
    25
390
F
347
21
1001
AcAecLayerStandard
1000

1000

  0
LAYER
  5
106
102
{ACAD_XDICTIONARY
360
107
102
}
330
2
100
AcDbSymbolTableRecord
100
AcDbLayerTableRecord
  2
decking
 70
     0
 62
     1
  6
Continuous
370
     9
390
F
347
21
1001
AcAecLayerStandard
1000

1000

  0
LAYER
  5
108
102
{ACAD_XDICTIONARY
360
109
102
}
330
2
100
AcDbSymbolTableRecord
100
AcDbLayerTableRecord
  2
shade 8
 70
     0
 62
     8
  6
Continuous
370
     9
390
F
347
21
  0
LAYER
  5
10C
102
{ACAD_XDICTIONARY
360
10D
102
}
330
2
100
AcDbSymbolTableRecord
100
AcDbLayerTableRecord
  2
ctrl
 70
     0
 62
   220
  6
CENTER
370
     5
390
F
347
21
1001
AcAecLayerStandard
1000

1000

  0
LAYER
  5
10E
102
{ACAD_XDICTIONARY
360
10F
102
}
330
2
100
AcDbSymbolTableRecord
100
AcDbLayerTableRecord
  2
title
 70
     0
 62
     7
  6
Continuous
370
     0
390
F
347
21
  0
ENDTAB
  0
TABLE
  2
STYLE
  5
3
330
0
100
AcDbSymbolTable
 70
     5
  0
STYLE
  5
55
330
3
100
AcDbSymbolTableRecord
100
AcDbTextStyleTableRecord
  2
Standard
 70
     0
 40
0.0
 41
1.0
 50
0.0
 71
     0
 42
2.5
  3
txt
  4

  0
STYLE
  5
110
330
3
100
AcDbSymbolTableRecord
100
AcDbTextStyleTableRecord
  2
Arial Narrow
 70
     0
 40
0.0
 41
1.0
 50
0.0
 71
     0
 42
2.5
  3
ARIALN.TTF
  4

1001
ACAD
1000
Arial Narrow
1071
       34
  0
STYLE
  5
111
330
3
100
AcDbSymbolTableRecord
100
AcDbTextStyleTableRecord
  2
Calibri
 70
     0
 40
0.0
 41
1.0
 50
0.0
 71
     0
 42
15.0
  3
calibri.ttf
  4

1001
ACAD
1000
Calibri
1071
       34
  0
ENDTAB
  0
TABLE
  2
VIEW
  5
6
330
0
100
AcDbSymbolTable
 70
     3
  0
ENDTAB
  0
TABLE
  2
UCS
  5
7
330
0
100
AcDbSymbolTable
 70
     0
  0
ENDTAB
  0
TABLE
  2
APPID
  5
9
330
0
100
AcDbSymbolTable
 70
    11
  0
APPID
  5
56
330
9
100
AcDbSymbolTableRecord
100
AcDbRegAppTableRecord
  2
ACAD
 70
     0
  0
APPID
  5
5E
330
9
100
AcDbSymbolTableRecord
100
AcDbRegAppTableRecord
  2
AcadAnnotative
 70
     0
  0
APPID
  5
7D
330
9
100
AcDbSymbolTableRecord
100
AcDbRegAppTableRecord
  2
ACAD_NAV_VCDISPLAY
 70
     0
  0
APPID
  5
118
330
9
100
AcDbSymbolTableRecord
100
AcDbRegAppTableRecord
  2
ACAD_PSEXT
 70
     0
  0
APPID
  5
119
330
9
100
AcDbSymbolTableRecord
100
AcDbRegAppTableRecord
  2
AcAecLayerStandard
 70
     0
  0
APPID
  5
11A
330
9
100
AcDbSymbolTableRecord
100
AcDbRegAppTableRecord
  2
ACAD_DSTYLE_DIMJAG
 70
     0
  0
APPID
  5
11B
330
9
100
AcDbSymbolTableRecord
100
AcDbRegAppTableRecord
  2
ACAD_DSTYLE_DIMTALN
 70
     0
  0
APPID
  5
11C
330
9
100
AcDbSymbolTableRecord
100
AcDbRegAppTableRecord
  2
GradientColor1ACI
 70
     0
  0
APPID
  5
11D
330
9
100
AcDbSymbolTableRecord
100
AcDbRegAppTableRecord
  2
GradientColor2ACI
 70
     0
  0
APPID
  5
11E
330
9
100
AcDbSymbolTableRecord
100
AcDbRegAppTableRecord
  2
ACAD_DSTYLE_DIMBREAK
 70
     0
  0
APPID
  5
823
330
9
100
AcDbSymbolTableRecord
100
AcDbRegAppTableRecord
  2
ACAD_MLEADERVER
 70
     0
  0
ENDTAB
  0
TABLE
  2
DIMSTYLE
  5
A
330
0
100
AcDbSymbolTable
 70
     7
100
AcDbDimStyleTable
 71
     0
  0
DIMSTYLE
105
58
330
A
100
AcDbSymbolTableRecord
100
AcDbDimStyleTableRecord
  2
ISO-25
 70
     0
 41
2.5
 42
0.625
 43
3.75
 44
1.25
 50
90.0
 73
     0
 74
     0
 77
     1
 78
     8
140
2.5
141
2.5
143
0.03937007874016
147
0.625
171
     3
172
     1
271
     2
272
     2
274
     3
278
    44
283
     0
284
     8
340
55
  0
DIMSTYLE
105
113
102
{ACAD_REACTORS
330
559
330
55C
330
55D
330
55E
330
55F
102
}
330
A
100
AcDbSymbolTableRecord
100
AcDbDimStyleTableRecord
  2
Spectrum 2
 70
     0
 40
2.0
 41
3.0
 42
1.0
 43
6.0
 44
2.0
 73
     0
 74
     0
 77
     1
 78
     8
140
2.25
141
0.0
143
0.03937007874016
147
1.0
171
     3
172
     1
271
     1
272
     1
274
     3
283
     0
284
     8
340
111
1001
ACAD_DSTYLE_DIMJAG
1070
   388
1040
1.5
1001
ACAD_DSTYLE_DIMTALN
1070
   392
1070
     0
  0
ENDTAB
  0
TABLE
  2
BLOCK_RECORD
  5
1
330
0
100
AcDbSymbolTable
 70
    21
  0
BLOCK_RECORD
  5
70
330
1
100
AcDbSymbolTableRecord
100
AcDbBlockTableRecord
  2
*Model_Space
340
73
 70
     0
280
     1
281
     0
  0
BLOCK_RECORD
  5
6C
330
1
100
AcDbSymbolTableRecord
100
AcDbBlockTableRecord
  2
*Paper_Space
340
6F
 70
     0
280
     1
281
     0
  0
BLOCK_RECORD
  5
74
330
1
100
AcDbSymbolTableRecord
100
AcDbBlockTableRecord
  2
*Paper_Space0
340
77
 70
     0
280
     1
281
     0
  0
BLOCK_RECORD
  5
612
330
1
100
AcDbSymbolTableRecord
100
AcDbBlockTableRecord
  2
*D11
340
0
 70
     0
280
     1
281
     0
  0
BLOCK_RECORD
  5
61E
330
1
100
AcDbSymbolTableRecord
100
AcDbBlockTableRecord
  2
*D12
340
0
 70
     0
280
     1
281
     0
  0
BLOCK_RECORD
  5
62A
330
1
100
AcDbSymbolTableRecord
100
AcDbBlockTableRecord
  2
*D13
340
0
 70
     0
280
     1
281
     0
  0
BLOCK_RECORD
  5
636
330
1
100
AcDbSymbolTableRecord
100
AcDbBlockTableRecord
  2
*D14
340
0
 70
     0
280
     1
281
     0
  0
BLOCK_RECORD
  5
6A2
330
1
100
AcDbSymbolTableRecord
100
AcDbBlockTableRecord
  2
*D20
340
0
 70
     0
280
     1
281
     0
  0
ENDTAB
  0
ENDSEC
  0
SECTION
  2
BLOCKS
  0
BLOCK
  5
71
330
70
100
AcDbEntity
  8
0
100
AcDbBlockBegin
  2
*Model_Space
 70
     0
 10
0.0
 20
0.0
 30
0.0
  3
*Model_Space
  1

  0
ENDBLK
  5
72
330
70
100
AcDbEntity
  8
0
100
AcDbBlockEnd
  0
BLOCK
  5
6D
330
6C
100
AcDbEntity
 67
     1
  8
0
100
AcDbBlockBegin
  2
*Paper_Space
 70
     0
 10
0.0
 20
0.0
 30
0.0
  3
*Paper_Space
  1

  0
ENDBLK
  5
6E
330
6C
100
AcDbEntity
 67
     1
  8
0
100
AcDbBlockEnd
  0
BLOCK
  5
75
330
74
100
AcDbEntity
 67
     1
  8
0
100
AcDbBlockBegin
  2
*Paper_Space0
 70
     0
 10
0.0
 20
0.0
 30
0.0
  3
*Paper_Space0
  1

  0
ENDBLK
  5
76
330
74
100
AcDbEntity
 67
     1
  8
0
100
AcDbBlockEnd
  0
BLOCK
  5
613
330
612
100
AcDbEntity
  8
0
100
AcDbBlockBegin
  2
*D11
 70
     1
 10
0.0
 20
0.0
 30
0.0
  3
*D11
  1

  0
LINE
  5
708
330
612
100
AcDbEntity
  8
dim
 62
     0
440
 16777216
370
    -2
100
AcDbLine
 10
78.73232658804048
 20
223.1566519237896
 30
0.0
 11
56.44266565574793
 21
223.1566519237896
 31
0.0
  0
LINE
  5
709
330
612
100
AcDbEntity
  8
dim
 62
     0
440
 16777216
370
    -2
100
AcDbLine
 10
78.73232658804048
 20
363.1566519237896
 30
0.0
 11
56.4426656557479
 21
363.1566519237896
 31
0.0
  0
LINE
  5
70A
330
612
100
AcDbEntity
  8
dim
 62
     0
440
 16777216
370
    -2
100
AcDbLine
 10
60.44266565574793
 20
229.1566519237896
 30
0.0
 11
60.4426656557479
 21
357.1566519237896
 31
0.0
  0
SOLID
  5
70B
330
612
100
AcDbEntity
  8
dim
 62
     0
440
 16777216
100
AcDbTrace
 10
59.44266565574793
 20
229.1566519237896
 30
0.0
 11
61.44266565574793
 21
229.1566519237896
 31
0.0
 12
60.44266565574793
 22
223.1566519237896
 32
0.0
 13
60.44266565574793
 23
223.1566519237896
 33
0.0
  0
SOLID
  5
70C
330
612
100
AcDbEntity
  8
dim
 62
     0
440
 16777216
100
AcDbTrace
 10
59.4426656557479
 20
357.1566519237896
 30
0.0
 11
61.4426656557479
 21
357.1566519237896
 31
0.0
 12
60.4426656557479
 22
363.1566519237896
 32
0.0
 13
60.4426656557479
 23
363.1566519237896
 33
0.0
  0
MTEXT
  5
70D
330
612
100
AcDbEntity
  8
dim
 62
     0
440
 16777216
100
AcDbMText
 10
56.1130502711326
 20
304.9977158033125
 30
0.0
 40
4.5
 41
0.0
 46
0.0
 71
     5
 72
     1
  1
140mm min
  7
Calibri
 11
0.0000000000000001
 21
1.0
 31
0.0
 73
     1
 44
1.0
  0
POINT
  5
70E
330
612
100
AcDbEntity
  8
Defpoints
 62
     0
440
 16777216
100
AcDbPoint
 10
82.73232658804047
 20
223.1566519237896
 30
0.0
  0
POINT
  5
70F
330
612
100
AcDbEntity
  8
Defpoints
 62
     0
440
 16777216
100
AcDbPoint
 10
82.73232658804047
 20
363.1566519237896
 30
0.0
  0
POINT
  5
710
330
612
100
AcDbEntity
  8
Defpoints
 62
     0
440
 16777216
100
AcDbPoint
 10
60.4426656557479
 20
363.1566519237896
 30
0.0
  0
ENDBLK
  5
614
330
612
100
AcDbEntity
  8
0
100
AcDbBlockEnd
  0
BLOCK
  5
61F
330
61E
100
AcDbEntity
  8
0
100
AcDbBlockBegin
  2
*D12
 70
     1
 10
0.0
 20
0.0
 30
0.0
  3
*D12
  1

  0
LINE
  5
711
330
61E
100
AcDbEntity
  8
dim
 62
     0
440
 16777216
370
    -2
100
AcDbLine
 10
65.9196754890145
 20
388.1566519237897
 30
0.0
 11
56.44266565574789
 21
388.1566519237897
 31
0.0
  0
LINE
  5
712
330
61E
100
AcDbEntity
  8
dim
 62
     0
440
 16777216
370
    -2
100
AcDbLine
 10
78.73232658804048
 20
363.1566519237896
 30
0.0
 11
56.4426656557479
 21
363.1566519237896
 31
0.0
  0
LINE
  5
713
330
61E
100
AcDbEntity
  8
dim
 62
     0
440
 16777216
370
    -2
100
AcDbLine
 10
60.4426656557479
 20
382.1566519237896
 30
0.0
 11
60.4426656557479
 21
369.1566519237896
 31
0.0
  0
SOLID
  5
714
330
61E
100
AcDbEntity
  8
dim
 62
     0
440
 16777216
100
AcDbTrace
 10
59.44266565574789
 20
382.1566519237896
 30
0.0
 11
61.44266565574789
 21
382.1566519237896
 31
0.0
 12
60.4426656557479
 22
388.1566519237897
 32
0.0
 13
60.4426656557479
 23
388.1566519237897
 33
0.0
  0
SOLID
  5
715
330
61E
100
AcDbEntity
  8
dim
 62
     0
440
 16777216
100
AcDbTrace
 10
59.44266565574789
 20
369.1566519237896
 30
0.0
 11
61.44266565574789
 21
369.1566519237896
 31
0.0
 12
60.4426656557479
 22
363.1566519237896
 32
0.0
 13
60.4426656557479
 23
363.1566519237896
 33
0.0
  0
MTEXT
  5
716
330
61E
100
AcDbEntity
  8
dim
 62
     0
440
 16777216
100
AcDbMText
 10
56.1130502711326
 20
375.6567362382157
 30
0.0
 40
4.5
 41
0.0
 46
0.0
 71
     5
 72
     1
  1
25 min
  7
Calibri
 11
0.0000000000000001
 21
1.0
 31
0.0
 73
     1
 44
1.0
  0
POINT
  5
717
330
61E
100
AcDbEntity
  8
Defpoints
 62
     0
440
 16777216
100
AcDbPoint
 10
69.91967548901451
 20
388.1566519237897
 30
0.0
  0
POINT
  5
718
330
61E
100
AcDbEntity
  8
Defpoints
 62
     0
440
 16777216
100
AcDbPoint
 10
82.73232658804047
 20
363.1566519237896
 30
0.0
  0
POINT
  5
719
330
61E
100
AcDbEntity
  8
Defpoints
 62
     0
440
 16777216
100
AcDbPoint
 10
60.4426656557479
 20
363.1566519237896
 30
0.0
  0
ENDBLK
  5
620
330
61E
100
AcDbEntity
  8
0
100
AcDbBlockEnd
  0
BLOCK
  5
62B
330
62A
100
AcDbEntity
  8
0
100
AcDbBlockBegin
  2
*D13
 70
     1
 10
0.0
 20
0.0
 30
0.0
  3
*D13
  1

  0
LINE
  5
71A
330
62A
100
AcDbEntity
  8
dim
 62
     0
440
 16777216
370
    -2
100
AcDbLine
 10
105.7323265880404
 20
392.1566519237895
 30
0.0
 11
105.7323265880404
 21
425.7896544343948
 31
0.0
  0
LINE
  5
71B
330
62A
100
AcDbEntity
  8
dim
 62
     0
440
 16777216
370
    -2
100
AcDbLine
 10
195.7323265880404
 20
410.1566519237894
 30
0.0
 11
195.7323265880404
 21
425.7896544343948
 31
0.0
  0
LINE
  5
71C
330
62A
100
AcDbEntity
  8
dim
 62
     0
440
 16777216
370
    -2
100
AcDbLine
 10
111.7323265880404
 20
421.7896544343948
 30
0.0
 11
189.7323265880404
 21
421.7896544343948
 31
0.0
  0
SOLID
  5
71D
330
62A
100
AcDbEntity
  8
dim
 62
     0
440
 16777216
100
AcDbTrace
 10
111.7323265880404
 20
422.7896544343948
 30
0.0
 11
111.7323265880404
 21
420.7896544343948
 31
0.0
 12
105.7323265880404
 22
421.7896544343948
 32
0.0
 13
105.7323265880404
 23
421.7896544343948
 33
0.0
  0
SOLID
  5
71E
330
62A
100
AcDbEntity
  8
dim
 62
     0
440
 16777216
100
AcDbTrace
 10
189.7323265880404
 20
422.7896544343948
 30
0.0
 11
189.7323265880404
 21
420.7896544343948
 31
0.0
 12
195.7323265880404
 22
421.7896544343948
 32
0.0
 13
195.7323265880404
 23
421.7896544343948
 33
0.0
  0
MTEXT
  5
71F
330
62A
100
AcDbEntity
  8
dim
 62
     0
440
 16777216
100
AcDbMText
 10
150.7323265880404
 20
426.233500588241
 30
0.0
 40
4.5
 41
0.0
 46
0.0
 71
     5
 72
     1
  1
90 min timber width
  7
Calibri
 73
     1
 44
1.0
  0
POINT
  5
720
330
62A
100
AcDbEntity
  8
Defpoints
 62
     0
440
 16777216
100
AcDbPoint
 10
105.7323265880404
 20
388.1566519237895
 30
0.0
  0
POINT
  5
721
330
62A
100
AcDbEntity
  8
Defpoints
 62
     0
440
 16777216
100
AcDbPoint
 10
195.7323265880404
 20
406.1566519237894
 30
0.0
  0
POINT
  5
722
330
62A
100
AcDbEntity
  8
Defpoints
 62
     0
440
 16777216
100
AcDbPoint
 10
195.7323265880404
 20
421.7896544343948
 30
0.0
  0
ENDBLK
  5
62C
330
62A
100
AcDbEntity
  8
0
100
AcDbBlockEnd
  0
BLOCK
  5
637
330
636
100
AcDbEntity
  8
0
100
AcDbBlockBegin
  2
*D14
 70
     1
 10
0.0
 20
0.0
 30
0.0
  3
*D14
  1

  0
LINE
  5
723
330
636
100
AcDbEntity
  8
dim
 62
     0
440
 16777216
370
    -2
100
AcDbLine
 10
65.9196754890145
 20
223.1566519237896
 30
0.0
 11
56.44266565574794
 21
223.1566519237896
 31
0.0
  0
LINE
  5
724
330
636
100
AcDbEntity
  8
dim
 62
     0
440
 16777216
370
    -2
100
AcDbLine
 10
78.73232658804048
 20
198.1566519237896
 30
0.0
 11
56.44266565574795
 21
198.1566519237895
 31
0.0
  0
LINE
  5
725
330
636
100
AcDbEntity
  8
dim
 62
     0
440
 16777216
370
    -2
100
AcDbLine
 10
60.44266565574794
 20
217.1566519237896
 30
0.0
 11
60.44266565574794
 21
204.1566519237896
 31
0.0
  0
SOLID
  5
726
330
636
100
AcDbEntity
  8
dim
 62
     0
440
 16777216
100
AcDbTrace
 10
59.44266565574793
 20
217.1566519237896
 30
0.0
 11
61.44266565574794
 21
217.1566519237896
 31
0.0
 12
60.44266565574794
 22
223.1566519237896
 32
0.0
 13
60.44266565574794
 23
223.1566519237896
 33
0.0
  0
SOLID
  5
727
330
636
100
AcDbEntity
  8
dim
 62
     0
440
 16777216
100
AcDbTrace
 10
59.44266565574794
 20
204.1566519237896
 30
0.0
 11
61.44266565574795
 21
204.1566519237896
 31
0.0
 12
60.44266565574794
 22
198.1566519237895
 32
0.0
 13
60.44266565574794
 23
198.1566519237895
 33
0.0
  0
MTEXT
  5
728
330
636
100
AcDbEntity
  8
dim
 62
     0
440
 16777216
100
AcDbMText
 10
56.1130502711326
 20
210.6567362382157
 30
0.0
 40
4.5
 41
0.0
 46
0.0
 71
     5
 72
     1
  1
25 min
  7
Calibri
 11
0.0000000000000001
 21
1.0
 31
0.0
 73
     1
 44
1.0
  0
POINT
  5
729
330
636
100
AcDbEntity
  8
Defpoints
 62
     0
440
 16777216
100
AcDbPoint
 10
69.91967548901451
 20
223.1566519237896
 30
0.0
  0
POINT
  5
72A
330
636
100
AcDbEntity
  8
Defpoints
 62
     0
440
 16777216
100
AcDbPoint
 10
82.73232658804047
 20
198.1566519237896
 30
0.0
  0
POINT
  5
72B
330
636
100
AcDbEntity
  8
Defpoints
 62
     0
440
 16777216
100
AcDbPoint
 10
60.44266565574794
 20
198.1566519237895
 30
0.0
  0
ENDBLK
  5
638
330
636
100
AcDbEntity
  8
0
100
AcDbBlockEnd
  0
BLOCK
  5
6A3
330
6A2
100
AcDbEntity
  8
0
100
AcDbBlockBegin
  2
*D20
 70
     1
 10
0.0
 20
0.0
 30
0.0
  3
*D20
  1

  0
LINE
  5
72C
330
6A2
100
AcDbEntity
  8
dim
 62
     0
440
 16777216
370
    -2
100
AcDbLine
 10
101.7323265880405
 20
198.1566519237896
 30
0.0
 11
42.44266565574792
 21
198.1566519237895
 31
0.0
  0
LINE
  5
72D
330
6A2
100
AcDbEntity
  8
dim
 62
     0
440
 16777216
370
    -2
100
AcDbLine
 10
67.91967548901451
 20
388.1566519237897
 30
0.0
 11
42.44266565574789
 21
388.1566519237897
 31
0.0
  0
LINE
  5
72E
330
6A2
100
AcDbEntity
  8
dim
 62
     0
440
 16777216
370
    -2
100
AcDbLine
 10
46.44266565574793
 20
204.1566519237896
 30
0.0
 11
46.44266565574788
 21
382.1566519237896
 31
0.0
  0
SOLID
  5
72F
330
6A2
100
AcDbEntity
  8
dim
 62
     0
440
 16777216
100
AcDbTrace
 10
45.44266565574793
 20
204.1566519237896
 30
0.0
 11
47.44266565574792
 21
204.1566519237896
 31
0.0
 12
46.44266565574793
 22
198.1566519237895
 32
0.0
 13
46.44266565574793
 23
198.1566519237895
 33
0.0
  0
SOLID
  5
730
330
6A2
100
AcDbEntity
  8
dim
 62
     0
440
 16777216
100
AcDbTrace
 10
45.44266565574789
 20
382.1566519237896
 30
0.0
 11
47.44266565574789
 21
382.1566519237896
 31
0.0
 12
46.44266565574788
 22
388.1566519237897
 32
0.0
 13
46.44266565574788
 23
388.1566519237897
 33
0.0
  0
MTEXT
  5
731
330
6A2
100
AcDbEntity
  8
dim
 62
     0
440
 16777216
100
AcDbMText
 10
41.40170411728645
 20
293.1566519238004
 30
0.0
 40
4.5
 41
0.0
 46
0.0
 71
     5
 72
     1
  1
190 min section depth
  7
Calibri
 11
0.0000000000000001
 21
1.0
 31
0.0
 73
     1
 44
1.0
  0
POINT
  5
732
330
6A2
100
AcDbEntity
  8
Defpoints
 62
     0
440
 16777216
100
AcDbPoint
 10
103.7323265880405
 20
198.1566519237896
 30
0.0
  0
POINT
  5
733
330
6A2
100
AcDbEntity
  8
Defpoints
 62
     0
440
 16777216
100
AcDbPoint
 10
69.91967548901451
 20
388.1566519237897
 30
0.0
  0
POINT
  5
734
330
6A2
100
AcDbEntity
  8
Defpoints
 62
     0
440
 16777216
100
AcDbPoint
 10
46.44266565574788
 20
388.1566519237897
 30
0.0
  0
ENDBLK
  5
6A4
330
6A2
100
AcDbEntity
  8
0
100
AcDbBlockEnd
  0
ENDSEC
  0
SECTION
  2
ENTITIES
  0
MTEXT
  5
449
330
70
100
AcDbEntity
  8
dim
100
AcDbMText
 10
200.0
 20
567.6080283128793
 30
0.0
 40
9.0
 41
399.9999999999989
 46
433.9900056883013
 71
     2
 72
     5
  1
{\fArial Narrow|b1|i0|c0|p34;\LCLEARSPAN\l FACE FIXED TO DRY TIMBER\P- BOLT THROUGH WITH STIFFENER}
  7
Arial Narrow
 73
     1
 44
0.8333333333333335
1001
ACAD
1000
ACAD_MTEXT_DEFINED_HEIGHT_BEGIN
1070
    46
1040
433.9900056883013
1000
ACAD_MTEXT_DEFINED_HEIGHT_END
  0
LINE
  5
45D
330
70
100
AcDbEntity
  8
title
100
AcDbLine
 10
121.846000000005
 20
31.6780000000017
 30
0.0
 11
121.846000000005
 21
24.36187306453758
 31
0.0
  0
ARC
  5
45E
330
70
100
AcDbEntity
  8
title
100
AcDbCircle
 10
112.3420000000187
 20
30.88600000000042
 30
0.0
 40
1.583999999999994
100
AcDbArc
 50
0.0
 51
180.0
  0
LINE
  5
45F
330
70
100
AcDbEntity
  8
title
100
AcDbLine
 10
108.3820000000269
 20
34.63812693546242
 30
0.0
 11
110.7580000000162
 21
34.84599999999955
 31
0.0
  0
LINE
  5
460
330
70
100
AcDbEntity
  8
title
100
AcDbLine
 10
110.7580000000162
 20
34.84599999999955
 30
0.0
 11
110.7580000000162
 21
33.77343503836346
 31
0.0
  0
ARC
  5
461
330
70
100
AcDbEntity
  8
title
100
AcDbCircle
 10
113.1340000000054
 20
31.6780000000017
 30
0.0
 40
3.167999999999932
100
AcDbArc
 50
28.95502437187769
 51
138.5903778907254
  0
ARC
  5
462
330
70
100
AcDbEntity
  8
title
100
AcDbCircle
 10
118.6779999999999
 20
31.6780000000017
 30
0.0
 40
3.168000000000042
100
AcDbArc
 50
0.0
 51
151.0449756281223
  0
ARC
  5
463
330
70
100
AcDbEntity
  8
title
100
AcDbCircle
 10
117.8860000000131
 20
30.88600000000042
 30
0.0
 40
1.583999999999994
100
AcDbArc
 50
0.0
 51
180.0
  0
HATCH
  5
464
330
70
100
AcDbEntity
  8
title
100
AcDbHatch
 10
0.0
 20
0.0
 30
0.0
210
0.0
220
0.0
230
1.0
  2
SOLID
 70
     1
 71
     0
 91
        2
 92
        7
 72
     1
 73
     1
 93
        8
 10
48.78399999999965
 20
34.84599999999955
 42
0.2416525696711335
 10
46.2100000000064
 20
33.52482105251147
 42
0.0
 10
46.2100000000064
 20
34.84599999999955
 42
0.0
 10
43.83400000001711
 20
34.63812693546242
 42
0.0
 10
43.83400000001711
 20
20.97612693546216
 42
0.0
 10
46.2100000000064
 20
21.18399999999929
 42
0.0
 10
46.2100000000064
 20
25.47517894748853
 42
0.2416525696711312
 10
48.78399999999965
 20
24.15400000000045
 42
1.0
 97
        0
 92
       20
 93
        1
 72
     3
 10
48.98200000000361
 20
29.50000000000182
 11
0.0
 21
3.168
 40
0.8432858722721601
 50
0.0
 51
360.0
 73
     1
 97
        0
 75
     0
 76
     1
 47
0.0533697688817678
 98
        2
 10
51.79775989484915
 20
32.74767840057211
 10
51.79775989484915
 20
32.74767840057211
450
        0
451
        0
460
0.0
461
0.0
452
        0
462
0.0
453
        0
470

1001
ACAD
1010
0.0
1020
0.0
1030
0.0
  0
HATCH
  5
465
330
70
100
AcDbEntity
  8
title
 62
     8
100
AcDbHatch
 10
0.0
 20
0.0
 30
0.0
210
0.0
220
0.0
230
1.0
  2
SOLID
 70
     1
 71
     0
 91
        1
 92
        7
 72
     1
 73
     1
 93
        8
 10
30.76600000001781
 20
32.86599999999999
 42
0.4142135623730951
 10
28.78600000000734
 20
34.84599999999955
 42
0.0
 10
22.05400000001828
 20
34.84599999999955
 42
0.4142135623730951
 10
20.0740000000078
 20
32.86599999999999
 42
0.0
 10
20.0740000000078
 20
26.13400000000002
 42
0.4142135623730974
 10
22.05400000001828
 20
24.15400000000045
 42
0.0
 10
28.78600000000734
 20
24.15400000000045
 42
0.4142135623730926
 10
30.76600000001781
 20
26.13400000000002
 42
0.0
 97
        0
 75
     0
 76
     1
 47
0.1082592480357776
 98
        1
 10
26.46459899171896
 20
28.91638806323863
450
        0
451
        0
460
0.0
461
0.0
452
        0
462
0.0
453
        0
470

1001
ACAD
1010
0.0
1020
0.0
1030
0.0
  0
HATCH
  5
466
330
70
100
AcDbEntity
  8
title
100
AcDbHatch
 10
0.0
 20
0.0
 30
0.0
210
0.0
220
0.0
230
1.0
  2
SOLID
 70
     1
 71
     0
 91
        1
 92
        7
 72
     1
 73
     1
 93
        2
 10
17.50000000001455
 20
24.15400000000045
 42
0.0
 10
17.50000000001455
 20
34.84599999999955
 42
1.0
 97
        0
 75
     0
 76
     1
 47
0.0533697688817678
 98
        1
 10
14.58491007513657
 20
30.95125203735552
450
        0
451
        0
460
0.0
461
0.0
452
        0
462
0.0
453
        0
470

1001
ACAD
1010
0.0
1020
0.0
1030
0.0
  0
HATCH
  5
467
330
70
100
AcDbEntity
  8
title
100
AcDbHatch
 10
0.0
 20
0.0
 30
0.0
210
0.0
220
0.0
230
1.0
  2
SOLID
 70
     1
 71
     0
 91
        1
 92
        7
 72
     1
 73
     1
 93
       20
 10
38.62840371190396
 20
26.63843393964817
 42
-0.3012846663385126
 10
36.15939541660191
 20
26.7764142067881
 42
0.0
 10
35.14992521407839
 20
27.52973131314684
 42
0.0
 10
33.56338198813319
 20
26.19846347739986
 42
0.0
 10
34.49073105522257
 20
25.33614209012194
 42
0.4458507091054388
 10
41.03417541283124
 20
25.9247798277047
 42
0.3326569577304132
 10
41.03417541283124
 20
28.71922017229918
 42
0.1735965709070794
 10
38.55193656381743
 20
30.36239387457135
 42
0.0
 10
36.96384954494715
 20
30.75267264948525
 42
-0.0722414400542119
 10
36.36759628810978
 20
30.99443393964794
 42
-0.5734605933816534
 10
36.36759628810978
 20
32.36156606035184
 42
-0.301284666338504
 10
38.83660458344093
 20
32.2235857932119
 42
0.0
 10
39.84607478593535
 20
31.4702686868568
 42
0.0
 10
41.43261801190965
 20
32.80153652260378
 42
0.0
 10
40.50526894479117
 20
33.66385790987806
 42
0.4458507091054385
 10
33.96182458718249
 20
33.07522017229894
 42
0.3326569577304224
 10
33.96182458718249
 20
30.28077982770446
 42
0.1735965709070752
 10
36.44406343619631
 20
28.63760612543229
 42
0.0
 10
38.03215045509569
 20
28.24732735051839
 42
-0.0722414400542143
 10
38.62840371190396
 20
28.00556606035207
 42
-0.5734605933816371
 97
        0
 75
     0
 76
     1
 47
0.0533697688817678
 98
        1
 10
40.1687433997431
 20
27.35839931092596
450
        0
451
        0
460
0.0
461
0.0
452
        0
462
0.0
453
        0
470

1001
ACAD
1010
0.0
1020
0.0
1030
0.0
  0
HATCH
  5
468
330
70
100
AcDbEntity
  8
title
100
AcDbHatch
 10
0.0
 20
0.0
 30
0.0
210
0.0
220
0.0
230
1.0
  2
SOLID
 70
     1
 71
     0
 91
        1
 92
        7
 72
     1
 73
     1
 93
        4
 10
77.26592913740024
 20
25.48863354306195
 42
0.0
 10
76.00343964919739
 20
27.29165538918278
 42
-2.463129903974627
 10
76.00343964919739
 20
31.70834461081722
 42
0.0
 10
77.26592913740024
 20
33.51136645694169
 42
2.213691826143602
 97
        0
 75
     0
 76
     1
 47
0.0407585876075802
 98
        1
 10
72.26106739130045
 20
24.93107292920285
450
        0
451
        0
460
0.0
461
0.0
452
        0
462
0.0
453
        0
470

1001
ACAD
1010
0.0
1020
0.0
1030
0.0
  0
HATCH
  5
469
330
70
100
AcDbEntity
  8
title
100
AcDbHatch
 10
0.0
 20
0.0
 30
0.0
210
0.0
220
0.0
230
1.0
  2
SOLID
 70
     1
 71
     0
 91
        2
 92
        7
 72
     1
 73
     1
 93
        6
 10
66.48738223592227
 20
31.78432312983023
 42
1.817188575814173
 10
61.6540000000241
 20
24.15400000000045
 42
0.1736979194000531
 10
65.92840120497567
 20
25.68510408303882
 42
0.0
 10
64.96244437199493
 20
27.756605196284
 42
-0.2061487455951641
 10
61.6540000000241
 20
26.33200000000034
 42
-0.2063556810793467
 10
59.35074576425541
 20
27.32485772295149
 42
0.0
 97
        0
 92
       22
 72
     1
 73
     1
 93
        2
 10
58.50737238772854
 20
29.13263278640625
 42
-0.6328959439340069
 10
63.36357821930142
 20
32.16712697712683
 42
0.0
 97
        0
 75
     0
 76
     1
 47
0.0407585876075802
 98
        2
 10
60.23121407961298
 20
29.28898097343154
 10
60.23121407961298
 20
29.28898097343154
450
        0
451
        0
460
0.0
461
0.0
452
        0
462
0.0
453
        0
470

1001
ACAD
1010
0.0
1020
0.0
1030
0.0
  0
HATCH
  5
46A
330
70
100
AcDbEntity
  8
title
100
AcDbHatch
 10
0.0
 20
0.0
 30
0.0
210
0.0
220
0.0
230
1.0
  2
SOLID
 70
     1
 71
     0
 91
        1
 92
        7
 72
     1
 73
     1
 93
       16
 10
83.6320000000269
 20
32.27199999999903
 42
0.0
 10
85.81000000001223
 20
32.27199999999903
 42
0.0
 10
85.81000000001223
 20
34.44999999999891
 42
0.0
 10
83.6320000000269
 20
34.44999999999891
 42
0.0
 10
83.6320000000269
 20
37.22199999999975
 42
0.0
 10
81.05800000000455
 20
36.28514061699934
 42
0.0
 10
81.05800000000455
 20
34.44999999999891
 42
0.0
 10
79.85804016400653
 20
34.44999999999891
 42
0.0
 10
79.47400000000198
 20
32.27199999999903
 42
0.0
 10
81.05800000000455
 20
32.27199999999903
 42
0.0
 10
81.05800000000455
 20
27.32200000000194
 42
0.4142135623731022
 10
84.22600000000967
 20
24.15400000000045
 42
0.0
 10
85.82040665890962
 20
24.15400000000045
 42
0.0
 10
86.4040000000241
 20
26.33200000000034
 42
0.0
 10
85.21600000000034
 20
26.33200000000034
 42
-0.4142135623730937
 10
83.6320000000269
 20
27.91599999999926
 42
0.0
 97
        0
 75
     0
 76
     1
 47
0.0407585876075802
 98
        1
 10
82.83765024012245
 20
28.4012597568817
450
        0
451
        0
460
0.0
461
0.0
452
        0
462
0.0
453
        0
470

1001
ACAD
1010
0.0
1020
0.0
1030
0.0
  0
HATCH
  5
46B
330
70
100
AcDbEntity
  8
title
100
AcDbHatch
 10
0.0
 20
0.0
 30
0.0
210
0.0
220
0.0
230
1.0
  2
SOLID
 70
     1
 71
     0
 91
        1
 92
        7
 72
     1
 73
     1
 93
       15
 10
108.3820000000269
 20
24.15400000000045
 42
0.0
 10
110.7580000000162
 20
24.36187306453758
 42
0.0
 10
110.7580000000162
 20
30.88600000000042
 42
-1.0
 10
113.9260000000213
 20
30.88600000000042
 42
0.0
 10
113.9260000000213
 20
24.15400000000045
 42
0.0
 10
116.3020000000106
 20
24.36187306453758
 42
0.0
 10
116.3020000000106
 20
30.88600000000042
 42
-1.0
 10
119.4700000000157
 20
30.88600000000042
 42
0.0
 10
119.4700000000157
 20
24.15400000000045
 42
0.0
 10
121.846000000005
 20
24.36187306453758
 42
0.0
 10
121.846000000005
 20
31.6780000000017
 42
0.7745966692414762
 10
115.9060000000027
 20
33.21170140509821
 42
0.5185464877096924
 10
110.7580000000162
 20
33.77343503836346
 42
0.0
 10
110.7580000000162
 20
34.84599999999955
 42
0.0
 10
108.3820000000269
 20
34.63812693546242
 42
0.0
 97
        0
 75
     0
 76
     1
 47
0.0407585876075802
 98
        1
 10
109.4809501451527
 20
27.19072908702401
450
        0
451
        0
460
0.0
461
0.0
452
        0
462
0.0
453
        0
470

1001
ACAD
1010
0.0
1020
0.0
1030
0.0
  0
HATCH
  5
46C
330
70
100
AcDbEntity
  8
title
100
AcDbHatch
 10
0.0
 20
0.0
 30
0.0
210
0.0
220
0.0
230
1.0
  2
SOLID
 70
     1
 71
     0
 91
        1
 92
        7
 72
     1
 73
     1
 93
        8
 10
91.35400000000663
 20
33.26200000000063
 42
0.0
 10
91.35400000000663
 20
34.64799999999923
 42
0.0
 10
88.97800000001735
 20
34.4401269354621
 42
0.0
 10
88.97800000001735
 20
24.15400000000045
 42
0.0
 10
91.35400000000663
 20
24.36187306453758
 42
0.0
 10
91.35400000000663
 20
29.10400000000118
 42
-0.4091883002397951
 10
94.46755188899988
 20
32.27153206822004
 42
0.0
 10
94.91800000001967
 20
34.8261502509431
 42
0.2626681772803663
 97
        0
 75
     0
 76
     1
 47
0.0407585876075802
 98
        1
 10
89.05442035272427
 20
28.88547166063109
450
        0
451
        0
460
0.0
461
0.0
452
        0
462
0.0
453
        0
470

1001
ACAD
1010
0.0
1020
0.0
1030
0.0
  0
HATCH
  5
46D
330
70
100
AcDbEntity
  8
title
100
AcDbHatch
 10
0.0
 20
0.0
 30
0.0
210
0.0
220
0.0
230
1.0
  2
SOLID
 70
     1
 71
     0
 91
        1
 92
        7
 72
     1
 73
     1
 93
       11
 10
96.7000000000262
 20
27.32200000000194
 42
0.4142135623730939
 10
99.86800000000222
 20
24.15400000000045
 42
0.1844830881382527
 10
103.0360000000073
 20
25.36406832364264
 42
0.0
 10
103.0360000000073
 20
24.15400000000045
 42
0.0
 10
105.4120000000257
 20
24.36187306453758
 42
0.0
 10
105.4120000000257
 20
34.84599999999955
 42
0.0
 10
103.0360000000073
 20
34.63812693546242
 42
0.0
 10
103.0360000000073
 20
28.3119999999999
 42
-1.0
 10
99.07600000001549
 20
28.3119999999999
 42
0.0
 10
99.07600000001549
 20
34.84599999999955
 42
0.0
 10
96.7000000000262
 20
34.63812693546242
 42
0.0
 97
        0
 75
     0
 76
     1
 47
0.0407585876075802
 98
        1
 10
97.45109683343617
 20
28.23985548546807
450
        0
451
        0
460
0.0
461
0.0
452
        0
462
0.0
453
        0
470

1001
ACAD
1010
0.0
1020
0.0
1030
0.0
  0
LWPOLYLINE
  5
46E
330
70
100
AcDbEntity
  8
title
100
AcDbPolyline
 90
        8
 70
     1
 43
0.0
 10
48.78399999999965
 20
24.15400000000045
 42
-0.2416525696711377
 10
46.2100000000064
 20
25.47517894748853
 10
46.2100000000064
 20
21.18399999999929
 10
43.83400000001711
 20
20.97612693546216
 10
43.83400000001711
 20
34.63812693546242
 10
46.2100000000064
 20
34.84599999999955
 10
46.2100000000064
 20
33.52482105251147
 42
-0.2416525696711376
 10
48.78399999999965
 20
34.84599999999955
 42
-0.9999999999999998
  0
LWPOLYLINE
  5
46F
330
70
100
AcDbEntity
  8
title
 62
     8
100
AcDbPolyline
 90
        8
 70
     1
 43
0.0
 10
28.78600000000734
 20
34.84599999999955
 42
-0.4142135623730951
 10
30.76600000001781
 20
32.86599999999999
 10
30.76600000001781
 20
26.13400000000002
 42
-0.4142135623730951
 10
28.78600000000734
 20
24.15400000000045
 10
22.05400000001828
 20
24.15400000000045
 42
-0.4142135623730951
 10
20.0740000000078
 20
26.13400000000002
 10
20.0740000000078
 20
32.86599999999999
 42
-0.4142135623730951
 10
22.05400000001828
 20
34.84599999999955
  0
LWPOLYLINE
  5
470
330
70
100
AcDbEntity
  8
title
100
AcDbPolyline
 90
        2
 70
     1
 43
0.0
 10
17.50000000001455
 20
34.84599999999955
 42
0.9999999999999998
 10
17.50000000001455
 20
24.15400000000045
  0
LWPOLYLINE
  5
471
330
70
100
AcDbEntity
  8
title
100
AcDbPolyline
 90
       20
 70
     1
 43
0.0
 10
41.03417541283124
 20
25.9247798277047
 42
0.3326569577304226
 10
41.03417541283124
 20
28.71922017229918
 42
0.1735965709070816
 10
38.55193656381743
 20
30.36239387457135
 10
36.96384954494715
 20
30.75267264948525
 42
-0.0722414400542184
 10
36.36759628810978
 20
30.99443393964794
 42
-0.5734605933816416
 10
36.36759628810978
 20
32.36156606035184
 42
-0.3012846663385096
 10
38.83660458344093
 20
32.2235857932119
 10
39.84607478593535
 20
31.4702686868568
 10
41.43261801190965
 20
32.80153652260378
 10
40.50526894479117
 20
33.66385790987806
 42
0.4458507091054321
 10
33.96182458718249
 20
33.07522017229894
 42
0.3326569577304224
 10
33.96182458718249
 20
30.28077982770446
 42
0.1735965709070817
 10
36.44406343619631
 20
28.63760612543229
 10
38.03215045509569
 20
28.24732735051839
 42
-0.0722414400542175
 10
38.62840371190396
 20
28.00556606035207
 42
-0.5734605933816429
 10
38.62840371190396
 20
26.63843393964817
 42
-0.3012846663385095
 10
36.15939541660191
 20
26.7764142067881
 10
35.14992521407839
 20
27.52973131314684
 10
33.56338198813319
 20
26.19846347739986
 10
34.49073105522257
 20
25.33614209012194
 42
0.4458507091054351
  0
LWPOLYLINE
  5
472
330
70
100
AcDbEntity
  8
title
100
AcDbPolyline
 90
        4
 70
     1
 43
0.0
 10
76.00343964919739
 20
31.70834461081722
 10
77.26592913740024
 20
33.51136645694169
 42
2.213691826143604
 10
77.26592913740024
 20
25.48863354306195
 10
76.00343964919739
 20
27.29165538918278
 42
-2.463129903974627
  0
LWPOLYLINE
  5
473
330
70
100
AcDbEntity
  8
title
100
AcDbPolyline
 90
        6
 70
     1
 43
0.0
 10
61.6540000000241
 20
26.33200000000034
 42
-0.2063556810793417
 10
59.35074576425541
 20
27.32485772295149
 10
66.48738223592227
 20
31.78432312983023
 42
1.817188575814202
 10
61.6540000000241
 20
24.15400000000045
 42
0.1736979194000479
 10
65.92840120497567
 20
25.68510408303882
 10
64.96244437199493
 20
27.756605196284
 42
-0.2061487455951671
  0
LWPOLYLINE
  5
474
330
70
100
AcDbEntity
  8
title
100
AcDbPolyline
 90
       16
 70
     1
 43
0.0
 10
83.6320000000269
 20
34.44999999999891
 10
83.6320000000269
 20
37.22199999999975
 10
81.05800000000455
 20
36.28514061699934
 10
81.05800000000455
 20
34.44999999999891
 10
79.85804016400653
 20
34.44999999999891
 10
79.47400000000198
 20
32.27199999999903
 10
81.05800000000455
 20
32.27199999999903
 10
81.05800000000455
 20
27.32200000000194
 42
0.4142135623730951
 10
84.22600000000967
 20
24.15400000000045
 10
85.82040665890962
 20
24.15400000000045
 10
86.4040000000241
 20
26.33200000000034
 10
85.21600000000034
 20
26.33200000000034
 42
-0.4142135623730951
 10
83.6320000000269
 20
27.91599999999926
 10
83.6320000000269
 20
32.27199999999903
 10
85.81000000001223
 20
32.27199999999903
 10
85.81000000001223
 20
34.44999999999891
  0
ELLIPSE
  5
475
330
70
100
AcDbEntity
  8
title
100
AcDbEllipse
 10
48.98200000000361
 20
29.50000000000182
 30
0.0
 11
0.0
 21
3.168
 31
0.0
210
0.0
220
0.0
230
1.0
 40
0.8432858722721602
 41
0.0
 42
6.283185307179586
  0
LWPOLYLINE
  5
476
330
70
100
AcDbEntity
  8
title
100
AcDbPolyline
 90
        2
 70
     1
 43
0.0
 10
58.50737238772854
 20
29.13263278640625
 10
63.36357821930142
 20
32.16712697712683
 42
0.632895943934007
  0
LWPOLYLINE
  5
477
330
70
100
AcDbEntity
  8
title
100
AcDbPolyline
 90
        9
 70
     0
 43
0.0
 10
94.92150004634458
 20
34.84599999999955
 10
94.46755188899988
 20
32.27153206822004
 42
0.4091883002397918
 10
91.35400000000663
 20
29.10400000000118
 10
91.35400000000663
 20
24.36187306453758
 10
88.97800000001735
 20
24.15400000000045
 10
88.97800000001735
 20
34.4401269354621
 10
91.35400000000663
 20
34.64799999999923
 10
91.35400000000663
 20
33.26200000000063
 42
-0.262668177280371
 10
94.91800000001967
 20
34.8261502509431
  0
LWPOLYLINE
  5
478
330
70
100
AcDbEntity
  8
title
100
AcDbPolyline
 90
       11
 70
     1
 43
0.0
 10
103.0360000000073
 20
28.3119999999999
 42
-0.9999999999999998
 10
99.07600000001549
 20
28.3119999999999
 10
99.07600000001549
 20
34.84599999999955
 10
96.7000000000262
 20
34.63812693546242
 10
96.7000000000262
 20
27.32200000000194
 42
0.4142135623730951
 10
99.86800000000222
 20
24.15400000000045
 42
0.184483088138253
 10
103.0360000000073
 20
25.36406832364264
 10
103.0360000000073
 20
24.15400000000045
 10
105.4120000000257
 20
24.36187306453758
 10
105.4120000000257
 20
34.84599999999955
 10
103.0360000000073
 20
34.63812693546242
  0
LINE
  5
479
330
70
100
AcDbEntity
  8
title
100
AcDbLine
 10
116.3020000000106
 20
30.88600000000042
 30
0.0
 11
116.3020000000106
 21
24.36187306453758
 31
0.0
  0
LINE
  5
47A
330
70
100
AcDbEntity
  8
title
100
AcDbLine
 10
116.3020000000106
 20
24.36187306453758
 30
0.0
 11
113.9260000000213
 21
24.15400000000045
 31
0.0
  0
LINE
  5
47B
330
70
100
AcDbEntity
  8
title
100
AcDbLine
 10
113.9260000000213
 20
24.15400000000045
 30
0.0
 11
113.9260000000213
 21
30.88600000000042
 31
0.0
  0
LINE
  5
47C
330
70
100
AcDbEntity
  8
title
100
AcDbLine
 10
110.7580000000162
 20
30.88600000000042
 30
0.0
 11
110.7580000000162
 21
24.36187306453758
 31
0.0
  0
LINE
  5
47D
330
70
100
AcDbEntity
  8
title
100
AcDbLine
 10
110.7580000000162
 20
24.36187306453758
 30
0.0
 11
108.3820000000269
 21
24.15400000000045
 31
0.0
  0
LINE
  5
47E
330
70
100
AcDbEntity
  8
title
100
AcDbLine
 10
108.3820000000269
 20
24.15400000000045
 30
0.0
 11
108.3820000000269
 21
34.63812693546242
 31
0.0
  0
LINE
  5
47F
330
70
100
AcDbEntity
  8
title
100
AcDbLine
 10
121.846000000005
 20
24.36187306453758
 30
0.0
 11
119.4700000000157
 21
24.15400000000045
 31
0.0
  0
LINE
  5
480
330
70
100
AcDbEntity
  8
title
100
AcDbLine
 10
119.4700000000157
 20
24.15400000000045
 30
0.0
 11
119.4700000000157
 21
30.88600000000042
 31
0.0
  0
MTEXT
  5
489
330
70
100
AcDbEntity
  8
0
100
AcDbMText
 10
391.0
 20
34.49393306291313
 30
0.0
 40
10.0
 41
69.3415025044867
 46
0.0
 71
     6
 72
     5
  1
{\fArial|b0|i0|c0|p34;BL.3.1.21}
  7
Arial Narrow
 73
     1
 44
1.0
  0
MTEXT
  5
48A
102
{ACAD_XDICTIONARY
360
48B
102
}
330
70
100
AcDbEntity
  8
0
100
AcDbMText
 10
391.1160196939018
 20
19.89854106251005
 30
0.0
 40
4.0
 41
42.1548074414593
 46
11.36832070896309
 71
     6
 72
     5
  1
Rev:B 18.1.22
  7
Arial Narrow
 73
     1
 44
0.8333333333333335
1001
ACAD
1000
ACAD_MTEXT_DEFINED_HEIGHT_BEGIN
1070
    46
1040
35.50427969761552
1000
ACAD_MTEXT_DEFINED_HEIGHT_END
  0
MTEXT
  5
493
330
70
100
AcDbEntity
  8
dim
370
    20
100
AcDbMText
 10
239.3571428571176
 20
133.4071073141514
 30
0.0
 40
4.5
 41
32.14285714284233
 46
17.9999999999982
 71
     5
 72
     5
  1
1.22m
  7
Calibri
 73
     1
 44
1.0
1001
ACAD
1000
ACAD_MTEXT_DEFINED_HEIGHT_BEGIN
1070
    46
1040
10.00000000000001
1000
ACAD_MTEXT_DEFINED_HEIGHT_END
  0
MTEXT
  5
495
330
70
100
AcDbEntity
  8
dim
370
    20
100
AcDbMText
 10
271.4999999999618
 20
133.4071073141496
 30
0.0
 40
4.5
 41
32.14285714284233
 46
17.99999999999456
 71
     5
 72
     5
  1
1.06m
  7
Calibri
 73
     1
 44
1.0
1001
ACAD
1000
ACAD_MTEXT_DEFINED_HEIGHT_BEGIN
1070
    46
1040
10.00000000000001
1000
ACAD_MTEXT_DEFINED_HEIGHT_END
  0
MTEXT
  5
497
330
70
100
AcDbEntity
  8
dim
370
    20
100
AcDbMText
 10
303.6428571427878
 20
133.4071073141507
 30
0.0
 40
4.5
 41
32.14285714281323
 46
17.99999999999428
 71
     5
 72
     5
  1
0.92m
  7
Calibri
 73
     1
 44
1.0
1001
ACAD
1000
ACAD_MTEXT_DEFINED_HEIGHT_BEGIN
1070
    46
1040
10.00000000000001
1000
ACAD_MTEXT_DEFINED_HEIGHT_END
  0
MTEXT
  5
499
330
70
100
AcDbEntity
  8
dim
370
    20
100
AcDbMText
 10
335.7857142856174
 20
133.40710731415
 30
0.0
 40
4.5
 41
32.14285714284233
 46
17.99999999999905
 71
     5
 72
     5
  1
0.81m
  7
Calibri
 73
     1
 44
1.0
1001
ACAD
1000
ACAD_MTEXT_DEFINED_HEIGHT_BEGIN
1070
    46
1040
10.00000000000001
1000
ACAD_MTEXT_DEFINED_HEIGHT_END
  0
MTEXT
  5
49B
330
70
100
AcDbEntity
  8
dim
370
    20
100
AcDbMText
 10
367.9285714285234
 20
133.4071073141496
 30
0.0
 40
4.5
 41
32.14285714295147
 46
18.00000000000002
 71
     5
 72
     5
  1
0.72m
  7
Calibri
 73
     1
 44
1.0
1001
ACAD
1000
ACAD_MTEXT_DEFINED_HEIGHT_BEGIN
1070
    46
1040
10.00000000000001
1000
ACAD_MTEXT_DEFINED_HEIGHT_END
  0
MTEXT
  5
4A6
330
70
100
AcDbEntity
  8
dim
370
    20
100
AcDbMText
 10
239.3571428571176
 20
115.4071073141535
 30
0.0
 40
4.5
 41
32.14285714284233
 46
17.99999999999393
 71
     5
 72
     5
  1
0.97m
  7
Calibri
 73
     1
 44
1.0
1001
ACAD
1000
ACAD_MTEXT_DEFINED_HEIGHT_BEGIN
1070
    46
1040
10.00000000000001
1000
ACAD_MTEXT_DEFINED_HEIGHT_END
  0
MTEXT
  5
4A7
330
70
100
AcDbEntity
  8
dim
370
    20
100
AcDbMText
 10
271.4999999999618
 20
115.407107314153
 30
0.0
 40
4.5
 41
32.14285714284233
 46
18.00000000000121
 71
     5
 72
     5
  1
0.84m
  7
Calibri
 73
     1
 44
1.0
1001
ACAD
1000
ACAD_MTEXT_DEFINED_HEIGHT_BEGIN
1070
    46
1040
10.00000000000001
1000
ACAD_MTEXT_DEFINED_HEIGHT_END
  0
MTEXT
  5
4A8
330
70
100
AcDbEntity
  8
dim
370
    20
100
AcDbMText
 10
303.6428571427932
 20
115.4071073141518
 30
0.0
 40
4.5
 41
32.14285714282232
 46
18.00000000000081
 71
     5
 72
     5
  1
0.74m
  7
Calibri
 73
     1
 44
1.0
1001
ACAD
1000
ACAD_MTEXT_DEFINED_HEIGHT_BEGIN
1070
    46
1040
10.00000000000001
1000
ACAD_MTEXT_DEFINED_HEIGHT_END
  0
MTEXT
  5
4A9
330
70
100
AcDbEntity
  8
dim
370
    20
100
AcDbMText
 10
335.7857142856265
 20
115.4071073141507
 30
0.0
 40
4.5
 41
32.14285714284233
 46
18.00000000000041
 71
     5
 72
     5
  1
0.65m
  7
Calibri
 73
     1
 44
1.0
1001
ACAD
1000
ACAD_MTEXT_DEFINED_HEIGHT_BEGIN
1070
    46
1040
10.00000000000001
1000
ACAD_MTEXT_DEFINED_HEIGHT_END
  0
MTEXT
  5
4AA
330
70
100
AcDbEntity
  8
dim
370
    20
100
AcDbMText
 10
367.928571428527
 20
115.4071073141512
 30
0.0
 40
4.5
 41
32.14285714294056
 46
17.99999999999689
 71
     5
 72
     5
  1
0.58m
  7
Calibri
 73
     1
 44
1.0
1001
ACAD
1000
ACAD_MTEXT_DEFINED_HEIGHT_BEGIN
1070
    46
1040
10.00000000000001
1000
ACAD_MTEXT_DEFINED_HEIGHT_END
  0
MTEXT
  5
4AB
330
70
100
AcDbEntity
  8
0
100
AcDbMText
 10
200.0
 20
29.5
 30
0.0
 40
5.5
 41
126.0
 46
0.0
 71
     5
 72
     5
  1
0800 355 366\Pinfo@spectrum.co.nz\Pwww.spectrum.co.nz
  7
Calibri
 73
     1
 44
1.0
1001
ACAD
1000
ACAD_MTEXT_COLUMN_INFO_BEGIN
1070
    75
1070
     2
1070
    79
1070
     0
1070
    76
1070
     1
1070
    78
1070
     0
1070
    48
1040
126.0
1070
    49
1040
75.0
1070
    50
1070
     1
1040
35.00000000000146
1000
ACAD_MTEXT_COLUMN_INFO_END
  0
MTEXT
  5
4B8
330
70
100
AcDbEntity
  8
dim
370
    20
100
AcDbMText
 10
239.3571428571176
 20
97.40710731415653
 30
0.0
 40
4.5
 41
32.14285714284233
 46
18.0000000000028
 71
     5
 72
     5
  1
1.22m
  7
Calibri
 73
     1
 44
1.0
1001
ACAD
1000
ACAD_MTEXT_DEFINED_HEIGHT_BEGIN
1070
    46
1040
10.00000000000001
1000
ACAD_MTEXT_DEFINED_HEIGHT_END
  0
MTEXT
  5
4B9
330
70
100
AcDbEntity
  8
dim
370
    20
100
AcDbMText
 10
271.4999999999618
 20
97.40710731415482
 30
0.0
 40
4.5
 41
32.14285714284415
 46
17.99999999999149
 71
     5
 72
     5
  1
1.06m
  7
Calibri
 73
     1
 44
1.0
1001
ACAD
1000
ACAD_MTEXT_DEFINED_HEIGHT_BEGIN
1070
    46
1040
10.00000000000001
1000
ACAD_MTEXT_DEFINED_HEIGHT_END
  0
MTEXT
  5
4BA
330
70
100
AcDbEntity
  8
dim
370
    20
100
AcDbMText
 10
303.6428571427987
 20
97.40710731415607
 30
0.0
 40
4.5
 41
32.14285714283505
 46
17.99999999999598
 71
     5
 72
     5
  1
0.92m
  7
Calibri
 73
     1
 44
1.0
1001
ACAD
1000
ACAD_MTEXT_DEFINED_HEIGHT_BEGIN
1070
    46
1040
10.00000000000001
1000
ACAD_MTEXT_DEFINED_HEIGHT_END
  0
MTEXT
  5
4BB
330
70
100
AcDbEntity
  8
dim
370
    20
100
AcDbMText
 10
335.7857142856356
 20
97.40710731415346
 30
0.0
 40
4.5
 41
32.14285714284233
 46
17.99999999999859
 71
     5
 72
     5
  1
0.81m
  7
Calibri
 73
     1
 44
1.0
1001
ACAD
1000
ACAD_MTEXT_DEFINED_HEIGHT_BEGIN
1070
    46
1040
10.00000000000001
1000
ACAD_MTEXT_DEFINED_HEIGHT_END
  0
MTEXT
  5
4BC
330
70
100
AcDbEntity
  8
dim
370
    20
100
AcDbMText
 10
367.9285714285324
 20
97.40710731415328
 30
0.0
 40
4.5
 41
32.14285714293328
 46
17.99999999999638
 71
     5
 72
     5
  1
0.72m
  7
Calibri
 73
     1
 44
1.0
1001
ACAD
1000
ACAD_MTEXT_DEFINED_HEIGHT_BEGIN
1070
    46
1040
10.00000000000001
1000
ACAD_MTEXT_DEFINED_HEIGHT_END
  0
LINE
  5
4BD
330
70
100
AcDbEntity
  8
Post
100
AcDbLine
 10
248.0323265880433
 20
198.15682055262
 30
0.0
 11
248.0323265880433
 21
527.8310650565217
 31
0.0
  0
LINE
  5
4BE
330
70
100
AcDbEntity
  8
Post
100
AcDbLine
 10
197.2323265880404
 20
198.15682055262
 30
0.0
 11
197.2323265880404
 21
527.9299231557979
 31
0.0
  0
LINE
  5
4BF
330
70
100
AcDbEntity
  8
Post
370
     9
100
AcDbLine
 10
200.2323265880404
 20
201.15682055262
 30
0.0
 11
200.2323265880404
 21
529.2645737065249
 31
0.0
  0
LINE
  5
4C0
330
70
100
AcDbEntity
  8
Post
370
     9
100
AcDbLine
 10
245.0323265880288
 20
201.15682055262
 30
0.0
 11
245.0323265880434
 21
526.4193258678242
 31
0.0
  0
SPLINE
  5
4C1
330
70
100
AcDbEntity
  8
dim
  6
DASHED
 48
0.2
370
     5
100
AcDbSpline
210
0.0
220
0.0
230
1.0
 70
  1064
 71
     3
 72
    10
 73
     6
 74
     4
 42
0.000000001
 43
0.0000000001
 44
0.00001
 40
0.0
 40
0.0
 40
0.0
 40
0.0
 40
25.64484207790902
 40
44.54267333147243
 40
68.78748080469866
 40
68.78748080469866
 40
68.78748080469866
 40
68.78748080469866
 10
189.7701186081976
 20
524.0531636424038
 30
0.0
 10
198.0670570299136
 20
528.5463236184241
 30
0.0
 10
212.4780571746831
 20
536.3504968613588
 30
0.0
 10
233.3827932481096
 20
519.3434503128099
 30
0.0
 10
247.2094560658899
 20
527.2109049152195
 30
0.0
 10
254.9796057599451
 20
531.6321792635426
 30
0.0
 11
189.7701186081976
 21
524.0531636424038
 31
0.0
 11
214.3711153272743
 21
531.2953356195648
 31
0.0
 11
231.895109250021
 21
524.2215872344786
 31
0.0
 11
254.9796057599451
 21
531.6321792635426
 31
0.0
  0
LINE
  5
4C2
330
70
100
AcDbEntity
  8
0
100
AcDbLine
 10
195.7323265880404
 20
198.15682055262
 30
0.0
 11
105.7323265880404
 21
198.15682055262
 31
0.0
  0
HATCH
  5
4C3
330
70
100
AcDbEntity
  8
shade 8
100
AcDbHatch
 10
0.0
 20
0.0
 30
0.0
210
0.0
220
0.0
230
1.0
  2
HWOOD2E1
 70
     0
 71
     0
 91
        1
 92
        7
 72
     0
 73
     1
 93
        4
 10
195.7323265880404
 20
406.1566519237894
 10
70.06478992155462
 20
406.1566519237894
 10
70.06478992155462
 20
388.1566519237895
 10
195.7323265880404
 20
388.1566519237895
 97
        0
 75
     1
 76
     2
 52
0.0
 41
0.25
 77
     0
 78
   314
 53
4.08561659000001
 43
-66716.77103025542
 44
-1115.376241310895
 45
-0.0000000115101622
 46
25.00000062409175
 79
     2
 49
3.508917092499999
 49
-347.3828125
 53
4.08561659000001
 43
-66691.77103025542
 44
-1115.376241310895
 45
-0.0000000115101622
 46
25.00000062409175
 79
     2
 49
3.508917092499999
 49
-347.3828125
 53
4.08561659000001
 43
-66666.77103025541
 44
-1115.376241310895
 45
-0.0000000115101622
 46
25.00000062409175
 79
     2
 49
3.508917092499999
 49
-347.3828125
 53
4.08561659000001
 43
-66641.77103025542
 44
-1115.376241310895
 45
-0.0000000115101622
 46
25.00000062409175
 79
     2
 49
3.508917092499999
 49
-347.3828125
 53
4.08561659000001
 43
-66616.77103025541
 44
-1115.376241310895
 45
-0.0000000115101622
 46
25.00000062409175
 79
     2
 49
3.508917092499999
 49
-347.3828125
 53
4.08561659000001
 43
-66591.77103025542
 44
-1115.376241310895
 45
-0.0000000115101622
 46
25.00000062409175
 79
     2
 49
3.508917092499999
 49
-347.3828125
 53
4.08561659000001
 43
-66566.77103025542
 44
-1115.376241310895
 45
-0.0000000115101622
 46
25.00000062409175
 79
     2
 49
3.508917092499999
 49
-347.3828125
 53
4.08561659000001
 43
-66541.77103025542
 44
-1115.376241310895
 45
-0.0000000115101622
 46
25.00000062409175
 79
     2
 49
3.508917092499999
 49
-347.3828125
 53
4.08561659000001
 43
-66516.77103025542
 44
-1115.376241310895
 45
-0.0000000115101622
 46
25.00000062409175
 79
     2
 49
3.508917092499999
 49
-347.3828125
 53
4.08561659000001
 43
-66491.77103025541
 44
-1115.376241310895
 45
-0.0000000115101622
 46
25.00000062409175
 79
     2
 49
3.508917092499999
 49
-347.3828125
 53
4.08561659000001
 43
-66466.77103025542
 44
-1115.376241310895
 45
-0.0000000115101622
 46
25.00000062409175
 79
     2
 49
3.508917092499999
 49
-347.3828125
 53
4.08561659000001
 43
-66441.77103025541
 44
-1115.376241310895
 45
-0.0000000115101622
 46
25.00000062409175
 79
     2
 49
3.508917092499999
 49
-347.3828125
 53
4.08561659000001
 43
-66416.77103025542
 44
-1115.376241310895
 45
-0.0000000115101622
 46
25.00000062409175
 79
     2
 49
3.508917092499999
 49
-347.3828125
 53
4.08561659000001
 43
-66391.77103025541
 44
-1115.376241310895
 45
-0.0000000115101622
 46
25.00000062409175
 79
     2
 49
3.508917092499999
 49
-347.3828125
 53
0.0
 43
-66713.27103025542
 44
-1115.126241310895
 45
0.0
 46
25.0
 79
     2
 49
2.0
 49
-23.0
 53
355.6012945
 43
-66711.27103025542
 44
-1115.126241310895
 45
0.000000076692025
 46
25.0000008639759
 79
     2
 49
3.259601115
 49
-322.700531
 53
355.6012945
 43
-66686.27103025542
 44
-1115.126241310895
 45
0.000000076692025
 46
25.0000008639759
 79
     2
 49
3.259601115
 49
-322.700531
 53
355.6012945
 43
-66661.27103025542
 44
-1115.126241310895
 45
0.000000076692025
 46
25.0000008639759
 79
     2
 49
3.259601115
 49
-322.700531
 53
355.6012945
 43
-66636.27103025541
 44
-1115.126241310895
 45
0.000000076692025
 46
25.0000008639759
 79
     2
 49
3.259601115
 49
-322.700531
 53
355.6012945
 43
-66611.27103025542
 44
-1115.126241310895
 45
0.000000076692025
 46
25.0000008639759
 79
     2
 49
3.259601115
 49
-322.700531
 53
355.6012945
 43
-66586.27103025541
 44
-1115.126241310895
 45
0.000000076692025
 46
25.0000008639759
 79
     2
 49
3.259601115
 49
-322.700531
 53
355.6012945
 43
-66561.27103025542
 44
-1115.126241310895
 45
0.000000076692025
 46
25.0000008639759
 79
     2
 49
3.259601115
 49
-322.700531
 53
355.6012945
 43
-66536.27103025542
 44
-1115.126241310895
 45
0.000000076692025
 46
25.0000008639759
 79
     2
 49
3.259601115
 49
-322.700531
 53
355.6012945
 43
-66511.27103025542
 44
-1115.126241310895
 45
0.000000076692025
 46
25.0000008639759
 79
     2
 49
3.259601115
 49
-322.700531
 53
355.6012945
 43
-66486.27103025542
 44
-1115.126241310895
 45
0.000000076692025
 46
25.0000008639759
 79
     2
 49
3.259601115
 49
-322.700531
 53
355.6012945
 43
-66461.27103025541
 44
-1115.126241310895
 45
0.000000076692025
 46
25.0000008639759
 79
     2
 49
3.259601115
 49
-322.700531
 53
355.6012945
 43
-66436.27103025542
 44
-1115.126241310895
 45
0.000000076692025
 46
25.0000008639759
 79
     2
 49
3.259601115
 49
-322.700531
 53
355.6012945
 43
-66411.27103025541
 44
-1115.126241310895
 45
0.000000076692025
 46
25.0000008639759
 79
     2
 49
3.259601115
 49
-322.700531
 53
3.366460599999999
 43
-66708.02103025541
 44
-1115.376241310895
 45
0.0000000629096855
 46
25.00000027316545
 79
     2
 49
4.257346629999999
 49
-421.4773254499999
 53
3.366460599999999
 43
-66683.02103025542
 44
-1115.376241310895
 45
0.0000000629096855
 46
25.00000027316545
 79
     2
 49
4.257346629999999
 49
-421.4773254499999
 53
3.366460599999999
 43
-66658.02103025542
 44
-1115.376241310895
 45
0.0000000629096855
 46
25.00000027316545
 79
     2
 49
4.257346629999999
 49
-421.4773254499999
 53
3.366460599999999
 43
-66633.02103025542
 44
-1115.376241310895
 45
0.0000000629096855
 46
25.00000027316545
 79
     2
 49
4.257346629999999
 49
-421.4773254499999
 53
3.366460599999999
 43
-66608.02103025542
 44
-1115.376241310895
 45
0.0000000629096855
 46
25.00000027316545
 79
     2
 49
4.257346629999999
 49
-421.4773254499999
 53
3.366460599999999
 43
-66583.02103025541
 44
-1115.376241310895
 45
0.0000000629096855
 46
25.00000027316545
 79
     2
 49
4.257346629999999
 49
-421.4773254499999
 53
3.366460599999999
 43
-66558.02103025542
 44
-1115.376241310895
 45
0.0000000629096855
 46
25.00000027316545
 79
     2
 49
4.257346629999999
 49
-421.4773254499999
 53
3.366460599999999
 43
-66533.02103025541
 44
-1115.376241310895
 45
0.0000000629096855
 46
25.00000027316545
 79
     2
 49
4.257346629999999
 49
-421.4773254499999
 53
3.366460599999999
 43
-66508.02103025542
 44
-1115.376241310895
 45
0.0000000629096855
 46
25.00000027316545
 79
     2
 49
4.257346629999999
 49
-421.4773254499999
 53
3.366460599999999
 43
-66483.02103025542
 44
-1115.376241310895
 45
0.0000000629096855
 46
25.00000027316545
 79
     2
 49
4.257346629999999
 49
-421.4773254499999
 53
3.366460599999999
 43
-66458.02103025542
 44
-1115.376241310895
 45
0.0000000629096855
 46
25.00000027316545
 79
     2
 49
4.257346629999999
 49
-421.4773254499999
 53
3.366460599999999
 43
-66433.02103025542
 44
-1115.376241310895
 45
0.0000000629096855
 46
25.00000027316545
 79
     2
 49
4.257346629999999
 49
-421.4773254499999
 53
3.366460599999999
 43
-66408.02103025542
 44
-1115.376241310895
 45
0.0000000629096855
 46
25.00000027316545
 79
     2
 49
4.257346629999999
 49
-421.4773254499999
 53
3.366460599999999
 43
-66383.02103025542
 44
-1115.376241310895
 45
0.0000000629096855
 46
25.00000027316545
 79
     2
 49
4.257346629999999
 49
-421.4773254499999
 53
3.366460599999999
 43
-66358.02103025541
 44
-1115.376241310895
 45
0.0000000629096855
 46
25.00000027316545
 79
     2
 49
4.257346629999999
 49
-421.4773254499999
 53
3.366460599999999
 43
-66333.02103025542
 44
-1115.376241310895
 45
0.0000000629096855
 46
25.00000027316545
 79
     2
 49
4.257346629999999
 49
-421.4773254499999
 53
3.366460599999999
 43
-66308.02103025541
 44
-1115.376241310895
 45
0.0000000629096855
 46
25.00000027316545
 79
     2
 49
4.257346629999999
 49
-421.4773254499999
 53
0.0
 43
-66703.77103025542
 44
-1115.126241310895
 45
0.0
 46
25.0
 79
     2
 49
2.25
 49
-22.75
 53
354.2894068000001
 43
-66701.52103025542
 44
-1115.126241310895
 45
-0.00000001004297
 46
24.99999911909136
 79
     2
 49
2.512468815
 49
-248.734420775
 53
354.2894068000001
 43
-66676.52103025542
 44
-1115.126241310895
 45
-0.00000001004297
 46
24.99999911909136
 79
     2
 49
2.512468815
 49
-248.734420775
 53
354.2894068000001
 43
-66651.52103025541
 44
-1115.126241310895
 45
-0.00000001004297
 46
24.99999911909136
 79
     2
 49
2.512468815
 49
-248.734420775
 53
354.2894068000001
 43
-66626.52103025542
 44
-1115.126241310895
 45
-0.00000001004297
 46
24.99999911909136
 79
     2
 49
2.512468815
 49
-248.734420775
 53
354.2894068000001
 43
-66601.52103025541
 44
-1115.126241310895
 45
-0.00000001004297
 46
24.99999911909136
 79
     2
 49
2.512468815
 49
-248.734420775
 53
354.2894068000001
 43
-66576.52103025542
 44
-1115.126241310895
 45
-0.00000001004297
 46
24.99999911909136
 79
     2
 49
2.512468815
 49
-248.734420775
 53
354.2894068000001
 43
-66551.52103025542
 44
-1115.126241310895
 45
-0.00000001004297
 46
24.99999911909136
 79
     2
 49
2.512468815
 49
-248.734420775
 53
354.2894068000001
 43
-66526.52103025542
 44
-1115.126241310895
 45
-0.00000001004297
 46
24.99999911909136
 79
     2
 49
2.512468815
 49
-248.734420775
 53
354.2894068000001
 43
-66501.52103025542
 44
-1115.126241310895
 45
-0.00000001004297
 46
24.99999911909136
 79
     2
 49
2.512468815
 49
-248.734420775
 53
354.2894068000001
 43
-66476.52103025541
 44
-1115.126241310895
 45
-0.00000001004297
 46
24.99999911909136
 79
     2
 49
2.512468815
 49
-248.734420775
 53
354.2894068000001
 43
-66699.02103025542
 44
-1115.376241310895
 45
-0.00000001004297
 46
24.99999911909136
 79
     2
 49
2.512468815
 49
-248.734420775
 53
354.2894068000001
 43
-66674.02103025541
 44
-1115.376241310895
 45
-0.00000001004297
 46
24.99999911909136
 79
     2
 49
2.512468815
 49
-248.734420775
 53
354.2894068000001
 43
-66649.02103025542
 44
-1115.376241310895
 45
-0.00000001004297
 46
24.99999911909136
 79
     2
 49
2.512468815
 49
-248.734420775
 53
354.2894068000001
 43
-66624.02103025542
 44
-1115.376241310895
 45
-0.00000001004297
 46
24.99999911909136
 79
     2
 49
2.512468815
 49
-248.734420775
 53
354.2894068000001
 43
-66599.02103025542
 44
-1115.376241310895
 45
-0.00000001004297
 46
24.99999911909136
 79
     2
 49
2.512468815
 49
-248.734420775
 53
354.2894068000001
 43
-66574.02103025542
 44
-1115.376241310895
 45
-0.00000001004297
 46
24.99999911909136
 79
     2
 49
2.512468815
 49
-248.734420775
 53
354.2894068000001
 43
-66549.02103025541
 44
-1115.376241310895
 45
-0.00000001004297
 46
24.99999911909136
 79
     2
 49
2.512468815
 49
-248.734420775
 53
354.2894068000001
 43
-66524.02103025542
 44
-1115.376241310895
 45
-0.00000001004297
 46
24.99999911909136
 79
     2
 49
2.512468815
 49
-248.734420775
 53
354.2894068000001
 43
-66499.02103025541
 44
-1115.376241310895
 45
-0.00000001004297
 46
24.99999911909136
 79
     2
 49
2.512468815
 49
-248.734420775
 53
354.2894068000001
 43
-66474.02103025542
 44
-1115.376241310895
 45
-0.00000001004297
 46
24.99999911909136
 79
     2
 49
2.512468815
 49
-248.734420775
 53
0.0
 43
-66696.52103025542
 44
-1115.626241310895
 45
0.0
 46
25.0
 79
     2
 49
2.25
 49
-22.75
 53
8.130102199999999
 43
-66694.27103025542
 44
-1115.626241310895
 45
0.0000000637277005
 46
24.99999998279795
 79
     2
 49
1.767766952499999
 49
-175.0089263925
 53
8.130102199999999
 43
-66669.27103025542
 44
-1115.626241310895
 45
0.0000000637277005
 46
24.99999998279795
 79
     2
 49
1.767766952499999
 49
-175.0089263925
 53
8.130102199999999
 43
-66644.27103025541
 44
-1115.626241310895
 45
0.0000000637277005
 46
24.99999998279795
 79
     2
 49
1.767766952499999
 49
-175.0089263925
 53
8.130102199999999
 43
-66619.27103025542
 44
-1115.626241310895
 45
0.0000000637277005
 46
24.99999998279795
 79
     2
 49
1.767766952499999
 49
-175.0089263925
 53
8.130102199999999
 43
-66594.27103025541
 44
-1115.626241310895
 45
0.0000000637277005
 46
24.99999998279795
 79
     2
 49
1.767766952499999
 49
-175.0089263925
 53
8.130102199999999
 43
-66569.27103025542
 44
-1115.626241310895
 45
0.0000000637277005
 46
24.99999998279795
 79
     2
 49
1.767766952499999
 49
-175.0089263925
 53
8.130102199999999
 43
-66544.27103025541
 44
-1115.626241310895
 45
0.0000000637277005
 46
24.99999998279795
 79
     2
 49
1.767766952499999
 49
-175.0089263925
 53
0.0
 43
-66692.52103025542
 44
-1115.376241310895
 45
0.0
 46
25.0
 79
     2
 49
0.75
 49
-24.25
 53
0.0
 43
-66692.52103025542
 44
-1122.376241310895
 45
0.0
 46
25.0
 79
     2
 49
0.75
 49
-24.25
 53
8.130102199999999
 43
-66694.27103025542
 44
-1122.626241310895
 45
0.0000000637277005
 46
24.99999998279795
 79
     2
 49
1.767766952499999
 49
-175.0089263925
 53
8.130102199999999
 43
-66669.27103025542
 44
-1122.626241310895
 45
0.0000000637277005
 46
24.99999998279795
 79
     2
 49
1.767766952499999
 49
-175.0089263925
 53
8.130102199999999
 43
-66644.27103025541
 44
-1122.626241310895
 45
0.0000000637277005
 46
24.99999998279795
 79
     2
 49
1.767766952499999
 49
-175.0089263925
 53
8.130102199999999
 43
-66619.27103025542
 44
-1122.626241310895
 45
0.0000000637277005
 46
24.99999998279795
 79
     2
 49
1.767766952499999
 49
-175.0089263925
 53
8.130102199999999
 43
-66594.27103025541
 44
-1122.626241310895
 45
0.0000000637277005
 46
24.99999998279795
 79
     2
 49
1.767766952499999
 49
-175.0089263925
 53
8.130102199999999
 43
-66569.27103025542
 44
-1122.626241310895
 45
0.0000000637277005
 46
24.99999998279795
 79
     2
 49
1.767766952499999
 49
-175.0089263925
 53
8.130102199999999
 43
-66544.27103025541
 44
-1122.626241310895
 45
0.0000000637277005
 46
24.99999998279795
 79
     2
 49
1.767766952499999
 49
-175.0089263925
 53
0.0
 43
-66696.52103025542
 44
-1122.626241310895
 45
0.0
 46
25.0
 79
     2
 49
2.25
 49
-22.75
 53
354.2894068000001
 43
-66699.02103025542
 44
-1122.376241310895
 45
-0.00000001004297
 46
24.99999911909136
 79
     2
 49
2.512468815
 49
-248.734420775
 53
354.2894068000001
 43
-66674.02103025541
 44
-1122.376241310895
 45
-0.00000001004297
 46
24.99999911909136
 79
     2
 49
2.512468815
 49
-248.734420775
 53
354.2894068000001
 43
-66649.02103025542
 44
-1122.376241310895
 45
-0.00000001004297
 46
24.99999911909136
 79
     2
 49
2.512468815
 49
-248.734420775
 53
354.2894068000001
 43
-66624.02103025542
 44
-1122.376241310895
 45
-0.00000001004297
 46
24.99999911909136
 79
     2
 49
2.512468815
 49
-248.734420775
 53
354.2894068000001
 43
-66599.02103025542
 44
-1122.376241310895
 45
-0.00000001004297
 46
24.99999911909136
 79
     2
 49
2.512468815
 49
-248.734420775
 53
354.2894068000001
 43
-66574.02103025542
 44
-1122.376241310895
 45
-0.00000001004297
 46
24.99999911909136
 79
     2
 49
2.512468815
 49
-248.734420775
 53
354.2894068000001
 43
-66549.02103025541
 44
-1122.376241310895
 45
-0.00000001004297
 46
24.99999911909136
 79
     2
 49
2.512468815
 49
-248.734420775
 53
354.2894068000001
 43
-66524.02103025542
 44
-1122.376241310895
 45
-0.00000001004297
 46
24.99999911909136
 79
     2
 49
2.512468815
 49
-248.734420775
 53
354.2894068000001
 43
-66499.02103025541
 44
-1122.376241310895
 45
-0.00000001004297
 46
24.99999911909136
 79
     2
 49
2.512468815
 49
-248.734420775
 53
354.2894068000001
 43
-66474.02103025542
 44
-1122.376241310895
 45
-0.00000001004297
 46
24.99999911909136
 79
     2
 49
2.512468815
 49
-248.734420775
 53
354.2894068000001
 43
-66701.52103025542
 44
-1122.126241310895
 45
-0.00000001004297
 46
24.99999911909136
 79
     2
 49
2.512468815
 49
-248.734420775
 53
354.2894068000001
 43
-66676.52103025542
 44
-1122.126241310895
 45
-0.00000001004297
 46
24.99999911909136
 79
     2
 49
2.512468815
 49
-248.734420775
 53
354.2894068000001
 43
-66651.52103025541
 44
-1122.126241310895
 45
-0.00000001004297
 46
24.99999911909136
 79
     2
 49
2.512468815
 49
-248.734420775
 53
354.2894068000001
 43
-66626.52103025542
 44
-1122.126241310895
 45
-0.00000001004297
 46
24.99999911909136
 79
     2
 49
2.512468815
 49
-248.734420775
 53
354.2894068000001
 43
-66601.52103025541
 44
-1122.126241310895
 45
-0.00000001004297
 46
24.99999911909136
 79
     2
 49
2.512468815
 49
-248.734420775
 53
354.2894068000001
 43
-66576.52103025542
 44
-1122.126241310895
 45
-0.00000001004297
 46
24.99999911909136
 79
     2
 49
2.512468815
 49
-248.734420775
 53
354.2894068000001
 43
-66551.52103025542
 44
-1122.126241310895
 45
-0.00000001004297
 46
24.99999911909136
 79
     2
 49
2.512468815
 49
-248.734420775
 53
354.2894068000001
 43
-66526.52103025542
 44
-1122.126241310895
 45
-0.00000001004297
 46
24.99999911909136
 79
     2
 49
2.512468815
 49
-248.734420775
 53
354.2894068000001
 43
-66501.52103025542
 44
-1122.126241310895
 45
-0.00000001004297
 46
24.99999911909136
 79
     2
 49
2.512468815
 49
-248.734420775
 53
354.2894068000001
 43
-66476.52103025541
 44
-1122.126241310895
 45
-0.00000001004297
 46
24.99999911909136
 79
     2
 49
2.512468815
 49
-248.734420775
 53
0.0
 43
-66703.77103025542
 44
-1122.126241310895
 45
0.0
 46
25.0
 79
     2
 49
2.25
 49
-22.75
 53
3.366460599999999
 43
-66708.02103025541
 44
-1122.376241310895
 45
0.0000000629096855
 46
25.00000027316545
 79
     2
 49
4.257346629999999
 49
-421.4773254499999
 53
3.366460599999999
 43
-66683.02103025542
 44
-1122.376241310895
 45
0.0000000629096855
 46
25.00000027316545
 79
     2
 49
4.257346629999999
 49
-421.4773254499999
 53
3.366460599999999
 43
-66658.02103025542
 44
-1122.376241310895
 45
0.0000000629096855
 46
25.00000027316545
 79
     2
 49
4.257346629999999
 49
-421.4773254499999
 53
3.366460599999999
 43
-66633.02103025542
 44
-1122.376241310895
 45
0.0000000629096855
 46
25.00000027316545
 79
     2
 49
4.257346629999999
 49
-421.4773254499999
 53
3.366460599999999
 43
-66608.02103025542
 44
-1122.376241310895
 45
0.0000000629096855
 46
25.00000027316545
 79
     2
 49
4.257346629999999
 49
-421.4773254499999
 53
3.366460599999999
 43
-66583.02103025541
 44
-1122.376241310895
 45
0.0000000629096855
 46
25.00000027316545
 79
     2
 49
4.257346629999999
 49
-421.4773254499999
 53
3.366460599999999
 43
-66558.02103025542
 44
-1122.376241310895
 45
0.0000000629096855
 46
25.00000027316545
 79
     2
 49
4.257346629999999
 49
-421.4773254499999
 53
3.366460599999999
 43
-66533.02103025541
 44
-1122.376241310895
 45
0.0000000629096855
 46
25.00000027316545
 79
     2
 49
4.257346629999999
 49
-421.4773254499999
 53
3.366460599999999
 43
-66508.02103025542
 44
-1122.376241310895
 45
0.0000000629096855
 46
25.00000027316545
 79
     2
 49
4.257346629999999
 49
-421.4773254499999
 53
3.366460599999999
 43
-66483.02103025542
 44
-1122.376241310895
 45
0.0000000629096855
 46
25.00000027316545
 79
     2
 49
4.257346629999999
 49
-421.4773254499999
 53
3.366460599999999
 43
-66458.02103025542
 44
-1122.376241310895
 45
0.0000000629096855
 46
25.00000027316545
 79
     2
 49
4.257346629999999
 49
-421.4773254499999
 53
3.366460599999999
 43
-66433.02103025542
 44
-1122.376241310895
 45
0.0000000629096855
 46
25.00000027316545
 79
     2
 49
4.257346629999999
 49
-421.4773254499999
 53
3.366460599999999
 43
-66408.02103025542
 44
-1122.376241310895
 45
0.0000000629096855
 46
25.00000027316545
 79
     2
 49
4.257346629999999
 49
-421.4773254499999
 53
3.366460599999999
 43
-66383.02103025542
 44
-1122.376241310895
 45
0.0000000629096855
 46
25.00000027316545
 79
     2
 49
4.257346629999999
 49
-421.4773254499999
 53
3.366460599999999
 43
-66358.02103025541
 44
-1122.376241310895
 45
0.0000000629096855
 46
25.00000027316545
 79
     2
 49
4.257346629999999
 49
-421.4773254499999
 53
3.366460599999999
 43
-66333.02103025542
 44
-1122.376241310895
 45
0.0000000629096855
 46
25.00000027316545
 79
     2
 49
4.257346629999999
 49
-421.4773254499999
 53
3.366460599999999
 43
-66308.02103025541
 44
-1122.376241310895
 45
0.0000000629096855
 46
25.00000027316545
 79
     2
 49
4.257346629999999
 49
-421.4773254499999
 53
355.6012945
 43
-66711.27103025542
 44
-1122.126241310895
 45
0.000000076692025
 46
25.0000008639759
 79
     2
 49
3.259601115
 49
-322.700531
 53
355.6012945
 43
-66686.27103025542
 44
-1122.126241310895
 45
0.000000076692025
 46
25.0000008639759
 79
     2
 49
3.259601115
 49
-322.700531
 53
355.6012945
 43
-66661.27103025542
 44
-1122.126241310895
 45
0.000000076692025
 46
25.0000008639759
 79
     2
 49
3.259601115
 49
-322.700531
 53
355.6012945
 43
-66636.27103025541
 44
-1122.126241310895
 45
0.000000076692025
 46
25.0000008639759
 79
     2
 49
3.259601115
 49
-322.700531
 53
355.6012945
 43
-66611.27103025542
 44
-1122.126241310895
 45
0.000000076692025
 46
25.0000008639759
 79
     2
 49
3.259601115
 49
-322.700531
 53
355.6012945
 43
-66586.27103025541
 44
-1122.126241310895
 45
0.000000076692025
 46
25.0000008639759
 79
     2
 49
3.259601115
 49
-322.700531
 53
355.6012945
 43
-66561.27103025542
 44
-1122.126241310895
 45
0.000000076692025
 46
25.0000008639759
 79
     2
 49
3.259601115
 49
-322.700531
 53
355.6012945
 43
-66536.27103025542
 44
-1122.126241310895
 45
0.000000076692025
 46
25.0000008639759
 79
     2
 49
3.259601115
 49
-322.700531
 53
355.6012945
 43
-66511.27103025542
 44
-1122.126241310895
 45
0.000000076692025
 46
25.0000008639759
 79
     2
 49
3.259601115
 49
-322.700531
 53
355.6012945
 43
-66486.27103025542
 44
-1122.126241310895
 45
0.000000076692025
 46
25.0000008639759
 79
     2
 49
3.259601115
 49
-322.700531
 53
355.6012945
 43
-66461.27103025541
 44
-1122.126241310895
 45
0.000000076692025
 46
25.0000008639759
 79
     2
 49
3.259601115
 49
-322.700531
 53
355.6012945
 43
-66436.27103025542
 44
-1122.126241310895
 45
0.000000076692025
 46
25.0000008639759
 79
     2
 49
3.259601115
 49
-322.700531
 53
355.6012945
 43
-66411.27103025541
 44
-1122.126241310895
 45
0.000000076692025
 46
25.0000008639759
 79
     2
 49
3.259601115
 49
-322.700531
 53
0.0
 43
-66713.27103025542
 44
-1122.126241310895
 45
0.0
 46
25.0
 79
     2
 49
2.0
 49
-23.0
 53
4.08561659000001
 43
-66716.77103025542
 44
-1122.376241310895
 45
-0.0000000115101622
 46
25.00000062409175
 79
     2
 49
3.508917092499999
 49
-347.3828125
 53
4.08561659000001
 43
-66691.77103025542
 44
-1122.376241310895
 45
-0.0000000115101622
 46
25.00000062409175
 79
     2
 49
3.508917092499999
 49
-347.3828125
 53
4.08561659000001
 43
-66666.77103025541
 44
-1122.376241310895
 45
-0.0000000115101622
 46
25.00000062409175
 79
     2
 49
3.508917092499999
 49
-347.3828125
 53
4.08561659000001
 43
-66641.77103025542
 44
-1122.376241310895
 45
-0.0000000115101622
 46
25.00000062409175
 79
     2
 49
3.508917092499999
 49
-347.3828125
 53
4.08561659000001
 43
-66616.77103025541
 44
-1122.376241310895
 45
-0.0000000115101622
 46
25.00000062409175
 79
     2
 49
3.508917092499999
 49
-347.3828125
 53
4.08561659000001
 43
-66591.77103025542
 44
-1122.376241310895
 45
-0.0000000115101622
 46
25.00000062409175
 79
     2
 49
3.508917092499999
 49
-347.3828125
 53
4.08561659000001
 43
-66566.77103025542
 44
-1122.376241310895
 45
-0.0000000115101622
 46
25.00000062409175
 79
     2
 49
3.508917092499999
 49
-347.3828125
 53
4.08561659000001
 43
-66541.77103025542
 44
-1122.376241310895
 45
-0.0000000115101622
 46
25.00000062409175
 79
     2
 49
3.508917092499999
 49
-347.3828125
 53
4.08561659000001
 43
-66516.77103025542
 44
-1122.376241310895
 45
-0.0000000115101622
 46
25.00000062409175
 79
     2
 49
3.508917092499999
 49
-347.3828125
 53
4.08561659000001
 43
-66491.77103025541
 44
-1122.376241310895
 45
-0.0000000115101622
 46
25.00000062409175
 79
     2
 49
3.508917092499999
 49
-347.3828125
 53
4.08561659000001
 43
-66466.77103025542
 44
-1122.376241310895
 45
-0.0000000115101622
 46
25.00000062409175
 79
     2
 49
3.508917092499999
 49
-347.3828125
 53
4.08561659000001
 43
-66441.77103025541
 44
-1122.376241310895
 45
-0.0000000115101622
 46
25.00000062409175
 79
     2
 49
3.508917092499999
 49
-347.3828125
 53
4.08561659000001
 43
-66416.77103025542
 44
-1122.376241310895
 45
-0.0000000115101622
 46
25.00000062409175
 79
     2
 49
3.508917092499999
 49
-347.3828125
 53
4.08561659000001
 43
-66391.77103025541
 44
-1122.376241310895
 45
-0.0000000115101622
 46
25.00000062409175
 79
     2
 49
3.508917092499999
 49
-347.3828125
 53
0.0
 43
-66716.77103025542
 44
-1133.876241310895
 45
0.0
 46
25.0
 79
     2
 49
6.25
 49
-18.75
 53
7.594643599999986
 43
-66710.52103025542
 44
-1133.876241310895
 45
0.0000001055347854
 46
24.99999937978613
 79
     2
 49
3.783186424999999
 49
-374.535461425
 53
7.594643599999986
 43
-66685.52103025541
 44
-1133.876241310895
 45
0.0000001055347854
 46
24.99999937978613
 79
     2
 49
3.783186424999999
 49
-374.535461425
 53
7.594643599999986
 43
-66660.52103025542
 44
-1133.876241310895
 45
0.0000001055347854
 46
24.99999937978613
 79
     2
 49
3.783186424999999
 49
-374.535461425
 53
7.594643599999986
 43
-66635.52103025542
 44
-1133.876241310895
 45
0.0000001055347854
 46
24.99999937978613
 79
     2
 49
3.783186424999999
 49
-374.535461425
 53
7.594643599999986
 43
-66610.52103025542
 44
-1133.876241310895
 45
0.0000001055347854
 46
24.99999937978613
 79
     2
 49
3.783186424999999
 49
-374.535461425
 53
7.594643599999986
 43
-66585.52103025542
 44
-1133.876241310895
 45
0.0000001055347854
 46
24.99999937978613
 79
     2
 49
3.783186424999999
 49
-374.535461425
 53
7.594643599999986
 43
-66560.52103025542
 44
-1133.876241310895
 45
0.0000001055347854
 46
24.99999937978613
 79
     2
 49
3.783186424999999
 49
-374.535461425
 53
7.594643599999986
 43
-66535.52103025542
 44
-1133.876241310895
 45
0.0000001055347854
 46
24.99999937978613
 79
     2
 49
3.783186424999999
 49
-374.535461425
 53
7.594643599999986
 43
-66510.52103025541
 44
-1133.876241310895
 45
0.0000001055347854
 46
24.99999937978613
 79
     2
 49
3.783186424999999
 49
-374.535461425
 53
7.594643599999986
 43
-66485.52103025542
 44
-1133.876241310895
 45
0.0000001055347854
 46
24.99999937978613
 79
     2
 49
3.783186424999999
 49
-374.535461425
 53
7.594643599999986
 43
-66460.52103025541
 44
-1133.876241310895
 45
0.0000001055347854
 46
24.99999937978613
 79
     2
 49
3.783186424999999
 49
-374.535461425
 53
7.594643599999986
 43
-66435.52103025542
 44
-1133.876241310895
 45
0.0000001055347854
 46
24.99999937978613
 79
     2
 49
3.783186424999999
 49
-374.535461425
 53
7.594643599999986
 43
-66410.52103025542
 44
-1133.876241310895
 45
0.0000001055347854
 46
24.99999937978613
 79
     2
 49
3.783186424999999
 49
-374.535461425
 53
7.594643599999986
 43
-66385.52103025542
 44
-1133.876241310895
 45
0.0000001055347854
 46
24.99999937978613
 79
     2
 49
3.783186424999999
 49
-374.535461425
 53
7.594643599999986
 43
-66360.52103025542
 44
-1133.876241310895
 45
0.0000001055347854
 46
24.99999937978613
 79
     2
 49
3.783186424999999
 49
-374.535461425
 53
3.179830299999999
 43
-66706.77103025542
 44
-1133.376241310895
 45
-0.0000000425435449
 46
25.00000087320912
 79
     2
 49
4.506938934999999
 49
-446.1869811999999
 53
3.179830299999999
 43
-66681.77103025541
 44
-1133.376241310895
 45
-0.0000000425435449
 46
25.00000087320912
 79
     2
 49
4.506938934999999
 49
-446.1869811999999
 53
3.179830299999999
 43
-66656.77103025542
 44
-1133.376241310895
 45
-0.0000000425435449
 46
25.00000087320912
 79
     2
 49
4.506938934999999
 49
-446.1869811999999
 53
3.179830299999999
 43
-66631.77103025542
 44
-1133.376241310895
 45
-0.0000000425435449
 46
25.00000087320912
 79
     2
 49
4.506938934999999
 49
-446.1869811999999
 53
3.179830299999999
 43
-66606.77103025542
 44
-1133.376241310895
 45
-0.0000000425435449
 46
25.00000087320912
 79
     2
 49
4.506938934999999
 49
-446.1869811999999
 53
3.179830299999999
 43
-66581.77103025542
 44
-1133.376241310895
 45
-0.0000000425435449
 46
25.00000087320912
 79
     2
 49
4.506938934999999
 49
-446.1869811999999
 53
3.179830299999999
 43
-66556.77103025542
 44
-1133.376241310895
 45
-0.0000000425435449
 46
25.00000087320912
 79
     2
 49
4.506938934999999
 49
-446.1869811999999
 53
3.179830299999999
 43
-66531.77103025542
 44
-1133.376241310895
 45
-0.0000000425435449
 46
25.00000087320912
 79
     2
 49
4.506938934999999
 49
-446.1869811999999
 53
3.179830299999999
 43
-66506.77103025541
 44
-1133.376241310895
 45
-0.0000000425435449
 46
25.00000087320912
 79
     2
 49
4.506938934999999
 49
-446.1869811999999
 53
3.179830299999999
 43
-66481.77103025542
 44
-1133.376241310895
 45
-0.0000000425435449
 46
25.00000087320912
 79
     2
 49
4.506938934999999
 49
-446.1869811999999
 53
3.179830299999999
 43
-66456.77103025541
 44
-1133.376241310895
 45
-0.0000000425435449
 46
25.00000087320912
 79
     2
 49
4.506938934999999
 49
-446.1869811999999
 53
3.179830299999999
 43
-66431.77103025542
 44
-1133.376241310895
 45
-0.0000000425435449
 46
25.00000087320912
 79
     2
 49
4.506938934999999
 49
-446.1869811999999
 53
3.179830299999999
 43
-66406.77103025542
 44
-1133.376241310895
 45
-0.0000000425435449
 46
25.00000087320912
 79
     2
 49
4.506938934999999
 49
-446.1869811999999
 53
3.179830299999999
 43
-66381.77103025542
 44
-1133.376241310895
 45
-0.0000000425435449
 46
25.00000087320912
 79
     2
 49
4.506938934999999
 49
-446.1869811999999
 53
3.179830299999999
 43
-66356.77103025542
 44
-1133.376241310895
 45
-0.0000000425435449
 46
25.00000087320912
 79
     2
 49
4.506938934999999
 49
-446.1869811999999
 53
3.179830299999999
 43
-66331.77103025541
 44
-1133.376241310895
 45
-0.0000000425435449
 46
25.00000087320912
 79
     2
 49
4.506938934999999
 49
-446.1869811999999
 53
3.179830299999999
 43
-66306.77103025542
 44
-1133.376241310895
 45
-0.0000000425435449
 46
25.00000087320912
 79
     2
 49
4.506938934999999
 49
-446.1869811999999
 53
3.179830299999999
 43
-66281.77103025541
 44
-1133.376241310895
 45
-0.0000000425435449
 46
25.00000087320912
 79
     2
 49
4.506938934999999
 49
-446.1869811999999
 53
0.0
 43
-66702.27103025542
 44
-1133.126241310895
 45
0.0
 46
25.0
 79
     2
 49
4.25
 49
-20.75
 53
351.2538376
 43
-66698.02103025542
 44
-1133.126241310895
 45
0.0000003070645307
 46
25.00000090670576
 79
     2
 49
3.288236624999999
 49
-325.5354309
 53
351.2538376
 43
-66673.02103025542
 44
-1133.126241310895
 45
0.0000003070645307
 46
25.00000090670576
 79
     2
 49
3.288236624999999
 49
-325.5354309
 53
351.2538376
 43
-66648.02103025541
 44
-1133.126241310895
 45
0.0000003070645307
 46
25.00000090670576
 79
     2
 49
3.288236624999999
 49
-325.5354309
 53
351.2538376
 43
-66623.02103025542
 44
-1133.126241310895
 45
0.0000003070645307
 46
25.00000090670576
 79
     2
 49
3.288236624999999
 49
-325.5354309
 53
351.2538376
 43
-66598.02103025541
 44
-1133.126241310895
 45
0.0000003070645307
 46
25.00000090670576
 79
     2
 49
3.288236624999999
 49
-325.5354309
 53
351.2538376
 43
-66573.02103025542
 44
-1133.126241310895
 45
0.0000003070645307
 46
25.00000090670576
 79
     2
 49
3.288236624999999
 49
-325.5354309
 53
351.2538376
 43
-66548.02103025541
 44
-1133.126241310895
 45
0.0000003070645307
 46
25.00000090670576
 79
     2
 49
3.288236624999999
 49
-325.5354309
 53
351.2538376
 43
-66523.02103025542
 44
-1133.126241310895
 45
0.0000003070645307
 46
25.00000090670576
 79
     2
 49
3.288236624999999
 49
-325.5354309
 53
351.2538376
 43
-66498.02103025542
 44
-1133.126241310895
 45
0.0000003070645307
 46
25.00000090670576
 79
     2
 49
3.288236624999999
 49
-325.5354309
 53
351.2538376
 43
-66473.02103025542
 44
-1133.126241310895
 45
0.0000003070645307
 46
25.00000090670576
 79
     2
 49
3.288236624999999
 49
-325.5354309
 53
351.2538376
 43
-66448.02103025542
 44
-1133.126241310895
 45
0.0000003070645307
 46
25.00000090670576
 79
     2
 49
3.288236624999999
 49
-325.5354309
 53
351.2538376
 43
-66423.02103025541
 44
-1133.126241310895
 45
0.0000003070645307
 46
25.00000090670576
 79
     2
 49
3.288236624999999
 49
-325.5354309
 53
351.2538376
 43
-66398.02103025542
 44
-1133.126241310895
 45
0.0000003070645307
 46
25.00000090670576
 79
     2
 49
3.288236624999999
 49
-325.5354309
 53
352.8749838
 43
-66694.77103025542
 44
-1133.626241310895
 45
-0.0000000773741422
 46
25.00000078979567
 79
     2
 49
2.0155644425
 49
-199.5408783
 53
352.8749838
 43
-66669.77103025542
 44
-1133.626241310895
 45
-0.0000000773741422
 46
25.00000078979567
 79
     2
 49
2.0155644425
 49
-199.5408783
 53
352.8749838
 43
-66644.77103025542
 44
-1133.626241310895
 45
-0.0000000773741422
 46
25.00000078979567
 79
     2
 49
2.0155644425
 49
-199.5408783
 53
352.8749838
 43
-66619.77103025542
 44
-1133.626241310895
 45
-0.0000000773741422
 46
25.00000078979567
 79
     2
 49
2.0155644425
 49
-199.5408783
 53
352.8749838
 43
-66594.77103025542
 44
-1133.626241310895
 45
-0.0000000773741422
 46
25.00000078979567
 79
     2
 49
2.0155644425
 49
-199.5408783
 53
352.8749838
 43
-66569.77103025542
 44
-1133.626241310895
 45
-0.0000000773741422
 46
25.00000078979567
 79
     2
 49
2.0155644425
 49
-199.5408783
 53
352.8749838
 43
-66544.77103025541
 44
-1133.626241310895
 45
-0.0000000773741422
 46
25.00000078979567
 79
     2
 49
2.0155644425
 49
-199.5408783
 53
352.8749838
 43
-66519.77103025542
 44
-1133.626241310895
 45
-0.0000000773741422
 46
25.00000078979567
 79
     2
 49
2.0155644425
 49
-199.5408783
 53
0.0
 43
-66692.77103025541
 44
-1133.876241310895
 45
0.0
 46
25.0
 79
     2
 49
1.0
 49
-24.0
 53
345.96375656
 43
-66694.02103025542
 44
-1128.376241310895
 45
-0.0000000055154956
 46
25.00000043524436
 79
     2
 49
1.030776375
 49
-102.046867375
 53
345.96375656
 43
-66669.02103025542
 44
-1128.376241310895
 45
-0.0000000055154956
 46
25.00000043524436
 79
     2
 49
1.030776375
 49
-102.046867375
 53
345.96375656
 43
-66644.02103025541
 44
-1128.376241310895
 45
-0.0000000055154956
 46
25.00000043524436
 79
     2
 49
1.030776375
 49
-102.046867375
 53
345.96375656
 43
-66619.02103025542
 44
-1128.376241310895
 45
-0.0000000055154956
 46
25.00000043524436
 79
     2
 49
1.030776375
 49
-102.046867375
 53
351.8698978
 43
-66695.77103025542
 44
-1128.126241310895
 45
-0.0000000637277005
 46
24.99999998279795
 79
     2
 49
1.767766952499999
 49
-175.0089263925
 53
351.8698978
 43
-66670.77103025541
 44
-1128.126241310895
 45
-0.0000000637277005
 46
24.99999998279795
 79
     2
 49
1.767766952499999
 49
-175.0089263925
 53
351.8698978
 43
-66645.77103025542
 44
-1128.126241310895
 45
-0.0000000637277005
 46
24.99999998279795
 79
     2
 49
1.767766952499999
 49
-175.0089263925
 53
351.8698978
 43
-66620.77103025541
 44
-1128.126241310895
 45
-0.0000000637277005
 46
24.99999998279795
 79
     2
 49
1.767766952499999
 49
-175.0089263925
 53
351.8698978
 43
-66595.77103025542
 44
-1128.126241310895
 45
-0.0000000637277005
 46
24.99999998279795
 79
     2
 49
1.767766952499999
 49
-175.0089263925
 53
351.8698978
 43
-66570.77103025542
 44
-1128.126241310895
 45
-0.0000000637277005
 46
24.99999998279795
 79
     2
 49
1.767766952499999
 49
-175.0089263925
 53
351.8698978
 43
-66545.77103025542
 44
-1128.126241310895
 45
-0.0000000637277005
 46
24.99999998279795
 79
     2
 49
1.767766952499999
 49
-175.0089263925
 53
356.4236655
 43
-66699.77103025542
 44
-1127.876241310895
 45
0.0000000623399818
 46
25.00000046334374
 79
     2
 49
4.00780487
 49
-396.77267456
 53
356.4236655
 43
-66674.77103025541
 44
-1127.876241310895
 45
0.0000000623399818
 46
25.00000046334374
 79
     2
 49
4.00780487
 49
-396.77267456
 53
356.4236655
 43
-66649.77103025542
 44
-1127.876241310895
 45
0.0000000623399818
 46
25.00000046334374
 79
     2
 49
4.00780487
 49
-396.77267456
 53
356.4236655
 43
-66624.77103025541
 44
-1127.876241310895
 45
0.0000000623399818
 46
25.00000046334374
 79
     2
 49
4.00780487
 49
-396.77267456
 53
356.4236655
 43
-66599.77103025542
 44
-1127.876241310895
 45
0.0000000623399818
 46
25.00000046334374
 79
     2
 49
4.00780487
 49
-396.77267456
 53
356.4236655
 43
-66574.77103025541
 44
-1127.876241310895
 45
0.0000000623399818
 46
25.00000046334374
 79
     2
 49
4.00780487
 49
-396.77267456
 53
356.4236655
 43
-66549.77103025542
 44
-1127.876241310895
 45
0.0000000623399818
 46
25.00000046334374
 79
     2
 49
4.00780487
 49
-396.77267456
 53
356.4236655
 43
-66524.77103025542
 44
-1127.876241310895
 45
0.0000000623399818
 46
25.00000046334374
 79
     2
 49
4.00780487
 49
-396.77267456
 53
356.4236655
 43
-66499.77103025542
 44
-1127.876241310895
 45
0.0000000623399818
 46
25.00000046334374
 79
     2
 49
4.00780487
 49
-396.77267456
 53
356.4236655
 43
-66474.77103025542
 44
-1127.876241310895
 45
0.0000000623399818
 46
25.00000046334374
 79
     2
 49
4.00780487
 49
-396.77267456
 53
356.4236655
 43
-66449.77103025541
 44
-1127.876241310895
 45
0.0000000623399818
 46
25.00000046334374
 79
     2
 49
4.00780487
 49
-396.77267456
 53
356.4236655
 43
-66424.77103025542
 44
-1127.876241310895
 45
0.0000000623399818
 46
25.00000046334374
 79
     2
 49
4.00780487
 49
-396.77267456
 53
356.4236655
 43
-66399.77103025541
 44
-1127.876241310895
 45
0.0000000623399818
 46
25.00000046334374
 79
     2
 49
4.00780487
 49
-396.77267456
 53
356.4236655
 43
-66374.77103025542
 44
-1127.876241310895
 45
0.0000000623399818
 46
25.00000046334374
 79
     2
 49
4.00780487
 49
-396.77267456
 53
356.4236655
 43
-66349.77103025542
 44
-1127.876241310895
 45
0.0000000623399818
 46
25.00000046334374
 79
     2
 49
4.00780487
 49
-396.77267456
 53
356.4236655
 43
-66324.77103025542
 44
-1127.876241310895
 45
0.0000000623399818
 46
25.00000046334374
 79
     2
 49
4.00780487
 49
-396.77267456
 53
356.4236655
 43
-66703.77103025542
 44
-1127.626241310895
 45
0.0000000623399818
 46
25.00000046334374
 79
     2
 49
4.00780487
 49
-396.77267456
 53
356.4236655
 43
-66678.77103025542
 44
-1127.626241310895
 45
0.0000000623399818
 46
25.00000046334374
 79
     2
 49
4.00780487
 49
-396.77267456
 53
356.4236655
 43
-66653.77103025542
 44
-1127.626241310895
 45
0.0000000623399818
 46
25.00000046334374
 79
     2
 49
4.00780487
 49
-396.77267456
 53
356.4236655
 43
-66628.77103025541
 44
-1127.626241310895
 45
0.0000000623399818
 46
25.00000046334374
 79
     2
 49
4.00780487
 49
-396.77267456
 53
356.4236655
 43
-66603.77103025542
 44
-1127.626241310895
 45
0.0000000623399818
 46
25.00000046334374
 79
     2
 49
4.00780487
 49
-396.77267456
 53
356.4236655
 43
-66578.77103025541
 44
-1127.626241310895
 45
0.0000000623399818
 46
25.00000046334374
 79
     2
 49
4.00780487
 49
-396.77267456
 53
356.4236655
 43
-66553.77103025542
 44
-1127.626241310895
 45
0.0000000623399818
 46
25.00000046334374
 79
     2
 49
4.00780487
 49
-396.77267456
 53
356.4236655
 43
-66528.77103025542
 44
-1127.626241310895
 45
0.0000000623399818
 46
25.00000046334374
 79
     2
 49
4.00780487
 49
-396.77267456
 53
356.4236655
 43
-66503.77103025542
 44
-1127.626241310895
 45
0.0000000623399818
 46
25.00000046334374
 79
     2
 49
4.00780487
 49
-396.77267456
 53
356.4236655
 43
-66478.77103025542
 44
-1127.626241310895
 45
0.0000000623399818
 46
25.00000046334374
 79
     2
 49
4.00780487
 49
-396.77267456
 53
356.4236655
 43
-66453.77103025542
 44
-1127.626241310895
 45
0.0000000623399818
 46
25.00000046334374
 79
     2
 49
4.00780487
 49
-396.77267456
 53
356.4236655
 43
-66428.77103025542
 44
-1127.626241310895
 45
0.0000000623399818
 46
25.00000046334374
 79
     2
 49
4.00780487
 49
-396.77267456
 53
356.4236655
 43
-66403.77103025541
 44
-1127.626241310895
 45
0.0000000623399818
 46
25.00000046334374
 79
     2
 49
4.00780487
 49
-396.77267456
 53
356.4236655
 43
-66378.77103025542
 44
-1127.626241310895
 45
0.0000000623399818
 46
25.00000046334374
 79
     2
 49
4.00780487
 49
-396.77267456
 53
356.4236655
 43
-66353.77103025541
 44
-1127.626241310895
 45
0.0000000623399818
 46
25.00000046334374
 79
     2
 49
4.00780487
 49
-396.77267456
 53
356.4236655
 43
-66328.77103025542
 44
-1127.626241310895
 45
0.0000000623399818
 46
25.00000046334374
 79
     2
 49
4.00780487
 49
-396.77267456
 53
6.009005547000002
 43
-66708.52103025541
 44
-1128.126241310895
 45
0.0000000901299604
 46
25.0000002439904
 79
     2
 49
4.776243199999999
 49
-472.8480835
 53
6.009005547000002
 43
-66683.52103025542
 44
-1128.126241310895
 45
0.0000000901299604
 46
25.0000002439904
 79
     2
 49
4.776243199999999
 49
-472.8480835
 53
6.009005547000002
 43
-66658.52103025541
 44
-1128.126241310895
 45
0.0000000901299604
 46
25.0000002439904
 79
     2
 49
4.776243199999999
 49
-472.8480835
 53
6.009005547000002
 43
-66633.52103025542
 44
-1128.126241310895
 45
0.0000000901299604
 46
25.0000002439904
 79
     2
 49
4.776243199999999
 49
-472.8480835
 53
6.009005547000002
 43
-66608.52103025542
 44
-1128.126241310895
 45
0.0000000901299604
 46
25.0000002439904
 79
     2
 49
4.776243199999999
 49
-472.8480835
 53
6.009005547000002
 43
-66583.52103025542
 44
-1128.126241310895
 45
0.0000000901299604
 46
25.0000002439904
 79
     2
 49
4.776243199999999
 49
-472.8480835
 53
6.009005547000002
 43
-66558.52103025542
 44
-1128.126241310895
 45
0.0000000901299604
 46
25.0000002439904
 79
     2
 49
4.776243199999999
 49
-472.8480835
 53
6.009005547000002
 43
-66533.52103025541
 44
-1128.126241310895
 45
0.0000000901299604
 46
25.0000002439904
 79
     2
 49
4.776243199999999
 49
-472.8480835
 53
6.009005547000002
 43
-66508.52103025542
 44
-1128.126241310895
 45
0.0000000901299604
 46
25.0000002439904
 79
     2
 49
4.776243199999999
 49
-472.8480835
 53
6.009005547000002
 43
-66483.52103025541
 44
-1128.126241310895
 45
0.0000000901299604
 46
25.0000002439904
 79
     2
 49
4.776243199999999
 49
-472.8480835
 53
6.009005547000002
 43
-66458.52103025542
 44
-1128.126241310895
 45
0.0000000901299604
 46
25.0000002439904
 79
     2
 49
4.776243199999999
 49
-472.8480835
 53
6.009005547000002
 43
-66433.52103025542
 44
-1128.126241310895
 45
0.0000000901299604
 46
25.0000002439904
 79
     2
 49
4.776243199999999
 49
-472.8480835
 53
6.009005547000002
 43
-66408.52103025542
 44
-1128.126241310895
 45
0.0000000901299604
 46
25.0000002439904
 79
     2
 49
4.776243199999999
 49
-472.8480835
 53
6.009005547000002
 43
-66383.52103025542
 44
-1128.126241310895
 45
0.0000000901299604
 46
25.0000002439904
 79
     2
 49
4.776243199999999
 49
-472.8480835
 53
6.009005547000002
 43
-66358.52103025542
 44
-1128.126241310895
 45
0.0000000901299604
 46
25.0000002439904
 79
     2
 49
4.776243199999999
 49
-472.8480835
 53
6.009005547000002
 43
-66333.52103025542
 44
-1128.126241310895
 45
0.0000000901299604
 46
25.0000002439904
 79
     2
 49
4.776243199999999
 49
-472.8480835
 53
6.009005547000002
 43
-66308.52103025541
 44
-1128.126241310895
 45
0.0000000901299604
 46
25.0000002439904
 79
     2
 49
4.776243199999999
 49
-472.8480835
 53
6.009005547000002
 43
-66283.52103025542
 44
-1128.126241310895
 45
0.0000000901299604
 46
25.0000002439904
 79
     2
 49
4.776243199999999
 49
-472.8480835
 53
6.009005547000002
 43
-66258.52103025541
 44
-1128.126241310895
 45
0.0000000901299604
 46
25.0000002439904
 79
     2
 49
4.776243199999999
 49
-472.8480835
 53
7.594643599999986
 43
-66712.27103025541
 44
-1128.626241310895
 45
0.0000001055347854
 46
24.99999937978613
 79
     2
 49
3.783186424999999
 49
-374.535461425
 53
7.594643599999986
 43
-66687.27103025542
 44
-1128.626241310895
 45
0.0000001055347854
 46
24.99999937978613
 79
     2
 49
3.783186424999999
 49
-374.535461425
 53
7.594643599999986
 43
-66662.27103025542
 44
-1128.626241310895
 45
0.0000001055347854
 46
24.99999937978613
 79
     2
 49
3.783186424999999
 49
-374.535461425
 53
7.594643599999986
 43
-66637.27103025542
 44
-1128.626241310895
 45
0.0000001055347854
 46
24.99999937978613
 79
     2
 49
3.783186424999999
 49
-374.535461425
 53
7.594643599999986
 43
-66612.27103025542
 44
-1128.626241310895
 45
0.0000001055347854
 46
24.99999937978613
 79
     2
 49
3.783186424999999
 49
-374.535461425
 53
7.594643599999986
 43
-66587.27103025542
 44
-1128.626241310895
 45
0.0000001055347854
 46
24.99999937978613
 79
     2
 49
3.783186424999999
 49
-374.535461425
 53
7.594643599999986
 43
-66562.27103025542
 44
-1128.626241310895
 45
0.0000001055347854
 46
24.99999937978613
 79
     2
 49
3.783186424999999
 49
-374.535461425
 53
7.594643599999986
 43
-66537.27103025541
 44
-1128.626241310895
 45
0.0000001055347854
 46
24.99999937978613
 79
     2
 49
3.783186424999999
 49
-374.535461425
 53
7.594643599999986
 43
-66512.27103025542
 44
-1128.626241310895
 45
0.0000001055347854
 46
24.99999937978613
 79
     2
 49
3.783186424999999
 49
-374.535461425
 53
7.594643599999986
 43
-66487.27103025541
 44
-1128.626241310895
 45
0.0000001055347854
 46
24.99999937978613
 79
     2
 49
3.783186424999999
 49
-374.535461425
 53
7.594643599999986
 43
-66462.27103025542
 44
-1128.626241310895
 45
0.0000001055347854
 46
24.99999937978613
 79
     2
 49
3.783186424999999
 49
-374.535461425
 53
7.594643599999986
 43
-66437.27103025542
 44
-1128.626241310895
 45
0.0000001055347854
 46
24.99999937978613
 79
     2
 49
3.783186424999999
 49
-374.535461425
 53
7.594643599999986
 43
-66412.27103025542
 44
-1128.626241310895
 45
0.0000001055347854
 46
24.99999937978613
 79
     2
 49
3.783186424999999
 49
-374.535461425
 53
7.594643599999986
 43
-66387.27103025542
 44
-1128.626241310895
 45
0.0000001055347854
 46
24.99999937978613
 79
     2
 49
3.783186424999999
 49
-374.535461425
 53
7.594643599999986
 43
-66362.27103025541
 44
-1128.626241310895
 45
0.0000001055347854
 46
24.99999937978613
 79
     2
 49
3.783186424999999
 49
-374.535461425
 53
0.0
 43
-66716.77103025542
 44
-1128.626241310895
 45
0.0
 46
25.0
 79
     2
 49
4.5
 49
-20.5
 53
0.0
 43
-66693.02103025541
 44
-1128.626241310895
 45
0.0
 46
25.0
 79
     2
 49
1.25
 49
-23.75
 53
0.0
 43
-66714.52103025542
 44
-1124.626241310895
 45
0.0
 46
25.0
 79
     2
 49
0.5
 49
-24.5
 53
0.0
 43
-66709.02103025541
 44
-1126.876241310895
 45
0.0
 46
25.0
 79
     2
 49
0.5
 49
-24.5
 53
0.0
 43
-66703.77103025542
 44
-1123.626241310895
 45
0.0
 46
25.0
 79
     2
 49
0.5
 49
-24.5
 53
0.0
 43
-66699.27103025542
 44
-1126.126241310895
 45
0.0
 46
25.0
 79
     2
 49
0.5
 49
-24.5
 53
0.0
 43
-66695.02103025542
 44
-1120.876241310895
 45
0.0
 46
25.0
 79
     2
 49
0.5
 49
-24.5
 53
0.0
 43
-66698.02103025542
 44
-1117.626241310895
 45
0.0
 46
25.0
 79
     2
 49
0.5
 49
-24.5
 53
0.0
 43
-66702.27103025542
 44
-1118.876241310895
 45
0.0
 46
25.0
 79
     2
 49
0.5
 49
-24.5
 53
0.0
 43
-66706.52103025542
 44
-1120.626241310895
 45
0.0
 46
25.0
 79
     2
 49
0.5
 49
-24.5
 53
0.0
 43
-66708.52103025541
 44
-1116.876241310895
 45
0.0
 46
25.0
 79
     2
 49
0.5
 49
-24.5
 53
0.0
 43
-66713.52103025542
 44
-1116.876241310895
 45
0.0
 46
25.0
 79
     2
 49
0.5
 49
-24.5
 53
0.0
 43
-66714.77103025542
 44
-1119.876241310895
 45
0.0
 46
25.0
 79
     2
 49
0.5
 49
-24.5
 53
0.0
 43
-66715.77103025541
 44
-1130.376241310895
 45
0.0
 46
25.0
 79
     2
 49
0.5
 49
-24.5
 53
0.0
 43
-66713.02103025542
 44
-1132.626241310895
 45
0.0
 46
25.0
 79
     2
 49
0.5
 49
-24.5
 53
0.0
 43
-66708.27103025541
 44
-1129.126241310895
 45
0.0
 46
25.0
 79
     2
 49
0.5
 49
-24.5
 53
0.0
 43
-66706.02103025542
 44
-1131.876241310895
 45
0.0
 46
25.0
 79
     2
 49
0.5
 49
-24.5
 53
0.0
 43
-66701.77103025542
 44
-1128.626241310895
 45
0.0
 46
25.0
 79
     2
 49
0.5
 49
-24.5
 53
0.0
 43
-66701.27103025541
 44
-1131.126241310895
 45
0.0
 46
25.0
 79
     2
 49
0.5
 49
-24.5
 53
0.0
 43
-66695.52103025542
 44
-1129.376241310895
 45
0.0
 46
25.0
 79
     2
 49
0.5
 49
-24.5
 53
0.0
 43
-66693.52103025541
 44
-1132.126241310895
 45
0.0
 46
25.0
 79
     2
 49
0.5
 49
-24.5
 53
0.0
 43
-66693.77103025541
 44
-1136.376241310895
 45
0.0
 46
25.0
 79
     2
 49
0.5
 49
-24.5
 53
0.0
 43
-66698.27103025542
 44
-1134.626241310895
 45
0.0
 46
25.0
 79
     2
 49
0.5
 49
-24.5
 53
0.0
 43
-66704.27103025541
 44
-1136.626241310895
 45
0.0
 46
25.0
 79
     2
 49
0.5
 49
-24.5
 53
0.0
 43
-66709.27103025542
 44
-1135.126241310895
 45
0.0
 46
25.0
 79
     2
 49
0.5
 49
-24.5
 53
0.0
 43
-66713.77103025542
 44
-1135.626241310895
 45
0.0
 46
25.0
 79
     2
 49
0.5
 49
-24.5
 53
0.0
 43
-66697.77103025542
 44
-1112.876241310895
 45
0.0
 46
25.0
 79
     2
 49
0.5
 49
-24.5
 53
0.0
 43
-66707.27103025542
 44
-1114.376241310895
 45
0.0
 46
25.0
 79
     2
 49
0.5
 49
-24.5
 53
0.0
 43
-66713.27103025542
 44
-1113.376241310895
 45
0.0
 46
25.0
 79
     2
 49
0.5
 49
-24.5
 53
0.0
 43
-66710.02103025542
 44
-1123.626241310895
 45
0.0
 46
25.0
 79
     2
 49
0.5
 49
-24.5
 47
0.5143684007572481
 98
        1
 10
87.08735087634705
 20
398.1260614232451
1001
GradientColor1ACI
1070
     5
1001
GradientColor2ACI
1070
     2
1001
ACAD
1010
0.0
1020
0.0
1030
0.0
  0
LINE
  5
4C4
330
70
100
AcDbEntity
  8
0
100
AcDbLine
 10
195.7323265880404
 20
388.1566519237895
 30
0.0
 11
70.06478992155462
 21
388.1566519237895
 31
0.0
  0
LINE
  5
4C5
330
70
100
AcDbEntity
  8
Post
100
AcDbLine
 10
197.2323265880404
 20
198.15682055262
 30
0.0
 11
248.0323265880433
 21
198.15682055262
 31
0.0
  0
LINE
  5
4C6
330
70
100
AcDbEntity
  8
fixing
100
AcDbLine
 10
250.0323265880433
 20
373.1566519237895
 30
0.0
 11
250.0323265880433
 21
353.1566519237895
 31
0.0
  0
LINE
  5
4C7
330
70
100
AcDbEntity
  8
fixing
100
AcDbLine
 10
258.0323265880434
 20
370.8459523031343
 30
0.0
 11
258.0323265880434
 21
355.4673515444447
 31
0.0
  0
LINE
  5
4C8
330
70
100
AcDbEntity
  8
fixing
100
AcDbLine
 10
250.0323265880433
 20
373.1566519237895
 30
0.0
 11
248.0323265880433
 21
373.1566519237895
 31
0.0
  0
LINE
  5
4C9
330
70
100
AcDbEntity
  8
fixing
100
AcDbLine
 10
248.0323265880433
 20
373.1566519237895
 30
0.0
 11
248.0323265880433
 21
353.1566519237895
 31
0.0
  0
LINE
  5
4CA
330
70
100
AcDbEntity
  8
fixing
100
AcDbLine
 10
248.0323265880433
 20
353.1566519237895
 30
0.0
 11
250.0323265880433
 21
353.1566519237895
 31
0.0
  0
ARC
  5
4CB
330
70
100
AcDbEntity
  8
fixing
100
AcDbCircle
 10
260.5323265880433
 20
363.1566519237895
 30
0.0
 40
7.5
100
AcDbArc
 50
270.0
 51
90.0
  0
LINE
  5
4CC
330
70
100
AcDbEntity
  8
fixing
100
AcDbLine
 10
260.5323265880433
 20
370.6566519237895
 30
0.0
 11
258.6177889054233
 21
370.6566519237895
 31
0.0
  0
LINE
  5
4CD
330
70
100
AcDbEntity
  8
fixing
100
AcDbLine
 10
260.5323265880433
 20
355.6566519237895
 30
0.0
 11
258.6177889054233
 21
355.6566519237895
 31
0.0
  0
ARC
  5
4CE
330
70
100
AcDbEntity
  8
fixing
100
AcDbCircle
 10
258.6177889054233
 20
354.6566519237895
 30
0.0
 40
1.0
100
AcDbArc
 50
90.0
 51
138.1896851045203
  0
ARC
  5
4CF
330
70
100
AcDbEntity
  8
fixing
100
AcDbCircle
 10
257.4997549166728
 20
355.6566519237895
 30
0.0
 40
0.5
100
AcDbArc
 50
270.0
 51
318.1896851045203
  0
LINE
  5
4D0
330
70
100
AcDbEntity
  8
fixing
100
AcDbLine
 10
257.4997549166728
 20
355.1566519237895
 30
0.0
 11
251.2726390117896
 21
355.1566519237895
 31
0.0
  0
ARC
  5
4D1
330
70
100
AcDbEntity
  8
fixing
100
AcDbCircle
 10
251.2726390117896
 20
355.6566519237895
 30
0.0
 40
0.5
100
AcDbArc
 50
218.6598082544136
 51
270.0
  0
LINE
  5
4D2
330
70
100
AcDbEntity
  8
fixing
100
AcDbLine
 10
256.6283249867556
 20
363.1566519237895
 30
0.0
 11
251.4363281893166
 21
363.1566519237895
 31
0.0
  0
ARC
  5
4D3
330
70
100
AcDbEntity
  8
fixing
100
AcDbCircle
 10
251.6323265880346
 20
359.1566519237895
 30
0.0
 40
6.4
100
AcDbArc
 50
323.6141321832159
 51
38.6821874535653
  0
ARC
  5
4D4
330
70
100
AcDbEntity
  8
fixing
100
AcDbCircle
 10
256.3820634228614
 20
355.6566519237895
 30
0.0
 40
0.5
100
AcDbArc
 50
270.0
 51
323.6141321832159
  0
ARC
  5
4D5
330
70
100
AcDbEntity
  8
fixing
100
AcDbCircle
 10
256.4323265880375
 20
359.1566519237895
 30
0.0
 40
6.4
100
AcDbArc
 50
141.3178125464347
 51
216.3858678167841
  0
ARC
  5
4D6
330
70
100
AcDbEntity
  8
fixing
100
AcDbCircle
 10
251.6825897532253
 20
355.6566519237895
 30
0.0
 40
0.5
100
AcDbArc
 50
216.3858678167841
 51
270.0
  0
LINE
  5
4D7
330
70
100
AcDbEntity
  8
fixing
100
AcDbLine
 10
250.0323265880433
 20
356.4066519237895
 30
0.0
 11
250.8822046070709
 21
355.3443044000123
 31
0.0
  0
ARC
  5
4D8
330
70
100
AcDbEntity
  8
fixing
100
AcDbCircle
 10
258.6177889054233
 20
371.6566519237895
 30
0.0
 40
1.0
100
AcDbArc
 50
221.8103148954797
 51
270.0
  0
ARC
  5
4D9
330
70
100
AcDbEntity
  8
fixing
100
AcDbCircle
 10
257.4997549166728
 20
370.6566519237895
 30
0.0
 40
0.5
100
AcDbArc
 50
41.81031489547966
 51
90.0
  0
LINE
  5
4DA
330
70
100
AcDbEntity
  8
fixing
100
AcDbLine
 10
257.4997549166728
 20
371.1566519237895
 30
0.0
 11
251.2726390117896
 21
371.1566519237895
 31
0.0
  0
ARC
  5
4DB
330
70
100
AcDbEntity
  8
fixing
100
AcDbCircle
 10
251.2726390117896
 20
370.6566519237895
 30
0.0
 40
0.5
100
AcDbArc
 50
90.0
 51
141.3401917455558
  0
ARC
  5
4DC
330
70
100
AcDbEntity
  8
fixing
100
AcDbCircle
 10
251.6323265880346
 20
367.1566519237895
 30
0.0
 40
6.4
100
AcDbArc
 50
321.3178125464347
 51
36.38586781678409
  0
ARC
  5
4DD
330
70
100
AcDbEntity
  8
fixing
100
AcDbCircle
 10
256.3820634228614
 20
370.6566519237895
 30
0.0
 40
0.5
100
AcDbArc
 50
36.38586781678409
 51
90.0
  0
ARC
  5
4DE
330
70
100
AcDbEntity
  8
fixing
100
AcDbCircle
 10
256.4323265880375
 20
367.1566519237895
 30
0.0
 40
6.4
100
AcDbArc
 50
143.6141321832159
 51
218.6821874535652
  0
ARC
  5
4DF
330
70
100
AcDbEntity
  8
fixing
100
AcDbCircle
 10
251.6825897532253
 20
370.6566519237895
 30
0.0
 40
0.5
100
AcDbArc
 50
90.0
 51
143.6141321832159
  0
LINE
  5
4E0
330
70
100
AcDbEntity
  8
fixing
100
AcDbLine
 10
250.0323265880433
 20
369.9066519237895
 30
0.0
 11
250.8822046070709
 21
370.9689994475666
 31
0.0
  0
LINE
  5
4E1
330
70
100
AcDbEntity
  8
fixing
100
AcDbLine
 10
250.0323265880433
 20
233.1566519237895
 30
0.0
 11
250.0323265880433
 21
213.1566519237895
 31
0.0
  0
LINE
  5
4E2
330
70
100
AcDbEntity
  8
fixing
100
AcDbLine
 10
258.0323265880434
 20
230.8459523031343
 30
0.0
 11
258.0323265880434
 21
215.4673515444447
 31
0.0
  0
LINE
  5
4E3
330
70
100
AcDbEntity
  8
fixing
100
AcDbLine
 10
250.0323265880433
 20
233.1566519237895
 30
0.0
 11
248.0323265880433
 21
233.1566519237895
 31
0.0
  0
LINE
  5
4E4
330
70
100
AcDbEntity
  8
fixing
100
AcDbLine
 10
248.0323265880433
 20
233.1566519237895
 30
0.0
 11
248.0323265880433
 21
213.1566519237895
 31
0.0
  0
LINE
  5
4E5
330
70
100
AcDbEntity
  8
fixing
100
AcDbLine
 10
248.0323265880433
 20
213.1566519237895
 30
0.0
 11
250.0323265880433
 21
213.1566519237895
 31
0.0
  0
ARC
  5
4E6
330
70
100
AcDbEntity
  8
fixing
100
AcDbCircle
 10
260.5323265880433
 20
223.1566519237895
 30
0.0
 40
7.5
100
AcDbArc
 50
270.0
 51
90.0
  0
LINE
  5
4E7
330
70
100
AcDbEntity
  8
fixing
100
AcDbLine
 10
260.5323265880433
 20
230.6566519237895
 30
0.0
 11
258.6177889054233
 21
230.6566519237895
 31
0.0
  0
LINE
  5
4E8
330
70
100
AcDbEntity
  8
fixing
100
AcDbLine
 10
260.5323265880433
 20
215.6566519237895
 30
0.0
 11
258.6177889054233
 21
215.6566519237895
 31
0.0
  0
ARC
  5
4E9
330
70
100
AcDbEntity
  8
fixing
100
AcDbCircle
 10
258.6177889054233
 20
214.6566519237895
 30
0.0
 40
1.0
100
AcDbArc
 50
90.0
 51
138.1896851045203
  0
ARC
  5
4EA
330
70
100
AcDbEntity
  8
fixing
100
AcDbCircle
 10
257.4997549166728
 20
215.6566519237895
 30
0.0
 40
0.5
100
AcDbArc
 50
270.0
 51
318.1896851045203
  0
LINE
  5
4EB
330
70
100
AcDbEntity
  8
fixing
100
AcDbLine
 10
257.4997549166728
 20
215.1566519237895
 30
0.0
 11
251.2726390117896
 21
215.1566519237895
 31
0.0
  0
ARC
  5
4EC
330
70
100
AcDbEntity
  8
fixing
100
AcDbCircle
 10
251.2726390117896
 20
215.6566519237895
 30
0.0
 40
0.5
100
AcDbArc
 50
218.6598082544136
 51
270.0
  0
LINE
  5
4ED
330
70
100
AcDbEntity
  8
fixing
100
AcDbLine
 10
256.6283249867556
 20
223.1566519237895
 30
0.0
 11
251.4363281893166
 21
223.1566519237895
 31
0.0
  0
ARC
  5
4EE
330
70
100
AcDbEntity
  8
fixing
100
AcDbCircle
 10
251.6323265880346
 20
219.1566519237895
 30
0.0
 40
6.4
100
AcDbArc
 50
323.6141321832159
 51
38.6821874535653
  0
ARC
  5
4EF
330
70
100
AcDbEntity
  8
fixing
100
AcDbCircle
 10
256.3820634228614
 20
215.6566519237895
 30
0.0
 40
0.5
100
AcDbArc
 50
270.0
 51
323.6141321832159
  0
ARC
  5
4F0
330
70
100
AcDbEntity
  8
fixing
100
AcDbCircle
 10
256.4323265880375
 20
219.1566519237895
 30
0.0
 40
6.4
100
AcDbArc
 50
141.3178125464347
 51
216.3858678167841
  0
ARC
  5
4F1
330
70
100
AcDbEntity
  8
fixing
100
AcDbCircle
 10
251.6825897532253
 20
215.6566519237895
 30
0.0
 40
0.5
100
AcDbArc
 50
216.3858678167841
 51
270.0
  0
LINE
  5
4F2
330
70
100
AcDbEntity
  8
fixing
100
AcDbLine
 10
250.0323265880433
 20
216.4066519237895
 30
0.0
 11
250.8822046070709
 21
215.3443044000123
 31
0.0
  0
ARC
  5
4F3
330
70
100
AcDbEntity
  8
fixing
100
AcDbCircle
 10
258.6177889054233
 20
231.6566519237895
 30
0.0
 40
1.0
100
AcDbArc
 50
221.8103148954797
 51
270.0
  0
ARC
  5
4F4
330
70
100
AcDbEntity
  8
fixing
100
AcDbCircle
 10
257.4997549166728
 20
230.6566519237895
 30
0.0
 40
0.5
100
AcDbArc
 50
41.81031489547966
 51
90.0
  0
LINE
  5
4F5
330
70
100
AcDbEntity
  8
fixing
100
AcDbLine
 10
257.4997549166728
 20
231.1566519237895
 30
0.0
 11
251.2726390117896
 21
231.1566519237895
 31
0.0
  0
ARC
  5
4F6
330
70
100
AcDbEntity
  8
fixing
100
AcDbCircle
 10
251.2726390117896
 20
230.6566519237895
 30
0.0
 40
0.5
100
AcDbArc
 50
90.0
 51
141.3401917455558
  0
ARC
  5
4F7
330
70
100
AcDbEntity
  8
fixing
100
AcDbCircle
 10
251.6323265880346
 20
227.1566519237895
 30
0.0
 40
6.4
100
AcDbArc
 50
321.3178125464347
 51
36.38586781678409
  0
ARC
  5
4F8
330
70
100
AcDbEntity
  8
fixing
100
AcDbCircle
 10
256.3820634228614
 20
230.6566519237895
 30
0.0
 40
0.5
100
AcDbArc
 50
36.38586781678409
 51
90.0
  0
ARC
  5
4F9
330
70
100
AcDbEntity
  8
fixing
100
AcDbCircle
 10
256.4323265880375
 20
227.1566519237895
 30
0.0
 40
6.4
100
AcDbArc
 50
143.6141321832159
 51
218.6821874535652
  0
ARC
  5
4FA
330
70
100
AcDbEntity
  8
fixing
100
AcDbCircle
 10
251.6825897532253
 20
230.6566519237895
 30
0.0
 40
0.5
100
AcDbArc
 50
90.0
 51
143.6141321832159
  0
LINE
  5
4FB
330
70
100
AcDbEntity
  8
fixing
100
AcDbLine
 10
250.0323265880433
 20
229.9066519237895
 30
0.0
 11
250.8822046070709
 21
230.9689994475666
 31
0.0
  0
LINE
  5
4FC
330
70
100
AcDbEntity
  8
Post
100
AcDbLine
 10
197.2323265880404
 20
201.15682055262
 30
0.0
 11
248.0323265880433
 21
201.15682055262
 31
0.0
  0
LINE
  5
4FD
330
70
100
AcDbEntity
  8
0
100
AcDbLine
 10
150.7323265880404
 20
198.1568205526673
 30
0.0
 11
150.7323265880404
 21
388.1566519237895
 31
0.0
  0
LINE
  5
4FE
330
70
100
AcDbEntity
  8
0
100
AcDbLine
 10
105.7322886465263
 20
198.1566519237894
 30
0.0
 11
105.7323265880404
 21
388.1566519237895
 31
0.0
  0
LINE
  5
4FF
330
70
100
AcDbEntity
  8
decking
100
AcDbLine
 10
195.7323265880404
 20
406.1566519237894
 30
0.0
 11
70.06478992155462
 21
406.1566519237894
 31
0.0
  0
LINE
  5
500
330
70
100
AcDbEntity
  8
ctrl
 48
0.25
100
AcDbLine
 10
269.3809554609034
 20
223.1566519237895
 30
0.0
 11
84.23232658804044
 21
223.1566519237895
 31
0.0
  0
LINE
  5
501
330
70
100
AcDbEntity
  8
ctrl
 48
0.25
100
AcDbLine
 10
271.8991385040572
 20
363.1566519237895
 30
0.0
 11
84.23232658804044
 21
363.1566519237895
 31
0.0
  0
LINE
  5
502
330
70
100
AcDbEntity
  8
fixing
100
AcDbLine
 10
95.73232658804045
 20
368.1566519237895
 30
0.0
 11
87.72625099016295
 21
368.1566519237895
 31
0.0
  0
LINE
  5
503
330
70
100
AcDbEntity
  8
fixing
100
AcDbLine
 10
103.7323265880404
 20
388.1566519237895
 30
0.0
 11
103.7323265880404
 21
338.1566519237895
 31
0.0
  0
LINE
  5
504
330
70
100
AcDbEntity
  8
fixing
100
AcDbLine
 10
95.73232658804045
 20
371.1566519237895
 30
0.0
 11
95.73232658804045
 21
355.1566519237895
 31
0.0
  0
LINE
  5
505
330
70
100
AcDbEntity
  8
fixing
100
AcDbLine
 10
103.7323265880404
 20
388.1566519237895
 30
0.0
 11
105.7323265880404
 21
388.1566519237895
 31
0.0
  0
LINE
  5
506
330
70
100
AcDbEntity
  8
fixing
100
AcDbLine
 10
105.7323265880404
 20
338.1566519237895
 30
0.0
 11
103.7323265880404
 21
338.1566519237895
 31
0.0
  0
LINE
  5
507
330
70
100
AcDbEntity
  8
fixing
100
AcDbLine
 10
95.73232658804045
 20
355.1566519237895
 30
0.0
 11
103.7323265880404
 21
355.1566519237895
 31
0.0
  0
LINE
  5
508
330
70
100
AcDbEntity
  8
fixing
100
AcDbLine
 10
97.1363281893282
 20
363.1566519237895
 30
0.0
 11
103.7323265880404
 21
363.1566519237895
 31
0.0
  0
ARC
  5
509
330
70
100
AcDbEntity
  8
fixing
100
AcDbCircle
 10
102.1323265880492
 20
359.1566519237895
 30
0.0
 40
6.4
100
AcDbArc
 50
141.3178125461011
 51
216.3858678167841
  0
ARC
  5
50A
330
70
100
AcDbEntity
  8
fixing
100
AcDbCircle
 10
97.38258975322242
 20
355.6566519237895
 30
0.0
 40
0.5
100
AcDbArc
 50
216.3858678167841
 51
270.0
  0
LINE
  5
50B
330
70
100
AcDbEntity
  8
fixing
100
AcDbLine
 10
95.73232658804045
 20
371.1566519237895
 30
0.0
 11
103.7323265880404
 21
371.1566519237895
 31
0.0
  0
ARC
  5
50C
330
70
100
AcDbEntity
  8
fixing
100
AcDbCircle
 10
102.1323265880492
 20
367.1566519237895
 30
0.0
 40
6.4
100
AcDbArc
 50
143.6141321832159
 51
218.6821874538988
  0
ARC
  5
50D
330
70
100
AcDbEntity
  8
fixing
100
AcDbCircle
 10
97.38258975322242
 20
370.6566519237895
 30
0.0
 40
0.5
100
AcDbArc
 50
90.0
 51
143.6141321832159
  0
LINE
  5
50E
330
70
100
AcDbEntity
  8
fixing
100
AcDbLine
 10
95.73232658804045
 20
367.3566519237902
 30
0.0
 11
86.92625099016003
 21
367.3566519237902
 31
0.0
  0
LINE
  5
50F
330
70
100
AcDbEntity
  8
fixing
100
AcDbLine
 10
95.73232658804045
 20
358.9566519237887
 30
0.0
 11
86.92625099016003
 21
358.9566519237887
 31
0.0
  0
LINE
  5
510
330
70
100
AcDbEntity
  8
fixing
100
AcDbLine
 10
95.73232658804045
 20
358.1566519237895
 30
0.0
 11
87.72625099016295
 21
358.1566519237895
 31
0.0
  0
LINE
  5
511
330
70
100
AcDbEntity
  8
fixing
100
AcDbLine
 10
87.72625099016295
 20
368.1566519237895
 30
0.0
 11
87.72625099016295
 21
358.1566519237895
 31
0.0
  0
LINE
  5
512
330
70
100
AcDbEntity
  8
fixing
100
AcDbLine
 10
86.92625099016003
 20
367.3566519237902
 30
0.0
 11
86.92625099016003
 21
358.9566519237887
 31
0.0
  0
LINE
  5
513
330
70
100
AcDbEntity
  8
fixing
100
AcDbLine
 10
86.92625099016003
 20
367.3566519237902
 30
0.0
 11
87.72625099016295
 21
368.1566519237895
 31
0.0
  0
LINE
  5
514
330
70
100
AcDbEntity
  8
fixing
100
AcDbLine
 10
86.92625099016003
 20
358.9566519237887
 30
0.0
 11
87.72625099016295
 21
358.1566519237895
 31
0.0
  0
LINE
  5
515
330
70
100
AcDbEntity
  8
fixing
100
AcDbLine
 10
95.73232658804045
 20
228.1566519237895
 30
0.0
 11
87.72625099016295
 21
228.1566519237895
 31
0.0
  0
LINE
  5
516
330
70
100
AcDbEntity
  8
fixing
100
AcDbLine
 10
103.7323265880404
 20
248.1566519237895
 30
0.0
 11
103.7323265880404
 21
198.1566519237894
 31
0.0
  0
LINE
  5
517
330
70
100
AcDbEntity
  8
fixing
100
AcDbLine
 10
95.73232658804045
 20
231.1566519237895
 30
0.0
 11
95.73232658804045
 21
215.1566519237895
 31
0.0
  0
LINE
  5
518
330
70
100
AcDbEntity
  8
fixing
100
AcDbLine
 10
103.7323265880404
 20
248.1566519237895
 30
0.0
 11
105.7323265880404
 21
248.1566519237895
 31
0.0
  0
LINE
  5
519
102
{ACAD_REACTORS
330
561
102
}
330
70
100
AcDbEntity
  8
fixing
100
AcDbLine
 10
105.7323265880404
 20
198.1566519237894
 30
0.0
 11
103.7323265880404
 21
198.1566519237894
 31
0.0
  0
LINE
  5
51A
330
70
100
AcDbEntity
  8
fixing
100
AcDbLine
 10
95.73232658804045
 20
215.1566519237895
 30
0.0
 11
103.7323265880404
 21
215.1566519237895
 31
0.0
  0
LINE
  5
51B
330
70
100
AcDbEntity
  8
fixing
100
AcDbLine
 10
97.1363281893282
 20
223.1566519237895
 30
0.0
 11
103.7323265880404
 21
223.1566519237895
 31
0.0
  0
ARC
  5
51C
330
70
100
AcDbEntity
  8
fixing
100
AcDbCircle
 10
102.1323265880492
 20
219.1566519237895
 30
0.0
 40
6.4
100
AcDbArc
 50
141.3178125461011
 51
216.3858678167841
  0
ARC
  5
51D
330
70
100
AcDbEntity
  8
fixing
100
AcDbCircle
 10
97.38258975322242
 20
215.6566519237895
 30
0.0
 40
0.5
100
AcDbArc
 50
216.3858678167841
 51
270.0
  0
LINE
  5
51E
330
70
100
AcDbEntity
  8
fixing
100
AcDbLine
 10
95.73232658804045
 20
231.1566519237895
 30
0.0
 11
103.7323265880404
 21
231.1566519237895
 31
0.0
  0
ARC
  5
51F
330
70
100
AcDbEntity
  8
fixing
100
AcDbCircle
 10
102.1323265880492
 20
227.1566519237895
 30
0.0
 40
6.4
100
AcDbArc
 50
143.6141321832159
 51
218.6821874538988
  0
ARC
  5
520
330
70
100
AcDbEntity
  8
fixing
100
AcDbCircle
 10
97.38258975322242
 20
230.6566519237895
 30
0.0
 40
0.5
100
AcDbArc
 50
90.0
 51
143.6141321832159
  0
LINE
  5
521
330
70
100
AcDbEntity
  8
fixing
100
AcDbLine
 10
95.73232658804045
 20
227.3566519237902
 30
0.0
 11
86.92625099016003
 21
227.3566519237902
 31
0.0
  0
LINE
  5
522
330
70
100
AcDbEntity
  8
fixing
100
AcDbLine
 10
95.73232658804045
 20
218.9566519237887
 30
0.0
 11
86.92625099016003
 21
218.9566519237887
 31
0.0
  0
LINE
  5
523
330
70
100
AcDbEntity
  8
fixing
100
AcDbLine
 10
95.73232658804045
 20
218.1566519237895
 30
0.0
 11
87.72625099016295
 21
218.1566519237895
 31
0.0
  0
LINE
  5
524
330
70
100
AcDbEntity
  8
fixing
100
AcDbLine
 10
87.72625099016295
 20
228.1566519237895
 30
0.0
 11
87.72625099016295
 21
218.1566519237895
 31
0.0
  0
LINE
  5
525
330
70
100
AcDbEntity
  8
fixing
100
AcDbLine
 10
86.92625099016003
 20
227.3566519237902
 30
0.0
 11
86.92625099016003
 21
218.9566519237887
 31
0.0
  0
LINE
  5
526
330
70
100
AcDbEntity
  8
fixing
100
AcDbLine
 10
86.92625099016003
 20
227.3566519237902
 30
0.0
 11
87.72625099016295
 21
228.1566519237895
 31
0.0
  0
LINE
  5
527
330
70
100
AcDbEntity
  8
fixing
100
AcDbLine
 10
86.92625099016003
 20
218.9566519237887
 30
0.0
 11
87.72625099016295
 21
218.1566519237895
 31
0.0
  0
LINE
  5
528
330
70
100
AcDbEntity
  8
0
100
AcDbLine
 10
195.7323265880404
 20
388.1566519237895
 30
0.0
 11
195.7323265880404
 21
198.15682055262
 31
0.0
  0
LINE
  5
529
330
70
100
AcDbEntity
  8
fixing
  6
DASHED
 48
0.3
370
     5
100
AcDbLine
 10
248.0323265880579
 20
358.1566519237895
 30
0.0
 11
105.7323265880404
 21
358.1566519237895
 31
0.0
  0
LINE
  5
52A
330
70
100
AcDbEntity
  8
fixing
  6
DASHED
 48
0.3
370
     5
100
AcDbLine
 10
248.0323265880579
 20
358.9566519237887
 30
0.0
 11
105.7323265880404
 21
358.9566519237887
 31
0.0
  0
LINE
  5
52B
330
70
100
AcDbEntity
  8
fixing
  6
DASHED
 48
0.3
370
     5
100
AcDbLine
 10
248.0323265880579
 20
367.3566519237902
 30
0.0
 11
105.7323265880404
 21
367.3566519237902
 31
0.0
  0
LINE
  5
52C
330
70
100
AcDbEntity
  8
fixing
  6
DASHED
 48
0.3
370
     5
100
AcDbLine
 10
248.0323265880579
 20
368.1566519237895
 30
0.0
 11
105.7323265880404
 21
368.1566519237895
 31
0.0
  0
LINE
  5
52D
330
70
100
AcDbEntity
  8
fixing
100
AcDbLine
 10
105.7323265880404
 20
358.1566519237895
 30
0.0
 11
105.7323265880404
 21
368.1566519237895
 31
0.0
  0
LINE
  5
52E
330
70
100
AcDbEntity
  8
fixing
  6
DASHED
 48
0.3
370
     5
100
AcDbLine
 10
248.0323265880579
 20
218.1566519237895
 30
0.0
 11
105.7323265880404
 21
218.1566519237895
 31
0.0
  0
LINE
  5
52F
330
70
100
AcDbEntity
  8
fixing
  6
DASHED
 48
0.3
370
     5
100
AcDbLine
 10
248.0323265880579
 20
218.9566519237887
 30
0.0
 11
105.7323265880404
 21
218.9566519237906
 31
0.0
  0
LINE
  5
530
330
70
100
AcDbEntity
  8
fixing
  6
DASHED
 48
0.3
370
     5
100
AcDbLine
 10
248.0323265880579
 20
227.3566519237902
 30
0.0
 11
105.7323265880404
 21
227.3566519237902
 31
0.0
  0
LINE
  5
531
330
70
100
AcDbEntity
  8
fixing
  6
DASHED
 48
0.3
370
     5
100
AcDbLine
 10
248.0323265880579
 20
228.1566519237895
 30
0.0
 11
105.7323265880404
 21
228.1566519237895
 31
0.0
  0
LINE
  5
532
330
70
100
AcDbEntity
  8
dim
100
AcDbLine
 10
281.2779513826681
 20
285.5847725725398
 30
0.0
 11
232.4522678434296
 21
285.5847725725398
 31
0.0
  0
LINE
  5
533
330
70
100
AcDbEntity
  8
shade 8
100
AcDbLine
 10
105.7323265880404
 20
198.15682055262
 30
0.0
 11
110.4691329588822
 21
218.1566519237895
 31
0.0
  0
LINE
  5
534
330
70
100
AcDbEntity
  8
shade 8
100
AcDbLine
 10
112.8375561135471
 20
228.1566519237895
 30
0.0
 11
143.6270571240602
 21
358.1566519237895
 31
0.0
  0
LINE
  5
535
330
70
100
AcDbEntity
  8
shade 8
100
AcDbLine
 10
145.9954802787251
 20
368.1566519237895
 30
0.0
 11
150.7323265880404
 21
388.1566519237895
 31
0.0
  0
LINE
  5
536
330
70
100
AcDbEntity
  8
shade 8
100
AcDbLine
 10
150.7323265880404
 20
198.1568205526673
 30
0.0
 11
145.9955202171986
 21
218.1566519237895
 31
0.0
  0
LINE
  5
537
330
70
100
AcDbEntity
  8
shade 8
100
AcDbLine
 10
143.6270970625337
 20
228.1566519237895
 30
0.0
 11
112.8375960520061
 21
358.1566519237895
 31
0.0
  0
LINE
  5
538
330
70
100
AcDbEntity
  8
shade 8
100
AcDbLine
 10
110.4691728973412
 20
368.1566519237895
 30
0.0
 11
105.7323265880404
 21
388.1566519237895
 31
0.0
  0
LINE
  5
539
330
70
100
AcDbEntity
  8
shade 8
100
AcDbLine
 10
150.7323265880404
 20
198.1568205526673
 30
0.0
 11
155.4691329588968
 21
218.1566519237895
 31
0.0
  0
LINE
  5
53A
330
70
100
AcDbEntity
  8
shade 8
100
AcDbLine
 10
157.8375561135617
 20
228.1566519237895
 30
0.0
 11
188.6270571240748
 21
358.1566519237895
 31
0.0
  0
LINE
  5
53B
330
70
100
AcDbEntity
  8
shade 8
100
AcDbLine
 10
190.9954802787397
 20
368.1566519237895
 30
0.0
 11
195.7323265880404
 21
388.1566519238095
 31
0.0
  0
LINE
  5
53C
330
70
100
AcDbEntity
  8
shade 8
100
AcDbLine
 10
195.7323265880404
 20
198.15682055262
 30
0.0
 11
190.9955202171841
 21
218.1566519237895
 31
0.0
  0
LINE
  5
53D
330
70
100
AcDbEntity
  8
shade 8
100
AcDbLine
 10
188.6270970625191
 20
228.1566519237895
 30
0.0
 11
157.8375960520061
 21
358.1566519237895
 31
0.0
  0
LINE
  5
53E
330
70
100
AcDbEntity
  8
shade 8
100
AcDbLine
 10
155.4691728973266
 20
368.1566519237895
 30
0.0
 11
150.7323265880404
 21
388.1566519237895
 31
0.0
  0
HATCH
  5
53F
330
70
100
AcDbEntity
  8
shade 8
100
AcDbHatch
 10
0.0
 20
0.0
 30
0.0
210
0.0
220
0.0
230
1.0
  2
ANSI31
 70
     0
 71
     0
 91
       10
 92
        7
 72
     0
 73
     1
 93
        4
 10
200.232326588055
 20
358.1566519237895
 10
197.2323265880695
 20
358.1566519237895
 10
197.232326588055
 20
356.5566519237891
 10
200.2323265880696
 20
356.5566519237891
 97
        0
 92
        7
 72
     0
 73
     1
 93
        4
 10
202.2306652123225
 20
358.1566519237895
 10
200.2323265880696
 20
358.1566519237895
 10
200.232326588055
 20
356.5566519237891
 10
202.2306652123225
 20
356.5566519237891
 97
        0
 92
        7
 72
     0
 73
     1
 93
        4
 10
204.2265333379764
 20
358.1566519237895
 10
202.2306652123225
 20
358.1566519237895
 10
202.2306652123225
 20
356.5566519237891
 10
204.226533337991
 20
356.5566519237891
 97
        0
 92
        7
 72
     0
 73
     1
 93
        4
 10
218.975336925505
 20
358.1566519237895
 10
204.2265333379764
 20
358.1566519237895
 10
204.226533337991
 20
356.5566519237891
 10
218.975336925505
 20
356.5566519237891
 97
        0
 92
        7
 72
     0
 73
     1
 93
        4
 10
222.6269368977373
 20
358.1566519237895
 10
218.975336925505
 20
358.1566519237895
 10
218.975336925505
 20
356.5566519237891
 10
222.6269368977373
 20
356.5566519237891
 97
        0
 92
        7
 72
     0
 73
     1
 93
        4
 10
226.2679391642887
 20
358.1566519237895
 10
222.6269368977373
 20
358.1566519237895
 10
222.6269368977373
 20
356.5566519237891
 10
226.2679391642887
 20
356.5566519237891
 97
        0
 92
        7
 72
     0
 73
     1
 93
        4
 10
241.0419296171167
 20
358.1566519237895
 10
226.2679391643033
 20
358.1566519237895
 10
226.2679391642887
 20
356.5566519237891
 10
241.0419296171167
 20
356.5566519237891
 97
        0
 92
        7
 72
     0
 73
     1
 93
        4
 10
243.030657256284
 20
358.1566519237895
 10
241.0419296171312
 20
358.1566519237895
 10
241.0419296171312
 20
356.5566519237891
 10
243.030657256284
 20
356.5566519237891
 97
        0
 92
        7
 72
     0
 73
     1
 93
        4
 10
245.0323265880579
 20
358.1566519237895
 10
243.0306572562986
 20
358.1566519237895
 10
243.0306572562986
 20
356.5566519237891
 10
245.0323265880288
 20
356.5566519237891
 97
        0
 92
        7
 72
     0
 73
     1
 93
        4
 10
248.0323265880288
 20
358.1566519237895
 10
245.0323265880434
 20
358.1566519237895
 10
245.0323265880579
 20
356.5566519237891
 10
248.0323265880579
 20
356.5566519237891
 97
        0
 75
     0
 76
     1
 52
0.0
 41
0.75
 77
     0
 78
     1
 53
45.0
 43
-69786.6942487635
 44
-504.1512703145161
 45
-1.683798022700465
 46
1.683798022700466
 79
     0
 47
0.0445768482254879
 98
       10
 10
199.8716440798307
 20
357.7990875699143
 10
200.9419481343066
 20
357.665348646231
 10
202.5028369051288
 20
357.665348646231
 10
206.5611018030613
 20
357.5316284771288
 10
220.9657539931213
 20
357.4870488359011
 10
224.3996939868666
 20
357.5762081183566
 10
228.6363811490883
 20
357.7545079286865
 10
241.7923452755931
 20
357.6207690050032
 10
243.8883860736678
 20
357.4870488359011
 10
245.5384477214248
 20
357.4870488359011
  0
LWPOLYLINE
  5
540
330
70
100
AcDbEntity
  8
shade 8
  6
DASHED
 48
0.25
100
AcDbPolyline
 90
        4
 70
     1
 43
0.0
 10
197.232326588055
 20
356.5566519237891
 10
248.0323265880579
 20
356.5566519237891
 10
248.0323265880433
 20
358.1566519237895
 10
197.232326588055
 20
358.1566519237895
  0
HATCH
  5
541
330
70
100
AcDbEntity
  8
shade 8
100
AcDbHatch
 10
0.0
 20
0.0
 30
0.0
210
0.0
220
0.0
230
1.0
  2
ANSI31
 70
     0
 71
     0
 91
       10
 92
        7
 72
     0
 73
     1
 93
        4
 10
200.2323265880404
 20
369.7566519237899
 10
197.232326588055
 20
369.7566519237899
 10
197.2323265880404
 20
368.1566519237895
 10
200.232326588055
 20
368.1566519237895
 97
        0
 92
        7
 72
     0
 73
     1
 93
        4
 10
202.2306652123079
 20
369.7566519237899
 10
200.232326588055
 20
369.7566519237899
 10
200.2323265880404
 20
368.1566519237895
 10
202.2306652123079
 20
368.1566519237895
 97
        0
 92
        7
 72
     0
 73
     1
 93
        4
 10
204.2265333379619
 20
369.7566519237899
 10
202.2306652123079
 20
369.7566519237899
 10
202.2306652123079
 20
368.1566519237895
 10
204.2265333379764
 20
368.1566519237895
 97
        0
 92
        7
 72
     0
 73
     1
 93
        4
 10
218.9753369254904
 20
369.7566519237899
 10
204.2265333379619
 20
369.7566519237899
 10
204.2265333379764
 20
368.1566519237895
 10
218.9753369254904
 20
368.1566519237895
 97
        0
 92
        7
 72
     0
 73
     1
 93
        4
 10
222.6269368977228
 20
369.7566519237899
 10
218.9753369254904
 20
369.7566519237899
 10
218.9753369254904
 20
368.1566519237895
 10
222.6269368977228
 20
368.1566519237895
 97
        0
 92
        7
 72
     0
 73
     1
 93
        4
 10
226.2679391642741
 20
369.7566519237899
 10
222.6269368977228
 20
369.7566519237899
 10
222.6269368977228
 20
368.1566519237895
 10
226.2679391642741
 20
368.1566519237895
 97
        0
 92
        7
 72
     0
 73
     1
 93
        4
 10
241.0419296171022
 20
369.7566519237899
 10
226.2679391642887
 20
369.7566519237899
 10
226.2679391642741
 20
368.1566519237895
 10
241.0419296171022
 20
368.1566519237895
 97
        0
 92
        7
 72
     0
 73
     1
 93
        4
 10
243.0306572562695
 20
369.7566519237899
 10
241.0419296171167
 20
369.7566519237899
 10
241.0419296171167
 20
368.1566519237895
 10
243.0306572562695
 20
368.1566519237895
 97
        0
 92
        7
 72
     0
 73
     1
 93
        4
 10
245.0323265880434
 20
369.7566519237899
 10
243.030657256284
 20
369.7566519237899
 10
243.030657256284
 20
368.1566519237895
 10
245.0323265880143
 20
368.1566519237895
 97
        0
 92
        7
 72
     0
 73
     1
 93
        4
 10
248.0323265880143
 20
369.7566519237899
 10
245.0323265880288
 20
369.7566519237899
 10
245.0323265880434
 20
368.1566519237895
 10
248.0323265880433
 20
368.1566519237895
 97
        0
 75
     0
 76
     1
 52
0.0
 41
0.75
 77
     0
 78
     1
 53
45.0
 43
-69786.69424876351
 44
-492.5512703145176
 45
-1.683798022700465
 46
1.683798022700466
 79
     0
 47
0.0445768482254879
 98
       10
 10
199.8716440798162
 20
369.3990875699128
 10
200.941948134292
 20
369.2653486462295
 10
202.5028369051142
 20
369.2653486462295
 10
206.5611018030468
 20
369.1316284771274
 10
220.9657539931068
 20
369.0870488358996
 10
224.3996939868521
 20
369.1762081183551
 10
228.6363811490737
 20
369.3545079286851
 10
241.7923452755786
 20
369.2207690050018
 10
243.8883860736532
 20
369.0870488358996
 10
245.5384477214102
 20
369.0870488358996
  0
LWPOLYLINE
  5
542
330
70
100
AcDbEntity
  8
shade 8
  6
DASHED
 48
0.25
100
AcDbPolyline
 90
        4
 70
     1
 43
0.0
 10
197.2323265880404
 20
368.1566519237895
 10
248.0323265880433
 20
368.1566519237895
 10
248.0323265880288
 20
369.7566519237899
 10
197.2323265880404
 20
369.7566519237899
  0
HATCH
  5
543
330
70
100
AcDbEntity
  8
shade 8
100
AcDbHatch
 10
0.0
 20
0.0
 30
0.0
210
0.0
220
0.0
230
1.0
  2
ANSI31
 70
     0
 71
     0
 91
       10
 92
        7
 72
     0
 73
     1
 93
        4
 10
200.232326588055
 20
218.1566519237895
 10
197.2323265880695
 20
218.1566519237895
 10
197.232326588055
 20
216.5566519237891
 10
200.2323265880696
 20
216.5566519237891
 97
        0
 92
        7
 72
     0
 73
     1
 93
        4
 10
202.2306652123225
 20
218.1566519237895
 10
200.2323265880696
 20
218.1566519237895
 10
200.232326588055
 20
216.5566519237891
 10
202.2306652123225
 20
216.5566519237891
 97
        0
 92
        7
 72
     0
 73
     1
 93
        4
 10
204.2265333379764
 20
218.1566519237895
 10
202.2306652123225
 20
218.1566519237895
 10
202.2306652123225
 20
216.5566519237891
 10
204.226533337991
 20
216.5566519237891
 97
        0
 92
        7
 72
     0
 73
     1
 93
        4
 10
218.975336925505
 20
218.1566519237895
 10
204.2265333379764
 20
218.1566519237895
 10
204.226533337991
 20
216.5566519237891
 10
218.975336925505
 20
216.5566519237891
 97
        0
 92
        7
 72
     0
 73
     1
 93
        4
 10
222.6269368977373
 20
218.1566519237895
 10
218.975336925505
 20
218.1566519237895
 10
218.975336925505
 20
216.5566519237891
 10
222.6269368977373
 20
216.5566519237891
 97
        0
 92
        7
 72
     0
 73
     1
 93
        4
 10
226.2679391642887
 20
218.1566519237895
 10
222.6269368977373
 20
218.1566519237895
 10
222.6269368977373
 20
216.5566519237891
 10
226.2679391642887
 20
216.5566519237891
 97
        0
 92
        7
 72
     0
 73
     1
 93
        4
 10
241.0419296171167
 20
218.1566519237895
 10
226.2679391643033
 20
218.1566519237895
 10
226.2679391642887
 20
216.5566519237891
 10
241.0419296171167
 20
216.5566519237891
 97
        0
 92
        7
 72
     0
 73
     1
 93
        4
 10
243.030657256284
 20
218.1566519237895
 10
241.0419296171312
 20
218.1566519237895
 10
241.0419296171312
 20
216.5566519237891
 10
243.030657256284
 20
216.5566519237891
 97
        0
 92
        7
 72
     0
 73
     1
 93
        4
 10
245.0323265880579
 20
218.1566519237895
 10
243.0306572562986
 20
218.1566519237895
 10
243.0306572562986
 20
216.5566519237891
 10
245.0323265880288
 20
216.5566519237891
 97
        0
 92
        7
 72
     0
 73
     1
 93
        4
 10
248.0323265880288
 20
218.1566519237895
 10
245.0323265880434
 20
218.1566519237895
 10
245.0323265880579
 20
216.5566519237891
 10
248.0323265880579
 20
216.5566519237891
 97
        0
 75
     0
 76
     1
 52
0.0
 41
0.75
 77
     0
 78
     1
 53
45.0
 43
-69786.6942487635
 44
-644.1512703145161
 45
-1.683798022700465
 46
1.683798022700466
 79
     0
 47
0.0445768482254879
 98
       10
 10
199.8716440798307
 20
217.7990875699143
 10
200.9419481343066
 20
217.665348646231
 10
202.5028369051288
 20
217.665348646231
 10
206.5611018030613
 20
217.5316284771288
 10
220.9657539931213
 20
217.4870488359011
 10
224.3996939868666
 20
217.5762081183566
 10
228.6363811490883
 20
217.7545079286865
 10
241.7923452755931
 20
217.6207690050032
 10
243.8883860736678
 20
217.4870488359011
 10
245.5384477214248
 20
217.4870488359011
  0
LWPOLYLINE
  5
544
330
70
100
AcDbEntity
  8
shade 8
  6
DASHED
 48
0.25
100
AcDbPolyline
 90
        4
 70
     1
 43
0.0
 10
197.232326588055
 20
216.5566519237891
 10
248.0323265880579
 20
216.5566519237891
 10
248.0323265880433
 20
218.1566519237895
 10
197.232326588055
 20
218.1566519237895
  0
HATCH
  5
545
330
70
100
AcDbEntity
  8
shade 8
100
AcDbHatch
 10
0.0
 20
0.0
 30
0.0
210
0.0
220
0.0
230
1.0
  2
ANSI31
 70
     0
 71
     0
 91
       10
 92
        7
 72
     0
 73
     1
 93
        4
 10
200.2323265880404
 20
229.7566519237898
 10
197.232326588055
 20
229.7566519237898
 10
197.2323265880404
 20
228.1566519237895
 10
200.232326588055
 20
228.1566519237895
 97
        0
 92
        7
 72
     0
 73
     1
 93
        4
 10
202.2306652123079
 20
229.7566519237898
 10
200.232326588055
 20
229.7566519237898
 10
200.2323265880404
 20
228.1566519237895
 10
202.2306652123079
 20
228.1566519237895
 97
        0
 92
        7
 72
     0
 73
     1
 93
        4
 10
204.2265333379619
 20
229.7566519237898
 10
202.2306652123079
 20
229.7566519237898
 10
202.2306652123079
 20
228.1566519237895
 10
204.2265333379764
 20
228.1566519237895
 97
        0
 92
        7
 72
     0
 73
     1
 93
        4
 10
218.9753369254904
 20
229.7566519237898
 10
204.2265333379619
 20
229.7566519237898
 10
204.2265333379764
 20
228.1566519237895
 10
218.9753369254904
 20
228.1566519237895
 97
        0
 92
        7
 72
     0
 73
     1
 93
        4
 10
222.6269368977228
 20
229.7566519237898
 10
218.9753369254904
 20
229.7566519237898
 10
218.9753369254904
 20
228.1566519237895
 10
222.6269368977228
 20
228.1566519237895
 97
        0
 92
        7
 72
     0
 73
     1
 93
        4
 10
226.2679391642741
 20
229.7566519237898
 10
222.6269368977228
 20
229.7566519237898
 10
222.6269368977228
 20
228.1566519237895
 10
226.2679391642741
 20
228.1566519237895
 97
        0
 92
        7
 72
     0
 73
     1
 93
        4
 10
241.0419296171022
 20
229.7566519237898
 10
226.2679391642887
 20
229.7566519237898
 10
226.2679391642741
 20
228.1566519237895
 10
241.0419296171022
 20
228.1566519237895
 97
        0
 92
        7
 72
     0
 73
     1
 93
        4
 10
243.0306572562695
 20
229.7566519237898
 10
241.0419296171167
 20
229.7566519237898
 10
241.0419296171167
 20
228.1566519237895
 10
243.0306572562695
 20
228.1566519237895
 97
        0
 92
        7
 72
     0
 73
     1
 93
        4
 10
245.0323265880434
 20
229.7566519237898
 10
243.030657256284
 20
229.7566519237898
 10
243.030657256284
 20
228.1566519237895
 10
245.0323265880143
 20
228.1566519237895
 97
        0
 92
        7
 72
     0
 73
     1
 93
        4
 10
248.0323265880143
 20
229.7566519237898
 10
245.0323265880288
 20
229.7566519237898
 10
245.0323265880434
 20
228.1566519237895
 10
248.0323265880433
 20
228.1566519237895
 97
        0
 75
     0
 76
     1
 52
0.0
 41
0.75
 77
     0
 78
     1
 53
45.0
 43
-69786.69424876351
 44
-632.5512703145176
 45
-1.683798022700465
 46
1.683798022700466
 79
     0
 47
0.0445768482254879
 98
       10
 10
199.8716440798162
 20
229.3990875699128
 10
200.941948134292
 20
229.2653486462295
 10
202.5028369051142
 20
229.2653486462295
 10
206.5611018030468
 20
229.1316284771274
 10
220.9657539931068
 20
229.0870488358996
 10
224.3996939868521
 20
229.1762081183551
 10
228.6363811490737
 20
229.354507928685
 10
241.7923452755786
 20
229.2207690050018
 10
243.8883860736532
 20
229.0870488358996
 10
245.5384477214102
 20
229.0870488358996
  0
LWPOLYLINE
  5
546
330
70
100
AcDbEntity
  8
shade 8
  6
DASHED
 48
0.25
100
AcDbPolyline
 90
        4
 70
     1
 43
0.0
 10
195.7323265880404
 20
228.1566519237895
 10
246.5323265880434
 20
228.1566519237895
 10
246.5323265880288
 20
229.7566519237898
 10
195.7323265880404
 20
229.7566519237898
  0
LINE
  5
548
330
70
100
AcDbEntity
  8
fixing
100
AcDbLine
 10
105.7323265880404
 20
388.1566519237895
 30
0.0
 11
105.7323265880404
 21
338.1566519237895
 31
0.0
  0
LINE
  5
549
330
70
100
AcDbEntity
  8
fixing
100
AcDbLine
 10
105.7323265880404
 20
248.1566519237895
 30
0.0
 11
105.7323265880404
 21
198.1566519237894
 31
0.0
  0
HATCH
  5
54A
330
70
100
AcDbEntity
  8
shade 8
100
AcDbHatch
 10
0.0
 20
0.0
 30
0.0
210
0.0
220
0.0
230
1.0
  2
SOLID
 70
     1
 71
     0
 91
        2
 92
        7
 72
     0
 73
     1
 93
        4
 10
195.7323265880404
 20
369.6563845291439
 10
197.2323265880404
 20
369.6563845291439
 10
197.2323265880404
 20
385.6563845291439
 10
195.7323265880404
 20
385.6563845291439
 97
        0
 92
        7
 72
     0
 73
     1
 93
        4
 10
197.2323265880404
 20
356.6563845291439
 10
195.7323265880404
 20
356.6563845291439
 10
195.7323265880404
 20
340.6563845291439
 10
197.2323265880404
 20
340.6563845291439
 97
        0
 75
     1
 76
     1
 47
0.1188044652130884
 98
        2
 10
196.4469057191745
 20
373.7540891621265
 10
196.8036182134674
 20
350.7060258350448
450
        0
451
        0
460
0.0
461
0.0
452
        0
462
1.0
453
        2
463
0.0
 63
     5
421
      255
463
1.0
 63
     2
421
 16776960
470
LINEAR
1001
GradientColor1ACI
1070
     5
1001
GradientColor2ACI
1070
     2
1001
ACAD
1010
0.0
1020
0.0
1030
0.0
  0
LINE
  5
54B
330
70
100
AcDbEntity
  8
baseplate
370
    15
100
AcDbLine
 10
195.7323265880404
 20
340.6563845291439
 30
0.0
 11
195.7323265880404
 21
385.6563845291439
 31
0.0
  0
LINE
  5
54C
330
70
100
AcDbEntity
  8
baseplate
370
    15
100
AcDbLine
 10
195.7323265880404
 20
385.6563845291439
 30
0.0
 11
197.2323265880404
 21
385.6563845291439
 31
0.0
  0
LINE
  5
54D
330
70
100
AcDbEntity
  8
baseplate
370
    15
100
AcDbLine
 10
197.2323265880404
 20
385.6563845291439
 30
0.0
 11
197.2323265880404
 21
340.6563845291439
 31
0.0
  0
LINE
  5
54E
330
70
100
AcDbEntity
  8
baseplate
370
    15
100
AcDbLine
 10
197.2323265880404
 20
340.6563845291439
 30
0.0
 11
195.7323265880404
 21
340.6563845291439
 31
0.0
  0
LINE
  5
54F
330
70
100
AcDbEntity
  8
baseplate
370
    15
100
AcDbLine
 10
197.2323265880404
 20
356.6563845291439
 30
0.0
 11
195.7323265880404
 21
356.6563845291439
 31
0.0
  0
LINE
  5
550
330
70
100
AcDbEntity
  8
baseplate
370
    15
100
AcDbLine
 10
195.7323265880404
 20
369.6563845291439
 30
0.0
 11
197.2323265880404
 21
369.6563845291439
 31
0.0
  0
HATCH
  5
551
330
70
100
AcDbEntity
  8
shade 8
100
AcDbHatch
 10
0.0
 20
0.0
 30
0.0
210
0.0
220
0.0
230
1.0
  2
SOLID
 70
     1
 71
     0
 91
        2
 92
        7
 72
     0
 73
     1
 93
        4
 10
195.7323265880404
 20
229.6563845291457
 10
197.2323265880404
 20
229.6563845291457
 10
197.2323265880404
 20
245.6563845291457
 10
195.7323265880404
 20
245.6563845291457
 97
        0
 92
        7
 72
     0
 73
     1
 93
        4
 10
197.2323265880404
 20
216.6563845291457
 10
195.7323265880404
 20
216.6563845291457
 10
195.7323265880404
 20
200.6563845291457
 10
197.2323265880404
 20
200.6563845291457
 97
        0
 75
     1
 76
     1
 47
0.1188044652130884
 98
        2
 10
196.4469057191745
 20
233.7540891621284
 10
196.8036182134674
 20
210.7060258350466
450
        0
451
        0
460
0.0
461
0.0
452
        0
462
1.0
453
        2
463
0.0
 63
     5
421
      255
463
1.0
 63
     2
421
 16776960
470
LINEAR
1001
GradientColor1ACI
1070
     5
1001
GradientColor2ACI
1070
     2
1001
ACAD
1010
0.0
1020
0.0
1030
0.0
  0
LINE
  5
552
330
70
100
AcDbEntity
  8
baseplate
370
    15
100
AcDbLine
 10
195.7323265880404
 20
200.6563845291457
 30
0.0
 11
195.7323265880404
 21
245.6563845291457
 31
0.0
  0
LINE
  5
553
330
70
100
AcDbEntity
  8
baseplate
370
    15
100
AcDbLine
 10
195.7323265880404
 20
245.6563845291457
 30
0.0
 11
197.2323265880404
 21
245.6563845291457
 31
0.0
  0
LINE
  5
554
330
70
100
AcDbEntity
  8
baseplate
370
    15
100
AcDbLine
 10
197.2323265880404
 20
245.6563845291457
 30
0.0
 11
197.2323265880404
 21
200.6563845291457
 31
0.0
  0
LINE
  5
555
330
70
100
AcDbEntity
  8
baseplate
370
    15
100
AcDbLine
 10
197.2323265880404
 20
200.6563845291457
 30
0.0
 11
195.7323265880404
 21
200.6563845291457
 31
0.0
  0
LINE
  5
556
330
70
100
AcDbEntity
  8
baseplate
370
    15
100
AcDbLine
 10
197.2323265880404
 20
216.6563845291457
 30
0.0
 11
195.7323265880404
 21
216.6563845291457
 31
0.0
  0
LINE
  5
557
330
70
100
AcDbEntity
  8
baseplate
370
    15
100
AcDbLine
 10
195.7323265880404
 20
229.6563845291457
 30
0.0
 11
197.2323265880404
 21
229.6563845291457
 31
0.0
  0
LINE
  5
558
330
70
100
AcDbEntity
  8
decking
100
AcDbLine
 10
195.7323265880404
 20
406.1566519237894
 30
0.0
 11
195.7323265880404
 21
388.1566519237895
 31
0.0
  0
DIMENSION
  5
559
330
70
100
AcDbEntity
  8
dim
100
AcDbDimension
  2
*D11
 10
60.4426656557479
 20
363.1566519237896
 30
0.0
 11
60.44266565574798
 21
304.9977158033125
 31
0.0
 70
   160
  1
140mm min
 71
     5
 42
140.0
 73
     0
 74
     0
 75
     0
  3
Spectrum 2
100
AcDbAlignedDimension
 13
82.73232658804046
 23
223.1566519237895
 33
0.0
 14
82.73232658804046
 24
363.1566519237895
 34
0.0
 50
90.0
100
AcDbRotatedDimension
1001
ACAD
1000
DSTYLE
1002
{
1070
   340
1005
111
1070
   140
1040
2.25
1070
    42
1040
2.0
1070
    40
1040
2.0
1002
}
  0
LEADER
  5
55A
330
70
100
AcDbEntity
  8
dim
100
AcDbLeader
  3
Spectrum 2
 76
     2
 10
243.5323265880434
 20
462.5463620357513
 30
0.0
 10
281.2779513826681
 20
462.5463620357513
 30
0.0
211
1.0
221
-0.0000000000000002
231
0.0
213
-0.0000000000000031
223
-12.5
233
0.0
1001
ACAD
1000
DSTYLE
1002
{
1070
    41
1040
6.0
1070
    40
1040
1.0
1070
    50
1040
1.570796326794896
1070
    77
1070
     0
1002
}
  0
LEADER
  5
55B
330
70
100
AcDbEntity
  8
dim
100
AcDbLeader
  3
Spectrum 2
 76
     2
 10
232.4522678434296
 20
230.3102863136774
 30
0.0
 10
232.4522678434296
 20
285.5847725725398
 30
0.0
211
0.0000000000000003
221
1.0
231
0.0
213
12.5
223
-0.0000000000000038
233
0.0
1001
ACAD
1000
DSTYLE
1002
{
1070
    41
1040
6.0
1070
    40
1040
1.0
1070
    50
1040
1.570796326794896
1070
    77
1070
     0
1002
}
  0
DIMENSION
  5
55C
330
70
100
AcDbEntity
  8
dim
100
AcDbDimension
  2
*D12
 10
60.4426656557479
 20
363.1566519237896
 30
0.0
 11
60.44266565574798
 21
375.6567362382157
 31
0.0
 70
   160
  1
25 min
 71
     5
 42
25.00000000000006
 73
     0
 74
     0
 75
     0
  3
Spectrum 2
100
AcDbAlignedDimension
 13
69.91967548901448
 23
388.1566519237895
 33
0.0
 14
82.73232658804046
 24
363.1566519237895
 34
0.0
 50
270.0
100
AcDbRotatedDimension
1001
ACAD
1000
DSTYLE
1002
{
1070
   340
1005
111
1070
   140
1040
2.25
1070
    42
1040
2.0
1070
    40
1040
2.0
1002
}
  0
DIMENSION
  5
55D
330
70
100
AcDbEntity
  8
dim
100
AcDbDimension
  2
*D13
 10
195.7323265880404
 20
421.7896544343948
 30
0.0
 11
150.7323265880404
 21
421.7896544343948
 31
0.0
 70
   160
  1
90 min timber width
 71
     5
 42
90.0
 73
     0
 74
     0
 75
     0
  3
Spectrum 2
100
AcDbAlignedDimension
 13
105.7323265880404
 23
388.1566519237895
 33
0.0
 14
195.7323265880404
 24
406.1566519237894
 34
0.0
100
AcDbRotatedDimension
1001
ACAD
1000
DSTYLE
1002
{
1070
   340
1005
111
1070
   140
1040
2.25
1070
    42
1040
2.0
1070
    40
1040
2.0
1002
}
  0
DIMENSION
  5
55E
330
70
100
AcDbEntity
  8
dim
100
AcDbDimension
  2
*D14
 10
60.44266565574794
 20
198.1566519237895
 30
0.0
 11
60.44266565574798
 21
210.6567362382157
 31
0.0
 70
   160
  1
25 min
 71
     5
 42
25.0
 73
     0
 74
     0
 75
     0
  3
Spectrum 2
100
AcDbAlignedDimension
 13
69.91967548901448
 23
223.1566519237895
 33
0.0
 14
82.73232658804046
 24
198.1566519237894
 34
0.0
 50
270.0
100
AcDbRotatedDimension
1001
ACAD
1000
DSTYLE
1002
{
1070
   340
1005
111
1070
   140
1040
2.25
1070
    42
1040
2.0
1070
    40
1040
2.0
1002
}
  0
DIMENSION
  5
55F
102
{ACAD_XDICTIONARY
360
560
102
}
102
{ACAD_REACTORS
330
561
102
}
330
70
100
AcDbEntity
  8
dim
100
AcDbDimension
  2
*D20
 10
46.44266565574788
 20
388.1566519237897
 30
0.0
 11
46.44266565574798
 21
293.1566519238004
 31
0.0
 70
   160
  1
<> min section depth
 71
     5
 42
190.0000000000001
 73
     0
 74
     0
 75
     0
  3
Spectrum 2
100
AcDbAlignedDimension
 13
103.7323265880404
 23
198.1566519237894
 33
0.0
 14
69.91967548901448
 24
388.1566519237895
 34
0.0
 50
90.0
100
AcDbRotatedDimension
1001
ACAD
1000
DSTYLE
1002
{
1070
   340
1005
111
1002
}
  0
LEADER
  5
562
330
70
100
AcDbEntity
  8
dim
100
AcDbLeader
  3
Spectrum 2
 76
     2
 10
224.7679391642887
 20
420.2405567404166
 30
0.0
 10
281.2779513826681
 20
420.2405567404166
 30
0.0
211
1.0
221
-0.0000000000000002
231
0.0
213
-0.0000000000000031
223
-12.5
233
0.0
1001
ACAD
1000
DSTYLE
1002
{
1070
    40
1040
1.0
1070
    41
1040
6.0
1070
    50
1040
1.570796326794896
1070
    77
1070
     0
1002
}
  0
LEADER
  5
563
330
70
100
AcDbEntity
  8
dim
100
AcDbLeader
  3
Spectrum 2
 76
     2
 10
150.7323265880404
 20
333.2443887570844
 30
0.0
 10
281.2779513826681
 20
333.2443887570844
 30
0.0
211
1.0
221
-0.0000000000000002
231
0.0
213
-0.0000000000000031
223
-12.5
233
0.0
1001
ACAD
1000
DSTYLE
1002
{
1070
    40
1040
1.0
1070
    41
1040
6.0
1070
    50
1040
1.570796326794896
1070
    77
1070
     0
1002
}
  0
LEADER
  5
564
330
70
100
AcDbEntity
  8
dim
100
AcDbLeader
  3
Spectrum 2
 76
     2
 10
197.2323265880404
 20
379.0108765882323
 30
0.0
 10
281.2779513826681
 20
379.0108765882323
 30
0.0
211
1.0
221
-0.0000000000000002
231
0.0
213
-0.0000000000000031
223
-12.5
233
0.0
1001
ACAD
1000
DSTYLE
1002
{
1070
    40
1040
1.0
1070
    41
1040
6.0
1070
    50
1040
1.570796326794896
1070
    77
1070
     0
1002
}
  0
MTEXT
  5
565
330
70
100
AcDbEntity
  8
dim
100
AcDbMText
 10
283.9775006624259
 20
462.4961388490846
 30
0.0
 40
4.5
 41
75.0
 46
0.0
 71
     4
 72
     5
  1
50.8 x 50.8 post
  7
Calibri
 73
     1
 44
0.9333333333333333
  0
MTEXT
  5
566
330
70
100
AcDbEntity
  8
dim
100
AcDbMText
 10
283.9043313433649
 20
286.078637215338
 30
0.0
 40
4.5
 41
93.73760037154807
 46
0.0
 71
     4
 72
     5
  1
Stainless fixings separated from  aluminium by plastic sleeve
  7
Calibri
 73
     1
 44
0.9333333333333333
  0
MTEXT
  5
567
330
70
100
AcDbEntity
  8
dim
370
     5
100
AcDbMText
 10
67.82348459470085
 20
375.6831127906735
 30
0.0
 40
4.5
 41
39.36593251144224
 46
0.0
 71
     5
 72
     5
  1
edge\Pdistance
  7
Calibri
 11
0.0000000000000001
 21
1.0
 31
0.0
 73
     1
 44
0.9333333333333333
  0
MTEXT
  5
569
330
70
100
AcDbEntity
  8
dim
100
AcDbMText
 10
283.9043313433649
 20
236.6817080243691
 30
0.0
 40
4.5
 41
90.73735401047452
 46
0.0
 71
     4
 72
     5
  1
Fixing consists of (2x) 316 S/S M10 threaded rod/bolt, nut and washer with 50 x 50 x 3 washer to timber
  7
Calibri
 73
     1
 44
0.9333333333333333
  0
MTEXT
  5
56A
330
70
100
AcDbEntity
  8
dim
370
     5
100
AcDbMText
 10
67.82348459470085
 20
210.6831127906735
 30
0.0
 40
4.5
 41
39.36593251144224
 46
0.0
 71
     5
 72
     5
  1
edge\Pdistance
  7
Calibri
 11
0.0000000000000001
 21
1.0
 31
0.0
 73
     1
 44
0.9333333333333333
  0
MTEXT
  5
56B
330
70
100
AcDbEntity
  8
dim
100
AcDbMText
 10
283.9775006624259
 20
421.1946718941726
 30
0.0
 40
4.5
 41
86.62404204197811
 46
0.0
 71
     4
 72
     5
  1
S14 Post stiffener (full length)
  7
Calibri
 73
     1
 44
0.9333333333333333
  0
MTEXT
  5
56C
330
70
100
AcDbEntity
  8
dim
100
AcDbMText
 10
283.9775006624259
 20
332.4685109422607
 30
0.0
 40
4.5
 41
87.31219318795774
 46
0.0
 71
     4
 72
     5
  1
Framing timber structure and connections as per approved design by others
  7
Calibri
 73
     1
 44
0.9333333333333333
  0
MTEXT
  5
56D
330
70
100
AcDbEntity
  8
dim
100
AcDbMText
 10
283.9775006624259
 20
379.2541222837753
 30
0.0
 40
4.5
 41
73.57939952713786
 46
0.0
 71
     4
 72
     5
  1
Rigid plastic separation washer where required
  7
Calibri
 73
     1
 44
0.9333333333333333
  0
LWPOLYLINE
  5
5AB
330
70
100
AcDbEntity
  8
dim
370
    20
100
AcDbPolyline
 90
        4
 70
     1
 43
0.0
 10
384.0
 20
174.4071073141461
 10
159.0000000000145
 20
174.4071073141552
 10
159.0
 20
144.4071073141588
 10
384.0
 20
144.4071073141497
  0
LINE
  5
5AC
330
70
100
AcDbEntity
  8
dim
370
    20
100
AcDbLine
 10
158.9999999999854
 20
142.4071073141588
 30
0.0
 11
158.9999999999854
 21
88.40710731416431
 31
0.0
  0
LINE
  5
5AD
330
70
100
AcDbEntity
  8
dim
370
    20
100
AcDbLine
 10
384.0
 20
124.4071073141497
 30
0.0
 11
158.9999999999854
 21
124.4071073141588
 31
0.0
  0
LINE
  5
5AE
330
70
100
AcDbEntity
  8
dim
370
    20
100
AcDbLine
 10
147.0
 20
124.4071073141588
 30
0.0
 11
96.0
 21
124.4071073141606
 31
0.0
  0
LINE
  5
5AF
330
70
100
AcDbEntity
  8
dim
370
    20
100
AcDbLine
 10
384.0
 20
156.4071073141479
 30
0.0
 11
159.0000000000145
 21
156.407107314157
 31
0.0
  0
MTEXT
  5
5B0
330
70
100
AcDbEntity
  8
dim
370
    20
100
AcDbMText
 10
153.9999999999854
 20
115.4071073141625
 30
0.0
 40
4.0
 41
53.99999999999636
 46
9.999999999998653
 71
     5
 72
     5
  1
Maximum post ctrs
  7
Calibri
 11
0.0000000000000001
 21
1.0
 31
0.0
 73
     1
 44
1.0
1001
ACAD
1000
ACAD_MTEXT_DEFINED_HEIGHT_BEGIN
1070
    46
1040
15.00000000000001
1000
ACAD_MTEXT_DEFINED_HEIGHT_END
  0
MTEXT
  5
5B1
330
70
100
AcDbEntity
  8
dim
370
    20
100
AcDbMText
 10
239.3571428571213
 20
150.4071073141515
 30
0.0
 40
4.5
 41
32.14285714284233
 46
12.00000000000326
 71
     5
 72
     5
  1
1.30m
  7
Calibri
 73
     1
 44
1.0
1001
ACAD
1000
ACAD_MTEXT_DEFINED_HEIGHT_BEGIN
1070
    46
1040
10.00000000000001
1000
ACAD_MTEXT_DEFINED_HEIGHT_END
  0
MTEXT
  5
5B3
330
70
100
AcDbEntity
  8
dim
370
    20
100
AcDbMText
 10
274.2705506532675
 20
150.4071073141497
 30
0.0
 40
4.5
 41
25.0
 46
12.00000000000184
 71
     5
 72
     5
  1
1.35m
  7
Calibri
 73
     1
 44
1.0
1001
ACAD
1000
ACAD_MTEXT_DEFINED_HEIGHT_BEGIN
1070
    46
1040
10.00000000000001
1000
ACAD_MTEXT_DEFINED_HEIGHT_END
  0
MTEXT
  5
5B5
330
70
100
AcDbEntity
  8
dim
370
    20
100
AcDbMText
 10
303.739278737994
 20
150.4071073141497
 30
0.0
 40
4.5
 41
25.00000000001455
 46
12.00000000000184
 71
     5
 72
     5
  1
1.40m
  7
Calibri
 73
     1
 44
1.0
1001
ACAD
1000
ACAD_MTEXT_DEFINED_HEIGHT_BEGIN
1070
    46
1040
10.00000000000001
1000
ACAD_MTEXT_DEFINED_HEIGHT_END
  0
MTEXT
  5
5B7
330
70
100
AcDbEntity
  8
dim
370
    20
100
AcDbMText
 10
335.7857142856464
 20
150.4071073141511
 30
0.0
 40
4.5
 41
32.14285714284233
 46
11.99999999999876
 71
     5
 72
     5
  1
1.45m
  7
Calibri
 73
     1
 44
1.0
1001
ACAD
1000
ACAD_MTEXT_DEFINED_HEIGHT_BEGIN
1070
    46
1040
10.00000000000001
1000
ACAD_MTEXT_DEFINED_HEIGHT_END
  0
MTEXT
  5
5B9
330
70
100
AcDbEntity
  8
dim
370
    20
100
AcDbMText
 10
367.9285714285343
 20
150.4071073141495
 30
0.0
 40
4.5
 41
32.14285714293146
 46
11.9999999999995
 71
     5
 72
     5
  1
1.50m
  7
Calibri
 73
     1
 44
1.0
1001
ACAD
1000
ACAD_MTEXT_DEFINED_HEIGHT_BEGIN
1070
    46
1040
10.00000000000001
1000
ACAD_MTEXT_DEFINED_HEIGHT_END
  0
LINE
  5
5BB
330
70
100
AcDbEntity
  8
dim
370
    20
100
AcDbLine
 10
96.0
 20
142.4071073141625
 30
0.0
 11
96.0
 21
88.40710731416612
 31
0.0
  0
LINE
  5
5BC
330
70
100
AcDbEntity
  8
dim
370
    20
100
AcDbLine
 10
191.1428571428569
 20
88.40710731416663
 30
0.0
 11
191.1428571428569
 21
142.4071073141593
 31
0.0
  0
LINE
  5
5BD
330
70
100
AcDbEntity
  8
dim
370
    20
100
AcDbLine
 10
191.1428571428569
 20
144.4071073141575
 30
0.0
 11
191.1428571428423
 21
156.4071073141575
 31
0.0
  0
LINE
  5
5BE
330
70
100
AcDbEntity
  8
dim
370
    20
100
AcDbLine
 10
255.4285714285415
 20
88.40710731415857
 30
0.0
 11
255.4285714285415
 21
142.4071073141531
 31
0.0
  0
LINE
  5
5BF
330
70
100
AcDbEntity
  8
dim
370
    20
100
AcDbLine
 10
255.4285714285415
 20
144.4071073141513
 30
0.0
 11
255.4285714285415
 21
156.4071073141495
 31
0.0
  0
LINE
  5
5C0
330
70
100
AcDbEntity
  8
dim
370
    20
100
AcDbLine
 10
319.7142857142262
 20
88.40710731415901
 30
0.0
 11
319.7142857141971
 21
142.4071073141535
 31
0.0
  0
LINE
  5
5C1
330
70
100
AcDbEntity
  8
dim
370
    20
100
AcDbLine
 10
319.7142857141971
 20
144.4071073141535
 30
0.0
 11
319.7142857141825
 21
156.4071073141517
 31
0.0
  0
LINE
  5
5C2
330
70
100
AcDbEntity
  8
dim
370
    20
100
AcDbLine
 10
351.8571428570685
 20
88.40710731415697
 30
0.0
 11
351.8571428570394
 21
142.4071073141497
 31
0.0
  0
LINE
  5
5C3
330
70
100
AcDbEntity
  8
dim
370
    20
100
AcDbLine
 10
351.8571428570249
 20
144.4071073141497
 30
0.0
 11
351.8571428570249
 21
156.4071073141479
 31
0.0
  0
LWPOLYLINE
  5
5C4
330
70
100
AcDbEntity
  8
dim
370
    20
100
AcDbPolyline
 90
        4
 70
     1
 43
0.0
 10
148.9999999999854
 20
88.40710731416249
 10
383.9999999999855
 20
88.40710731415521
 10
384.0
 20
142.4071073141497
 10
148.9999999999854
 20
142.4071073141606
  0
LINE
  5
5C5
330
70
100
AcDbEntity
  8
dim
370
    20
100
AcDbLine
 10
384.0
 20
106.4071073141515
 30
0.0
 11
158.9999999999854
 21
106.4071073141606
 31
0.0
  0
LINE
  5
5C6
330
70
100
AcDbEntity
  8
dim
370
    20
100
AcDbLine
 10
146.9999999999854
 20
106.4071073141606
 30
0.0
 11
16.00000000001455
 21
106.4071073141643
 31
0.0
  0
MTEXT
  5
5C7
330
70
100
AcDbEntity
  8
dim
370
    20
100
AcDbMText
 10
121.5
 20
133.4071073141588
 30
0.0
 40
4.0
 41
50.99999999999273
 46
18.00000000000183
 71
     5
 72
     5
  1
Up to very high wind zone (50m/s)
  7
Calibri
 73
     1
 44
1.0
1001
ACAD
1000
ACAD_MTEXT_DEFINED_HEIGHT_BEGIN
1070
    46
1040
10.00000000000001
1000
ACAD_MTEXT_DEFINED_HEIGHT_END
  0
MTEXT
  5
5C8
330
70
100
AcDbEntity
  8
dim
370
    20
100
AcDbMText
 10
121.5
 20
115.4071073141606
 30
0.0
 40
4.0
 41
50.99999999999273
 46
17.9999999999982
 71
     5
 72
     5
  1
Extra high wind\Pzone (55m/s)
  7
Calibri
 73
     1
 44
1.0
1001
ACAD
1000
ACAD_MTEXT_DEFINED_HEIGHT_BEGIN
1070
    46
1040
10.00000000000001
1000
ACAD_MTEXT_DEFINED_HEIGHT_END
  0
MTEXT
  5
5C9
330
70
100
AcDbEntity
  8
dim
370
    20
100
AcDbMText
 10
121.5
 20
97.4071073141625
 30
0.0
 40
4.0
 41
50.99999999999273
 46
17.9999999999982
 71
     5
 72
     5
  1
All wind zones\P(up to 55m/s)
  7
Calibri
 73
     1
 44
1.0
1001
ACAD
1000
ACAD_MTEXT_DEFINED_HEIGHT_BEGIN
1070
    46
1040
10.00000000000001
1000
ACAD_MTEXT_DEFINED_HEIGHT_END
  0
MTEXT
  5
5CA
330
70
100
AcDbEntity
  8
dim
370
    20
100
AcDbMText
 10
53.5
 20
124.4071073141606
 30
0.0
 40
4.0
 41
75.0
 46
35.9999999999982
 71
     5
 72
     5
  1
Glass or Solid infill (Vista, Classic, Clearview)
  7
Calibri
 73
     1
 44
1.0
1001
ACAD
1000
ACAD_MTEXT_DEFINED_HEIGHT_BEGIN
1070
    46
1040
15.00000000000001
1000
ACAD_MTEXT_DEFINED_HEIGHT_END
  0
MTEXT
  5
5CB
330
70
100
AcDbEntity
  8
dim
370
    20
100
AcDbMText
 10
56.0
 20
97.40710731416431
 30
0.0
 40
4.0
 41
79.99999999999272
 46
17.99999999999638
 71
     5
 72
     5
  1
35% max closed area (Settler, Heritage, Face hung fin)
  7
Calibri
 73
     1
 44
1.0
1001
ACAD
1000
ACAD_MTEXT_DEFINED_HEIGHT_BEGIN
1070
    46
1040
15.00000000000001
1000
ACAD_MTEXT_DEFINED_HEIGHT_END
  0
LWPOLYLINE
  5
5CC
330
70
100
AcDbEntity
  8
dim
370
    20
100
AcDbPolyline
 90
        4
 70
     1
 43
0.0
 10
146.9999999999854
 20
142.4071073141588
 10
16.0
 20
142.4071073141625
 10
16.0
 20
88.40710731416612
 10
146.9999999999854
 20
88.40710731416249
  0
LINE
  5
5D3
330
70
100
AcDbEntity
  8
dim
100
AcDbLine
 10
282.7942844697755
 20
235.5017867328606
 30
0.0
 11
260.3168178806882
 21
235.5017867328606
 31
0.0
  0
SOLID
  5
5D4
330
70
100
AcDbEntity
  8
dim
100
AcDbTrace
 10
261.3168178806882
 20
230.8889568115847
 30
0.0
 11
260.3168178806882
 21
224.8889568115846
 31
0.0
 12
259.3168178806882
 22
230.8889568115847
 32
0.0
 13
259.3168178806882
 23
230.8889568115847
 33
0.0
1001
ACAD
1000
DSTYLE
1002
{
1070
    41
1040
6.0
1070
    40
1040
1.0
1070
    50
1040
1.570796326794896
1070
    77
1070
     0
1002
}
  0
LWPOLYLINE
  5
5D5
330
70
100
AcDbEntity
  8
dim
100
AcDbPolyline
 90
        2
 70
     0
 43
0.0
 10
260.3168178806882
 20
230.8889568115847
 10
260.3168178806882
 20
235.5017867328606
1001
ACAD
1000
DSTYLE
1002
{
1070
    41
1040
6.0
1070
    40
1040
1.0
1070
    50
1040
1.570796326794896
1070
    77
1070
     0
1002
}
  0
MTEXT
  5
5D6
330
70
100
AcDbEntity
  8
dim
100
AcDbMText
 10
271.5
 20
165.4071073141497
 30
0.0
 40
4.0
 41
225.0
 46
17.9999999999891
 71
     5
 72
     5
  1
Leverage height {\Lmax} (distance from top of handrail to centreline of the upper fixing)
  7
Calibri
 73
     1
 44
1.0
1001
ACAD
1000
ACAD_MTEXT_DEFINED_HEIGHT_BEGIN
1070
    46
1040
15.00000000000001
1000
ACAD_MTEXT_DEFINED_HEIGHT_END
  0
LINE
  5
5D7
330
70
100
AcDbEntity
  8
Spigot
 48
0.2
100
AcDbLine
 10
201.8002378519213
 20
529.875867665878
 30
0.0
 11
201.8002378519213
 21
201.15682055262
 31
0.0
  0
LINE
  5
5D8
330
70
100
AcDbEntity
  8
Spigot
 48
0.2
100
AcDbLine
 10
203.3831205754959
 20
530.420004020716
 30
0.0
 11
203.3831205754941
 21
201.15682055262
 31
0.0
  0
LINE
  5
5D9
330
70
100
AcDbEntity
  8
Spigot
 48
0.2
100
AcDbLine
 10
205.9522167721316
 20
531.1205463847405
 30
0.0
 11
205.9522167721298
 21
201.15682055262
 31
0.0
  0
LINE
  5
5DA
330
70
100
AcDbEntity
  8
Spigot
 48
0.2
100
AcDbLine
 10
217.3635754371117
 20
530.3820470412395
 30
0.0
 11
217.3635754371117
 21
201.15682055262
 31
0.0
  0
LINE
  5
5DB
330
70
100
AcDbEntity
  8
Spigot
 48
0.2
100
AcDbLine
 10
243.4536359435242
 20
525.7708263320371
 30
0.0
 11
243.4536359435242
 21
201.15682055262
 31
0.0
  0
LINE
  5
5DC
330
70
100
AcDbEntity
  8
Spigot
 48
0.2
100
AcDbLine
 10
241.8707532199496
 20
525.2007320987913
 30
0.0
 11
241.8707532199496
 21
201.15682055262
 31
0.0
  0
LINE
  5
5DD
330
70
100
AcDbEntity
  8
Spigot
 48
0.2
100
AcDbLine
 10
239.301657023314
 20
524.4763050595998
 30
0.0
 11
239.3016570233121
 21
201.15682055262
 31
0.0
  0
LINE
  5
5DE
330
70
100
AcDbEntity
  8
Spigot
 48
0.2
100
AcDbLine
 10
227.8902983583339
 20
525.4575606394812
 30
0.0
 11
227.8902983583339
 21
201.15682055262
 31
0.0
  0
MTEXT
  5
5E4
102
{ACAD_XDICTIONARY
360
5E5
102
}
330
70
100
AcDbEntity
  8
0
100
AcDbMText
 10
274.1927834194485
 20
29.5
 30
0.0
 40
3.25
 41
77.51234181714244
 46
0.0
 71
     4
 72
     5
  1
Balustrade.\Psubject to change\Pwithout notice.
  7
Calibri
 73
     1
 44
1.0
1001
ACAD
1000
ACAD_MTEXT_COLUMN_INFO_BEGIN
1070
    75
1070
     2
1070
    79
1070
     0
1070
    76
1070
     1
1070
    78
1070
     0
1070
    48
1040
77.51234181714244
1070
    49
1040
75.0
1070
    50
1070
     1
1040
0.0
1000
ACAD_MTEXT_COLUMN_INFO_END
  0
LINE
  5
5ED
330
70
100
AcDbEntity
  8
dim
370
    20
100
AcDbLine
 10
287.5714285713839
 20
88.40710731415731
 30
0.0
 11
287.5714285713839
 21
142.4071073141518
 31
0.0
  0
LINE
  5
5EE
330
70
100
AcDbEntity
  8
dim
370
    20
100
AcDbLine
 10
287.5714285713839
 20
144.40710731415
 30
0.0
 11
287.5714285713839
 21
156.4071073141482
 31
0.0
  0
LINE
  5
5EF
330
70
100
AcDbEntity
  8
dim
370
    20
100
AcDbLine
 10
223.2857142856992
 20
88.40710731415994
 30
0.0
 11
223.2857142856992
 21
142.4071073141544
 31
0.0
  0
LINE
  5
5F0
330
70
100
AcDbEntity
  8
dim
370
    20
100
AcDbLine
 10
223.2857142856992
 20
144.4071073141526
 30
0.0
 11
223.2857142856992
 21
156.4071073141508
 31
0.0
  0
MTEXT
  5
5F1
330
70
100
AcDbEntity
  8
dim
370
    20
100
AcDbMText
 10
207.214285714279
 20
150.4071073141528
 30
0.0
 40
4.5
 41
32.14285714284233
 46
12.00000000000326
 71
     5
 72
     5
  1
1.25m
  7
Calibri
 73
     1
 44
1.0
1001
ACAD
1000
ACAD_MTEXT_DEFINED_HEIGHT_BEGIN
1070
    46
1040
10.00000000000001
1000
ACAD_MTEXT_DEFINED_HEIGHT_END
  0
MTEXT
  5
5F2
330
70
100
AcDbEntity
  8
dim
370
    20
100
AcDbMText
 10
175.0714285714221
 20
150.4071073141542
 30
0.0
 40
4.5
 41
32.14285714284233
 46
12.00000000000326
 71
     5
 72
     5
  1
1.20m
  7
Calibri
 73
     1
 44
1.0
1001
ACAD
1000
ACAD_MTEXT_DEFINED_HEIGHT_BEGIN
1070
    46
1040
10.00000000000001
1000
ACAD_MTEXT_DEFINED_HEIGHT_END
  0
MTEXT
  5
5F3
102
{ACAD_XDICTIONARY
360
5F4
102
}
330
70
100
AcDbEntity
  8
dim
100
AcDbMText
 10
4.41749472178526
 20
82.85629993762279
 30
0.0
 40
4.5
 41
400.3596694944863
 46
79.5676245593404
 71
     1
 72
     5
  3
\pi-13.5,l18,t18;-       Applicable to occupancy types A, B, C3 & E.\P-^IThis fixing detail PS1 should be used in conjunction with the appropriate system PS1.\P-^IThis is a balustrade connection detail. Deck design, construction and  water-proofing is 
  1
the responsibility of others. For all other applications or non-standard or site specific connections not covered under the standard detail manual please contact Spectrum.
  7
Calibri
 73
     1
 44
0.9333333333333333
1001
ACAD
1000
ACAD_MTEXT_DEFINED_HEIGHT_BEGIN
1070
    46
1040
75.2852101506287
1000
ACAD_MTEXT_DEFINED_HEIGHT_END
  0
MTEXT
  5
5F5
330
70
100
AcDbEntity
  8
0
100
AcDbMText
 10
8.290334991865165
 20
82.88153642329064
 30
0.0
 40
4.5
 41
329.6444955504266
 46
85.60397865527193
 71
     1
 72
     5
  1
{\fArial|b0|i0|c0|p34;■}
  7
Arial Narrow
 73
     1
 44
0.9333333333333333
1001
ACAD
1000
ACAD_MTEXT_DEFINED_HEIGHT_BEGIN
1070
    46
1040
85.60397865527193
1000
ACAD_MTEXT_DEFINED_HEIGHT_END
  0
MTEXT
  5
5F6
330
70
100
AcDbEntity
  8
0
100
AcDbMText
 10
8.290334991865165
 20
75.52691890458311
 30
0.0
 40
4.5
 41
329.6444955504266
 46
85.60397865527193
 71
     1
 72
     5
  1
{\fArial|b0|i0|c0|p34;■}
  7
Arial Narrow
 73
     1
 44
0.9333333333333333
1001
ACAD
1000
ACAD_MTEXT_DEFINED_HEIGHT_BEGIN
1070
    46
1040
85.60397865527193
1000
ACAD_MTEXT_DEFINED_HEIGHT_END
  0
MTEXT
  5
5F7
330
70
100
AcDbEntity
  8
0
100
AcDbMText
 10
8.290334991865165
 20
68.20554087210997
 30
0.0
 40
4.5
 41
329.6444955504266
 46
85.60397865527193
 71
     1
 72
     5
  1
{\fArial|b0|i0|c0|p34;■}
  7
Arial Narrow
 73
     1
 44
0.9333333333333333
1001
ACAD
1000
ACAD_MTEXT_DEFINED_HEIGHT_BEGIN
1070
    46
1040
85.60397865527193
1000
ACAD_MTEXT_DEFINED_HEIGHT_END
  0
MTEXT
  5
60C
330
70
100
AcDbEntity
  8
dim
370
    20
100
AcDbMText
 10
175.0714285713929
 20
133.4071073141542
 30
0.0
 40
4.5
 41
32.14285714287143
 46
17.99999999999314
 71
     5
 72
     5
  1
1.40m
  7
Calibri
 73
     1
 44
1.0
1001
ACAD
1000
ACAD_MTEXT_DEFINED_HEIGHT_BEGIN
1070
    46
1040
10.00000000000001
1000
ACAD_MTEXT_DEFINED_HEIGHT_END
  0
MTEXT
  5
60D
330
70
100
AcDbEntity
  8
dim
370
    20
100
AcDbMText
 10
175.0714285713929
 20
115.407107314156
 30
0.0
 40
4.5
 41
32.14285714287143
 46
17.99999999999314
 71
     5
 72
     5
  1
1.20m
  7
Calibri
 73
     1
 44
1.0
1001
ACAD
1000
ACAD_MTEXT_DEFINED_HEIGHT_BEGIN
1070
    46
1040
10.00000000000001
1000
ACAD_MTEXT_DEFINED_HEIGHT_END
  0
MTEXT
  5
60E
330
70
100
AcDbEntity
  8
dim
370
    20
100
AcDbMText
 10
175.0714285713929
 20
97.40710731415965
 30
0.0
 40
4.5
 41
32.14285714287143
 46
17.99999999999314
 71
     5
 72
     5
  1
1.40m
  7
Calibri
 73
     1
 44
1.0
1001
ACAD
1000
ACAD_MTEXT_DEFINED_HEIGHT_BEGIN
1070
    46
1040
10.00000000000001
1000
ACAD_MTEXT_DEFINED_HEIGHT_END
  0
MTEXT
  5
60F
330
70
100
AcDbEntity
  8
dim
370
    20
100
AcDbMText
 10
207.2142857142644
 20
133.4071073141529
 30
0.0
 40
4.5
 41
32.14285714287143
 46
17.99999999999314
 71
     5
 72
     5
  1
1.30m
  7
Calibri
 73
     1
 44
1.0
1001
ACAD
1000
ACAD_MTEXT_DEFINED_HEIGHT_BEGIN
1070
    46
1040
10.00000000000001
1000
ACAD_MTEXT_DEFINED_HEIGHT_END
  0
MTEXT
  5
610
330
70
100
AcDbEntity
  8
dim
370
    20
100
AcDbMText
 10
207.2142857142644
 20
115.4071073141547
 30
0.0
 40
4.5
 41
32.14285714287143
 46
17.99999999999314
 71
     5
 72
     5
  1
1.10m
  7
Calibri
 73
     1
 44
1.0
1001
ACAD
1000
ACAD_MTEXT_DEFINED_HEIGHT_BEGIN
1070
    46
1040
10.00000000000001
1000
ACAD_MTEXT_DEFINED_HEIGHT_END
  0
MTEXT
  5
611
330
70
100
AcDbEntity
  8
dim
370
    20
100
AcDbMText
 10
207.2142857142644
 20
97.40710731416198
 30
0.0
 40
4.5
 41
32.14285714287143
 46
17.99999999999314
 71
     5
 72
     5
  1
1.30m
  7
Calibri
 73
     1
 44
1.0
1001
ACAD
1000
ACAD_MTEXT_DEFINED_HEIGHT_BEGIN
1070
    46
1040
10.00000000000001
1000
ACAD_MTEXT_DEFINED_HEIGHT_END
  0
ENDSEC
  0
SECTION
  2
OBJECTS
  0
DICTIONARY
  5
C
330
0
100
AcDbDictionary
281
     1
  3
ACAD_CIP_PREVIOUS_PRODUCT_INFO
350
7E
  3
ACAD_COLOR
350
63
  3
ACAD_DETAILVIEWSTYLE
350
6A
  3
ACAD_GROUP
350
D
  3
ACAD_LAYOUT
350
62
  3
ACAD_MATERIAL
350
10
  3
ACAD_MLEADERSTYLE
350
66
  3
ACAD_MLINESTYLE
350
5F
  3
ACAD_PLOTSETTINGS
350
61
  3
ACAD_PLOTSTYLENAME
350
E
  3
ACAD_SCALELIST
350
42
  3
ACAD_SECTIONVIEWSTYLE
350
68
  3
ACAD_TABLESTYLE
350
64
  3
ACAD_VISUALSTYLE
350
29
  3
ACDB_RECOMPOSE_DATA
350
7EA
  3
AcDbVariableDictionary
350
78
  3
AcDsDecomposeData
350
7F0
  0
DICTIONARY
  5
11F
330
2
100
AcDbDictionary
280
     1
281
     1
  3
ACAD_LAYERSTATES
360
120
  0
DICTIONARY
  5
FC
330
FB
100
AcDbDictionary
280
     1
281
     1
  0
DICTIONARY
  5
FE
330
FD
100
AcDbDictionary
280
     1
281
     1
  0
DICTIONARY
  5
101
330
100
100
AcDbDictionary
280
     1
281
     1
  0
DICTIONARY
  5
103
330
102
100
AcDbDictionary
280
     1
281
     1
  0
DICTIONARY
  5
105
330
104
100
AcDbDictionary
280
     1
281
     1
  0
DICTIONARY
  5
107
330
106
100
AcDbDictionary
280
     1
281
     1
  0
DICTIONARY
  5
109
330
108
100
AcDbDictionary
280
     1
281
     1
  0
DICTIONARY
  5
10D
330
10C
100
AcDbDictionary
280
     1
281
     1
  0
DICTIONARY
  5
10F
330
10E
100
AcDbDictionary
280
     1
281
     1
  0
DICTIONARY
  5
48B
330
48A
100
AcDbDictionary
280
     1
281
     1
  3
ACAD_MTEXT_2008_RT
360
7E7
  0
DICTIONARY
  5
560
330
55F
100
AcDbDictionary
280
     1
281
     1
  3
ACAD_DIMASSOC
360
561
  0
DICTIONARY
  5
5E5
330
5E4
100
AcDbDictionary
280
     1
281
     1
  3
ACAD_MTEXT_2008_RT
360
7E8
  0
DICTIONARY
  5
5F4
330
5F3
100
AcDbDictionary
280
     1
281
     1
  3
ACAD_MTEXT_2008_RT
360
7E9
  0
XRECORD
  5
7E
102
{ACAD_REACTORS
330
C
102
}
330
C
100
AcDbXrecord
280
     1
300
ACDLT
300
2022
300

  0
DICTIONARY
  5
63
102
{ACAD_REACTORS
330
C
102
}
330
C
100
AcDbDictionary
281
     1
  0
DICTIONARY
  5
6A
102
{ACAD_REACTORS
330
C
102
}
330
C
100
AcDbDictionary
281
     1
  3
Metric50
350
6B
  0
DICTIONARY
  5
D
102
{ACAD_REACTORS
330
C
102
}
330
C
100
AcDbDictionary
281
     1
  0
DICTIONARY
  5
62
102
{ACAD_REACTORS
330
C
102
}
330
C
100
AcDbDictionary
281
     1
  3
Layout1
350
6F
  3
Layout2
350
77
  3
Model
350
73
  0
DICTIONARY
  5
10
102
{ACAD_REACTORS
330
C
102
}
330
C
100
AcDbDictionary
281
     1
  3
ByBlock
350
19
  3
ByLayer
350
11
  3
Global
350
21
  0
DICTIONARY
  5
66
102
{ACAD_REACTORS
330
C
102
}
330
C
100
AcDbDictionary
281
     1
  3
Standard
350
67
  0
DICTIONARY
  5
5F
102
{ACAD_REACTORS
330
C
102
}
330
C
100
AcDbDictionary
281
     1
  3
Standard
350
60
  0
DICTIONARY
  5
61
102
{ACAD_REACTORS
330
C
102
}
330
C
100
AcDbDictionary
281
     1
  0
ACDBDICTIONARYWDFLT
  5
E
102
{ACAD_REACTORS
330
C
102
}
330
C
100
AcDbDictionary
281
     1
  3
Normal
350
F
100
AcDbDictionaryWithDefault
340
F
  0
DICTIONARY
  5
42
102
{ACAD_REACTORS
330
C
102
}
330
C
100
AcDbDictionary
281
     1
  3
A0
350
43
  3
A1
350
44
  3
A2
350
45
  3
A3
350
46
  3
A4
350
47
  3
A5
350
48
  3
A6
350
49
  3
A7
350
4A
  3
A8
350
4B
  3
A9
350
4C
  3
B0
350
4D
  3
B1
350
4E
  3
B2
350
4F
  3
B3
350
50
  3
B4
350
51
  3
B5
350
52
  3
B6
350
53
  0
DICTIONARY
  5
68
102
{ACAD_REACTORS
330
C
102
}
330
C
100
AcDbDictionary
281
     1
  3
Metric50
350
69
  0
DICTIONARY
  5
64
102
{ACAD_REACTORS
330
C
102
}
330
C
100
AcDbDictionary
281
     1
  3
Standard
350
65
  0
DICTIONARY
  5
29
102
{ACAD_REACTORS
330
C
102
}
330
C
100
AcDbDictionary
281
     1
  3
2dWireframe
350
2F
  3
Basic
350
2E
  3
Brighten
350
35
  3
ColorChange
350
39
  3
Conceptual
350
32
  3
Dim
350
34
  3
EdgeColorOff
350
41
  3
Facepattern
350
38
  3
Flat
350
2A
  3
FlatWithEdges
350
2B
  3
Gouraud
350
2C
  3
GouraudWithEdges
350
2D
  3
Hidden
350
31
  3
JitterOff
350
3F
  3
Linepattern
350
37
  3
OverhangOff
350
40
  3
Realistic
350
33
  3
Shaded
350
3E
  3
Shaded with edges
350
3D
  3
Shades of Gray
350
3A
  3
Sketchy
350
3B
  3
Thicken
350
36
  3
Wireframe
350
30
  3
X-Ray
350
3C
  0
XRECORD
  5
7EA
102
{ACAD_REACTORS
330
C
102
}
330
C
100
AcDbXrecord
280
     1
 90
        1
330
65
330
48A
330
4AB
330
5E4
330
5F3
  0
DICTIONARY
  5
78
102
{ACAD_REACTORS
330
C
102
}
330
C
100
AcDbDictionary
281
     1
  3
CANNOSCALE
350
739
  3
CENTEREXE
350
79
  3
CENTERLTYPEFILE
350
7A
  3
CMLEADERSTYLE
350
736
  3
CTABLESTYLE
350
735
  3
CVIEWDETAILSTYLE
350
737
  3
CVIEWSECTIONSTYLE
350
738
  3
XCLIPFRAME
350
74C
  0
DICTIONARY
  5
7F0
102
{ACAD_REACTORS
330
C
102
}
330
C
100
AcDbDictionary
281
     1
  3
AcDsRecords
350
7F2
  3
AcDsSchemas
350
7F1
1001
ACAD
1070
     2
  0
DICTIONARY
  5
120
102
{ACAD_REACTORS
330
11F
102
}
330
11F
100
AcDbDictionary
281
     1
  0
XRECORD
  5
7E7
102
{ACAD_REACTORS
330
48B
102
}
330
48B
100
AcDbXrecord
280
     1
 40
4843.0
  1
\pxqr;Rev:B 18.1.22
  0
DIMASSOC
  5
561
102
{ACAD_REACTORS
330
560
102
}
330
560
100
AcDbDimAssoc
330
55F
 90
        1
 70
     0
 71
     0
  1
AcDbOsnapPointRef
 72
     1
331
519
 73
     2
 91
        0
 40
1.0
 10
0.0
 20
0.0
 30
2.000000000000000E+50
 75
     0
  0
XRECORD
  5
7E8
102
{ACAD_REACTORS
330
5E5
102
}
330
5E5
100
AcDbXrecord
280
     1
 40
109764.0
  1
\pxql;Balustrade.\Psubject to change\Pwithout notice.
  0
XRECORD
  5
7E9
102
{ACAD_REACTORS
330
5F4
102
}
330
5F4
100
AcDbXrecord
280
     1
 40
8360855.0
  1
\pxi-3,l4,ql,t4;-       Applicable to occupancy types A, B, C3 & E.\P-^IThis fixing detail PS1 should be used in conjunction with the appropriate system PS1.\P-^IThis is a balustrade connection detail. Deck design, construction and  water-proofing is t
  1
he responsibility of others. For all other applications or non-standard or site specific connections not covered under the standard detail manual please contact Spectrum.
  0
ACDBDETAILVIEWSTYLE
  5
6B
102
{ACAD_XDICTIONARY
360
828
102
}
102
{ACAD_REACTORS
330
6A
102
}
330
6A
100
AcDbModelDocViewStyle
 70
     0
  3
Metric50
290
     0
100
AcDbDetailViewStyle
 70
     0
 71
     0
 90
        3
 71
     1
340
55
 62
   256
 40
5.0
340
0
 62
   256
 40
5.0
300

 40
0.36
280
     1
 71
     2
340
5D
 90
       25
 62
   256
 71
     3
340
55
 62
   256
 40
5.0
 90
        0
 40
15.0
 90
        1
300
%<\AcVar ViewDetailId>% (%<\AcVar ViewScale \f "%sn">%)
 71
     4
340
5D
 90
       25
 62
   256
340
5D
 90
       25
 62
   256
280
     0
  0
LAYOUT
  5
6F
102
{ACAD_REACTORS
330
62
102
}
330
62
100
AcDbPlotSettings
  1

  2
C:\Users\leeh\AppData\Roaming\Autodesk\AutoCAD LT 2022\R28\enu\plotters\AutoCAD PDF.pc3
  4

  6

 40
0.0
 41
0.0
 42
0.0
 43
0.0
 44
0.0
 45
0.0
 46
0.0
 47
0.0
 48
0.0
 49
0.0
140
0.0
141
0.0
142
1.0
143
1.0
 70
   688
 72
     0
 73
     0
 74
     5
  7

 75
    16
147
1.0
 76
     0
 77
     2
 78
   300
148
0.0
149
0.0
100
AcDbLayout
  1
Layout1
 70
     1
 71
     1
 10
0.0
 20
0.0
 11
420.0
 21
297.0
 12
0.0
 22
0.0
 32
0.0
 14
1.000000000000000E+20
 24
1.000000000000000E+20
 34
1.000000000000000E+20
 15
-1.000000000000000E+20
 25
-1.000000000000000E+20
 35
-1.000000000000000E+20
146
0.0
 13
0.0
 23
0.0
 33
0.0
 16
1.0
 26
0.0
 36
0.0
 17
0.0
 27
1.0
 37
0.0
 76
     0
330
6C
  0
LAYOUT
  5
77
102
{ACAD_REACTORS
330
62
102
}
330
62
100
AcDbPlotSettings
  1

  2
C:\Users\leeh\AppData\Roaming\Autodesk\AutoCAD LT 2022\R28\enu\plotters\AutoCAD PDF.pc3
  4

  6

 40
0.0
 41
0.0
 42
0.0
 43
0.0
 44
0.0
 45
0.0
 46
0.0
 47
0.0
 48
0.0
 49
0.0
140
0.0
141
0.0
142
1.0
143
1.0
 70
   688
 72
     0
 73
     0
 74
     5
  7

 75
    16
147
1.0
 76
     0
 77
     2
 78
   300
148
0.0
149
0.0
100
AcDbLayout
  1
Layout2
 70
     1
 71
     2
 10
0.0
 20
0.0
 11
12.0
 21
9.0
 12
0.0
 22
0.0
 32
0.0
 14
0.0
 24
0.0
 34
0.0
 15
0.0
 25
0.0
 35
0.0
146
0.0
 13
0.0
 23
0.0
 33
0.0
 16
1.0
 26
0.0
 36
0.0
 17
0.0
 27
1.0
 37
0.0
 76
     0
330
74
  0
LAYOUT
  5
73
102
{ACAD_REACTORS
330
62
102
}
330
62
100
AcDbPlotSettings
  1

  2
C:\Users\leeh\AppData\Roaming\Autodesk\AutoCAD LT 2022\R28\enu\plotters\AutoCAD PDF.pc3
  4

  6

 40
0.0
 41
0.0
 42
0.0
 43
0.0
 44
0.0
 45
0.0
 46
0.0
 47
0.0
 48
0.0
 49
0.0
140
0.0
141
0.0
142
1.0
143
1.0
 70
  1712
 72
     0
 73
     0
 74
     0
  7

 75
     0
147
1.0
 76
     0
 77
     2
 78
   300
148
0.0
149
0.0
100
AcDbLayout
  1
Model
 70
     1
 71
     0
 10
0.0
 20
0.0
 11
12.0
 21
9.0
 12
0.0
 22
0.0
 32
0.0
 14
0.0
 24
0.0
 34
0.0
 15
0.0
 25
0.0
 35
0.0
146
0.0
 13
0.0
 23
0.0
 33
0.0
 16
1.0
 26
0.0
 36
0.0
 17
0.0
 27
1.0
 37
0.0
 76
     0
330
70
331
57
  0
MATERIAL
  5
19
102
{ACAD_XDICTIONARY
360
1A
102
}
102
{ACAD_REACTORS
330
10
102
}
330
10
100
AcDbMaterial
  1
ByBlock
 72
     0
 43
0.0208333333333333
 43
0.0
 43
0.0
 43
0.0
 43
0.0
 43
0.0208333333333333
 43
0.0
 43
0.0
 43
0.0
 43
0.0
 43
1.0
 43
0.0
 43
0.0
 43
0.0
 43
0.0
 43
1.0
 77
     0
 47
0.0208333333333333
 47
0.0
 47
0.0
 47
0.0
 47
0.0
 47
0.0208333333333333
 47
0.0
 47
0.0
 47
0.0
 47
0.0
 47
1.0
 47
0.0
 47
0.0
 47
0.0
 47
0.0
 47
1.0
171
     0
 49
0.0208333333333333
 49
0.0
 49
0.0
 49
0.0
 49
0.0
 49
0.0208333333333333
 49
0.0
 49
0.0
 49
0.0
 49
0.0
 49
1.0
 49
0.0
 49
0.0
 49
0.0
 49
0.0
 49
1.0
175
     0
142
0.0208333333333333
142
0.0
142
0.0
142
0.0
142
0.0
142
0.0208333333333333
142
0.0
142
0.0
142
0.0
142
0.0
142
1.0
142
0.0
142
0.0
142
0.0
142
0.0
142
1.0
179
     0
144
0.0208333333333333
144
0.0
144
0.0
144
0.0
144
0.0
144
0.0208333333333333
144
0.0
144
0.0
144
0.0
144
0.0
144
1.0
144
0.0
144
0.0
144
0.0
144
0.0
144
1.0
147
0.0208333333333333
147
0.0
147
0.0
147
0.0
147
0.0
147
0.0208333333333333
147
0.0
147
0.0
147
0.0
147
0.0
147
1.0
147
0.0
147
0.0
147
0.0
147
0.0
147
1.0
  0
MATERIAL
  5
11
102
{ACAD_XDICTIONARY
360
12
102
}
102
{ACAD_REACTORS
330
10
102
}
330
10
100
AcDbMaterial
  1
ByLayer
 72
     0
 43
0.0208333333333333
 43
0.0
 43
0.0
 43
0.0
 43
0.0
 43
0.0208333333333333
 43
0.0
 43
0.0
 43
0.0
 43
0.0
 43
1.0
 43
0.0
 43
0.0
 43
0.0
 43
0.0
 43
1.0
 77
     0
 47
0.0208333333333333
 47
0.0
 47
0.0
 47
0.0
 47
0.0
 47
0.0208333333333333
 47
0.0
 47
0.0
 47
0.0
 47
0.0
 47
1.0
 47
0.0
 47
0.0
 47
0.0
 47
0.0
 47
1.0
171
     0
 49
0.0208333333333333
 49
0.0
 49
0.0
 49
0.0
 49
0.0
 49
0.0208333333333333
 49
0.0
 49
0.0
 49
0.0
 49
0.0
 49
1.0
 49
0.0
 49
0.0
 49
0.0
 49
0.0
 49
1.0
175
     0
142
0.0208333333333333
142
0.0
142
0.0
142
0.0
142
0.0
142
0.0208333333333333
142
0.0
142
0.0
142
0.0
142
0.0
142
1.0
142
0.0
142
0.0
142
0.0
142
0.0
142
1.0
179
     0
144
0.0208333333333333
144
0.0
144
0.0
144
0.0
144
0.0
144
0.0208333333333333
144
0.0
144
0.0
144
0.0
144
0.0
144
1.0
144
0.0
144
0.0
144
0.0
144
0.0
144
1.0
147
0.0208333333333333
147
0.0
147
0.0
147
0.0
147
0.0
147
0.0208333333333333
147
0.0
147
0.0
147
0.0
147
0.0
147
1.0
147
0.0
147
0.0
147
0.0
147
0.0
147
1.0
  0
MATERIAL
  5
21
102
{ACAD_XDICTIONARY
360
22
102
}
102
{ACAD_REACTORS
330
10
102
}
330
10
100
AcDbMaterial
  1
Global
 72
     0
 43
0.0208333333333333
 43
0.0
 43
0.0
 43
0.0
 43
0.0
 43
0.0208333333333333
 43
0.0
 43
0.0
 43
0.0
 43
0.0
 43
1.0
 43
0.0
 43
0.0
 43
0.0
 43
0.0
 43
1.0
 77
     0
 47
0.0208333333333333
 47
0.0
 47
0.0
 47
0.0
 47
0.0
 47
0.0208333333333333
 47
0.0
 47
0.0
 47
0.0
 47
0.0
 47
1.0
 47
0.0
 47
0.0
 47
0.0
 47
0.0
 47
1.0
171
     0
 49
0.0208333333333333
 49
0.0
 49
0.0
 49
0.0
 49
0.0
 49
0.0208333333333333
 49
0.0
 49
0.0
 49
0.0
 49
0.0
 49
1.0
 49
0.0
 49
0.0
 49
0.0
 49
0.0
 49
1.0
175
     0
142
0.0208333333333333
142
0.0
142
0.0
142
0.0
142
0.0
142
0.0208333333333333
142
0.0
142
0.0
142
0.0
142
0.0
142
1.0
142
0.0
142
0.0
142
0.0
142
0.0
142
1.0
179
     0
144
0.0208333333333333
144
0.0
144
0.0
144
0.0
144
0.0
144
0.0208333333333333
144
0.0
144
0.0
144
0.0
144
0.0
144
1.0
144
0.0
144
0.0
144
0.0
144
0.0
144
1.0
147
0.0208333333333333
147
0.0
147
0.0
147
0.0
147
0.0
147
0.0208333333333333
147
0.0
147
0.0
147
0.0
147
0.0
147
1.0
147
0.0
147
0.0
147
0.0
147
0.0
147
1.0
  0
MLEADERSTYLE
  5
67
102
{ACAD_XDICTIONARY
360
824
102
}
102
{ACAD_REACTORS
330
66
102
}
330
66
100
AcDbMLeaderStyle
170
     2
171
     1
172
     0
 90
        2
 40
0.0
 41
0.0
173
     1
 91
-1056964608
340
5B
 92
       -2
290
     1
 42
0.09
291
     1
 43
0.36
  3
Standard
 44
0.18
300

342
55
174
     1
178
     6
175
     1
176
     0
 93
-1056964608
 45
0.18
292
     0
297
     0
 46
0.18
 94
-1056964608
 47
1.0
 49
1.0
140
1.0
293
     1
141
0.0
294
     1
177
     0
142
1.0
295
     0
296
     0
143
0.125
1001
ACAD_MLEADERVER
1070
     2
  0
MLINESTYLE
  5
60
102
{ACAD_REACTORS
330
5F
102
}
330
5F
100
AcDbMlineStyle
  2
STANDARD
 70
     0
  3

 62
   256
 51
90.0
 52
90.0
 71
     2
 49
0.5
 62
   256
  6
BYLAYER
 49
-0.5
 62
   256
  6
BYLAYER
  0
ACDBPLACEHOLDER
  5
F
102
{ACAD_REACTORS
330
E
102
}
330
E
  0
SCALE
  5
43
102
{ACAD_REACTORS
330
42
102
}
330
42
100
AcDbScale
 70
     0
300
1:1
140
1.0
141
1.0
290
     1
  0
SCALE
  5
44
102
{ACAD_REACTORS
330
42
102
}
330
42
100
AcDbScale
 70
     0
300
1:2
140
1.0
141
2.0
290
     0
  0
SCALE
  5
45
102
{ACAD_REACTORS
330
42
102
}
330
42
100
AcDbScale
 70
     0
300
1:4
140
1.0
141
4.0
290
     0
  0
SCALE
  5
46
102
{ACAD_REACTORS
330
42
102
}
330
42
100
AcDbScale
 70
     0
300
1:5
140
1.0
141
5.0
290
     0
  0
SCALE
  5
47
102
{ACAD_REACTORS
330
42
102
}
330
42
100
AcDbScale
 70
     0
300
1:8
140
1.0
141
8.0
290
     0
  0
SCALE
  5
48
102
{ACAD_REACTORS
330
42
102
}
330
42
100
AcDbScale
 70
     0
300
1:10
140
1.0
141
10.0
290
     0
  0
SCALE
  5
49
102
{ACAD_REACTORS
330
42
102
}
330
42
100
AcDbScale
 70
     0
300
1:16
140
1.0
141
16.0
290
     0
  0
SCALE
  5
4A
102
{ACAD_REACTORS
330
42
102
}
330
42
100
AcDbScale
 70
     0
300
1:20
140
1.0
141
20.0
290
     0
  0
SCALE
  5
4B
102
{ACAD_REACTORS
330
42
102
}
330
42
100
AcDbScale
 70
     0
300
1:30
140
1.0
141
30.0
290
     0
  0
SCALE
  5
4C
102
{ACAD_REACTORS
330
42
102
}
330
42
100
AcDbScale
 70
     0
300
1:40
140
1.0
141
40.0
290
     0
  0
SCALE
  5
4D
102
{ACAD_REACTORS
330
42
102
}
330
42
100
AcDbScale
 70
     0
300
1:50
140
1.0
141
50.0
290
     0
  0
SCALE
  5
4E
102
{ACAD_REACTORS
330
42
102
}
330
42
100
AcDbScale
 70
     0
300
1:100
140
1.0
141
100.0
290
     0
  0
SCALE
  5
4F
102
{ACAD_REACTORS
330
42
102
}
330
42
100
AcDbScale
 70
     0
300
2:1
140
2.0
141
1.0
290
     0
  0
SCALE
  5
50
102
{ACAD_REACTORS
330
42
102
}
330
42
100
AcDbScale
 70
     0
300
4:1
140
4.0
141
1.0
290
     0
  0
SCALE
  5
51
102
{ACAD_REACTORS
330
42
102
}
330
42
100
AcDbScale
 70
     0
300
8:1
140
8.0
141
1.0
290
     0
  0
SCALE
  5
52
102
{ACAD_REACTORS
330
42
102
}
330
42
100
AcDbScale
 70
     0
300
10:1
140
10.0
141
1.0
290
     0
  0
SCALE
  5
53
102
{ACAD_REACTORS
330
42
102
}
330
42
100
AcDbScale
 70
     0
300
100:1
140
100.0
141
1.0
290
     0
  0
ACDBSECTIONVIEWSTYLE
  5
69
102
{ACAD_XDICTIONARY
360
826
102
}
102
{ACAD_REACTORS
330
68
102
}
330
68
100
AcDbModelDocViewStyle
 70
     0
  3
Metric50
290
     0
100
AcDbSectionViewStyle
 70
     0
 71
     0
 90
      102
 71
     1
340
55
 62
   256
 40
5.0
340
0
340
0
 62
   256
 40
5.0
300
I, O, Q, S, X, Z
 40
10.0
 90
        0
 40
2.5
 90
        0
 71
     2
340
5D
 90
       25
 62
   256
340
5D
 90
       50
 62
   256
 40
5.0
 40
2.5
 40
5.0
 71
     3
340
55
 62
   256
 40
5.0
 90
        0
 40
15.0
 90
        1
300
%<\AcVar ViewSectionStartId>%-%<\AcVar ViewSectionEndId>% (%<\AcVar ViewScale \f "%sn">%)
 71
     4
 62
   256
 62
   257
300
ANSI31
 40
1.0
 90
        0
290
     0
290
     0
 90
        6
 40
0.0
 40
1.570796326794896
 40
0.2617993877991494
 40
1.308996938995747
 40
-0.2617993877991494
 40
1.832595714594046
  0
TABLESTYLE
  5
65
102
{ACAD_XDICTIONARY
360
7E5
102
}
102
{ACAD_REACTORS
330
64
102
}
330
64
100
AcDbTableStyle
  3
Standard
 70
     0
 71
     0
 40
1.5
 41
1.5
280
     0
281
     0
  7
Standard
140
4.5
170
     2
 62
     0
 63
     7
283
     0
 90
      512
 91
        0
  1

274
    -2
284
     1
 64
     0
275
    -2
285
     1
 65
     0
276
    -2
286
     1
 66
     0
277
    -2
287
     1
 67
     0
278
    -2
288
     1
 68
     0
279
    -2
289
     1
 69
     0
  7
Standard
140
6.0
170
     5
 62
     0
 63
     7
283
     0
 90
      512
 91
        0
  1

274
    -2
284
     1
 64
     0
275
    -2
285
     1
 65
     0
276
    -2
286
     1
 66
     0
277
    -2
287
     1
 67
     0
278
    -2
288
     1
 68
     0
279
    -2
289
     1
 69
     0
  7
Standard
140
4.5
170
     5
 62
     0
 63
     7
283
     0
 90
      512
 91
        0
  1

274
    -2
284
     1
 64
     0
275
    -2
285
     1
 65
     0
276
    -2
286
     1
 66
     0
277
    -2
287
     1
 67
     0
278
    -2
288
     1
 68
     0
279
    -2
289
     1
 69
     0
  0
VISUALSTYLE
  5
2F
102
{ACAD_XDICTIONARY
360
7FD
102
}
102
{ACAD_REACTORS
330
29
102
}
330
29
100
AcDbVisualStyle
  2
2dWireframe
 70
     4
 71
     0
 72
     2
 73
     0
 90
        0
 40
-0.6
 41
-30.0
 62
     5
 63
     7
421
 16777215
 74
     1
 91
        4
 64
     7
 65
   257
 75
     1
175
     1
 42
1.0
 92
        0
 66
   257
 43
1.0
 76
     1
 77
     6
 78
     2
 67
     7
 79
     5
170
     0
171
     0
290
     0
174
     0
 93
        1
 44
0.0
173
     0
291
     0
 45
0.0
1001
ACAD
1000
AcDbSavedByObjectVersion
1070
     0
  0
VISUALSTYLE
  5
2E
102
{ACAD_XDICTIONARY
360
7FB
102
}
102
{ACAD_REACTORS
330
29
102
}
330
29
100
AcDbVisualStyle
  2
Basic
 70
     7
 71
     1
 72
     0
 73
     1
 90
        0
 40
-0.6
 41
-30.0
 62
     5
 63
     7
421
 16777215
 74
     0
 91
        4
 64
     7
 65
   257
 75
     1
175
     1
 42
1.0
 92
        8
 66
     7
 43
1.0
 76
     1
 77
     6
 78
     2
 67
     7
 79
     5
170
     0
171
     0
290
     0
174
     0
 93
        1
 44
0.0
173
     0
291
     1
 45
0.0
1001
ACAD
1000
AcDbSavedByObjectVersion
1070
     0
  0
VISUALSTYLE
  5
35
102
{ACAD_XDICTIONARY
360
809
102
}
102
{ACAD_REACTORS
330
29
102
}
330
29
100
AcDbVisualStyle
  2
Brighten
 70
    12
 71
     2
 72
     2
 73
     0
 90
        0
 40
-0.6
 41
-30.0
 62
     5
 63
     7
421
 16777215
 74
     1
 91
        4
 64
     7
 65
   257
 75
     1
175
     1
 42
1.0
 92
        8
 66
     7
 43
1.0
 76
     1
 77
     6
 78
     2
 67
     7
 79
     5
170
     0
171
     0
290
     0
174
     0
 93
        1
 44
50.0
173
     0
291
     1
 45
0.0
1001
ACAD
1000
AcDbSavedByObjectVersion
1070
     0
  0
VISUALSTYLE
  5
39
102
{ACAD_XDICTIONARY
360
811
102
}
102
{ACAD_REACTORS
330
29
102
}
330
29
100
AcDbVisualStyle
  2
ColorChange
 70
    16
 71
     2
 72
     2
 73
     3
 90
        0
 40
-0.6
 41
-30.0
 62
     5
 63
     8
421
  8421504
 74
     1
 91
        4
 64
     7
 65
   257
 75
     1
175
     1
 42
1.0
 92
        8
 66
     8
424
  8421504
 43
1.0
 76
     1
 77
     6
 78
     2
 67
     7
 79
     5
170
     0
171
     0
290
     0
174
     0
 93
        1
 44
0.0
173
     0
291
     1
 45
0.0
1001
ACAD
1000
AcDbSavedByObjectVersion
1070
     0
  0
VISUALSTYLE
  5
32
102
{ACAD_XDICTIONARY
360
803
102
}
102
{ACAD_REACTORS
330
29
102
}
330
29
100
AcDbVisualStyle
  2
Conceptual
 70
     9
 71
     3
 72
     2
 73
     0
 90
        0
 40
-0.6
 41
-30.0
 62
     5
 63
     7
421
 16777215
 74
     2
 91
        2
 64
     7
 65
   257
 75
     1
175
     1
 42
179.0
 92
        8
 66
     7
 43
1.0
 76
     1
 77
     6
 78
     2
 67
     7
 79
     3
170
     0
171
     0
290
     0
174
     0
 93
        1
 44
0.0
173
     0
291
     0
 45
0.0
1001
ACAD
1000
AcDbSavedByObjectVersion
1070
     0
  0
VISUALSTYLE
  5
34
102
{ACAD_XDICTIONARY
360
807
102
}
102
{ACAD_REACTORS
330
29
102
}
330
29
100
AcDbVisualStyle
  2
Dim
 70
    11
 71
     2
 72
     2
 73
     0
 90
        0
 40
-0.6
 41
-30.0
 62
     5
 63
     7
421
 16777215
 74
     1
 91
        4
 64
     7
 65
   257
 75
     1
175
     1
 42
1.0
 92
        8
 66
     7
 43
1.0
 76
     1
 77
     6
 78
     2
 67
     7
 79
     5
170
     0
171
     0
290
     0
174
     0
 93
        1
 44
-50.0
173
     0
291
     1
 45
0.0
1001
ACAD
1000
AcDbSavedByObjectVersion
1070
     0
  0
VISUALSTYLE
  5
41
102
{ACAD_XDICTIONARY
360
821
102
}
102
{ACAD_REACTORS
330
29
102
}
330
29
100
AcDbVisualStyle
  2
EdgeColorOff
 70
    22
 71
     2
 72
     2
 73
     0
 90
        0
 40
-0.6
 41
-30.0
 62
     5
 63
     7
421
 16777215
 74
     1
 91
        4
 64
     7
 65
   257
 75
     1
175
     1
 42
1.0
 92
        8
 66
     7
 43
1.0
 76
     1
 77
     6
 78
     2
 67
     7
 79
     5
170
     0
171
     0
290
     0
174
     0
 93
        1
 44
0.0
173
     0
291
     1
 45
0.0
1001
ACAD
1000
AcDbSavedByObjectVersion
1070
     0
  0
VISUALSTYLE
  5
38
102
{ACAD_XDICTIONARY
360
80F
102
}
102
{ACAD_REACTORS
330
29
102
}
330
29
100
AcDbVisualStyle
  2
Facepattern
 70
    15
 71
     2
 72
     2
 73
     0
 90
        0
 40
-0.6
 41
-30.0
 62
     5
 63
     7
421
 16777215
 74
     1
 91
        4
 64
     7
 65
   257
 75
     1
175
     1
 42
1.0
 92
        8
 66
     7
 43
1.0
 76
     1
 77
     6
 78
     2
 67
     7
 79
     5
170
     0
171
     0
290
     0
174
     0
 93
        1
 44
0.0
173
     0
291
     1
 45
0.0
1001
ACAD
1000
AcDbSavedByObjectVersion
1070
     0
  0
VISUALSTYLE
  5
2A
102
{ACAD_XDICTIONARY
360
7F3
102
}
102
{ACAD_REACTORS
330
29
102
}
330
29
100
AcDbVisualStyle
  2
Flat
 70
     0
 71
     2
 72
     1
 73
     1
 90
        2
 40
-0.6
 41
30.0
 62
     5
 63
     7
421
 16777215
 74
     0
 91
        0
 64
     7
 65
   257
 75
     1
175
     1
 42
1.0
 92
        8
 66
     7
 43
1.0
 76
     1
 77
     6
 78
     2
 67
     7
 79
     5
170
     0
171
     0
290
     0
174
     0
 93
       13
 44
0.0
173
     0
291
     1
 45
0.0
1001
ACAD
1000
AcDbSavedByObjectVersion
1070
     0
  0
VISUALSTYLE
  5
2B
102
{ACAD_XDICTIONARY
360
7F5
102
}
102
{ACAD_REACTORS
330
29
102
}
330
29
100
AcDbVisualStyle
  2
FlatWithEdges
 70
     1
 71
     2
 72
     1
 73
     1
 90
        2
 40
-0.6
 41
30.0
 62
     5
 63
     7
421
 16777215
 74
     1
 91
        0
 64
     7
 65
   257
 75
     1
175
     1
 42
1.0
 92
        0
 66
   257
 43
1.0
 76
     1
 77
     6
 78
     2
 67
     7
 79
     5
170
     0
171
     0
290
     0
174
     0
 93
       13
 44
0.0
173
     0
291
     1
 45
0.0
1001
ACAD
1000
AcDbSavedByObjectVersion
1070
     0
  0
VISUALSTYLE
  5
2C
102
{ACAD_XDICTIONARY
360
7F7
102
}
102
{ACAD_REACTORS
330
29
102
}
330
29
100
AcDbVisualStyle
  2
Gouraud
 70
     2
 71
     2
 72
     2
 73
     1
 90
        2
 40
-0.6
 41
30.0
 62
     5
 63
     7
421
 16777215
 74
     0
 91
        0
 64
     7
 65
   257
 75
     1
175
     1
 42
1.0
 92
        0
 66
     7
 43
1.0
 76
     1
 77
     6
 78
     2
 67
     7
 79
     5
170
     0
171
     0
290
     0
174
     0
 93
       13
 44
0.0
173
     0
291
     1
 45
0.0
1001
ACAD
1000
AcDbSavedByObjectVersion
1070
     0
  0
VISUALSTYLE
  5
2D
102
{ACAD_XDICTIONARY
360
7F9
102
}
102
{ACAD_REACTORS
330
29
102
}
330
29
100
AcDbVisualStyle
  2
GouraudWithEdges
 70
     3
 71
     2
 72
     2
 73
     1
 90
        2
 40
-0.6
 41
30.0
 62
     5
 63
     7
421
 16777215
 74
     1
 91
        0
 64
     7
 65
   257
 75
     1
175
     1
 42
1.0
 92
        0
 66
   257
 43
1.0
 76
     1
 77
     6
 78
     2
 67
     7
 79
     5
170
     0
171
     0
290
     0
174
     0
 93
       13
 44
0.0
173
     0
291
     1
 45
0.0
1001
ACAD
1000
AcDbSavedByObjectVersion
1070
     0
  0
VISUALSTYLE
  5
31
102
{ACAD_XDICTIONARY
360
801
102
}
102
{ACAD_REACTORS
330
29
102
}
330
29
100
AcDbVisualStyle
  2
Hidden
 70
     6
 71
     1
 72
     2
 73
     2
 90
        0
 40
-0.6
 41
-30.0
 62
     5
 63
     7
421
 16777215
 74
     2
 91
        2
 64
     7
 65
   257
 75
     2
175
     1
 42
40.0
 92
        0
 66
   257
 43
1.0
 76
     1
 77
     6
 78
     2
 67
     7
 79
     3
170
     0
171
     0
290
     0
174
     0
 93
        1
 44
0.0
173
     0
291
     0
 45
0.0
1001
ACAD
1000
AcDbSavedByObjectVersion
1070
     0
  0
VISUALSTYLE
  5
3F
102
{ACAD_XDICTIONARY
360
81D
102
}
102
{ACAD_REACTORS
330
29
102
}
330
29
100
AcDbVisualStyle
  2
JitterOff
 70
    20
 71
     2
 72
     2
 73
     0
 90
        0
 40
-0.6
 41
-30.0
 62
     5
 63
     7
421
 16777215
 74
     1
 91
        4
 64
     7
 65
   257
 75
     1
175
     1
 42
1.0
 92
       10
 66
     7
 43
1.0
 76
     1
 77
     6
 78
     2
 67
     7
 79
     5
170
     0
171
     0
290
     0
174
     0
 93
        1
 44
0.0
173
     0
291
     1
 45
0.0
1001
ACAD
1000
AcDbSavedByObjectVersion
1070
     0
  0
VISUALSTYLE
  5
37
102
{ACAD_XDICTIONARY
360
80D
102
}
102
{ACAD_REACTORS
330
29
102
}
330
29
100
AcDbVisualStyle
  2
Linepattern
 70
    14
 71
     2
 72
     2
 73
     0
 90
        0
 40
-0.6
 41
-30.0
 62
     5
 63
     7
421
 16777215
 74
     1
 91
        4
 64
     7
 65
   257
 75
     7
175
     7
 42
1.0
 92
        8
 66
     7
 43
1.0
 76
     1
 77
     6
 78
     2
 67
     7
 79
     5
170
     0
171
     0
290
     0
174
     0
 93
        1
 44
0.0
173
     0
291
     1
 45
0.0
1001
ACAD
1000
AcDbSavedByObjectVersion
1070
     0
  0
VISUALSTYLE
  5
40
102
{ACAD_XDICTIONARY
360
81F
102
}
102
{ACAD_REACTORS
330
29
102
}
330
29
100
AcDbVisualStyle
  2
OverhangOff
 70
    21
 71
     2
 72
     2
 73
     0
 90
        0
 40
-0.6
 41
-30.0
 62
     5
 63
     7
421
 16777215
 74
     1
 91
        4
 64
     7
 65
   257
 75
     1
175
     1
 42
1.0
 92
        9
 66
     7
 43
1.0
 76
     1
 77
     6
 78
     2
 67
     7
 79
     5
170
     0
171
     0
290
     0
174
     0
 93
        1
 44
0.0
173
     0
291
     1
 45
0.0
1001
ACAD
1000
AcDbSavedByObjectVersion
1070
     0
  0
VISUALSTYLE
  5
33
102
{ACAD_XDICTIONARY
360
805
102
}
102
{ACAD_REACTORS
330
29
102
}
330
29
100
AcDbVisualStyle
  2
Realistic
 70
     8
 71
     2
 72
     3
 73
     0
 90
        2
 40
-0.6
 41
30.0
 62
     5
 63
     7
421
 16777215
 74
     0
 91
        0
 64
     7
 65
   257
 75
     1
175
     1
 42
1.0
 92
        8
 66
   257
 43
1.0
 76
     1
 77
     6
 78
     2
 67
     7
 79
     3
170
     0
171
     0
290
     0
174
     0
 93
       13
 44
0.0
173
     0
291
     0
 45
0.0
1001
ACAD
1000
AcDbSavedByObjectVersion
1070
     0
  0
VISUALSTYLE
  5
3E
102
{ACAD_XDICTIONARY
360
81B
102
}
102
{ACAD_REACTORS
330
29
102
}
330
29
100
AcDbVisualStyle
  2
Shaded
 70
    27
 71
     2
 72
     2
 73
     1
 90
        2
 40
-0.6
 41
30.0
 62
     5
 63
     7
421
 16777215
 74
     0
 91
        4
 64
     7
 65
   257
 75
     1
175
     1
 42
1.0
 92
        8
 66
   257
 43
1.0
 76
     1
 77
     6
 78
     2
 67
     8
425
  7895160
 79
     3
170
     0
171
     0
290
     0
174
     0
 93
        5
 44
0.0
173
     0
291
     0
 45
0.0
1001
ACAD
1000
AcDbSavedByObjectVersion
1070
     0
  0
VISUALSTYLE
  5
3D
102
{ACAD_XDICTIONARY
360
819
102
}
102
{ACAD_REACTORS
330
29
102
}
330
29
100
AcDbVisualStyle
  2
Shaded with edges
 70
    26
 71
     2
 72
     2
 73
     1
 90
        2
 40
-0.6
 41
30.0
 62
     5
 63
     7
421
 16777215
 74
     1
 91
        2
 64
     7
 65
   257
 75
     2
175
     1
 42
1.0
 92
        8
 66
   257
 43
1.0
 76
     1
 77
     6
 78
     2
 67
     7
 79
     3
170
     0
171
     0
290
     0
174
     0
 93
        5
 44
0.0
173
     0
291
     0
 45
0.0
1001
ACAD
1000
AcDbSavedByObjectVersion
1070
     0
  0
VISUALSTYLE
  5
3A
102
{ACAD_XDICTIONARY
360
813
102
}
102
{ACAD_REACTORS
330
29
102
}
330
29
100
AcDbVisualStyle
  2
Shades of Gray
 70
    23
 71
     2
 72
     2
 73
     3
 90
        0
 40
-0.6
 41
-30.0
 62
     5
 63
     7
421
 16777215
 74
     2
 91
        2
 64
     7
 65
     7
 75
     1
175
     1
 42
40.0
 92
        8
 66
     7
 43
1.0
 76
     1
 77
     6
 78
     2
 67
     7
 79
     3
170
     0
171
     0
290
     0
174
     0
 93
        1
 44
0.0
173
     0
291
     0
 45
0.0
1001
ACAD
1000
AcDbSavedByObjectVersion
1070
     0
  0
VISUALSTYLE
  5
3B
102
{ACAD_XDICTIONARY
360
815
102
}
102
{ACAD_REACTORS
330
29
102
}
330
29
100
AcDbVisualStyle
  2
Sketchy
 70
    24
 71
     1
 72
     2
 73
     2
 90
        0
 40
-0.6
 41
-30.0
 62
     5
 63
     7
421
 16777215
 74
     2
 91
        2
 64
     7
 65
     7
 75
     1
175
     1
 42
40.0
 92
       11
 66
     7
 43
1.0
 76
     1
 77
     6
 78
     2
 67
     7
 79
     6
170
     0
171
     0
290
     0
174
     0
 93
        1
 44
0.0
173
     0
291
     0
 45
0.0
1001
ACAD
1000
AcDbSavedByObjectVersion
1070
     0
  0
VISUALSTYLE
  5
36
102
{ACAD_XDICTIONARY
360
80B
102
}
102
{ACAD_REACTORS
330
29
102
}
330
29
100
AcDbVisualStyle
  2
Thicken
 70
    13
 71
     2
 72
     2
 73
     0
 90
        0
 40
-0.6
 41
-30.0
 62
     5
 63
     7
421
 16777215
 74
     1
 91
        4
 64
     7
 65
   257
 75
     1
175
     1
 42
1.0
 92
       12
 66
     7
 43
1.0
 76
     1
 77
     6
 78
     2
 67
     7
 79
     5
170
     0
171
     0
290
     0
174
     0
 93
        1
 44
0.0
173
     0
291
     1
 45
0.0
1001
ACAD
1000
AcDbSavedByObjectVersion
1070
     0
  0
VISUALSTYLE
  5
30
102
{ACAD_XDICTIONARY
360
7FF
102
}
102
{ACAD_REACTORS
330
29
102
}
330
29
100
AcDbVisualStyle
  2
Wireframe
 70
     5
 71
     0
 72
     2
 73
     0
 90
        0
 40
-0.6
 41
-30.0
 62
     5
 63
     7
421
 16777215
 74
     1
 91
        4
 64
     7
 65
   257
 75
     1
175
     1
 42
1.0
 92
        0
 66
   257
 43
1.0
 76
     1
 77
     6
 78
     2
 67
     7
 79
     3
170
     0
171
     0
290
     0
174
     0
 93
        1
 44
0.0
173
     0
291
     0
 45
0.0
1001
ACAD
1000
AcDbSavedByObjectVersion
1070
     0
  0
VISUALSTYLE
  5
3C
102
{ACAD_XDICTIONARY
360
817
102
}
102
{ACAD_REACTORS
330
29
102
}
330
29
100
AcDbVisualStyle
  2
X-Ray
 70
    25
 71
     2
 72
     2
 73
     1
 90
        1
 40
0.5
 41
-30.0
 62
     5
 63
     7
421
 16777215
 74
     1
 91
        0
 64
     7
 65
   257
 75
     1
175
     1
 42
1.0
 92
        8
 66
     7
 43
1.0
 76
     1
 77
     6
 78
     2
 67
     7
 79
     3
170
     0
171
     0
290
     0
174
     0
 93
       13
 44
0.0
173
     0
291
     0
 45
0.0
1001
ACAD
1000
AcDbSavedByObjectVersion
1070
     0
  0
DICTIONARYVAR
  5
739
102
{ACAD_REACTORS
330
78
102
}
330
78
100
DictionaryVariables
280
     0
  1
1:1
  0
DICTIONARYVAR
  5
79
102
{ACAD_REACTORS
330
78
102
}
330
78
100
DictionaryVariables
280
     0
  1
3.500000
  0
DICTIONARYVAR
  5
7A
102
{ACAD_REACTORS
330
78
102
}
330
78
100
DictionaryVariables
280
     0
  1
acadiso.lin
  0
DICTIONARYVAR
  5
736
102
{ACAD_REACTORS
330
78
102
}
330
78
100
DictionaryVariables
280
     0
  1
STANDARD
  0
DICTIONARYVAR
  5
735
102
{ACAD_REACTORS
330
78
102
}
330
78
100
DictionaryVariables
280
     0
  1
STANDARD
  0
DICTIONARYVAR
  5
737
102
{ACAD_REACTORS
330
78
102
}
330
78
100
DictionaryVariables
280
     0
  1
Metric50
  0
DICTIONARYVAR
  5
738
102
{ACAD_REACTORS
330
78
102
}
330
78
100
DictionaryVariables
280
     0
  1
Metric50
  0
DICTIONARYVAR
  5
74C
102
{ACAD_REACTORS
330
78
102
}
330
78
100
DictionaryVariables
280
     0
  1
2
  0
DICTIONARY
  5
7F2
102
{ACAD_REACTORS
330
7F0
102
}
330
7F0
100
AcDbDictionary
281
     1
  0
DICTIONARY
  5
7F1
102
{ACAD_REACTORS
330
7F0
102
}
330
7F0
100
AcDbDictionary
281
     1
  3
2594982530352
350
7EB
  3
2594982530368
350
7EC
  3
2594982530384
350
7ED
  3
2594982530400
350
7EE
  3
2594982530416
350
7EF
  0
DICTIONARY
  5
828
330
6B
100
AcDbDictionary
280
     1
281
     1
  3
ACAD_XREC_ROUNDTRIP
360
829
  0
DICTIONARY
  5
1A
330
19
100
AcDbDictionary
280
     1
281
     1
  3
BUMPTILE
360
1C
  3
DIFFUSETILE
360
1B
  3
OPACITYTILE
360
1F
  3
REFLECTIONTILE
360
1E
  3
REFRACTIONTILE
360
20
  3
SPECULARTILE
360
1D
  0
DICTIONARY
  5
12
330
11
100
AcDbDictionary
280
     1
281
     1
  3
BUMPTILE
360
14
  3
DIFFUSETILE
360
13
  3
OPACITYTILE
360
17
  3
REFLECTIONTILE
360
16
  3
REFRACTIONTILE
360
18
  3
SPECULARTILE
360
15
  0
DICTIONARY
  5
22
330
21
100
AcDbDictionary
280
     1
281
     1
  3
BUMPTILE
360
24
  3
DIFFUSETILE
360
23
  3
OPACITYTILE
360
27
  3
REFLECTIONTILE
360
26
  3
REFRACTIONTILE
360
28
  3
SPECULARTILE
360
25
  0
DICTIONARY
  5
824
330
67
100
AcDbDictionary
280
     1
281
     1
  3
ACAD_XREC_ROUNDTRIP
360
825
  0
DICTIONARY
  5
826
330
69
100
AcDbDictionary
280
     1
281
     1
  3
ACAD_XREC_ROUNDTRIP
360
827
  0
DICTIONARY
  5
7E5
330
65
100
AcDbDictionary
280
     1
281
     1
  3
ACAD_ROUNDTRIP_2008_TABLESTYLE_CELLSTYLEMAP
360
7E6
  0
DICTIONARY
  5
7FD
330
2F
100
AcDbDictionary
280
     1
281
     1
  3
ACAD_XREC_ROUNDTRIP
360
7FE
  0
DICTIONARY
  5
7FB
330
2E
100
AcDbDictionary
280
     1
281
     1
  3
ACAD_XREC_ROUNDTRIP
360
7FC
  0
DICTIONARY
  5
809
330
35
100
AcDbDictionary
280
     1
281
     1
  3
ACAD_XREC_ROUNDTRIP
360
80A
  0
DICTIONARY
  5
811
330
39
100
AcDbDictionary
280
     1
281
     1
  3
ACAD_XREC_ROUNDTRIP
360
812
  0
DICTIONARY
  5
803
330
32
100
AcDbDictionary
280
     1
281
     1
  3
ACAD_XREC_ROUNDTRIP
360
804
  0
DICTIONARY
  5
807
330
34
100
AcDbDictionary
280
     1
281
     1
  3
ACAD_XREC_ROUNDTRIP
360
808
  0
DICTIONARY
  5
821
330
41
100
AcDbDictionary
280
     1
281
     1
  3
ACAD_XREC_ROUNDTRIP
360
822
  0
DICTIONARY
  5
80F
330
38
100
AcDbDictionary
280
     1
281
     1
  3
ACAD_XREC_ROUNDTRIP
360
810
  0
DICTIONARY
  5
7F3
330
2A
100
AcDbDictionary
280
     1
281
     1
  3
ACAD_XREC_ROUNDTRIP
360
7F4
  0
DICTIONARY
  5
7F5
330
2B
100
AcDbDictionary
280
     1
281
     1
  3
ACAD_XREC_ROUNDTRIP
360
7F6
  0
DICTIONARY
  5
7F7
330
2C
100
AcDbDictionary
280
     1
281
     1
  3
ACAD_XREC_ROUNDTRIP
360
7F8
  0
DICTIONARY
  5
7F9
330
2D
100
AcDbDictionary
280
     1
281
     1
  3
ACAD_XREC_ROUNDTRIP
360
7FA
  0
DICTIONARY
  5
801
330
31
100
AcDbDictionary
280
     1
281
     1
  3
ACAD_XREC_ROUNDTRIP
360
802
  0
DICTIONARY
  5
81D
330
3F
100
AcDbDictionary
280
     1
281
     1
  3
ACAD_XREC_ROUNDTRIP
360
81E
  0
DICTIONARY
  5
80D
330
37
100
AcDbDictionary
280
     1
281
     1
  3
ACAD_XREC_ROUNDTRIP
360
80E
  0
DICTIONARY
  5
81F
330
40
100
AcDbDictionary
280
     1
281
     1
  3
ACAD_XREC_ROUNDTRIP
360
820
  0
DICTIONARY
  5
805
330
33
100
AcDbDictionary
280
     1
281
     1
  3
ACAD_XREC_ROUNDTRIP
360
806
  0
DICTIONARY
  5
81B
330
3E
100
AcDbDictionary
280
     1
281
     1
  3
ACAD_XREC_ROUNDTRIP
360
81C
  0
DICTIONARY
  5
819
330
3D
100
AcDbDictionary
280
     1
281
     1
  3
ACAD_XREC_ROUNDTRIP
360
81A
  0
DICTIONARY
  5
813
330
3A
100
AcDbDictionary
280
     1
281
     1
  3
ACAD_XREC_ROUNDTRIP
360
814
  0
DICTIONARY
  5
815
330
3B
100
AcDbDictionary
280
     1
281
     1
  3
ACAD_XREC_ROUNDTRIP
360
816
  0
DICTIONARY
  5
80B
330
36
100
AcDbDictionary
280
     1
281
     1
  3
ACAD_XREC_ROUNDTRIP
360
80C
  0
DICTIONARY
  5
7FF
330
30
100
AcDbDictionary
280
     1
281
     1
  3
ACAD_XREC_ROUNDTRIP
360
800
  0
DICTIONARY
  5
817
330
3C
100
AcDbDictionary
280
     1
281
     1
  3
ACAD_XREC_ROUNDTRIP
360
818
  0
XRECORD
  5
7EB
102
{ACAD_REACTORS
330
7F1
102
}
330
7F1
100
AcDbXrecord
280
     1
  1
AcDb_Thumbnail_Schema
102
{ATTRRECORD
341
7EC
  2
AcDbDs::TreatedAsObjectData
280
     1
291
     1
102
ATTRRECORD}
102
{ATTRRECORD
341
7ED
  2
AcDbDs::Legacy
280
     1
291
     1
102
ATTRRECORD}
  2
AcDbDs::ID
280
    10
 91
        8
102
{ATTRRECORD
341
7EE
  2
AcDs:Indexable
280
     1
291
     1
102
ATTRRECORD}
102
{ATTRRECORD
341
7EF
  2
AcDbDs::HandleAttribute
280
     7
282
     1
102
ATTRRECORD}
  2
Thumbnail_Data
280
    15
 91
        0
  0
XRECORD
  5
7EC
102
{ACAD_REACTORS
330
7F1
102
}
330
7F1
100
AcDbXrecord
280
     1
  1
AcDbDs::TreatedAsObjectDataSchema
  2
AcDbDs::TreatedAsObjectData
280
     1
 91
        0
  0
XRECORD
  5
7ED
102
{ACAD_REACTORS
330
7F1
102
}
330
7F1
100
AcDbXrecord
280
     1
  1
AcDbDs::LegacySchema
  2
AcDbDs::Legacy
280
     1
 91
        0
  0
XRECORD
  5
7EE
102
{ACAD_REACTORS
330
7F1
102
}
330
7F1
100
AcDbXrecord
280
     1
  1
AcDbDs::IndexedPropertySchema
  2
AcDs:Indexable
280
     1
 91
        0
  0
XRECORD
  5
7EF
102
{ACAD_REACTORS
330
7F1
102
}
330
7F1
100
AcDbXrecord
280
     1
  1
AcDbDs::HandleAttributeSchema
  2
AcDbDs::HandleAttribute
280
     7
 91
        1
284
     1
  0
XRECORD
  5
829
102
{ACAD_REACTORS
330
828
102
}
330
828
100
AcDbXrecord
280
     1
102
DISPLAYNAME
  1
Metric50
102
FLAGS
 90
        0
  0
XRECORD
  5
1C
102
{ACAD_REACTORS
330
1A
102
}
330
1A
100
AcDbXrecord
280
     1
270
     1
271
     1
  0
XRECORD
  5
1B
102
{ACAD_REACTORS
330
1A
102
}
330
1A
100
AcDbXrecord
280
     1
270
     1
271
     1
  0
XRECORD
  5
1F
102
{ACAD_REACTORS
330
1A
102
}
330
1A
100
AcDbXrecord
280
     1
270
     1
271
     1
  0
XRECORD
  5
1E
102
{ACAD_REACTORS
330
1A
102
}
330
1A
100
AcDbXrecord
280
     1
270
     1
271
     1
  0
XRECORD
  5
20
102
{ACAD_REACTORS
330
1A
102
}
330
1A
100
AcDbXrecord
280
     1
270
     1
271
     1
  0
XRECORD
  5
1D
102
{ACAD_REACTORS
330
1A
102
}
330
1A
100
AcDbXrecord
280
     1
270
     1
271
     1
  0
XRECORD
  5
14
102
{ACAD_REACTORS
330
12
102
}
330
12
100
AcDbXrecord
280
     1
270
     1
271
     1
  0
XRECORD
  5
13
102
{ACAD_REACTORS
330
12
102
}
330
12
100
AcDbXrecord
280
     1
270
     1
271
     1
  0
XRECORD
  5
17
102
{ACAD_REACTORS
330
12
102
}
330
12
100
AcDbXrecord
280
     1
270
     1
271
     1
  0
XRECORD
  5
16
102
{ACAD_REACTORS
330
12
102
}
330
12
100
AcDbXrecord
280
     1
270
     1
271
     1
  0
XRECORD
  5
18
102
{ACAD_REACTORS
330
12
102
}
330
12
100
AcDbXrecord
280
     1
270
     1
271
     1
  0
XRECORD
  5
15
102
{ACAD_REACTORS
330
12
102
}
330
12
100
AcDbXrecord
280
     1
270
     1
271
     1
  0
XRECORD
  5
24
102
{ACAD_REACTORS
330
22
102
}
330
22
100
AcDbXrecord
280
     1
270
     1
271
     1
  0
XRECORD
  5
23
102
{ACAD_REACTORS
330
22
102
}
330
22
100
AcDbXrecord
280
     1
270
     1
271
     1
  0
XRECORD
  5
27
102
{ACAD_REACTORS
330
22
102
}
330
22
100
AcDbXrecord
280
     1
270
     1
271
     1
  0
XRECORD
  5
26
102
{ACAD_REACTORS
330
22
102
}
330
22
100
AcDbXrecord
280
     1
270
     1
271
     1
  0
XRECORD
  5
28
102
{ACAD_REACTORS
330
22
102
}
330
22
100
AcDbXrecord
280
     1
270
     1
271
     1
  0
XRECORD
  5
25
102
{ACAD_REACTORS
330
22
102
}
330
22
100
AcDbXrecord
280
     1
270
     1
271
     1
  0
XRECORD
  5
825
102
{ACAD_REACTORS
330
824
102
}
330
824
100
AcDbXrecord
280
     1
102
ACAD_ROUNDTRIP_2012_MLEADER_STYLE
298
     1
  0
XRECORD
  5
827
102
{ACAD_REACTORS
330
826
102
}
330
826
100
AcDbXrecord
280
     1
102
DISPLAYNAME
  1
Metric50
102
FLAGS
 90
        0
  0
CELLSTYLEMAP
  5
7E6
102
{ACAD_REACTORS
330
7E5
102
}
330
7E5
100
AcDbCellStyleMap
 90
        3
300
CELLSTYLE
  1
TABLEFORMAT_BEGIN
 90
        5
170
     1
 91
        0
 92
    32768
 62
   257
 93
        1
300
CONTENTFORMAT
  1
CONTENTFORMAT_BEGIN
 90
        0
 91
        0
 92
      512
 93
        0
300

 40
0.0
140
1.0
 94
        5
 62
     0
340
55
144
6.0
309
CONTENTFORMAT_END
171
     1
301
MARGIN
  1
CELLMARGIN_BEGIN
 40
1.5
 40
1.5
 40
1.5
 40
1.5
 40
4.5
 40
4.5
309
CELLMARGIN_END
 94
        6
 95
        1
302
GRIDFORMAT
  1
GRIDFORMAT_BEGIN
 90
        0
 91
        1
 62
     0
 92
       -2
340
0
 93
        0
 40
1.125
309
GRIDFORMAT_END
 95
        2
302
GRIDFORMAT
  1
GRIDFORMAT_BEGIN
 90
        0
 91
        1
 62
     0
 92
       -2
340
0
 93
        0
 40
1.125
309
GRIDFORMAT_END
 95
        4
302
GRIDFORMAT
  1
GRIDFORMAT_BEGIN
 90
        0
 91
        1
 62
     0
 92
       -2
340
0
 93
        0
 40
1.125
309
GRIDFORMAT_END
 95
        8
302
GRIDFORMAT
  1
GRIDFORMAT_BEGIN
 90
        0
 91
        1
 62
     0
 92
       -2
340
0
 93
        0
 40
1.125
309
GRIDFORMAT_END
 95
       16
302
GRIDFORMAT
  1
GRIDFORMAT_BEGIN
 90
        0
 91
        1
 62
     0
 92
       -2
340
0
 93
        0
 40
1.125
309
GRIDFORMAT_END
 95
       32
302
GRIDFORMAT
  1
GRIDFORMAT_BEGIN
 90
        0
 91
        1
 62
     0
 92
       -2
340
0
 93
        0
 40
1.125
309
GRIDFORMAT_END
309
TABLEFORMAT_END
  1
CELLSTYLE_BEGIN
 90
        1
 91
        1
300
_TITLE
309
CELLSTYLE_END
300
CELLSTYLE
  1
TABLEFORMAT_BEGIN
 90
        5
170
     1
 91
        0
 92
        0
 62
   257
 93
        1
300
CONTENTFORMAT
  1
CONTENTFORMAT_BEGIN
 90
        0
 91
        0
 92
      512
 93
        0
300

 40
0.0
140
1.0
 94
        5
 62
     0
340
55
144
4.5
309
CONTENTFORMAT_END
171
     1
301
MARGIN
  1
CELLMARGIN_BEGIN
 40
1.5
 40
1.5
 40
1.5
 40
1.5
 40
4.5
 40
4.5
309
CELLMARGIN_END
 94
        6
 95
        1
302
GRIDFORMAT
  1
GRIDFORMAT_BEGIN
 90
        0
 91
        1
 62
     0
 92
       -2
340
0
 93
        0
 40
1.125
309
GRIDFORMAT_END
 95
        2
302
GRIDFORMAT
  1
GRIDFORMAT_BEGIN
 90
        0
 91
        1
 62
     0
 92
       -2
340
0
 93
        0
 40
1.125
309
GRIDFORMAT_END
 95
        4
302
GRIDFORMAT
  1
GRIDFORMAT_BEGIN
 90
        0
 91
        1
 62
     0
 92
       -2
340
0
 93
        0
 40
1.125
309
GRIDFORMAT_END
 95
        8
302
GRIDFORMAT
  1
GRIDFORMAT_BEGIN
 90
        0
 91
        1
 62
     0
 92
       -2
340
0
 93
        0
 40
1.125
309
GRIDFORMAT_END
 95
       16
302
GRIDFORMAT
  1
GRIDFORMAT_BEGIN
 90
        0
 91
        1
 62
     0
 92
       -2
340
0
 93
        0
 40
1.125
309
GRIDFORMAT_END
 95
       32
302
GRIDFORMAT
  1
GRIDFORMAT_BEGIN
 90
        0
 91
        1
 62
     0
 92
       -2
340
0
 93
        0
 40
1.125
309
GRIDFORMAT_END
309
TABLEFORMAT_END
  1
CELLSTYLE_BEGIN
 90
        2
 91
        1
300
_HEADER
309
CELLSTYLE_END
300
CELLSTYLE
  1
TABLEFORMAT_BEGIN
 90
        5
170
     1
 91
        0
 92
        0
 62
   257
 93
        1
300
CONTENTFORMAT
  1
CONTENTFORMAT_BEGIN
 90
        0
 91
        0
 92
      512
 93
        0
300

 40
0.0
140
1.0
 94
        2
 62
     0
340
55
144
4.5
309
CONTENTFORMAT_END
171
     1
301
MARGIN
  1
CELLMARGIN_BEGIN
 40
1.5
 40
1.5
 40
1.5
 40
1.5
 40
4.5
 40
4.5
309
CELLMARGIN_END
 94
        6
 95
        1
302
GRIDFORMAT
  1
GRIDFORMAT_BEGIN
 90
        0
 91
        1
 62
     0
 92
       -2
340
0
 93
        0
 40
1.125
309
GRIDFORMAT_END
 95
        2
302
GRIDFORMAT
  1
GRIDFORMAT_BEGIN
 90
        0
 91
        1
 62
     0
 92
       -2
340
0
 93
        0
 40
1.125
309
GRIDFORMAT_END
 95
        4
302
GRIDFORMAT
  1
GRIDFORMAT_BEGIN
 90
        0
 91
        1
 62
     0
 92
       -2
340
0
 93
        0
 40
1.125
309
GRIDFORMAT_END
 95
        8
302
GRIDFORMAT
  1
GRIDFORMAT_BEGIN
 90
        0
 91
        1
 62
     0
 92
       -2
340
0
 93
        0
 40
1.125
309
GRIDFORMAT_END
 95
       16
302
GRIDFORMAT
  1
GRIDFORMAT_BEGIN
 90
        0
 91
        1
 62
     0
 92
       -2
340
0
 93
        0
 40
1.125
309
GRIDFORMAT_END
 95
       32
302
GRIDFORMAT
  1
GRIDFORMAT_BEGIN
 90
        0
 91
        1
 62
     0
 92
       -2
340
0
 93
        0
 40
1.125
309
GRIDFORMAT_END
309
TABLEFORMAT_END
  1
CELLSTYLE_BEGIN
 90
        3
 91
        2
300
_DATA
309
CELLSTYLE_END
  0
XRECORD
  5
7FE
102
{ACAD_REACTORS
330
7FD
102
}
330
7FD
100
AcDbXrecord
280
     1
102
RTVSPost2010Prop28
280
     1
102
RTVSPost2010PropOp28
 70
     1
102
RTVSPost2010Prop29
280
     1
102
RTVSPost2010PropOp29
 70
     1
102
RTVSPost2010Prop30
280
     0
102
RTVSPost2010PropOp30
 70
     1
102
RTVSPost2010Prop31
280
     0
102
RTVSPost2010PropOp31
 70
     1
102
RTVSPost2010Prop32
280
     0
102
RTVSPost2010PropOp32
 70
     1
102
RTVSPost2010Prop33
280
     0
102
RTVSPost2010PropOp33
 70
     1
102
RTVSPost2010Prop34
280
     0
102
RTVSPost2010PropOp34
 70
     1
102
RTVSPost2010Prop35
280
     0
102
RTVSPost2010PropOp35
 70
     1
102
RTVSPost2010Prop36
280
     0
102
RTVSPost2010PropOp36
 70
     1
102
RTVSPost2010Prop37
 90
       50
102
RTVSPost2010PropOp37
 70
     1
102
RTVSPost2010Prop38
140
0.0
102
RTVSPost2010PropOp38
 70
     1
102
RTVSPost2010Prop39
140
1.0
102
RTVSPost2010PropOp39
 70
     1
102
RTVSPost2010Prop40
 90
        0
102
RTVSPost2010PropOp40
 70
     1
102
RTVSPost2010Prop41ColorIndex
 90
       18
102
RTVSPost2010Prop41ColorRGB
 90
        0
102
RTVSPost2010PropOp41
 70
     1
102
RTVSPost2010Prop42
 90
       50
102
RTVSPost2010PropOp42
 70
     1
102
RTVSPost2010Prop43
 90
        3
102
RTVSPost2010PropOp43
 70
     1
102
RTVSPost2010Prop44ColorIndex
 90
        5
102
RTVSPost2010Prop44ColorRGB
 90
      255
102
RTVSPost2010PropOp44
 70
     1
102
RTVSPost2010Prop45
280
     0
102
RTVSPost2010PropOp45
 70
     1
102
RTVSPost2010Prop46
 90
       50
102
RTVSPost2010PropOp46
 70
     1
102
RTVSPost2010Prop47
 90
       50
102
RTVSPost2010PropOp47
 70
     1
102
RTVSPost2010Prop48
 90
       50
102
RTVSPost2010PropOp48
 70
     1
102
RTVSPost2010Prop49
280
     0
102
RTVSPost2010PropOp49
 70
     1
102
RTVSPost2010Prop50
 90
       50
102
RTVSPost2010PropOp50
 70
     1
102
RTVSPost2010Prop51ColorIndex
 90
      256
102
RTVSPost2010Prop51ColorRGB
 90
-16777216
102
RTVSPost2010PropOp51
 70
     0
102
RTVSPost2010Prop52
140
1.0
102
RTVSPost2010PropOp52
 70
     0
102
RTVSPost2010Prop53
 90
        2
102
RTVSPost2010PropOp53
 70
     1
102
RTVSPost2010Prop54
  1
strokes_ogs.tif
102
RTVSPost2010PropOp54
 70
     1
102
RTVSPost2010Prop55
280
     0
102
RTVSPost2010PropOp55
 70
     1
102
RTVSPost2010Prop56
140
1.0
102
RTVSPost2010PropOp56
 70
     1
102
RTVSPost2010Prop57
140
1.0
102
RTVSPost2010PropOp57
 70
     1
102
RTVSPropertyOp0
 70
     1
102
RTVSPropertyOp1
 70
     1
102
RTVSPropertyOp2
 70
     1
102
RTVSPropertyOp3
 70
     1
102
RTVSPropertyOp4
 70
     1
102
RTVSPropertyOp5
 70
     1
102
RTVSPropertyOp6
 70
     1
102
RTVSPropertyOp7
 70
     1
102
RTVSPropertyOp8
 70
     1
102
RTVSPropertyOp9
 70
     1
102
RTVSPropertyOp10
 70
     1
102
RTVSPropertyOp11
 70
     1
102
RTVSPropertyOp12
 70
     1
102
RTVSPropertyOp13
 70
     1
102
RTVSPropertyOp14
 70
     1
102
RTVSPropertyOp15
 70
     1
102
RTVSPropertyOp16
 70
     1
102
RTVSPropertyOp17
 70
     1
102
RTVSPropertyOp18
 70
     1
102
RTVSPropertyOp19
 70
     1
102
RTVSPropertyOp20
 70
     1
102
RTVSPropertyOp21
 70
     1
102
RTVSPropertyOp22
 70
     1
102
RTVSPropertyOp23
 70
     1
102
RTVSPropertyOp24
 70
     1
102
RTVSPropertyOp25
 70
     1
102
RTVSPropertyOp26
 70
     1
102
RTVSPropertyOp27
 70
     1
102
RTVSPropertyOp28
 70
     1
102
RTVSPropertyOp29
 70
     1
102
RTVSPropertyOp30
 70
     1
102
RTVSPropertyOp31
 70
     1
102
RTVSPropertyOp32
 70
     1
102
RTVSPropertyOp33
 70
     1
102
RTVSPropertyOp34
 70
     1
102
RTVSPropertyOp35
 70
     1
102
RTVSPropertyOp36
 70
     1
102
RTVSPropertyOp37
 70
     1
102
RTVSPropertyOp38
 70
     1
102
RTVSPropertyOp39
 70
     1
102
RTVSPropertyOp40
 70
     1
102
RTVSPropertyOp41
 70
     1
102
RTVSPropertyOp42
 70
     1
102
RTVSPropertyOp43
 70
     1
102
RTVSPropertyOp44
 70
     1
102
RTVSPropertyOp45
 70
     1
102
RTVSPropertyOp46
 70
     1
102
RTVSPropertyOp47
 70
     1
102
RTVSPropertyOp48
 70
     1
102
RTVSPropertyOp49
 70
     1
102
RTVSPropertyOp50
 70
     1
102
RTVSPropertyOp51
 70
     0
102
RTVSPropertyOp52
 70
     0
102
RTVSPropertyOp53
 70
     1
102
RTVSPropertyOp54
 70
     1
102
RTVSPropertyOp55
 70
     1
102
RTVSPropertyOp56
 70
     1
102
RTVSPropertyOp57
 70
     1
102
RTVSPropertyOp58
 70
     1
102
RTVSPropertyOp59
 70
     1
102
RTVSPropertyOp60
 70
     1
102
RTVSPropertyOp61
 70
     1
102
RTVSPropertyOp62
 70
     1
  0
XRECORD
  5
7FC
102
{ACAD_REACTORS
330
7FB
102
}
330
7FB
100
AcDbXrecord
280
     1
102
RTVSPost2010Prop28
280
     0
102
RTVSPost2010PropOp28
 70
     1
102
RTVSPost2010Prop29
280
     1
102
RTVSPost2010PropOp29
 70
     1
102
RTVSPost2010Prop30
280
     1
102
RTVSPost2010PropOp30
 70
     1
102
RTVSPost2010Prop31
280
     0
102
RTVSPost2010PropOp31
 70
     1
102
RTVSPost2010Prop32
280
     0
102
RTVSPost2010PropOp32
 70
     1
102
RTVSPost2010Prop33
280
     0
102
RTVSPost2010PropOp33
 70
     1
102
RTVSPost2010Prop34
280
     0
102
RTVSPost2010PropOp34
 70
     1
102
RTVSPost2010Prop35
280
     0
102
RTVSPost2010PropOp35
 70
     1
102
RTVSPost2010Prop36
280
     0
102
RTVSPost2010PropOp36
 70
     1
102
RTVSPost2010Prop37
 90
       50
102
RTVSPost2010PropOp37
 70
     1
102
RTVSPost2010Prop38
140
0.0
102
RTVSPost2010PropOp38
 70
     1
102
RTVSPost2010Prop39
140
1.0
102
RTVSPost2010PropOp39
 70
     1
102
RTVSPost2010Prop40
 90
        0
102
RTVSPost2010PropOp40
 70
     1
102
RTVSPost2010Prop41ColorIndex
 90
       18
102
RTVSPost2010Prop41ColorRGB
 90
        0
102
RTVSPost2010PropOp41
 70
     1
102
RTVSPost2010Prop42
 90
       50
102
RTVSPost2010PropOp42
 70
     1
102
RTVSPost2010Prop43
 90
        3
102
RTVSPost2010PropOp43
 70
     1
102
RTVSPost2010Prop44ColorIndex
 90
        5
102
RTVSPost2010Prop44ColorRGB
 90
      255
102
RTVSPost2010PropOp44
 70
     1
102
RTVSPost2010Prop45
280
     0
102
RTVSPost2010PropOp45
 70
     1
102
RTVSPost2010Prop46
 90
       50
102
RTVSPost2010PropOp46
 70
     1
102
RTVSPost2010Prop47
 90
       50
102
RTVSPost2010PropOp47
 70
     1
102
RTVSPost2010Prop48
 90
       50
102
RTVSPost2010PropOp48
 70
     1
102
RTVSPost2010Prop49
280
     0
102
RTVSPost2010PropOp49
 70
     1
102
RTVSPost2010Prop50
 90
       50
102
RTVSPost2010PropOp50
 70
     1
102
RTVSPost2010Prop51ColorIndex
 90
      256
102
RTVSPost2010Prop51ColorRGB
 90
-16777216
102
RTVSPost2010PropOp51
 70
     0
102
RTVSPost2010Prop52
140
1.0
102
RTVSPost2010PropOp52
 70
     0
102
RTVSPost2010Prop53
 90
        2
102
RTVSPost2010PropOp53
 70
     1
102
RTVSPost2010Prop54
  1
strokes_ogs.tif
102
RTVSPost2010PropOp54
 70
     1
102
RTVSPost2010Prop55
280
     0
102
RTVSPost2010PropOp55
 70
     1
102
RTVSPost2010Prop56
140
1.0
102
RTVSPost2010PropOp56
 70
     1
102
RTVSPost2010Prop57
140
1.0
102
RTVSPost2010PropOp57
 70
     1
102
RTVSPropertyOp0
 70
     1
102
RTVSPropertyOp1
 70
     1
102
RTVSPropertyOp2
 70
     1
102
RTVSPropertyOp3
 70
     1
102
RTVSPropertyOp4
 70
     1
102
RTVSPropertyOp5
 70
     1
102
RTVSPropertyOp6
 70
     1
102
RTVSPropertyOp7
 70
     1
102
RTVSPropertyOp8
 70
     1
102
RTVSPropertyOp9
 70
     1
102
RTVSPropertyOp10
 70
     1
102
RTVSPropertyOp11
 70
     1
102
RTVSPropertyOp12
 70
     1
102
RTVSPropertyOp13
 70
     1
102
RTVSPropertyOp14
 70
     1
102
RTVSPropertyOp15
 70
     1
102
RTVSPropertyOp16
 70
     1
102
RTVSPropertyOp17
 70
     1
102
RTVSPropertyOp18
 70
     1
102
RTVSPropertyOp19
 70
     1
102
RTVSPropertyOp20
 70
     1
102
RTVSPropertyOp21
 70
     1
102
RTVSPropertyOp22
 70
     1
102
RTVSPropertyOp23
 70
     1
102
RTVSPropertyOp24
 70
     1
102
RTVSPropertyOp25
 70
     1
102
RTVSPropertyOp26
 70
     1
102
RTVSPropertyOp27
 70
     1
102
RTVSPropertyOp28
 70
     1
102
RTVSPropertyOp29
 70
     1
102
RTVSPropertyOp30
 70
     1
102
RTVSPropertyOp31
 70
     1
102
RTVSPropertyOp32
 70
     1
102
RTVSPropertyOp33
 70
     1
102
RTVSPropertyOp34
 70
     1
102
RTVSPropertyOp35
 70
     1
102
RTVSPropertyOp36
 70
     1
102
RTVSPropertyOp37
 70
     1
102
RTVSPropertyOp38
 70
     1
102
RTVSPropertyOp39
 70
     1
102
RTVSPropertyOp40
 70
     1
102
RTVSPropertyOp41
 70
     1
102
RTVSPropertyOp42
 70
     1
102
RTVSPropertyOp43
 70
     1
102
RTVSPropertyOp44
 70
     1
102
RTVSPropertyOp45
 70
     1
102
RTVSPropertyOp46
 70
     1
102
RTVSPropertyOp47
 70
     1
102
RTVSPropertyOp48
 70
     1
102
RTVSPropertyOp49
 70
     1
102
RTVSPropertyOp50
 70
     1
102
RTVSPropertyOp51
 70
     0
102
RTVSPropertyOp52
 70
     0
102
RTVSPropertyOp53
 70
     1
102
RTVSPropertyOp54
 70
     1
102
RTVSPropertyOp55
 70
     1
102
RTVSPropertyOp56
 70
     1
102
RTVSPropertyOp57
 70
     1
102
RTVSPropertyOp58
 70
     1
102
RTVSPropertyOp59
 70
     1
102
RTVSPropertyOp60
 70
     1
102
RTVSPropertyOp61
 70
     1
102
RTVSPropertyOp62
 70
     1
  0
XRECORD
  5
80A
102
{ACAD_REACTORS
330
809
102
}
330
809
100
AcDbXrecord
280
     1
102
RTVSPost2010Prop28
280
     0
102
RTVSPost2010PropOp28
 70
     1
102
RTVSPost2010Prop29
280
     1
102
RTVSPost2010PropOp29
 70
     1
102
RTVSPost2010Prop30
280
     1
102
RTVSPost2010PropOp30
 70
     1
102
RTVSPost2010Prop31
280
     0
102
RTVSPost2010PropOp31
 70
     1
102
RTVSPost2010Prop32
280
     0
102
RTVSPost2010PropOp32
 70
     1
102
RTVSPost2010Prop33
280
     0
102
RTVSPost2010PropOp33
 70
     1
102
RTVSPost2010Prop34
280
     0
102
RTVSPost2010PropOp34
 70
     1
102
RTVSPost2010Prop35
280
     0
102
RTVSPost2010PropOp35
 70
     1
102
RTVSPost2010Prop36
280
     0
102
RTVSPost2010PropOp36
 70
     1
102
RTVSPost2010Prop37
 90
       50
102
RTVSPost2010PropOp37
 70
     1
102
RTVSPost2010Prop38
140
0.0
102
RTVSPost2010PropOp38
 70
     1
102
RTVSPost2010Prop39
140
1.0
102
RTVSPost2010PropOp39
 70
     1
102
RTVSPost2010Prop40
 90
        0
102
RTVSPost2010PropOp40
 70
     1
102
RTVSPost2010Prop41ColorIndex
 90
       18
102
RTVSPost2010Prop41ColorRGB
 90
        0
102
RTVSPost2010PropOp41
 70
     1
102
RTVSPost2010Prop42
 90
       50
102
RTVSPost2010PropOp42
 70
     1
102
RTVSPost2010Prop43
 90
        3
102
RTVSPost2010PropOp43
 70
     1
102
RTVSPost2010Prop44ColorIndex
 90
        5
102
RTVSPost2010Prop44ColorRGB
 90
      255
102
RTVSPost2010PropOp44
 70
     1
102
RTVSPost2010Prop45
280
     0
102
RTVSPost2010PropOp45
 70
     1
102
RTVSPost2010Prop46
 90
       50
102
RTVSPost2010PropOp46
 70
     1
102
RTVSPost2010Prop47
 90
       50
102
RTVSPost2010PropOp47
 70
     1
102
RTVSPost2010Prop48
 90
       50
102
RTVSPost2010PropOp48
 70
     1
102
RTVSPost2010Prop49
280
     0
102
RTVSPost2010PropOp49
 70
     1
102
RTVSPost2010Prop50
 90
       50
102
RTVSPost2010PropOp50
 70
     1
102
RTVSPost2010Prop51ColorIndex
 90
      256
102
RTVSPost2010Prop51ColorRGB
 90
-16777216
102
RTVSPost2010PropOp51
 70
     0
102
RTVSPost2010Prop52
140
1.0
102
RTVSPost2010PropOp52
 70
     0
102
RTVSPost2010Prop53
 90
        2
102
RTVSPost2010PropOp53
 70
     1
102
RTVSPost2010Prop54
  1
strokes_ogs.tif
102
RTVSPost2010PropOp54
 70
     1
102
RTVSPost2010Prop55
280
     0
102
RTVSPost2010PropOp55
 70
     1
102
RTVSPost2010Prop56
140
1.0
102
RTVSPost2010PropOp56
 70
     1
102
RTVSPost2010Prop57
140
1.0
102
RTVSPost2010PropOp57
 70
     1
102
RTVSPropertyOp0
 70
     1
102
RTVSPropertyOp1
 70
     1
102
RTVSPropertyOp2
 70
     1
102
RTVSPropertyOp3
 70
     1
102
RTVSPropertyOp4
 70
     1
102
RTVSPropertyOp5
 70
     1
102
RTVSPropertyOp6
 70
     1
102
RTVSPropertyOp7
 70
     1
102
RTVSPropertyOp8
 70
     1
102
RTVSPropertyOp9
 70
     1
102
RTVSPropertyOp10
 70
     1
102
RTVSPropertyOp11
 70
     1
102
RTVSPropertyOp12
 70
     1
102
RTVSPropertyOp13
 70
     1
102
RTVSPropertyOp14
 70
     1
102
RTVSPropertyOp15
 70
     1
102
RTVSPropertyOp16
 70
     1
102
RTVSPropertyOp17
 70
     1
102
RTVSPropertyOp18
 70
     1
102
RTVSPropertyOp19
 70
     1
102
RTVSPropertyOp20
 70
     1
102
RTVSPropertyOp21
 70
     1
102
RTVSPropertyOp22
 70
     1
102
RTVSPropertyOp23
 70
     1
102
RTVSPropertyOp24
 70
     1
102
RTVSPropertyOp25
 70
     1
102
RTVSPropertyOp26
 70
     1
102
RTVSPropertyOp27
 70
     1
102
RTVSPropertyOp28
 70
     1
102
RTVSPropertyOp29
 70
     1
102
RTVSPropertyOp30
 70
     1
102
RTVSPropertyOp31
 70
     1
102
RTVSPropertyOp32
 70
     1
102
RTVSPropertyOp33
 70
     1
102
RTVSPropertyOp34
 70
     1
102
RTVSPropertyOp35
 70
     1
102
RTVSPropertyOp36
 70
     1
102
RTVSPropertyOp37
 70
     1
102
RTVSPropertyOp38
 70
     1
102
RTVSPropertyOp39
 70
     1
102
RTVSPropertyOp40
 70
     1
102
RTVSPropertyOp41
 70
     1
102
RTVSPropertyOp42
 70
     1
102
RTVSPropertyOp43
 70
     1
102
RTVSPropertyOp44
 70
     1
102
RTVSPropertyOp45
 70
     1
102
RTVSPropertyOp46
 70
     1
102
RTVSPropertyOp47
 70
     1
102
RTVSPropertyOp48
 70
     1
102
RTVSPropertyOp49
 70
     1
102
RTVSPropertyOp50
 70
     1
102
RTVSPropertyOp51
 70
     0
102
RTVSPropertyOp52
 70
     0
102
RTVSPropertyOp53
 70
     1
102
RTVSPropertyOp54
 70
     1
102
RTVSPropertyOp55
 70
     1
102
RTVSPropertyOp56
 70
     1
102
RTVSPropertyOp57
 70
     1
102
RTVSPropertyOp58
 70
     1
102
RTVSPropertyOp59
 70
     1
102
RTVSPropertyOp60
 70
     1
102
RTVSPropertyOp61
 70
     1
102
RTVSPropertyOp62
 70
     1
  0
XRECORD
  5
812
102
{ACAD_REACTORS
330
811
102
}
330
811
100
AcDbXrecord
280
     1
102
RTVSPost2010Prop28
280
     0
102
RTVSPost2010PropOp28
 70
     1
102
RTVSPost2010Prop29
280
     1
102
RTVSPost2010PropOp29
 70
     1
102
RTVSPost2010Prop30
280
     1
102
RTVSPost2010PropOp30
 70
     1
102
RTVSPost2010Prop31
280
     0
102
RTVSPost2010PropOp31
 70
     1
102
RTVSPost2010Prop32
280
     0
102
RTVSPost2010PropOp32
 70
     1
102
RTVSPost2010Prop33
280
     0
102
RTVSPost2010PropOp33
 70
     1
102
RTVSPost2010Prop34
280
     0
102
RTVSPost2010PropOp34
 70
     1
102
RTVSPost2010Prop35
280
     0
102
RTVSPost2010PropOp35
 70
     1
102
RTVSPost2010Prop36
280
     0
102
RTVSPost2010PropOp36
 70
     1
102
RTVSPost2010Prop37
 90
       50
102
RTVSPost2010PropOp37
 70
     1
102
RTVSPost2010Prop38
140
0.0
102
RTVSPost2010PropOp38
 70
     1
102
RTVSPost2010Prop39
140
1.0
102
RTVSPost2010PropOp39
 70
     1
102
RTVSPost2010Prop40
 90
        0
102
RTVSPost2010PropOp40
 70
     1
102
RTVSPost2010Prop41ColorIndex
 90
       18
102
RTVSPost2010Prop41ColorRGB
 90
        0
102
RTVSPost2010PropOp41
 70
     1
102
RTVSPost2010Prop42
 90
       50
102
RTVSPost2010PropOp42
 70
     1
102
RTVSPost2010Prop43
 90
        3
102
RTVSPost2010PropOp43
 70
     1
102
RTVSPost2010Prop44ColorIndex
 90
        5
102
RTVSPost2010Prop44ColorRGB
 90
      255
102
RTVSPost2010PropOp44
 70
     1
102
RTVSPost2010Prop45
280
     0
102
RTVSPost2010PropOp45
 70
     1
102
RTVSPost2010Prop46
 90
       50
102
RTVSPost2010PropOp46
 70
     1
102
RTVSPost2010Prop47
 90
       50
102
RTVSPost2010PropOp47
 70
     1
102
RTVSPost2010Prop48
 90
       50
102
RTVSPost2010PropOp48
 70
     1
102
RTVSPost2010Prop49
280
     0
102
RTVSPost2010PropOp49
 70
     1
102
RTVSPost2010Prop50
 90
       50
102
RTVSPost2010PropOp50
 70
     1
102
RTVSPost2010Prop51ColorIndex
 90
      256
102
RTVSPost2010Prop51ColorRGB
 90
-16777216
102
RTVSPost2010PropOp51
 70
     0
102
RTVSPost2010Prop52
140
1.0
102
RTVSPost2010PropOp52
 70
     0
102
RTVSPost2010Prop53
 90
        2
102
RTVSPost2010PropOp53
 70
     1
102
RTVSPost2010Prop54
  1
strokes_ogs.tif
102
RTVSPost2010PropOp54
 70
     1
102
RTVSPost2010Prop55
280
     0
102
RTVSPost2010PropOp55
 70
     1
102
RTVSPost2010Prop56
140
1.0
102
RTVSPost2010PropOp56
 70
     1
102
RTVSPost2010Prop57
140
1.0
102
RTVSPost2010PropOp57
 70
     1
102
RTVSPropertyOp0
 70
     1
102
RTVSPropertyOp1
 70
     1
102
RTVSPropertyOp2
 70
     1
102
RTVSPropertyOp3
 70
     1
102
RTVSPropertyOp4
 70
     1
102
RTVSPropertyOp5
 70
     1
102
RTVSPropertyOp6
 70
     1
102
RTVSPropertyOp7
 70
     1
102
RTVSPropertyOp8
 70
     1
102
RTVSPropertyOp9
 70
     1
102
RTVSPropertyOp10
 70
     1
102
RTVSPropertyOp11
 70
     1
102
RTVSPropertyOp12
 70
     1
102
RTVSPropertyOp13
 70
     1
102
RTVSPropertyOp14
 70
     1
102
RTVSPropertyOp15
 70
     1
102
RTVSPropertyOp16
 70
     1
102
RTVSPropertyOp17
 70
     1
102
RTVSPropertyOp18
 70
     1
102
RTVSPropertyOp19
 70
     1
102
RTVSPropertyOp20
 70
     1
102
RTVSPropertyOp21
 70
     1
102
RTVSPropertyOp22
 70
     1
102
RTVSPropertyOp23
 70
     1
102
RTVSPropertyOp24
 70
     1
102
RTVSPropertyOp25
 70
     1
102
RTVSPropertyOp26
 70
     1
102
RTVSPropertyOp27
 70
     1
102
RTVSPropertyOp28
 70
     1
102
RTVSPropertyOp29
 70
     1
102
RTVSPropertyOp30
 70
     1
102
RTVSPropertyOp31
 70
     1
102
RTVSPropertyOp32
 70
     1
102
RTVSPropertyOp33
 70
     1
102
RTVSPropertyOp34
 70
     1
102
RTVSPropertyOp35
 70
     1
102
RTVSPropertyOp36
 70
     1
102
RTVSPropertyOp37
 70
     1
102
RTVSPropertyOp38
 70
     1
102
RTVSPropertyOp39
 70
     1
102
RTVSPropertyOp40
 70
     1
102
RTVSPropertyOp41
 70
     1
102
RTVSPropertyOp42
 70
     1
102
RTVSPropertyOp43
 70
     1
102
RTVSPropertyOp44
 70
     1
102
RTVSPropertyOp45
 70
     1
102
RTVSPropertyOp46
 70
     1
102
RTVSPropertyOp47
 70
     1
102
RTVSPropertyOp48
 70
     1
102
RTVSPropertyOp49
 70
     1
102
RTVSPropertyOp50
 70
     1
102
RTVSPropertyOp51
 70
     0
102
RTVSPropertyOp52
 70
     0
102
RTVSPropertyOp53
 70
     1
102
RTVSPropertyOp54
 70
     1
102
RTVSPropertyOp55
 70
     1
102
RTVSPropertyOp56
 70
     1
102
RTVSPropertyOp57
 70
     1
102
RTVSPropertyOp58
 70
     1
102
RTVSPropertyOp59
 70
     1
102
RTVSPropertyOp60
 70
     1
102
RTVSPropertyOp61
 70
     1
102
RTVSPropertyOp62
 70
     1
  0
XRECORD
  5
804
102
{ACAD_REACTORS
330
803
102
}
330
803
100
AcDbXrecord
280
     1
102
RTVSPost2010Prop28
280
     0
102
RTVSPost2010PropOp28
 70
     1
102
RTVSPost2010Prop29
280
     1
102
RTVSPost2010PropOp29
 70
     1
102
RTVSPost2010Prop30
280
     1
102
RTVSPost2010PropOp30
 70
     1
102
RTVSPost2010Prop31
280
     0
102
RTVSPost2010PropOp31
 70
     1
102
RTVSPost2010Prop32
280
     0
102
RTVSPost2010PropOp32
 70
     1
102
RTVSPost2010Prop33
280
     0
102
RTVSPost2010PropOp33
 70
     1
102
RTVSPost2010Prop34
280
     0
102
RTVSPost2010PropOp34
 70
     1
102
RTVSPost2010Prop35
280
     0
102
RTVSPost2010PropOp35
 70
     1
102
RTVSPost2010Prop36
280
     0
102
RTVSPost2010PropOp36
 70
     1
102
RTVSPost2010Prop37
 90
       50
102
RTVSPost2010PropOp37
 70
     1
102
RTVSPost2010Prop38
140
0.0
102
RTVSPost2010PropOp38
 70
     1
102
RTVSPost2010Prop39
140
1.0
102
RTVSPost2010PropOp39
 70
     1
102
RTVSPost2010Prop40
 90
        0
102
RTVSPost2010PropOp40
 70
     1
102
RTVSPost2010Prop41ColorIndex
 90
       18
102
RTVSPost2010Prop41ColorRGB
 90
        0
102
RTVSPost2010PropOp41
 70
     1
102
RTVSPost2010Prop42
 90
       50
102
RTVSPost2010PropOp42
 70
     1
102
RTVSPost2010Prop43
 90
        3
102
RTVSPost2010PropOp43
 70
     1
102
RTVSPost2010Prop44ColorIndex
 90
        5
102
RTVSPost2010Prop44ColorRGB
 90
      255
102
RTVSPost2010PropOp44
 70
     1
102
RTVSPost2010Prop45
280
     0
102
RTVSPost2010PropOp45
 70
     1
102
RTVSPost2010Prop46
 90
       50
102
RTVSPost2010PropOp46
 70
     1
102
RTVSPost2010Prop47
 90
       50
102
RTVSPost2010PropOp47
 70
     1
102
RTVSPost2010Prop48
 90
       50
102
RTVSPost2010PropOp48
 70
     1
102
RTVSPost2010Prop49
280
     0
102
RTVSPost2010PropOp49
 70
     1
102
RTVSPost2010Prop50
 90
       50
102
RTVSPost2010PropOp50
 70
     1
102
RTVSPost2010Prop51ColorIndex
 90
      256
102
RTVSPost2010Prop51ColorRGB
 90
-16777216
102
RTVSPost2010PropOp51
 70
     0
102
RTVSPost2010Prop52
140
1.0
102
RTVSPost2010PropOp52
 70
     0
102
RTVSPost2010Prop53
 90
        2
102
RTVSPost2010PropOp53
 70
     1
102
RTVSPost2010Prop54
  1
strokes_ogs.tif
102
RTVSPost2010PropOp54
 70
     1
102
RTVSPost2010Prop55
280
     0
102
RTVSPost2010PropOp55
 70
     1
102
RTVSPost2010Prop56
140
1.0
102
RTVSPost2010PropOp56
 70
     1
102
RTVSPost2010Prop57
140
1.0
102
RTVSPost2010PropOp57
 70
     1
102
RTVSPropertyOp0
 70
     1
102
RTVSPropertyOp1
 70
     1
102
RTVSPropertyOp2
 70
     1
102
RTVSPropertyOp3
 70
     1
102
RTVSPropertyOp4
 70
     1
102
RTVSPropertyOp5
 70
     1
102
RTVSPropertyOp6
 70
     1
102
RTVSPropertyOp7
 70
     1
102
RTVSPropertyOp8
 70
     1
102
RTVSPropertyOp9
 70
     1
102
RTVSPropertyOp10
 70
     1
102
RTVSPropertyOp11
 70
     1
102
RTVSPropertyOp12
 70
     1
102
RTVSPropertyOp13
 70
     1
102
RTVSPropertyOp14
 70
     1
102
RTVSPropertyOp15
 70
     1
102
RTVSPropertyOp16
 70
     1
102
RTVSPropertyOp17
 70
     1
102
RTVSPropertyOp18
 70
     1
102
RTVSPropertyOp19
 70
     1
102
RTVSPropertyOp20
 70
     1
102
RTVSPropertyOp21
 70
     1
102
RTVSPropertyOp22
 70
     1
102
RTVSPropertyOp23
 70
     1
102
RTVSPropertyOp24
 70
     1
102
RTVSPropertyOp25
 70
     1
102
RTVSPropertyOp26
 70
     1
102
RTVSPropertyOp27
 70
     1
102
RTVSPropertyOp28
 70
     1
102
RTVSPropertyOp29
 70
     1
102
RTVSPropertyOp30
 70
     1
102
RTVSPropertyOp31
 70
     1
102
RTVSPropertyOp32
 70
     1
102
RTVSPropertyOp33
 70
     1
102
RTVSPropertyOp34
 70
     1
102
RTVSPropertyOp35
 70
     1
102
RTVSPropertyOp36
 70
     1
102
RTVSPropertyOp37
 70
     1
102
RTVSPropertyOp38
 70
     1
102
RTVSPropertyOp39
 70
     1
102
RTVSPropertyOp40
 70
     1
102
RTVSPropertyOp41
 70
     1
102
RTVSPropertyOp42
 70
     1
102
RTVSPropertyOp43
 70
     1
102
RTVSPropertyOp44
 70
     1
102
RTVSPropertyOp45
 70
     1
102
RTVSPropertyOp46
 70
     1
102
RTVSPropertyOp47
 70
     1
102
RTVSPropertyOp48
 70
     1
102
RTVSPropertyOp49
 70
     1
102
RTVSPropertyOp50
 70
     1
102
RTVSPropertyOp51
 70
     0
102
RTVSPropertyOp52
 70
     0
102
RTVSPropertyOp53
 70
     1
102
RTVSPropertyOp54
 70
     1
102
RTVSPropertyOp55
 70
     1
102
RTVSPropertyOp56
 70
     1
102
RTVSPropertyOp57
 70
     1
102
RTVSPropertyOp58
 70
     1
102
RTVSPropertyOp59
 70
     1
102
RTVSPropertyOp60
 70
     1
102
RTVSPropertyOp61
 70
     1
102
RTVSPropertyOp62
 70
     1
  0
XRECORD
  5
808
102
{ACAD_REACTORS
330
807
102
}
330
807
100
AcDbXrecord
280
     1
102
RTVSPost2010Prop28
280
     0
102
RTVSPost2010PropOp28
 70
     1
102
RTVSPost2010Prop29
280
     1
102
RTVSPost2010PropOp29
 70
     1
102
RTVSPost2010Prop30
280
     1
102
RTVSPost2010PropOp30
 70
     1
102
RTVSPost2010Prop31
280
     0
102
RTVSPost2010PropOp31
 70
     1
102
RTVSPost2010Prop32
280
     0
102
RTVSPost2010PropOp32
 70
     1
102
RTVSPost2010Prop33
280
     0
102
RTVSPost2010PropOp33
 70
     1
102
RTVSPost2010Prop34
280
     0
102
RTVSPost2010PropOp34
 70
     1
102
RTVSPost2010Prop35
280
     0
102
RTVSPost2010PropOp35
 70
     1
102
RTVSPost2010Prop36
280
     0
102
RTVSPost2010PropOp36
 70
     1
102
RTVSPost2010Prop37
 90
       50
102
RTVSPost2010PropOp37
 70
     1
102
RTVSPost2010Prop38
140
0.0
102
RTVSPost2010PropOp38
 70
     1
102
RTVSPost2010Prop39
140
1.0
102
RTVSPost2010PropOp39
 70
     1
102
RTVSPost2010Prop40
 90
        0
102
RTVSPost2010PropOp40
 70
     1
102
RTVSPost2010Prop41ColorIndex
 90
       18
102
RTVSPost2010Prop41ColorRGB
 90
        0
102
RTVSPost2010PropOp41
 70
     1
102
RTVSPost2010Prop42
 90
       50
102
RTVSPost2010PropOp42
 70
     1
102
RTVSPost2010Prop43
 90
        3
102
RTVSPost2010PropOp43
 70
     1
102
RTVSPost2010Prop44ColorIndex
 90
        5
102
RTVSPost2010Prop44ColorRGB
 90
      255
102
RTVSPost2010PropOp44
 70
     1
102
RTVSPost2010Prop45
280
     0
102
RTVSPost2010PropOp45
 70
     1
102
RTVSPost2010Prop46
 90
       50
102
RTVSPost2010PropOp46
 70
     1
102
RTVSPost2010Prop47
 90
       50
102
RTVSPost2010PropOp47
 70
     1
102
RTVSPost2010Prop48
 90
       50
102
RTVSPost2010PropOp48
 70
     1
102
RTVSPost2010Prop49
280
     0
102
RTVSPost2010PropOp49
 70
     1
102
RTVSPost2010Prop50
 90
       50
102
RTVSPost2010PropOp50
 70
     1
102
RTVSPost2010Prop51ColorIndex
 90
      256
102
RTVSPost2010Prop51ColorRGB
 90
-16777216
102
RTVSPost2010PropOp51
 70
     0
102
RTVSPost2010Prop52
140
1.0
102
RTVSPost2010PropOp52
 70
     0
102
RTVSPost2010Prop53
 90
        2
102
RTVSPost2010PropOp53
 70
     1
102
RTVSPost2010Prop54
  1
strokes_ogs.tif
102
RTVSPost2010PropOp54
 70
     1
102
RTVSPost2010Prop55
280
     0
102
RTVSPost2010PropOp55
 70
     1
102
RTVSPost2010Prop56
140
1.0
102
RTVSPost2010PropOp56
 70
     1
102
RTVSPost2010Prop57
140
1.0
102
RTVSPost2010PropOp57
 70
     1
102
RTVSPropertyOp0
 70
     1
102
RTVSPropertyOp1
 70
     1
102
RTVSPropertyOp2
 70
     1
102
RTVSPropertyOp3
 70
     1
102
RTVSPropertyOp4
 70
     1
102
RTVSPropertyOp5
 70
     1
102
RTVSPropertyOp6
 70
     1
102
RTVSPropertyOp7
 70
     1
102
RTVSPropertyOp8
 70
     1
102
RTVSPropertyOp9
 70
     1
102
RTVSPropertyOp10
 70
     1
102
RTVSPropertyOp11
 70
     1
102
RTVSPropertyOp12
 70
     1
102
RTVSPropertyOp13
 70
     1
102
RTVSPropertyOp14
 70
     1
102
RTVSPropertyOp15
 70
     1
102
RTVSPropertyOp16
 70
     1
102
RTVSPropertyOp17
 70
     1
102
RTVSPropertyOp18
 70
     1
102
RTVSPropertyOp19
 70
     1
102
RTVSPropertyOp20
 70
     1
102
RTVSPropertyOp21
 70
     1
102
RTVSPropertyOp22
 70
     1
102
RTVSPropertyOp23
 70
     1
102
RTVSPropertyOp24
 70
     1
102
RTVSPropertyOp25
 70
     1
102
RTVSPropertyOp26
 70
     1
102
RTVSPropertyOp27
 70
     1
102
RTVSPropertyOp28
 70
     1
102
RTVSPropertyOp29
 70
     1
102
RTVSPropertyOp30
 70
     1
102
RTVSPropertyOp31
 70
     1
102
RTVSPropertyOp32
 70
     1
102
RTVSPropertyOp33
 70
     1
102
RTVSPropertyOp34
 70
     1
102
RTVSPropertyOp35
 70
     1
102
RTVSPropertyOp36
 70
     1
102
RTVSPropertyOp37
 70
     1
102
RTVSPropertyOp38
 70
     1
102
RTVSPropertyOp39
 70
     1
102
RTVSPropertyOp40
 70
     1
102
RTVSPropertyOp41
 70
     1
102
RTVSPropertyOp42
 70
     1
102
RTVSPropertyOp43
 70
     1
102
RTVSPropertyOp44
 70
     1
102
RTVSPropertyOp45
 70
     1
102
RTVSPropertyOp46
 70
     1
102
RTVSPropertyOp47
 70
     1
102
RTVSPropertyOp48
 70
     1
102
RTVSPropertyOp49
 70
     1
102
RTVSPropertyOp50
 70
     1
102
RTVSPropertyOp51
 70
     0
102
RTVSPropertyOp52
 70
     0
102
RTVSPropertyOp53
 70
     1
102
RTVSPropertyOp54
 70
     1
102
RTVSPropertyOp55
 70
     1
102
RTVSPropertyOp56
 70
     1
102
RTVSPropertyOp57
 70
     1
102
RTVSPropertyOp58
 70
     1
102
RTVSPropertyOp59
 70
     1
102
RTVSPropertyOp60
 70
     1
102
RTVSPropertyOp61
 70
     1
102
RTVSPropertyOp62
 70
     1
  0
XRECORD
  5
822
102
{ACAD_REACTORS
330
821
102
}
330
821
100
AcDbXrecord
280
     1
102
RTVSPost2010Prop28
280
     0
102
RTVSPost2010PropOp28
 70
     0
102
RTVSPost2010Prop29
280
     1
102
RTVSPost2010PropOp29
 70
     0
102
RTVSPost2010Prop30
280
     1
102
RTVSPost2010PropOp30
 70
     0
102
RTVSPost2010Prop31
280
     0
102
RTVSPost2010PropOp31
 70
     0
102
RTVSPost2010Prop32
280
     0
102
RTVSPost2010PropOp32
 70
     0
102
RTVSPost2010Prop33
280
     0
102
RTVSPost2010PropOp33
 70
     0
102
RTVSPost2010Prop34
280
     0
102
RTVSPost2010PropOp34
 70
     0
102
RTVSPost2010Prop35
280
     0
102
RTVSPost2010PropOp35
 70
     0
102
RTVSPost2010Prop36
280
     0
102
RTVSPost2010PropOp36
 70
     0
102
RTVSPost2010Prop37
 90
       50
102
RTVSPost2010PropOp37
 70
     0
102
RTVSPost2010Prop38
140
0.0
102
RTVSPost2010PropOp38
 70
     0
102
RTVSPost2010Prop39
140
1.0
102
RTVSPost2010PropOp39
 70
     0
102
RTVSPost2010Prop40
 90
        0
102
RTVSPost2010PropOp40
 70
     0
102
RTVSPost2010Prop41ColorIndex
 90
       18
102
RTVSPost2010Prop41ColorRGB
 90
        0
102
RTVSPost2010PropOp41
 70
     0
102
RTVSPost2010Prop42
 90
       50
102
RTVSPost2010PropOp42
 70
     0
102
RTVSPost2010Prop43
 90
        3
102
RTVSPost2010PropOp43
 70
     0
102
RTVSPost2010Prop44ColorIndex
 90
        5
102
RTVSPost2010Prop44ColorRGB
 90
      255
102
RTVSPost2010PropOp44
 70
     0
102
RTVSPost2010Prop45
280
     0
102
RTVSPost2010PropOp45
 70
     0
102
RTVSPost2010Prop46
 90
       50
102
RTVSPost2010PropOp46
 70
     0
102
RTVSPost2010Prop47
 90
       50
102
RTVSPost2010PropOp47
 70
     0
102
RTVSPost2010Prop48
 90
       50
102
RTVSPost2010PropOp48
 70
     0
102
RTVSPost2010Prop49
280
     0
102
RTVSPost2010PropOp49
 70
     0
102
RTVSPost2010Prop50
 90
       50
102
RTVSPost2010PropOp50
 70
     0
102
RTVSPost2010Prop51ColorIndex
 90
      256
102
RTVSPost2010Prop51ColorRGB
 90
-16777216
102
RTVSPost2010PropOp51
 70
     0
102
RTVSPost2010Prop52
140
1.0
102
RTVSPost2010PropOp52
 70
     0
102
RTVSPost2010Prop53
 90
        2
102
RTVSPost2010PropOp53
 70
     0
102
RTVSPost2010Prop54
  1
strokes_ogs.tif
102
RTVSPost2010PropOp54
 70
     0
102
RTVSPost2010Prop55
280
     0
102
RTVSPost2010PropOp55
 70
     0
102
RTVSPost2010Prop56
140
1.0
102
RTVSPost2010PropOp56
 70
     0
102
RTVSPost2010Prop57
140
1.0
102
RTVSPost2010PropOp57
 70
     0
102
RTVSPropertyOp0
 70
     0
102
RTVSPropertyOp1
 70
     0
102
RTVSPropertyOp2
 70
     0
102
RTVSPropertyOp3
 70
     0
102
RTVSPropertyOp4
 70
     0
102
RTVSPropertyOp5
 70
     0
102
RTVSPropertyOp6
 70
     0
102
RTVSPropertyOp7
 70
     0
102
RTVSPropertyOp8
 70
     0
102
RTVSPropertyOp9
 70
     0
102
RTVSPropertyOp10
 70
     0
102
RTVSPropertyOp11
 70
     0
102
RTVSPropertyOp12
 70
     0
102
RTVSPropertyOp13
 70
     0
102
RTVSPropertyOp14
 70
     2
102
RTVSPropertyOp15
 70
     0
102
RTVSPropertyOp16
 70
     0
102
RTVSPropertyOp17
 70
     0
102
RTVSPropertyOp18
 70
     0
102
RTVSPropertyOp19
 70
     0
102
RTVSPropertyOp20
 70
     0
102
RTVSPropertyOp21
 70
     0
102
RTVSPropertyOp22
 70
     0
102
RTVSPropertyOp23
 70
     0
102
RTVSPropertyOp24
 70
     0
102
RTVSPropertyOp25
 70
     0
102
RTVSPropertyOp26
 70
     0
102
RTVSPropertyOp27
 70
     0
102
RTVSPropertyOp28
 70
     0
102
RTVSPropertyOp29
 70
     0
102
RTVSPropertyOp30
 70
     0
102
RTVSPropertyOp31
 70
     0
102
RTVSPropertyOp32
 70
     0
102
RTVSPropertyOp33
 70
     0
102
RTVSPropertyOp34
 70
     0
102
RTVSPropertyOp35
 70
     0
102
RTVSPropertyOp36
 70
     0
102
RTVSPropertyOp37
 70
     0
102
RTVSPropertyOp38
 70
     0
102
RTVSPropertyOp39
 70
     0
102
RTVSPropertyOp40
 70
     0
102
RTVSPropertyOp41
 70
     0
102
RTVSPropertyOp42
 70
     0
102
RTVSPropertyOp43
 70
     0
102
RTVSPropertyOp44
 70
     0
102
RTVSPropertyOp45
 70
     0
102
RTVSPropertyOp46
 70
     0
102
RTVSPropertyOp47
 70
     0
102
RTVSPropertyOp48
 70
     0
102
RTVSPropertyOp49
 70
     0
102
RTVSPropertyOp50
 70
     0
102
RTVSPropertyOp51
 70
     0
102
RTVSPropertyOp52
 70
     0
102
RTVSPropertyOp53
 70
     0
102
RTVSPropertyOp54
 70
     0
102
RTVSPropertyOp55
 70
     0
102
RTVSPropertyOp56
 70
     0
102
RTVSPropertyOp57
 70
     0
102
RTVSPropertyOp58
 70
     1
102
RTVSPropertyOp59
 70
     1
102
RTVSPropertyOp60
 70
     1
102
RTVSPropertyOp61
 70
     1
102
RTVSPropertyOp62
 70
     1
  0
XRECORD
  5
810
102
{ACAD_REACTORS
330
80F
102
}
330
80F
100
AcDbXrecord
280
     1
102
RTVSPost2010Prop28
280
     0
102
RTVSPost2010PropOp28
 70
     1
102
RTVSPost2010Prop29
280
     1
102
RTVSPost2010PropOp29
 70
     1
102
RTVSPost2010Prop30
280
     1
102
RTVSPost2010PropOp30
 70
     1
102
RTVSPost2010Prop31
280
     0
102
RTVSPost2010PropOp31
 70
     1
102
RTVSPost2010Prop32
280
     0
102
RTVSPost2010PropOp32
 70
     1
102
RTVSPost2010Prop33
280
     0
102
RTVSPost2010PropOp33
 70
     1
102
RTVSPost2010Prop34
280
     0
102
RTVSPost2010PropOp34
 70
     1
102
RTVSPost2010Prop35
280
     0
102
RTVSPost2010PropOp35
 70
     1
102
RTVSPost2010Prop36
280
     0
102
RTVSPost2010PropOp36
 70
     1
102
RTVSPost2010Prop37
 90
       50
102
RTVSPost2010PropOp37
 70
     1
102
RTVSPost2010Prop38
140
0.0
102
RTVSPost2010PropOp38
 70
     1
102
RTVSPost2010Prop39
140
1.0
102
RTVSPost2010PropOp39
 70
     1
102
RTVSPost2010Prop40
 90
        0
102
RTVSPost2010PropOp40
 70
     1
102
RTVSPost2010Prop41ColorIndex
 90
       18
102
RTVSPost2010Prop41ColorRGB
 90
        0
102
RTVSPost2010PropOp41
 70
     1
102
RTVSPost2010Prop42
 90
       50
102
RTVSPost2010PropOp42
 70
     1
102
RTVSPost2010Prop43
 90
        3
102
RTVSPost2010PropOp43
 70
     1
102
RTVSPost2010Prop44ColorIndex
 90
        5
102
RTVSPost2010Prop44ColorRGB
 90
      255
102
RTVSPost2010PropOp44
 70
     1
102
RTVSPost2010Prop45
280
     0
102
RTVSPost2010PropOp45
 70
     1
102
RTVSPost2010Prop46
 90
       50
102
RTVSPost2010PropOp46
 70
     1
102
RTVSPost2010Prop47
 90
       50
102
RTVSPost2010PropOp47
 70
     1
102
RTVSPost2010Prop48
 90
       50
102
RTVSPost2010PropOp48
 70
     1
102
RTVSPost2010Prop49
280
     0
102
RTVSPost2010PropOp49
 70
     1
102
RTVSPost2010Prop50
 90
       50
102
RTVSPost2010PropOp50
 70
     1
102
RTVSPost2010Prop51ColorIndex
 90
      256
102
RTVSPost2010Prop51ColorRGB
 90
-16777216
102
RTVSPost2010PropOp51
 70
     0
102
RTVSPost2010Prop52
140
1.0
102
RTVSPost2010PropOp52
 70
     0
102
RTVSPost2010Prop53
 90
        2
102
RTVSPost2010PropOp53
 70
     1
102
RTVSPost2010Prop54
  1
strokes_ogs.tif
102
RTVSPost2010PropOp54
 70
     1
102
RTVSPost2010Prop55
280
     0
102
RTVSPost2010PropOp55
 70
     1
102
RTVSPost2010Prop56
140
1.0
102
RTVSPost2010PropOp56
 70
     1
102
RTVSPost2010Prop57
140
1.0
102
RTVSPost2010PropOp57
 70
     1
102
RTVSPropertyOp0
 70
     1
102
RTVSPropertyOp1
 70
     1
102
RTVSPropertyOp2
 70
     1
102
RTVSPropertyOp3
 70
     1
102
RTVSPropertyOp4
 70
     1
102
RTVSPropertyOp5
 70
     1
102
RTVSPropertyOp6
 70
     1
102
RTVSPropertyOp7
 70
     1
102
RTVSPropertyOp8
 70
     1
102
RTVSPropertyOp9
 70
     1
102
RTVSPropertyOp10
 70
     1
102
RTVSPropertyOp11
 70
     1
102
RTVSPropertyOp12
 70
     1
102
RTVSPropertyOp13
 70
     1
102
RTVSPropertyOp14
 70
     1
102
RTVSPropertyOp15
 70
     1
102
RTVSPropertyOp16
 70
     1
102
RTVSPropertyOp17
 70
     1
102
RTVSPropertyOp18
 70
     1
102
RTVSPropertyOp19
 70
     1
102
RTVSPropertyOp20
 70
     1
102
RTVSPropertyOp21
 70
     1
102
RTVSPropertyOp22
 70
     1
102
RTVSPropertyOp23
 70
     1
102
RTVSPropertyOp24
 70
     1
102
RTVSPropertyOp25
 70
     1
102
RTVSPropertyOp26
 70
     1
102
RTVSPropertyOp27
 70
     1
102
RTVSPropertyOp28
 70
     1
102
RTVSPropertyOp29
 70
     1
102
RTVSPropertyOp30
 70
     1
102
RTVSPropertyOp31
 70
     1
102
RTVSPropertyOp32
 70
     1
102
RTVSPropertyOp33
 70
     1
102
RTVSPropertyOp34
 70
     1
102
RTVSPropertyOp35
 70
     1
102
RTVSPropertyOp36
 70
     1
102
RTVSPropertyOp37
 70
     1
102
RTVSPropertyOp38
 70
     1
102
RTVSPropertyOp39
 70
     1
102
RTVSPropertyOp40
 70
     1
102
RTVSPropertyOp41
 70
     1
102
RTVSPropertyOp42
 70
     1
102
RTVSPropertyOp43
 70
     1
102
RTVSPropertyOp44
 70
     1
102
RTVSPropertyOp45
 70
     1
102
RTVSPropertyOp46
 70
     1
102
RTVSPropertyOp47
 70
     1
102
RTVSPropertyOp48
 70
     1
102
RTVSPropertyOp49
 70
     1
102
RTVSPropertyOp50
 70
     1
102
RTVSPropertyOp51
 70
     0
102
RTVSPropertyOp52
 70
     0
102
RTVSPropertyOp53
 70
     1
102
RTVSPropertyOp54
 70
     1
102
RTVSPropertyOp55
 70
     1
102
RTVSPropertyOp56
 70
     1
102
RTVSPropertyOp57
 70
     1
102
RTVSPropertyOp58
 70
     1
102
RTVSPropertyOp59
 70
     1
102
RTVSPropertyOp60
 70
     1
102
RTVSPropertyOp61
 70
     1
102
RTVSPropertyOp62
 70
     1
  0
XRECORD
  5
7F4
102
{ACAD_REACTORS
330
7F3
102
}
330
7F3
100
AcDbXrecord
280
     1
102
RTVSPost2010Prop28
280
     0
102
RTVSPost2010PropOp28
 70
     1
102
RTVSPost2010Prop29
280
     1
102
RTVSPost2010PropOp29
 70
     1
102
RTVSPost2010Prop30
280
     1
102
RTVSPost2010PropOp30
 70
     1
102
RTVSPost2010Prop31
280
     0
102
RTVSPost2010PropOp31
 70
     1
102
RTVSPost2010Prop32
280
     0
102
RTVSPost2010PropOp32
 70
     1
102
RTVSPost2010Prop33
280
     0
102
RTVSPost2010PropOp33
 70
     1
102
RTVSPost2010Prop34
280
     0
102
RTVSPost2010PropOp34
 70
     1
102
RTVSPost2010Prop35
280
     0
102
RTVSPost2010PropOp35
 70
     1
102
RTVSPost2010Prop36
280
     0
102
RTVSPost2010PropOp36
 70
     1
102
RTVSPost2010Prop37
 90
       50
102
RTVSPost2010PropOp37
 70
     1
102
RTVSPost2010Prop38
140
0.0
102
RTVSPost2010PropOp38
 70
     1
102
RTVSPost2010Prop39
140
1.0
102
RTVSPost2010PropOp39
 70
     1
102
RTVSPost2010Prop40
 90
        0
102
RTVSPost2010PropOp40
 70
     1
102
RTVSPost2010Prop41ColorIndex
 90
       18
102
RTVSPost2010Prop41ColorRGB
 90
        0
102
RTVSPost2010PropOp41
 70
     1
102
RTVSPost2010Prop42
 90
       50
102
RTVSPost2010PropOp42
 70
     1
102
RTVSPost2010Prop43
 90
        3
102
RTVSPost2010PropOp43
 70
     1
102
RTVSPost2010Prop44ColorIndex
 90
        5
102
RTVSPost2010Prop44ColorRGB
 90
      255
102
RTVSPost2010PropOp44
 70
     1
102
RTVSPost2010Prop45
280
     0
102
RTVSPost2010PropOp45
 70
     1
102
RTVSPost2010Prop46
 90
       50
102
RTVSPost2010PropOp46
 70
     1
102
RTVSPost2010Prop47
 90
       50
102
RTVSPost2010PropOp47
 70
     1
102
RTVSPost2010Prop48
 90
       50
102
RTVSPost2010PropOp48
 70
     1
102
RTVSPost2010Prop49
280
     0
102
RTVSPost2010PropOp49
 70
     1
102
RTVSPost2010Prop50
 90
       50
102
RTVSPost2010PropOp50
 70
     1
102
RTVSPost2010Prop51ColorIndex
 90
      256
102
RTVSPost2010Prop51ColorRGB
 90
-16777216
102
RTVSPost2010PropOp51
 70
     0
102
RTVSPost2010Prop52
140
1.0
102
RTVSPost2010PropOp52
 70
     0
102
RTVSPost2010Prop53
 90
        2
102
RTVSPost2010PropOp53
 70
     1
102
RTVSPost2010Prop54
  1
strokes_ogs.tif
102
RTVSPost2010PropOp54
 70
     1
102
RTVSPost2010Prop55
280
     0
102
RTVSPost2010PropOp55
 70
     1
102
RTVSPost2010Prop56
140
1.0
102
RTVSPost2010PropOp56
 70
     1
102
RTVSPost2010Prop57
140
1.0
102
RTVSPost2010PropOp57
 70
     1
102
RTVSPropertyOp0
 70
     1
102
RTVSPropertyOp1
 70
     1
102
RTVSPropertyOp2
 70
     1
102
RTVSPropertyOp3
 70
     1
102
RTVSPropertyOp4
 70
     1
102
RTVSPropertyOp5
 70
     1
102
RTVSPropertyOp6
 70
     1
102
RTVSPropertyOp7
 70
     1
102
RTVSPropertyOp8
 70
     1
102
RTVSPropertyOp9
 70
     1
102
RTVSPropertyOp10
 70
     1
102
RTVSPropertyOp11
 70
     1
102
RTVSPropertyOp12
 70
     1
102
RTVSPropertyOp13
 70
     1
102
RTVSPropertyOp14
 70
     1
102
RTVSPropertyOp15
 70
     1
102
RTVSPropertyOp16
 70
     1
102
RTVSPropertyOp17
 70
     1
102
RTVSPropertyOp18
 70
     1
102
RTVSPropertyOp19
 70
     1
102
RTVSPropertyOp20
 70
     1
102
RTVSPropertyOp21
 70
     1
102
RTVSPropertyOp22
 70
     1
102
RTVSPropertyOp23
 70
     1
102
RTVSPropertyOp24
 70
     1
102
RTVSPropertyOp25
 70
     1
102
RTVSPropertyOp26
 70
     1
102
RTVSPropertyOp27
 70
     1
102
RTVSPropertyOp28
 70
     1
102
RTVSPropertyOp29
 70
     1
102
RTVSPropertyOp30
 70
     1
102
RTVSPropertyOp31
 70
     1
102
RTVSPropertyOp32
 70
     1
102
RTVSPropertyOp33
 70
     1
102
RTVSPropertyOp34
 70
     1
102
RTVSPropertyOp35
 70
     1
102
RTVSPropertyOp36
 70
     1
102
RTVSPropertyOp37
 70
     1
102
RTVSPropertyOp38
 70
     1
102
RTVSPropertyOp39
 70
     1
102
RTVSPropertyOp40
 70
     1
102
RTVSPropertyOp41
 70
     1
102
RTVSPropertyOp42
 70
     1
102
RTVSPropertyOp43
 70
     1
102
RTVSPropertyOp44
 70
     1
102
RTVSPropertyOp45
 70
     1
102
RTVSPropertyOp46
 70
     1
102
RTVSPropertyOp47
 70
     1
102
RTVSPropertyOp48
 70
     1
102
RTVSPropertyOp49
 70
     1
102
RTVSPropertyOp50
 70
     1
102
RTVSPropertyOp51
 70
     0
102
RTVSPropertyOp52
 70
     0
102
RTVSPropertyOp53
 70
     1
102
RTVSPropertyOp54
 70
     1
102
RTVSPropertyOp55
 70
     1
102
RTVSPropertyOp56
 70
     1
102
RTVSPropertyOp57
 70
     1
102
RTVSPropertyOp58
 70
     1
102
RTVSPropertyOp59
 70
     1
102
RTVSPropertyOp60
 70
     1
102
RTVSPropertyOp61
 70
     1
102
RTVSPropertyOp62
 70
     1
  0
XRECORD
  5
7F6
102
{ACAD_REACTORS
330
7F5
102
}
330
7F5
100
AcDbXrecord
280
     1
102
RTVSPost2010Prop28
280
     0
102
RTVSPost2010PropOp28
 70
     1
102
RTVSPost2010Prop29
280
     1
102
RTVSPost2010PropOp29
 70
     1
102
RTVSPost2010Prop30
280
     1
102
RTVSPost2010PropOp30
 70
     1
102
RTVSPost2010Prop31
280
     0
102
RTVSPost2010PropOp31
 70
     1
102
RTVSPost2010Prop32
280
     0
102
RTVSPost2010PropOp32
 70
     1
102
RTVSPost2010Prop33
280
     0
102
RTVSPost2010PropOp33
 70
     1
102
RTVSPost2010Prop34
280
     0
102
RTVSPost2010PropOp34
 70
     1
102
RTVSPost2010Prop35
280
     0
102
RTVSPost2010PropOp35
 70
     1
102
RTVSPost2010Prop36
280
     0
102
RTVSPost2010PropOp36
 70
     1
102
RTVSPost2010Prop37
 90
       50
102
RTVSPost2010PropOp37
 70
     1
102
RTVSPost2010Prop38
140
0.0
102
RTVSPost2010PropOp38
 70
     1
102
RTVSPost2010Prop39
140
1.0
102
RTVSPost2010PropOp39
 70
     1
102
RTVSPost2010Prop40
 90
        0
102
RTVSPost2010PropOp40
 70
     1
102
RTVSPost2010Prop41ColorIndex
 90
       18
102
RTVSPost2010Prop41ColorRGB
 90
        0
102
RTVSPost2010PropOp41
 70
     1
102
RTVSPost2010Prop42
 90
       50
102
RTVSPost2010PropOp42
 70
     1
102
RTVSPost2010Prop43
 90
        3
102
RTVSPost2010PropOp43
 70
     1
102
RTVSPost2010Prop44ColorIndex
 90
        5
102
RTVSPost2010Prop44ColorRGB
 90
      255
102
RTVSPost2010PropOp44
 70
     1
102
RTVSPost2010Prop45
280
     0
102
RTVSPost2010PropOp45
 70
     1
102
RTVSPost2010Prop46
 90
       50
102
RTVSPost2010PropOp46
 70
     1
102
RTVSPost2010Prop47
 90
       50
102
RTVSPost2010PropOp47
 70
     1
102
RTVSPost2010Prop48
 90
       50
102
RTVSPost2010PropOp48
 70
     1
102
RTVSPost2010Prop49
280
     0
102
RTVSPost2010PropOp49
 70
     1
102
RTVSPost2010Prop50
 90
       50
102
RTVSPost2010PropOp50
 70
     1
102
RTVSPost2010Prop51ColorIndex
 90
      256
102
RTVSPost2010Prop51ColorRGB
 90
-16777216
102
RTVSPost2010PropOp51
 70
     0
102
RTVSPost2010Prop52
140
1.0
102
RTVSPost2010PropOp52
 70
     0
102
RTVSPost2010Prop53
 90
        2
102
RTVSPost2010PropOp53
 70
     1
102
RTVSPost2010Prop54
  1
strokes_ogs.tif
102
RTVSPost2010PropOp54
 70
     1
102
RTVSPost2010Prop55
280
     0
102
RTVSPost2010PropOp55
 70
     1
102
RTVSPost2010Prop56
140
1.0
102
RTVSPost2010PropOp56
 70
     1
102
RTVSPost2010Prop57
140
1.0
102
RTVSPost2010PropOp57
 70
     1
102
RTVSPropertyOp0
 70
     1
102
RTVSPropertyOp1
 70
     1
102
RTVSPropertyOp2
 70
     1
102
RTVSPropertyOp3
 70
     1
102
RTVSPropertyOp4
 70
     1
102
RTVSPropertyOp5
 70
     1
102
RTVSPropertyOp6
 70
     1
102
RTVSPropertyOp7
 70
     1
102
RTVSPropertyOp8
 70
     1
102
RTVSPropertyOp9
 70
     1
102
RTVSPropertyOp10
 70
     1
102
RTVSPropertyOp11
 70
     1
102
RTVSPropertyOp12
 70
     1
102
RTVSPropertyOp13
 70
     1
102
RTVSPropertyOp14
 70
     1
102
RTVSPropertyOp15
 70
     1
102
RTVSPropertyOp16
 70
     1
102
RTVSPropertyOp17
 70
     1
102
RTVSPropertyOp18
 70
     1
102
RTVSPropertyOp19
 70
     1
102
RTVSPropertyOp20
 70
     1
102
RTVSPropertyOp21
 70
     1
102
RTVSPropertyOp22
 70
     1
102
RTVSPropertyOp23
 70
     1
102
RTVSPropertyOp24
 70
     1
102
RTVSPropertyOp25
 70
     1
102
RTVSPropertyOp26
 70
     1
102
RTVSPropertyOp27
 70
     1
102
RTVSPropertyOp28
 70
     1
102
RTVSPropertyOp29
 70
     1
102
RTVSPropertyOp30
 70
     1
102
RTVSPropertyOp31
 70
     1
102
RTVSPropertyOp32
 70
     1
102
RTVSPropertyOp33
 70
     1
102
RTVSPropertyOp34
 70
     1
102
RTVSPropertyOp35
 70
     1
102
RTVSPropertyOp36
 70
     1
102
RTVSPropertyOp37
 70
     1
102
RTVSPropertyOp38
 70
     1
102
RTVSPropertyOp39
 70
     1
102
RTVSPropertyOp40
 70
     1
102
RTVSPropertyOp41
 70
     1
102
RTVSPropertyOp42
 70
     1
102
RTVSPropertyOp43
 70
     1
102
RTVSPropertyOp44
 70
     1
102
RTVSPropertyOp45
 70
     1
102
RTVSPropertyOp46
 70
     1
102
RTVSPropertyOp47
 70
     1
102
RTVSPropertyOp48
 70
     1
102
RTVSPropertyOp49
 70
     1
102
RTVSPropertyOp50
 70
     1
102
RTVSPropertyOp51
 70
     0
102
RTVSPropertyOp52
 70
     0
102
RTVSPropertyOp53
 70
     1
102
RTVSPropertyOp54
 70
     1
102
RTVSPropertyOp55
 70
     1
102
RTVSPropertyOp56
 70
     1
102
RTVSPropertyOp57
 70
     1
102
RTVSPropertyOp58
 70
     1
102
RTVSPropertyOp59
 70
     1
102
RTVSPropertyOp60
 70
     1
102
RTVSPropertyOp61
 70
     1
102
RTVSPropertyOp62
 70
     1
  0
XRECORD
  5
7F8
102
{ACAD_REACTORS
330
7F7
102
}
330
7F7
100
AcDbXrecord
280
     1
102
RTVSPost2010Prop28
280
     0
102
RTVSPost2010PropOp28
 70
     1
102
RTVSPost2010Prop29
280
     1
102
RTVSPost2010PropOp29
 70
     1
102
RTVSPost2010Prop30
280
     1
102
RTVSPost2010PropOp30
 70
     1
102
RTVSPost2010Prop31
280
     0
102
RTVSPost2010PropOp31
 70
     1
102
RTVSPost2010Prop32
280
     0
102
RTVSPost2010PropOp32
 70
     1
102
RTVSPost2010Prop33
280
     0
102
RTVSPost2010PropOp33
 70
     1
102
RTVSPost2010Prop34
280
     0
102
RTVSPost2010PropOp34
 70
     1
102
RTVSPost2010Prop35
280
     0
102
RTVSPost2010PropOp35
 70
     1
102
RTVSPost2010Prop36
280
     0
102
RTVSPost2010PropOp36
 70
     1
102
RTVSPost2010Prop37
 90
       50
102
RTVSPost2010PropOp37
 70
     1
102
RTVSPost2010Prop38
140
0.0
102
RTVSPost2010PropOp38
 70
     1
102
RTVSPost2010Prop39
140
1.0
102
RTVSPost2010PropOp39
 70
     1
102
RTVSPost2010Prop40
 90
        0
102
RTVSPost2010PropOp40
 70
     1
102
RTVSPost2010Prop41ColorIndex
 90
       18
102
RTVSPost2010Prop41ColorRGB
 90
        0
102
RTVSPost2010PropOp41
 70
     1
102
RTVSPost2010Prop42
 90
       50
102
RTVSPost2010PropOp42
 70
     1
102
RTVSPost2010Prop43
 90
        3
102
RTVSPost2010PropOp43
 70
     1
102
RTVSPost2010Prop44ColorIndex
 90
        5
102
RTVSPost2010Prop44ColorRGB
 90
      255
102
RTVSPost2010PropOp44
 70
     1
102
RTVSPost2010Prop45
280
     0
102
RTVSPost2010PropOp45
 70
     1
102
RTVSPost2010Prop46
 90
       50
102
RTVSPost2010PropOp46
 70
     1
102
RTVSPost2010Prop47
 90
       50
102
RTVSPost2010PropOp47
 70
     1
102
RTVSPost2010Prop48
 90
       50
102
RTVSPost2010PropOp48
 70
     1
102
RTVSPost2010Prop49
280
     0
102
RTVSPost2010PropOp49
 70
     1
102
RTVSPost2010Prop50
 90
       50
102
RTVSPost2010PropOp50
 70
     1
102
RTVSPost2010Prop51ColorIndex
 90
      256
102
RTVSPost2010Prop51ColorRGB
 90
-16777216
102
RTVSPost2010PropOp51
 70
     0
102
RTVSPost2010Prop52
140
1.0
102
RTVSPost2010PropOp52
 70
     0
102
RTVSPost2010Prop53
 90
        2
102
RTVSPost2010PropOp53
 70
     1
102
RTVSPost2010Prop54
  1
strokes_ogs.tif
102
RTVSPost2010PropOp54
 70
     1
102
RTVSPost2010Prop55
280
     0
102
RTVSPost2010PropOp55
 70
     1
102
RTVSPost2010Prop56
140
1.0
102
RTVSPost2010PropOp56
 70
     1
102
RTVSPost2010Prop57
140
1.0
102
RTVSPost2010PropOp57
 70
     1
102
RTVSPropertyOp0
 70
     1
102
RTVSPropertyOp1
 70
     1
102
RTVSPropertyOp2
 70
     1
102
RTVSPropertyOp3
 70
     1
102
RTVSPropertyOp4
 70
     1
102
RTVSPropertyOp5
 70
     1
102
RTVSPropertyOp6
 70
     1
102
RTVSPropertyOp7
 70
     1
102
RTVSPropertyOp8
 70
     1
102
RTVSPropertyOp9
 70
     1
102
RTVSPropertyOp10
 70
     1
102
RTVSPropertyOp11
 70
     1
102
RTVSPropertyOp12
 70
     1
102
RTVSPropertyOp13
 70
     1
102
RTVSPropertyOp14
 70
     1
102
RTVSPropertyOp15
 70
     1
102
RTVSPropertyOp16
 70
     1
102
RTVSPropertyOp17
 70
     1
102
RTVSPropertyOp18
 70
     1
102
RTVSPropertyOp19
 70
     1
102
RTVSPropertyOp20
 70
     1
102
RTVSPropertyOp21
 70
     1
102
RTVSPropertyOp22
 70
     1
102
RTVSPropertyOp23
 70
     1
102
RTVSPropertyOp24
 70
     1
102
RTVSPropertyOp25
 70
     1
102
RTVSPropertyOp26
 70
     1
102
RTVSPropertyOp27
 70
     1
102
RTVSPropertyOp28
 70
     1
102
RTVSPropertyOp29
 70
     1
102
RTVSPropertyOp30
 70
     1
102
RTVSPropertyOp31
 70
     1
102
RTVSPropertyOp32
 70
     1
102
RTVSPropertyOp33
 70
     1
102
RTVSPropertyOp34
 70
     1
102
RTVSPropertyOp35
 70
     1
102
RTVSPropertyOp36
 70
     1
102
RTVSPropertyOp37
 70
     1
102
RTVSPropertyOp38
 70
     1
102
RTVSPropertyOp39
 70
     1
102
RTVSPropertyOp40
 70
     1
102
RTVSPropertyOp41
 70
     1
102
RTVSPropertyOp42
 70
     1
102
RTVSPropertyOp43
 70
     1
102
RTVSPropertyOp44
 70
     1
102
RTVSPropertyOp45
 70
     1
102
RTVSPropertyOp46
 70
     1
102
RTVSPropertyOp47
 70
     1
102
RTVSPropertyOp48
 70
     1
102
RTVSPropertyOp49
 70
     1
102
RTVSPropertyOp50
 70
     1
102
RTVSPropertyOp51
 70
     0
102
RTVSPropertyOp52
 70
     0
102
RTVSPropertyOp53
 70
     1
102
RTVSPropertyOp54
 70
     1
102
RTVSPropertyOp55
 70
     1
102
RTVSPropertyOp56
 70
     1
102
RTVSPropertyOp57
 70
     1
102
RTVSPropertyOp58
 70
     1
102
RTVSPropertyOp59
 70
     1
102
RTVSPropertyOp60
 70
     1
102
RTVSPropertyOp61
 70
     1
102
RTVSPropertyOp62
 70
     1
  0
XRECORD
  5
7FA
102
{ACAD_REACTORS
330
7F9
102
}
330
7F9
100
AcDbXrecord
280
     1
102
RTVSPost2010Prop28
280
     0
102
RTVSPost2010PropOp28
 70
     1
102
RTVSPost2010Prop29
280
     1
102
RTVSPost2010PropOp29
 70
     1
102
RTVSPost2010Prop30
280
     1
102
RTVSPost2010PropOp30
 70
     1
102
RTVSPost2010Prop31
280
     0
102
RTVSPost2010PropOp31
 70
     1
102
RTVSPost2010Prop32
280
     0
102
RTVSPost2010PropOp32
 70
     1
102
RTVSPost2010Prop33
280
     0
102
RTVSPost2010PropOp33
 70
     1
102
RTVSPost2010Prop34
280
     0
102
RTVSPost2010PropOp34
 70
     1
102
RTVSPost2010Prop35
280
     0
102
RTVSPost2010PropOp35
 70
     1
102
RTVSPost2010Prop36
280
     0
102
RTVSPost2010PropOp36
 70
     1
102
RTVSPost2010Prop37
 90
       50
102
RTVSPost2010PropOp37
 70
     1
102
RTVSPost2010Prop38
140
0.0
102
RTVSPost2010PropOp38
 70
     1
102
RTVSPost2010Prop39
140
1.0
102
RTVSPost2010PropOp39
 70
     1
102
RTVSPost2010Prop40
 90
        0
102
RTVSPost2010PropOp40
 70
     1
102
RTVSPost2010Prop41ColorIndex
 90
       18
102
RTVSPost2010Prop41ColorRGB
 90
        0
102
RTVSPost2010PropOp41
 70
     1
102
RTVSPost2010Prop42
 90
       50
102
RTVSPost2010PropOp42
 70
     1
102
RTVSPost2010Prop43
 90
        3
102
RTVSPost2010PropOp43
 70
     1
102
RTVSPost2010Prop44ColorIndex
 90
        5
102
RTVSPost2010Prop44ColorRGB
 90
      255
102
RTVSPost2010PropOp44
 70
     1
102
RTVSPost2010Prop45
280
     0
102
RTVSPost2010PropOp45
 70
     1
102
RTVSPost2010Prop46
 90
       50
102
RTVSPost2010PropOp46
 70
     1
102
RTVSPost2010Prop47
 90
       50
102
RTVSPost2010PropOp47
 70
     1
102
RTVSPost2010Prop48
 90
       50
102
RTVSPost2010PropOp48
 70
     1
102
RTVSPost2010Prop49
280
     0
102
RTVSPost2010PropOp49
 70
     1
102
RTVSPost2010Prop50
 90
       50
102
RTVSPost2010PropOp50
 70
     1
102
RTVSPost2010Prop51ColorIndex
 90
      256
102
RTVSPost2010Prop51ColorRGB
 90
-16777216
102
RTVSPost2010PropOp51
 70
     0
102
RTVSPost2010Prop52
140
1.0
102
RTVSPost2010PropOp52
 70
     0
102
RTVSPost2010Prop53
 90
        2
102
RTVSPost2010PropOp53
 70
     1
102
RTVSPost2010Prop54
  1
strokes_ogs.tif
102
RTVSPost2010PropOp54
 70
     1
102
RTVSPost2010Prop55
280
     0
102
RTVSPost2010PropOp55
 70
     1
102
RTVSPost2010Prop56
140
1.0
102
RTVSPost2010PropOp56
 70
     1
102
RTVSPost2010Prop57
140
1.0
102
RTVSPost2010PropOp57
 70
     1
102
RTVSPropertyOp0
 70
     1
102
RTVSPropertyOp1
 70
     1
102
RTVSPropertyOp2
 70
     1
102
RTVSPropertyOp3
 70
     1
102
RTVSPropertyOp4
 70
     1
102
RTVSPropertyOp5
 70
     1
102
RTVSPropertyOp6
 70
     1
102
RTVSPropertyOp7
 70
     1
102
RTVSPropertyOp8
 70
     1
102
RTVSPropertyOp9
 70
     1
102
RTVSPropertyOp10
 70
     1
102
RTVSPropertyOp11
 70
     1
102
RTVSPropertyOp12
 70
     1
102
RTVSPropertyOp13
 70
     1
102
RTVSPropertyOp14
 70
     1
102
RTVSPropertyOp15
 70
     1
102
RTVSPropertyOp16
 70
     1
102
RTVSPropertyOp17
 70
     1
102
RTVSPropertyOp18
 70
     1
102
RTVSPropertyOp19
 70
     1
102
RTVSPropertyOp20
 70
     1
102
RTVSPropertyOp21
 70
     1
102
RTVSPropertyOp22
 70
     1
102
RTVSPropertyOp23
 70
     1
102
RTVSPropertyOp24
 70
     1
102
RTVSPropertyOp25
 70
     1
102
RTVSPropertyOp26
 70
     1
102
RTVSPropertyOp27
 70
     1
102
RTVSPropertyOp28
 70
     1
102
RTVSPropertyOp29
 70
     1
102
RTVSPropertyOp30
 70
     1
102
RTVSPropertyOp31
 70
     1
102
RTVSPropertyOp32
 70
     1
102
RTVSPropertyOp33
 70
     1
102
RTVSPropertyOp34
 70
     1
102
RTVSPropertyOp35
 70
     1
102
RTVSPropertyOp36
 70
     1
102
RTVSPropertyOp37
 70
     1
102
RTVSPropertyOp38
 70
     1
102
RTVSPropertyOp39
 70
     1
102
RTVSPropertyOp40
 70
     1
102
RTVSPropertyOp41
 70
     1
102
RTVSPropertyOp42
 70
     1
102
RTVSPropertyOp43
 70
     1
102
RTVSPropertyOp44
 70
     1
102
RTVSPropertyOp45
 70
     1
102
RTVSPropertyOp46
 70
     1
102
RTVSPropertyOp47
 70
     1
102
RTVSPropertyOp48
 70
     1
102
RTVSPropertyOp49
 70
     1
102
RTVSPropertyOp50
 70
     1
102
RTVSPropertyOp51
 70
     0
102
RTVSPropertyOp52
 70
     0
102
RTVSPropertyOp53
 70
     1
102
RTVSPropertyOp54
 70
     1
102
RTVSPropertyOp55
 70
     1
102
RTVSPropertyOp56
 70
     1
102
RTVSPropertyOp57
 70
     1
102
RTVSPropertyOp58
 70
     1
102
RTVSPropertyOp59
 70
     1
102
RTVSPropertyOp60
 70
     1
102
RTVSPropertyOp61
 70
     1
102
RTVSPropertyOp62
 70
     1
  0
XRECORD
  5
802
102
{ACAD_REACTORS
330
801
102
}
330
801
100
AcDbXrecord
280
     1
102
RTVSPost2010Prop28
280
     0
102
RTVSPost2010PropOp28
 70
     1
102
RTVSPost2010Prop29
280
     1
102
RTVSPost2010PropOp29
 70
     1
102
RTVSPost2010Prop30
280
     1
102
RTVSPost2010PropOp30
 70
     1
102
RTVSPost2010Prop31
280
     0
102
RTVSPost2010PropOp31
 70
     1
102
RTVSPost2010Prop32
280
     0
102
RTVSPost2010PropOp32
 70
     1
102
RTVSPost2010Prop33
280
     0
102
RTVSPost2010PropOp33
 70
     1
102
RTVSPost2010Prop34
280
     0
102
RTVSPost2010PropOp34
 70
     1
102
RTVSPost2010Prop35
280
     0
102
RTVSPost2010PropOp35
 70
     1
102
RTVSPost2010Prop36
280
     0
102
RTVSPost2010PropOp36
 70
     1
102
RTVSPost2010Prop37
 90
       50
102
RTVSPost2010PropOp37
 70
     1
102
RTVSPost2010Prop38
140
0.0
102
RTVSPost2010PropOp38
 70
     1
102
RTVSPost2010Prop39
140
1.0
102
RTVSPost2010PropOp39
 70
     1
102
RTVSPost2010Prop40
 90
        0
102
RTVSPost2010PropOp40
 70
     1
102
RTVSPost2010Prop41ColorIndex
 90
       18
102
RTVSPost2010Prop41ColorRGB
 90
        0
102
RTVSPost2010PropOp41
 70
     1
102
RTVSPost2010Prop42
 90
       50
102
RTVSPost2010PropOp42
 70
     1
102
RTVSPost2010Prop43
 90
        3
102
RTVSPost2010PropOp43
 70
     1
102
RTVSPost2010Prop44ColorIndex
 90
        5
102
RTVSPost2010Prop44ColorRGB
 90
      255
102
RTVSPost2010PropOp44
 70
     1
102
RTVSPost2010Prop45
280
     0
102
RTVSPost2010PropOp45
 70
     1
102
RTVSPost2010Prop46
 90
       50
102
RTVSPost2010PropOp46
 70
     1
102
RTVSPost2010Prop47
 90
       50
102
RTVSPost2010PropOp47
 70
     1
102
RTVSPost2010Prop48
 90
       50
102
RTVSPost2010PropOp48
 70
     1
102
RTVSPost2010Prop49
280
     0
102
RTVSPost2010PropOp49
 70
     1
102
RTVSPost2010Prop50
 90
       50
102
RTVSPost2010PropOp50
 70
     1
102
RTVSPost2010Prop51ColorIndex
 90
      256
102
RTVSPost2010Prop51ColorRGB
 90
-16777216
102
RTVSPost2010PropOp51
 70
     0
102
RTVSPost2010Prop52
140
1.0
102
RTVSPost2010PropOp52
 70
     0
102
RTVSPost2010Prop53
 90
        2
102
RTVSPost2010PropOp53
 70
     1
102
RTVSPost2010Prop54
  1
strokes_ogs.tif
102
RTVSPost2010PropOp54
 70
     1
102
RTVSPost2010Prop55
280
     0
102
RTVSPost2010PropOp55
 70
     1
102
RTVSPost2010Prop56
140
1.0
102
RTVSPost2010PropOp56
 70
     1
102
RTVSPost2010Prop57
140
1.0
102
RTVSPost2010PropOp57
 70
     1
102
RTVSPropertyOp0
 70
     1
102
RTVSPropertyOp1
 70
     1
102
RTVSPropertyOp2
 70
     1
102
RTVSPropertyOp3
 70
     1
102
RTVSPropertyOp4
 70
     1
102
RTVSPropertyOp5
 70
     1
102
RTVSPropertyOp6
 70
     1
102
RTVSPropertyOp7
 70
     1
102
RTVSPropertyOp8
 70
     1
102
RTVSPropertyOp9
 70
     1
102
RTVSPropertyOp10
 70
     1
102
RTVSPropertyOp11
 70
     1
102
RTVSPropertyOp12
 70
     1
102
RTVSPropertyOp13
 70
     1
102
RTVSPropertyOp14
 70
     1
102
RTVSPropertyOp15
 70
     1
102
RTVSPropertyOp16
 70
     1
102
RTVSPropertyOp17
 70
     1
102
RTVSPropertyOp18
 70
     1
102
RTVSPropertyOp19
 70
     1
102
RTVSPropertyOp20
 70
     1
102
RTVSPropertyOp21
 70
     1
102
RTVSPropertyOp22
 70
     1
102
RTVSPropertyOp23
 70
     1
102
RTVSPropertyOp24
 70
     1
102
RTVSPropertyOp25
 70
     1
102
RTVSPropertyOp26
 70
     1
102
RTVSPropertyOp27
 70
     1
102
RTVSPropertyOp28
 70
     1
102
RTVSPropertyOp29
 70
     1
102
RTVSPropertyOp30
 70
     1
102
RTVSPropertyOp31
 70
     1
102
RTVSPropertyOp32
 70
     1
102
RTVSPropertyOp33
 70
     1
102
RTVSPropertyOp34
 70
     1
102
RTVSPropertyOp35
 70
     1
102
RTVSPropertyOp36
 70
     1
102
RTVSPropertyOp37
 70
     1
102
RTVSPropertyOp38
 70
     1
102
RTVSPropertyOp39
 70
     1
102
RTVSPropertyOp40
 70
     1
102
RTVSPropertyOp41
 70
     1
102
RTVSPropertyOp42
 70
     1
102
RTVSPropertyOp43
 70
     1
102
RTVSPropertyOp44
 70
     1
102
RTVSPropertyOp45
 70
     1
102
RTVSPropertyOp46
 70
     1
102
RTVSPropertyOp47
 70
     1
102
RTVSPropertyOp48
 70
     1
102
RTVSPropertyOp49
 70
     1
102
RTVSPropertyOp50
 70
     1
102
RTVSPropertyOp51
 70
     0
102
RTVSPropertyOp52
 70
     0
102
RTVSPropertyOp53
 70
     1
102
RTVSPropertyOp54
 70
     1
102
RTVSPropertyOp55
 70
     1
102
RTVSPropertyOp56
 70
     1
102
RTVSPropertyOp57
 70
     1
102
RTVSPropertyOp58
 70
     1
102
RTVSPropertyOp59
 70
     1
102
RTVSPropertyOp60
 70
     1
102
RTVSPropertyOp61
 70
     1
102
RTVSPropertyOp62
 70
     1
  0
XRECORD
  5
81E
102
{ACAD_REACTORS
330
81D
102
}
330
81D
100
AcDbXrecord
280
     1
102
RTVSPost2010Prop28
280
     0
102
RTVSPost2010PropOp28
 70
     0
102
RTVSPost2010Prop29
280
     1
102
RTVSPost2010PropOp29
 70
     0
102
RTVSPost2010Prop30
280
     1
102
RTVSPost2010PropOp30
 70
     0
102
RTVSPost2010Prop31
280
     0
102
RTVSPost2010PropOp31
 70
     0
102
RTVSPost2010Prop32
280
     0
102
RTVSPost2010PropOp32
 70
     0
102
RTVSPost2010Prop33
280
     0
102
RTVSPost2010PropOp33
 70
     0
102
RTVSPost2010Prop34
280
     0
102
RTVSPost2010PropOp34
 70
     0
102
RTVSPost2010Prop35
280
     0
102
RTVSPost2010PropOp35
 70
     0
102
RTVSPost2010Prop36
280
     0
102
RTVSPost2010PropOp36
 70
     0
102
RTVSPost2010Prop37
 90
       50
102
RTVSPost2010PropOp37
 70
     0
102
RTVSPost2010Prop38
140
0.0
102
RTVSPost2010PropOp38
 70
     0
102
RTVSPost2010Prop39
140
1.0
102
RTVSPost2010PropOp39
 70
     0
102
RTVSPost2010Prop40
 90
        0
102
RTVSPost2010PropOp40
 70
     0
102
RTVSPost2010Prop41ColorIndex
 90
       18
102
RTVSPost2010Prop41ColorRGB
 90
        0
102
RTVSPost2010PropOp41
 70
     0
102
RTVSPost2010Prop42
 90
       50
102
RTVSPost2010PropOp42
 70
     0
102
RTVSPost2010Prop43
 90
        3
102
RTVSPost2010PropOp43
 70
     0
102
RTVSPost2010Prop44ColorIndex
 90
        5
102
RTVSPost2010Prop44ColorRGB
 90
      255
102
RTVSPost2010PropOp44
 70
     0
102
RTVSPost2010Prop45
280
     0
102
RTVSPost2010PropOp45
 70
     0
102
RTVSPost2010Prop46
 90
       50
102
RTVSPost2010PropOp46
 70
     0
102
RTVSPost2010Prop47
 90
       50
102
RTVSPost2010PropOp47
 70
     0
102
RTVSPost2010Prop48
 90
       50
102
RTVSPost2010PropOp48
 70
     0
102
RTVSPost2010Prop49
280
     0
102
RTVSPost2010PropOp49
 70
     0
102
RTVSPost2010Prop50
 90
       50
102
RTVSPost2010PropOp50
 70
     0
102
RTVSPost2010Prop51ColorIndex
 90
      256
102
RTVSPost2010Prop51ColorRGB
 90
-16777216
102
RTVSPost2010PropOp51
 70
     0
102
RTVSPost2010Prop52
140
1.0
102
RTVSPost2010PropOp52
 70
     0
102
RTVSPost2010Prop53
 90
        2
102
RTVSPost2010PropOp53
 70
     0
102
RTVSPost2010Prop54
  1
strokes_ogs.tif
102
RTVSPost2010PropOp54
 70
     0
102
RTVSPost2010Prop55
280
     0
102
RTVSPost2010PropOp55
 70
     0
102
RTVSPost2010Prop56
140
1.0
102
RTVSPost2010PropOp56
 70
     0
102
RTVSPost2010Prop57
140
1.0
102
RTVSPost2010PropOp57
 70
     0
102
RTVSPropertyOp0
 70
     0
102
RTVSPropertyOp1
 70
     0
102
RTVSPropertyOp2
 70
     0
102
RTVSPropertyOp3
 70
     0
102
RTVSPropertyOp4
 70
     0
102
RTVSPropertyOp5
 70
     0
102
RTVSPropertyOp6
 70
     0
102
RTVSPropertyOp7
 70
     0
102
RTVSPropertyOp8
 70
     0
102
RTVSPropertyOp9
 70
     0
102
RTVSPropertyOp10
 70
     0
102
RTVSPropertyOp11
 70
     0
102
RTVSPropertyOp12
 70
     0
102
RTVSPropertyOp13
 70
     0
102
RTVSPropertyOp14
 70
     2
102
RTVSPropertyOp15
 70
     0
102
RTVSPropertyOp16
 70
     0
102
RTVSPropertyOp17
 70
     0
102
RTVSPropertyOp18
 70
     0
102
RTVSPropertyOp19
 70
     0
102
RTVSPropertyOp20
 70
     0
102
RTVSPropertyOp21
 70
     0
102
RTVSPropertyOp22
 70
     0
102
RTVSPropertyOp23
 70
     0
102
RTVSPropertyOp24
 70
     0
102
RTVSPropertyOp25
 70
     0
102
RTVSPropertyOp26
 70
     0
102
RTVSPropertyOp27
 70
     0
102
RTVSPropertyOp28
 70
     0
102
RTVSPropertyOp29
 70
     0
102
RTVSPropertyOp30
 70
     0
102
RTVSPropertyOp31
 70
     0
102
RTVSPropertyOp32
 70
     0
102
RTVSPropertyOp33
 70
     0
102
RTVSPropertyOp34
 70
     0
102
RTVSPropertyOp35
 70
     0
102
RTVSPropertyOp36
 70
     0
102
RTVSPropertyOp37
 70
     0
102
RTVSPropertyOp38
 70
     0
102
RTVSPropertyOp39
 70
     0
102
RTVSPropertyOp40
 70
     0
102
RTVSPropertyOp41
 70
     0
102
RTVSPropertyOp42
 70
     0
102
RTVSPropertyOp43
 70
     0
102
RTVSPropertyOp44
 70
     0
102
RTVSPropertyOp45
 70
     0
102
RTVSPropertyOp46
 70
     0
102
RTVSPropertyOp47
 70
     0
102
RTVSPropertyOp48
 70
     0
102
RTVSPropertyOp49
 70
     0
102
RTVSPropertyOp50
 70
     0
102
RTVSPropertyOp51
 70
     0
102
RTVSPropertyOp52
 70
     0
102
RTVSPropertyOp53
 70
     0
102
RTVSPropertyOp54
 70
     0
102
RTVSPropertyOp55
 70
     0
102
RTVSPropertyOp56
 70
     0
102
RTVSPropertyOp57
 70
     0
102
RTVSPropertyOp58
 70
     1
102
RTVSPropertyOp59
 70
     1
102
RTVSPropertyOp60
 70
     1
102
RTVSPropertyOp61
 70
     1
102
RTVSPropertyOp62
 70
     1
  0
XRECORD
  5
80E
102
{ACAD_REACTORS
330
80D
102
}
330
80D
100
AcDbXrecord
280
     1
102
RTVSPost2010Prop28
280
     0
102
RTVSPost2010PropOp28
 70
     1
102
RTVSPost2010Prop29
280
     1
102
RTVSPost2010PropOp29
 70
     1
102
RTVSPost2010Prop30
280
     1
102
RTVSPost2010PropOp30
 70
     1
102
RTVSPost2010Prop31
280
     0
102
RTVSPost2010PropOp31
 70
     1
102
RTVSPost2010Prop32
280
     0
102
RTVSPost2010PropOp32
 70
     1
102
RTVSPost2010Prop33
280
     0
102
RTVSPost2010PropOp33
 70
     1
102
RTVSPost2010Prop34
280
     0
102
RTVSPost2010PropOp34
 70
     1
102
RTVSPost2010Prop35
280
     0
102
RTVSPost2010PropOp35
 70
     1
102
RTVSPost2010Prop36
280
     0
102
RTVSPost2010PropOp36
 70
     1
102
RTVSPost2010Prop37
 90
       50
102
RTVSPost2010PropOp37
 70
     1
102
RTVSPost2010Prop38
140
0.0
102
RTVSPost2010PropOp38
 70
     1
102
RTVSPost2010Prop39
140
1.0
102
RTVSPost2010PropOp39
 70
     1
102
RTVSPost2010Prop40
 90
        0
102
RTVSPost2010PropOp40
 70
     1
102
RTVSPost2010Prop41ColorIndex
 90
       18
102
RTVSPost2010Prop41ColorRGB
 90
        0
102
RTVSPost2010PropOp41
 70
     1
102
RTVSPost2010Prop42
 90
       50
102
RTVSPost2010PropOp42
 70
     1
102
RTVSPost2010Prop43
 90
        3
102
RTVSPost2010PropOp43
 70
     1
102
RTVSPost2010Prop44ColorIndex
 90
        5
102
RTVSPost2010Prop44ColorRGB
 90
      255
102
RTVSPost2010PropOp44
 70
     1
102
RTVSPost2010Prop45
280
     0
102
RTVSPost2010PropOp45
 70
     1
102
RTVSPost2010Prop46
 90
       50
102
RTVSPost2010PropOp46
 70
     1
102
RTVSPost2010Prop47
 90
       50
102
RTVSPost2010PropOp47
 70
     1
102
RTVSPost2010Prop48
 90
       50
102
RTVSPost2010PropOp48
 70
     1
102
RTVSPost2010Prop49
280
     0
102
RTVSPost2010PropOp49
 70
     1
102
RTVSPost2010Prop50
 90
       50
102
RTVSPost2010PropOp50
 70
     1
102
RTVSPost2010Prop51ColorIndex
 90
      256
102
RTVSPost2010Prop51ColorRGB
 90
-16777216
102
RTVSPost2010PropOp51
 70
     0
102
RTVSPost2010Prop52
140
1.0
102
RTVSPost2010PropOp52
 70
     0
102
RTVSPost2010Prop53
 90
        2
102
RTVSPost2010PropOp53
 70
     1
102
RTVSPost2010Prop54
  1
strokes_ogs.tif
102
RTVSPost2010PropOp54
 70
     1
102
RTVSPost2010Prop55
280
     0
102
RTVSPost2010PropOp55
 70
     1
102
RTVSPost2010Prop56
140
1.0
102
RTVSPost2010PropOp56
 70
     1
102
RTVSPost2010Prop57
140
1.0
102
RTVSPost2010PropOp57
 70
     1
102
RTVSPropertyOp0
 70
     1
102
RTVSPropertyOp1
 70
     1
102
RTVSPropertyOp2
 70
     1
102
RTVSPropertyOp3
 70
     1
102
RTVSPropertyOp4
 70
     1
102
RTVSPropertyOp5
 70
     1
102
RTVSPropertyOp6
 70
     1
102
RTVSPropertyOp7
 70
     1
102
RTVSPropertyOp8
 70
     1
102
RTVSPropertyOp9
 70
     1
102
RTVSPropertyOp10
 70
     1
102
RTVSPropertyOp11
 70
     1
102
RTVSPropertyOp12
 70
     1
102
RTVSPropertyOp13
 70
     1
102
RTVSPropertyOp14
 70
     1
102
RTVSPropertyOp15
 70
     1
102
RTVSPropertyOp16
 70
     1
102
RTVSPropertyOp17
 70
     1
102
RTVSPropertyOp18
 70
     1
102
RTVSPropertyOp19
 70
     1
102
RTVSPropertyOp20
 70
     1
102
RTVSPropertyOp21
 70
     1
102
RTVSPropertyOp22
 70
     1
102
RTVSPropertyOp23
 70
     1
102
RTVSPropertyOp24
 70
     1
102
RTVSPropertyOp25
 70
     1
102
RTVSPropertyOp26
 70
     1
102
RTVSPropertyOp27
 70
     1
102
RTVSPropertyOp28
 70
     1
102
RTVSPropertyOp29
 70
     1
102
RTVSPropertyOp30
 70
     1
102
RTVSPropertyOp31
 70
     1
102
RTVSPropertyOp32
 70
     1
102
RTVSPropertyOp33
 70
     1
102
RTVSPropertyOp34
 70
     1
102
RTVSPropertyOp35
 70
     1
102
RTVSPropertyOp36
 70
     1
102
RTVSPropertyOp37
 70
     1
102
RTVSPropertyOp38
 70
     1
102
RTVSPropertyOp39
 70
     1
102
RTVSPropertyOp40
 70
     1
102
RTVSPropertyOp41
 70
     1
102
RTVSPropertyOp42
 70
     1
102
RTVSPropertyOp43
 70
     1
102
RTVSPropertyOp44
 70
     1
102
RTVSPropertyOp45
 70
     1
102
RTVSPropertyOp46
 70
     1
102
RTVSPropertyOp47
 70
     1
102
RTVSPropertyOp48
 70
     1
102
RTVSPropertyOp49
 70
     1
102
RTVSPropertyOp50
 70
     1
102
RTVSPropertyOp51
 70
     0
102
RTVSPropertyOp52
 70
     0
102
RTVSPropertyOp53
 70
     1
102
RTVSPropertyOp54
 70
     1
102
RTVSPropertyOp55
 70
     1
102
RTVSPropertyOp56
 70
     1
102
RTVSPropertyOp57
 70
     1
102
RTVSPropertyOp58
 70
     1
102
RTVSPropertyOp59
 70
     1
102
RTVSPropertyOp60
 70
     1
102
RTVSPropertyOp61
 70
     1
102
RTVSPropertyOp62
 70
     1
  0
XRECORD
  5
820
102
{ACAD_REACTORS
330
81F
102
}
330
81F
100
AcDbXrecord
280
     1
102
RTVSPost2010Prop28
280
     0
102
RTVSPost2010PropOp28
 70
     0
102
RTVSPost2010Prop29
280
     1
102
RTVSPost2010PropOp29
 70
     0
102
RTVSPost2010Prop30
280
     1
102
RTVSPost2010PropOp30
 70
     0
102
RTVSPost2010Prop31
280
     0
102
RTVSPost2010PropOp31
 70
     0
102
RTVSPost2010Prop32
280
     0
102
RTVSPost2010PropOp32
 70
     0
102
RTVSPost2010Prop33
280
     0
102
RTVSPost2010PropOp33
 70
     0
102
RTVSPost2010Prop34
280
     0
102
RTVSPost2010PropOp34
 70
     0
102
RTVSPost2010Prop35
280
     0
102
RTVSPost2010PropOp35
 70
     0
102
RTVSPost2010Prop36
280
     0
102
RTVSPost2010PropOp36
 70
     0
102
RTVSPost2010Prop37
 90
       50
102
RTVSPost2010PropOp37
 70
     0
102
RTVSPost2010Prop38
140
0.0
102
RTVSPost2010PropOp38
 70
     0
102
RTVSPost2010Prop39
140
1.0
102
RTVSPost2010PropOp39
 70
     0
102
RTVSPost2010Prop40
 90
        0
102
RTVSPost2010PropOp40
 70
     0
102
RTVSPost2010Prop41ColorIndex
 90
       18
102
RTVSPost2010Prop41ColorRGB
 90
        0
102
RTVSPost2010PropOp41
 70
     0
102
RTVSPost2010Prop42
 90
       50
102
RTVSPost2010PropOp42
 70
     0
102
RTVSPost2010Prop43
 90
        3
102
RTVSPost2010PropOp43
 70
     0
102
RTVSPost2010Prop44ColorIndex
 90
        5
102
RTVSPost2010Prop44ColorRGB
 90
      255
102
RTVSPost2010PropOp44
 70
     0
102
RTVSPost2010Prop45
280
     0
102
RTVSPost2010PropOp45
 70
     0
102
RTVSPost2010Prop46
 90
       50
102
RTVSPost2010PropOp46
 70
     0
102
RTVSPost2010Prop47
 90
       50
102
RTVSPost2010PropOp47
 70
     0
102
RTVSPost2010Prop48
 90
       50
102
RTVSPost2010PropOp48
 70
     0
102
RTVSPost2010Prop49
280
     0
102
RTVSPost2010PropOp49
 70
     0
102
RTVSPost2010Prop50
 90
       50
102
RTVSPost2010PropOp50
 70
     0
102
RTVSPost2010Prop51ColorIndex
 90
      256
102
RTVSPost2010Prop51ColorRGB
 90
-16777216
102
RTVSPost2010PropOp51
 70
     0
102
RTVSPost2010Prop52
140
1.0
102
RTVSPost2010PropOp52
 70
     0
102
RTVSPost2010Prop53
 90
        2
102
RTVSPost2010PropOp53
 70
     0
102
RTVSPost2010Prop54
  1
strokes_ogs.tif
102
RTVSPost2010PropOp54
 70
     0
102
RTVSPost2010Prop55
280
     0
102
RTVSPost2010PropOp55
 70
     0
102
RTVSPost2010Prop56
140
1.0
102
RTVSPost2010PropOp56
 70
     0
102
RTVSPost2010Prop57
140
1.0
102
RTVSPost2010PropOp57
 70
     0
102
RTVSPropertyOp0
 70
     0
102
RTVSPropertyOp1
 70
     0
102
RTVSPropertyOp2
 70
     0
102
RTVSPropertyOp3
 70
     0
102
RTVSPropertyOp4
 70
     0
102
RTVSPropertyOp5
 70
     0
102
RTVSPropertyOp6
 70
     0
102
RTVSPropertyOp7
 70
     0
102
RTVSPropertyOp8
 70
     0
102
RTVSPropertyOp9
 70
     0
102
RTVSPropertyOp10
 70
     0
102
RTVSPropertyOp11
 70
     0
102
RTVSPropertyOp12
 70
     0
102
RTVSPropertyOp13
 70
     0
102
RTVSPropertyOp14
 70
     2
102
RTVSPropertyOp15
 70
     0
102
RTVSPropertyOp16
 70
     0
102
RTVSPropertyOp17
 70
     0
102
RTVSPropertyOp18
 70
     0
102
RTVSPropertyOp19
 70
     0
102
RTVSPropertyOp20
 70
     0
102
RTVSPropertyOp21
 70
     0
102
RTVSPropertyOp22
 70
     0
102
RTVSPropertyOp23
 70
     0
102
RTVSPropertyOp24
 70
     0
102
RTVSPropertyOp25
 70
     0
102
RTVSPropertyOp26
 70
     0
102
RTVSPropertyOp27
 70
     0
102
RTVSPropertyOp28
 70
     0
102
RTVSPropertyOp29
 70
     0
102
RTVSPropertyOp30
 70
     0
102
RTVSPropertyOp31
 70
     0
102
RTVSPropertyOp32
 70
     0
102
RTVSPropertyOp33
 70
     0
102
RTVSPropertyOp34
 70
     0
102
RTVSPropertyOp35
 70
     0
102
RTVSPropertyOp36
 70
     0
102
RTVSPropertyOp37
 70
     0
102
RTVSPropertyOp38
 70
     0
102
RTVSPropertyOp39
 70
     0
102
RTVSPropertyOp40
 70
     0
102
RTVSPropertyOp41
 70
     0
102
RTVSPropertyOp42
 70
     0
102
RTVSPropertyOp43
 70
     0
102
RTVSPropertyOp44
 70
     0
102
RTVSPropertyOp45
 70
     0
102
RTVSPropertyOp46
 70
     0
102
RTVSPropertyOp47
 70
     0
102
RTVSPropertyOp48
 70
     0
102
RTVSPropertyOp49
 70
     0
102
RTVSPropertyOp50
 70
     0
102
RTVSPropertyOp51
 70
     0
102
RTVSPropertyOp52
 70
     0
102
RTVSPropertyOp53
 70
     0
102
RTVSPropertyOp54
 70
     0
102
RTVSPropertyOp55
 70
     0
102
RTVSPropertyOp56
 70
     0
102
RTVSPropertyOp57
 70
     0
102
RTVSPropertyOp58
 70
     1
102
RTVSPropertyOp59
 70
     1
102
RTVSPropertyOp60
 70
     1
102
RTVSPropertyOp61
 70
     1
102
RTVSPropertyOp62
 70
     1
  0
XRECORD
  5
806
102
{ACAD_REACTORS
330
805
102
}
330
805
100
AcDbXrecord
280
     1
102
RTVSPost2010Prop28
280
     0
102
RTVSPost2010PropOp28
 70
     1
102
RTVSPost2010Prop29
280
     1
102
RTVSPost2010PropOp29
 70
     1
102
RTVSPost2010Prop30
280
     1
102
RTVSPost2010PropOp30
 70
     1
102
RTVSPost2010Prop31
280
     0
102
RTVSPost2010PropOp31
 70
     1
102
RTVSPost2010Prop32
280
     0
102
RTVSPost2010PropOp32
 70
     1
102
RTVSPost2010Prop33
280
     0
102
RTVSPost2010PropOp33
 70
     1
102
RTVSPost2010Prop34
280
     0
102
RTVSPost2010PropOp34
 70
     1
102
RTVSPost2010Prop35
280
     0
102
RTVSPost2010PropOp35
 70
     1
102
RTVSPost2010Prop36
280
     0
102
RTVSPost2010PropOp36
 70
     1
102
RTVSPost2010Prop37
 90
       50
102
RTVSPost2010PropOp37
 70
     1
102
RTVSPost2010Prop38
140
0.0
102
RTVSPost2010PropOp38
 70
     1
102
RTVSPost2010Prop39
140
1.0
102
RTVSPost2010PropOp39
 70
     1
102
RTVSPost2010Prop40
 90
        0
102
RTVSPost2010PropOp40
 70
     1
102
RTVSPost2010Prop41ColorIndex
 90
       18
102
RTVSPost2010Prop41ColorRGB
 90
        0
102
RTVSPost2010PropOp41
 70
     1
102
RTVSPost2010Prop42
 90
       50
102
RTVSPost2010PropOp42
 70
     1
102
RTVSPost2010Prop43
 90
        3
102
RTVSPost2010PropOp43
 70
     1
102
RTVSPost2010Prop44ColorIndex
 90
        5
102
RTVSPost2010Prop44ColorRGB
 90
      255
102
RTVSPost2010PropOp44
 70
     1
102
RTVSPost2010Prop45
280
     0
102
RTVSPost2010PropOp45
 70
     1
102
RTVSPost2010Prop46
 90
       50
102
RTVSPost2010PropOp46
 70
     1
102
RTVSPost2010Prop47
 90
       50
102
RTVSPost2010PropOp47
 70
     1
102
RTVSPost2010Prop48
 90
       50
102
RTVSPost2010PropOp48
 70
     1
102
RTVSPost2010Prop49
280
     0
102
RTVSPost2010PropOp49
 70
     1
102
RTVSPost2010Prop50
 90
       50
102
RTVSPost2010PropOp50
 70
     1
102
RTVSPost2010Prop51ColorIndex
 90
      256
102
RTVSPost2010Prop51ColorRGB
 90
-16777216
102
RTVSPost2010PropOp51
 70
     0
102
RTVSPost2010Prop52
140
1.0
102
RTVSPost2010PropOp52
 70
     0
102
RTVSPost2010Prop53
 90
        2
102
RTVSPost2010PropOp53
 70
     1
102
RTVSPost2010Prop54
  1
strokes_ogs.tif
102
RTVSPost2010PropOp54
 70
     1
102
RTVSPost2010Prop55
280
     0
102
RTVSPost2010PropOp55
 70
     1
102
RTVSPost2010Prop56
140
1.0
102
RTVSPost2010PropOp56
 70
     1
102
RTVSPost2010Prop57
140
1.0
102
RTVSPost2010PropOp57
 70
     1
102
RTVSPropertyOp0
 70
     1
102
RTVSPropertyOp1
 70
     1
102
RTVSPropertyOp2
 70
     1
102
RTVSPropertyOp3
 70
     1
102
RTVSPropertyOp4
 70
     1
102
RTVSPropertyOp5
 70
     1
102
RTVSPropertyOp6
 70
     1
102
RTVSPropertyOp7
 70
     1
102
RTVSPropertyOp8
 70
     1
102
RTVSPropertyOp9
 70
     1
102
RTVSPropertyOp10
 70
     1
102
RTVSPropertyOp11
 70
     1
102
RTVSPropertyOp12
 70
     1
102
RTVSPropertyOp13
 70
     1
102
RTVSPropertyOp14
 70
     1
102
RTVSPropertyOp15
 70
     1
102
RTVSPropertyOp16
 70
     1
102
RTVSPropertyOp17
 70
     1
102
RTVSPropertyOp18
 70
     1
102
RTVSPropertyOp19
 70
     1
102
RTVSPropertyOp20
 70
     1
102
RTVSPropertyOp21
 70
     1
102
RTVSPropertyOp22
 70
     1
102
RTVSPropertyOp23
 70
     1
102
RTVSPropertyOp24
 70
     1
102
RTVSPropertyOp25
 70
     1
102
RTVSPropertyOp26
 70
     1
102
RTVSPropertyOp27
 70
     1
102
RTVSPropertyOp28
 70
     1
102
RTVSPropertyOp29
 70
     1
102
RTVSPropertyOp30
 70
     1
102
RTVSPropertyOp31
 70
     1
102
RTVSPropertyOp32
 70
     1
102
RTVSPropertyOp33
 70
     1
102
RTVSPropertyOp34
 70
     1
102
RTVSPropertyOp35
 70
     1
102
RTVSPropertyOp36
 70
     1
102
RTVSPropertyOp37
 70
     1
102
RTVSPropertyOp38
 70
     1
102
RTVSPropertyOp39
 70
     1
102
RTVSPropertyOp40
 70
     1
102
RTVSPropertyOp41
 70
     1
102
RTVSPropertyOp42
 70
     1
102
RTVSPropertyOp43
 70
     1
102
RTVSPropertyOp44
 70
     1
102
RTVSPropertyOp45
 70
     1
102
RTVSPropertyOp46
 70
     1
102
RTVSPropertyOp47
 70
     1
102
RTVSPropertyOp48
 70
     1
102
RTVSPropertyOp49
 70
     1
102
RTVSPropertyOp50
 70
     1
102
RTVSPropertyOp51
 70
     0
102
RTVSPropertyOp52
 70
     0
102
RTVSPropertyOp53
 70
     1
102
RTVSPropertyOp54
 70
     1
102
RTVSPropertyOp55
 70
     1
102
RTVSPropertyOp56
 70
     1
102
RTVSPropertyOp57
 70
     1
102
RTVSPropertyOp58
 70
     1
102
RTVSPropertyOp59
 70
     1
102
RTVSPropertyOp60
 70
     1
102
RTVSPropertyOp61
 70
     1
102
RTVSPropertyOp62
 70
     1
  0
XRECORD
  5
81C
102
{ACAD_REACTORS
330
81B
102
}
330
81B
100
AcDbXrecord
280
     1
102
RTVSPost2010Prop28
280
     0
102
RTVSPost2010PropOp28
 70
     1
102
RTVSPost2010Prop29
280
     1
102
RTVSPost2010PropOp29
 70
     1
102
RTVSPost2010Prop30
280
     1
102
RTVSPost2010PropOp30
 70
     1
102
RTVSPost2010Prop31
280
     0
102
RTVSPost2010PropOp31
 70
     1
102
RTVSPost2010Prop32
280
     0
102
RTVSPost2010PropOp32
 70
     1
102
RTVSPost2010Prop33
280
     0
102
RTVSPost2010PropOp33
 70
     1
102
RTVSPost2010Prop34
280
     0
102
RTVSPost2010PropOp34
 70
     1
102
RTVSPost2010Prop35
280
     0
102
RTVSPost2010PropOp35
 70
     1
102
RTVSPost2010Prop36
280
     0
102
RTVSPost2010PropOp36
 70
     1
102
RTVSPost2010Prop37
 90
       50
102
RTVSPost2010PropOp37
 70
     1
102
RTVSPost2010Prop38
140
0.0
102
RTVSPost2010PropOp38
 70
     1
102
RTVSPost2010Prop39
140
1.0
102
RTVSPost2010PropOp39
 70
     1
102
RTVSPost2010Prop40
 90
        0
102
RTVSPost2010PropOp40
 70
     1
102
RTVSPost2010Prop41ColorIndex
 90
       18
102
RTVSPost2010Prop41ColorRGB
 90
        0
102
RTVSPost2010PropOp41
 70
     1
102
RTVSPost2010Prop42
 90
       50
102
RTVSPost2010PropOp42
 70
     1
102
RTVSPost2010Prop43
 90
        3
102
RTVSPost2010PropOp43
 70
     1
102
RTVSPost2010Prop44ColorIndex
 90
        5
102
RTVSPost2010Prop44ColorRGB
 90
      255
102
RTVSPost2010PropOp44
 70
     1
102
RTVSPost2010Prop45
280
     0
102
RTVSPost2010PropOp45
 70
     1
102
RTVSPost2010Prop46
 90
       50
102
RTVSPost2010PropOp46
 70
     1
102
RTVSPost2010Prop47
 90
       50
102
RTVSPost2010PropOp47
 70
     1
102
RTVSPost2010Prop48
 90
       50
102
RTVSPost2010PropOp48
 70
     1
102
RTVSPost2010Prop49
280
     0
102
RTVSPost2010PropOp49
 70
     1
102
RTVSPost2010Prop50
 90
       50
102
RTVSPost2010PropOp50
 70
     1
102
RTVSPost2010Prop51ColorIndex
 90
      256
102
RTVSPost2010Prop51ColorRGB
 90
-16777216
102
RTVSPost2010PropOp51
 70
     0
102
RTVSPost2010Prop52
140
1.0
102
RTVSPost2010PropOp52
 70
     0
102
RTVSPost2010Prop53
 90
        2
102
RTVSPost2010PropOp53
 70
     1
102
RTVSPost2010Prop54
  1
strokes_ogs.tif
102
RTVSPost2010PropOp54
 70
     1
102
RTVSPost2010Prop55
280
     0
102
RTVSPost2010PropOp55
 70
     1
102
RTVSPost2010Prop56
140
1.0
102
RTVSPost2010PropOp56
 70
     1
102
RTVSPost2010Prop57
140
1.0
102
RTVSPost2010PropOp57
 70
     1
102
RTVSPropertyOp0
 70
     1
102
RTVSPropertyOp1
 70
     1
102
RTVSPropertyOp2
 70
     1
102
RTVSPropertyOp3
 70
     1
102
RTVSPropertyOp4
 70
     1
102
RTVSPropertyOp5
 70
     1
102
RTVSPropertyOp6
 70
     1
102
RTVSPropertyOp7
 70
     1
102
RTVSPropertyOp8
 70
     1
102
RTVSPropertyOp9
 70
     1
102
RTVSPropertyOp10
 70
     1
102
RTVSPropertyOp11
 70
     1
102
RTVSPropertyOp12
 70
     1
102
RTVSPropertyOp13
 70
     1
102
RTVSPropertyOp14
 70
     1
102
RTVSPropertyOp15
 70
     1
102
RTVSPropertyOp16
 70
     1
102
RTVSPropertyOp17
 70
     1
102
RTVSPropertyOp18
 70
     1
102
RTVSPropertyOp19
 70
     1
102
RTVSPropertyOp20
 70
     1
102
RTVSPropertyOp21
 70
     1
102
RTVSPropertyOp22
 70
     1
102
RTVSPropertyOp23
 70
     1
102
RTVSPropertyOp24
 70
     1
102
RTVSPropertyOp25
 70
     1
102
RTVSPropertyOp26
 70
     1
102
RTVSPropertyOp27
 70
     1
102
RTVSPropertyOp28
 70
     1
102
RTVSPropertyOp29
 70
     1
102
RTVSPropertyOp30
 70
     1
102
RTVSPropertyOp31
 70
     1
102
RTVSPropertyOp32
 70
     1
102
RTVSPropertyOp33
 70
     1
102
RTVSPropertyOp34
 70
     1
102
RTVSPropertyOp35
 70
     1
102
RTVSPropertyOp36
 70
     1
102
RTVSPropertyOp37
 70
     1
102
RTVSPropertyOp38
 70
     1
102
RTVSPropertyOp39
 70
     1
102
RTVSPropertyOp40
 70
     1
102
RTVSPropertyOp41
 70
     1
102
RTVSPropertyOp42
 70
     1
102
RTVSPropertyOp43
 70
     1
102
RTVSPropertyOp44
 70
     1
102
RTVSPropertyOp45
 70
     1
102
RTVSPropertyOp46
 70
     1
102
RTVSPropertyOp47
 70
     1
102
RTVSPropertyOp48
 70
     1
102
RTVSPropertyOp49
 70
     1
102
RTVSPropertyOp50
 70
     1
102
RTVSPropertyOp51
 70
     0
102
RTVSPropertyOp52
 70
     0
102
RTVSPropertyOp53
 70
     1
102
RTVSPropertyOp54
 70
     1
102
RTVSPropertyOp55
 70
     1
102
RTVSPropertyOp56
 70
     1
102
RTVSPropertyOp57
 70
     1
102
RTVSPropertyOp58
 70
     1
102
RTVSPropertyOp59
 70
     1
102
RTVSPropertyOp60
 70
     1
102
RTVSPropertyOp61
 70
     1
102
RTVSPropertyOp62
 70
     1
  0
XRECORD
  5
81A
102
{ACAD_REACTORS
330
819
102
}
330
819
100
AcDbXrecord
280
     1
102
RTVSPost2010Prop28
280
     0
102
RTVSPost2010PropOp28
 70
     1
102
RTVSPost2010Prop29
280
     1
102
RTVSPost2010PropOp29
 70
     1
102
RTVSPost2010Prop30
280
     1
102
RTVSPost2010PropOp30
 70
     1
102
RTVSPost2010Prop31
280
     0
102
RTVSPost2010PropOp31
 70
     1
102
RTVSPost2010Prop32
280
     0
102
RTVSPost2010PropOp32
 70
     1
102
RTVSPost2010Prop33
280
     0
102
RTVSPost2010PropOp33
 70
     1
102
RTVSPost2010Prop34
280
     0
102
RTVSPost2010PropOp34
 70
     1
102
RTVSPost2010Prop35
280
     0
102
RTVSPost2010PropOp35
 70
     1
102
RTVSPost2010Prop36
280
     0
102
RTVSPost2010PropOp36
 70
     1
102
RTVSPost2010Prop37
 90
       50
102
RTVSPost2010PropOp37
 70
     1
102
RTVSPost2010Prop38
140
0.0
102
RTVSPost2010PropOp38
 70
     1
102
RTVSPost2010Prop39
140
1.0
102
RTVSPost2010PropOp39
 70
     1
102
RTVSPost2010Prop40
 90
        0
102
RTVSPost2010PropOp40
 70
     1
102
RTVSPost2010Prop41ColorIndex
 90
       18
102
RTVSPost2010Prop41ColorRGB
 90
        0
102
RTVSPost2010PropOp41
 70
     1
102
RTVSPost2010Prop42
 90
       50
102
RTVSPost2010PropOp42
 70
     1
102
RTVSPost2010Prop43
 90
        3
102
RTVSPost2010PropOp43
 70
     1
102
RTVSPost2010Prop44ColorIndex
 90
        5
102
RTVSPost2010Prop44ColorRGB
 90
      255
102
RTVSPost2010PropOp44
 70
     1
102
RTVSPost2010Prop45
280
     0
102
RTVSPost2010PropOp45
 70
     1
102
RTVSPost2010Prop46
 90
       50
102
RTVSPost2010PropOp46
 70
     1
102
RTVSPost2010Prop47
 90
       50
102
RTVSPost2010PropOp47
 70
     1
102
RTVSPost2010Prop48
 90
       50
102
RTVSPost2010PropOp48
 70
     1
102
RTVSPost2010Prop49
280
     0
102
RTVSPost2010PropOp49
 70
     1
102
RTVSPost2010Prop50
 90
       50
102
RTVSPost2010PropOp50
 70
     1
102
RTVSPost2010Prop51ColorIndex
 90
      256
102
RTVSPost2010Prop51ColorRGB
 90
-16777216
102
RTVSPost2010PropOp51
 70
     0
102
RTVSPost2010Prop52
140
1.0
102
RTVSPost2010PropOp52
 70
     0
102
RTVSPost2010Prop53
 90
        2
102
RTVSPost2010PropOp53
 70
     1
102
RTVSPost2010Prop54
  1
strokes_ogs.tif
102
RTVSPost2010PropOp54
 70
     1
102
RTVSPost2010Prop55
280
     0
102
RTVSPost2010PropOp55
 70
     1
102
RTVSPost2010Prop56
140
1.0
102
RTVSPost2010PropOp56
 70
     1
102
RTVSPost2010Prop57
140
1.0
102
RTVSPost2010PropOp57
 70
     1
102
RTVSPropertyOp0
 70
     1
102
RTVSPropertyOp1
 70
     1
102
RTVSPropertyOp2
 70
     1
102
RTVSPropertyOp3
 70
     1
102
RTVSPropertyOp4
 70
     1
102
RTVSPropertyOp5
 70
     1
102
RTVSPropertyOp6
 70
     1
102
RTVSPropertyOp7
 70
     1
102
RTVSPropertyOp8
 70
     1
102
RTVSPropertyOp9
 70
     1
102
RTVSPropertyOp10
 70
     1
102
RTVSPropertyOp11
 70
     1
102
RTVSPropertyOp12
 70
     1
102
RTVSPropertyOp13
 70
     1
102
RTVSPropertyOp14
 70
     1
102
RTVSPropertyOp15
 70
     1
102
RTVSPropertyOp16
 70
     1
102
RTVSPropertyOp17
 70
     1
102
RTVSPropertyOp18
 70
     1
102
RTVSPropertyOp19
 70
     1
102
RTVSPropertyOp20
 70
     1
102
RTVSPropertyOp21
 70
     1
102
RTVSPropertyOp22
 70
     1
102
RTVSPropertyOp23
 70
     1
102
RTVSPropertyOp24
 70
     1
102
RTVSPropertyOp25
 70
     1
102
RTVSPropertyOp26
 70
     1
102
RTVSPropertyOp27
 70
     1
102
RTVSPropertyOp28
 70
     1
102
RTVSPropertyOp29
 70
     1
102
RTVSPropertyOp30
 70
     1
102
RTVSPropertyOp31
 70
     1
102
RTVSPropertyOp32
 70
     1
102
RTVSPropertyOp33
 70
     1
102
RTVSPropertyOp34
 70
     1
102
RTVSPropertyOp35
 70
     1
102
RTVSPropertyOp36
 70
     1
102
RTVSPropertyOp37
 70
     1
102
RTVSPropertyOp38
 70
     1
102
RTVSPropertyOp39
 70
     1
102
RTVSPropertyOp40
 70
     1
102
RTVSPropertyOp41
 70
     1
102
RTVSPropertyOp42
 70
     1
102
RTVSPropertyOp43
 70
     1
102
RTVSPropertyOp44
 70
     1
102
RTVSPropertyOp45
 70
     1
102
RTVSPropertyOp46
 70
     1
102
RTVSPropertyOp47
 70
     1
102
RTVSPropertyOp48
 70
     1
102
RTVSPropertyOp49
 70
     1
102
RTVSPropertyOp50
 70
     1
102
RTVSPropertyOp51
 70
     0
102
RTVSPropertyOp52
 70
     0
102
RTVSPropertyOp53
 70
     1
102
RTVSPropertyOp54
 70
     1
102
RTVSPropertyOp55
 70
     1
102
RTVSPropertyOp56
 70
     1
102
RTVSPropertyOp57
 70
     1
102
RTVSPropertyOp58
 70
     1
102
RTVSPropertyOp59
 70
     1
102
RTVSPropertyOp60
 70
     1
102
RTVSPropertyOp61
 70
     1
102
RTVSPropertyOp62
 70
     1
  0
XRECORD
  5
814
102
{ACAD_REACTORS
330
813
102
}
330
813
100
AcDbXrecord
280
     1
102
RTVSPost2010Prop28
280
     0
102
RTVSPost2010PropOp28
 70
     1
102
RTVSPost2010Prop29
280
     1
102
RTVSPost2010PropOp29
 70
     1
102
RTVSPost2010Prop30
280
     1
102
RTVSPost2010PropOp30
 70
     1
102
RTVSPost2010Prop31
280
     0
102
RTVSPost2010PropOp31
 70
     1
102
RTVSPost2010Prop32
280
     0
102
RTVSPost2010PropOp32
 70
     1
102
RTVSPost2010Prop33
280
     0
102
RTVSPost2010PropOp33
 70
     1
102
RTVSPost2010Prop34
280
     0
102
RTVSPost2010PropOp34
 70
     1
102
RTVSPost2010Prop35
280
     0
102
RTVSPost2010PropOp35
 70
     1
102
RTVSPost2010Prop36
280
     0
102
RTVSPost2010PropOp36
 70
     1
102
RTVSPost2010Prop37
 90
       50
102
RTVSPost2010PropOp37
 70
     1
102
RTVSPost2010Prop38
140
0.0
102
RTVSPost2010PropOp38
 70
     1
102
RTVSPost2010Prop39
140
1.0
102
RTVSPost2010PropOp39
 70
     1
102
RTVSPost2010Prop40
 90
        0
102
RTVSPost2010PropOp40
 70
     1
102
RTVSPost2010Prop41ColorIndex
 90
       18
102
RTVSPost2010Prop41ColorRGB
 90
        0
102
RTVSPost2010PropOp41
 70
     1
102
RTVSPost2010Prop42
 90
       50
102
RTVSPost2010PropOp42
 70
     1
102
RTVSPost2010Prop43
 90
        3
102
RTVSPost2010PropOp43
 70
     1
102
RTVSPost2010Prop44ColorIndex
 90
        5
102
RTVSPost2010Prop44ColorRGB
 90
      255
102
RTVSPost2010PropOp44
 70
     1
102
RTVSPost2010Prop45
280
     0
102
RTVSPost2010PropOp45
 70
     1
102
RTVSPost2010Prop46
 90
       50
102
RTVSPost2010PropOp46
 70
     1
102
RTVSPost2010Prop47
 90
       50
102
RTVSPost2010PropOp47
 70
     1
102
RTVSPost2010Prop48
 90
       50
102
RTVSPost2010PropOp48
 70
     1
102
RTVSPost2010Prop49
280
     0
102
RTVSPost2010PropOp49
 70
     1
102
RTVSPost2010Prop50
 90
       50
102
RTVSPost2010PropOp50
 70
     1
102
RTVSPost2010Prop51ColorIndex
 90
      256
102
RTVSPost2010Prop51ColorRGB
 90
-16777216
102
RTVSPost2010PropOp51
 70
     0
102
RTVSPost2010Prop52
140
1.0
102
RTVSPost2010PropOp52
 70
     0
102
RTVSPost2010Prop53
 90
        2
102
RTVSPost2010PropOp53
 70
     1
102
RTVSPost2010Prop54
  1
strokes_ogs.tif
102
RTVSPost2010PropOp54
 70
     1
102
RTVSPost2010Prop55
280
     0
102
RTVSPost2010PropOp55
 70
     1
102
RTVSPost2010Prop56
140
1.0
102
RTVSPost2010PropOp56
 70
     1
102
RTVSPost2010Prop57
140
1.0
102
RTVSPost2010PropOp57
 70
     1
102
RTVSPropertyOp0
 70
     1
102
RTVSPropertyOp1
 70
     1
102
RTVSPropertyOp2
 70
     1
102
RTVSPropertyOp3
 70
     1
102
RTVSPropertyOp4
 70
     1
102
RTVSPropertyOp5
 70
     1
102
RTVSPropertyOp6
 70
     1
102
RTVSPropertyOp7
 70
     1
102
RTVSPropertyOp8
 70
     1
102
RTVSPropertyOp9
 70
     1
102
RTVSPropertyOp10
 70
     1
102
RTVSPropertyOp11
 70
     1
102
RTVSPropertyOp12
 70
     1
102
RTVSPropertyOp13
 70
     1
102
RTVSPropertyOp14
 70
     1
102
RTVSPropertyOp15
 70
     1
102
RTVSPropertyOp16
 70
     1
102
RTVSPropertyOp17
 70
     1
102
RTVSPropertyOp18
 70
     1
102
RTVSPropertyOp19
 70
     1
102
RTVSPropertyOp20
 70
     1
102
RTVSPropertyOp21
 70
     1
102
RTVSPropertyOp22
 70
     1
102
RTVSPropertyOp23
 70
     1
102
RTVSPropertyOp24
 70
     1
102
RTVSPropertyOp25
 70
     1
102
RTVSPropertyOp26
 70
     1
102
RTVSPropertyOp27
 70
     1
102
RTVSPropertyOp28
 70
     1
102
RTVSPropertyOp29
 70
     1
102
RTVSPropertyOp30
 70
     1
102
RTVSPropertyOp31
 70
     1
102
RTVSPropertyOp32
 70
     1
102
RTVSPropertyOp33
 70
     1
102
RTVSPropertyOp34
 70
     1
102
RTVSPropertyOp35
 70
     1
102
RTVSPropertyOp36
 70
     1
102
RTVSPropertyOp37
 70
     1
102
RTVSPropertyOp38
 70
     1
102
RTVSPropertyOp39
 70
     1
102
RTVSPropertyOp40
 70
     1
102
RTVSPropertyOp41
 70
     1
102
RTVSPropertyOp42
 70
     1
102
RTVSPropertyOp43
 70
     1
102
RTVSPropertyOp44
 70
     1
102
RTVSPropertyOp45
 70
     1
102
RTVSPropertyOp46
 70
     1
102
RTVSPropertyOp47
 70
     1
102
RTVSPropertyOp48
 70
     1
102
RTVSPropertyOp49
 70
     1
102
RTVSPropertyOp50
 70
     1
102
RTVSPropertyOp51
 70
     0
102
RTVSPropertyOp52
 70
     0
102
RTVSPropertyOp53
 70
     1
102
RTVSPropertyOp54
 70
     1
102
RTVSPropertyOp55
 70
     1
102
RTVSPropertyOp56
 70
     1
102
RTVSPropertyOp57
 70
     1
102
RTVSPropertyOp58
 70
     1
102
RTVSPropertyOp59
 70
     1
102
RTVSPropertyOp60
 70
     1
102
RTVSPropertyOp61
 70
     1
102
RTVSPropertyOp62
 70
     1
  0
XRECORD
  5
816
102
{ACAD_REACTORS
330
815
102
}
330
815
100
AcDbXrecord
280
     1
102
RTVSPost2010Prop28
280
     0
102
RTVSPost2010PropOp28
 70
     1
102
RTVSPost2010Prop29
280
     1
102
RTVSPost2010PropOp29
 70
     1
102
RTVSPost2010Prop30
280
     1
102
RTVSPost2010PropOp30
 70
     1
102
RTVSPost2010Prop31
280
     0
102
RTVSPost2010PropOp31
 70
     1
102
RTVSPost2010Prop32
280
     0
102
RTVSPost2010PropOp32
 70
     1
102
RTVSPost2010Prop33
280
     0
102
RTVSPost2010PropOp33
 70
     1
102
RTVSPost2010Prop34
280
     0
102
RTVSPost2010PropOp34
 70
     1
102
RTVSPost2010Prop35
280
     0
102
RTVSPost2010PropOp35
 70
     1
102
RTVSPost2010Prop36
280
     0
102
RTVSPost2010PropOp36
 70
     1
102
RTVSPost2010Prop37
 90
       50
102
RTVSPost2010PropOp37
 70
     1
102
RTVSPost2010Prop38
140
0.0
102
RTVSPost2010PropOp38
 70
     1
102
RTVSPost2010Prop39
140
1.0
102
RTVSPost2010PropOp39
 70
     1
102
RTVSPost2010Prop40
 90
        0
102
RTVSPost2010PropOp40
 70
     1
102
RTVSPost2010Prop41ColorIndex
 90
       18
102
RTVSPost2010Prop41ColorRGB
 90
        0
102
RTVSPost2010PropOp41
 70
     1
102
RTVSPost2010Prop42
 90
       50
102
RTVSPost2010PropOp42
 70
     1
102
RTVSPost2010Prop43
 90
        3
102
RTVSPost2010PropOp43
 70
     1
102
RTVSPost2010Prop44ColorIndex
 90
        5
102
RTVSPost2010Prop44ColorRGB
 90
      255
102
RTVSPost2010PropOp44
 70
     1
102
RTVSPost2010Prop45
280
     0
102
RTVSPost2010PropOp45
 70
     1
102
RTVSPost2010Prop46
 90
       50
102
RTVSPost2010PropOp46
 70
     1
102
RTVSPost2010Prop47
 90
       50
102
RTVSPost2010PropOp47
 70
     1
102
RTVSPost2010Prop48
 90
       50
102
RTVSPost2010PropOp48
 70
     1
102
RTVSPost2010Prop49
280
     0
102
RTVSPost2010PropOp49
 70
     1
102
RTVSPost2010Prop50
 90
       50
102
RTVSPost2010PropOp50
 70
     1
102
RTVSPost2010Prop51ColorIndex
 90
      256
102
RTVSPost2010Prop51ColorRGB
 90
-16777216
102
RTVSPost2010PropOp51
 70
     0
102
RTVSPost2010Prop52
140
1.0
102
RTVSPost2010PropOp52
 70
     0
102
RTVSPost2010Prop53
 90
        2
102
RTVSPost2010PropOp53
 70
     1
102
RTVSPost2010Prop54
  1
strokes_ogs.tif
102
RTVSPost2010PropOp54
 70
     1
102
RTVSPost2010Prop55
280
     0
102
RTVSPost2010PropOp55
 70
     1
102
RTVSPost2010Prop56
140
1.0
102
RTVSPost2010PropOp56
 70
     1
102
RTVSPost2010Prop57
140
1.0
102
RTVSPost2010PropOp57
 70
     1
102
RTVSPropertyOp0
 70
     1
102
RTVSPropertyOp1
 70
     1
102
RTVSPropertyOp2
 70
     1
102
RTVSPropertyOp3
 70
     1
102
RTVSPropertyOp4
 70
     1
102
RTVSPropertyOp5
 70
     1
102
RTVSPropertyOp6
 70
     1
102
RTVSPropertyOp7
 70
     1
102
RTVSPropertyOp8
 70
     1
102
RTVSPropertyOp9
 70
     1
102
RTVSPropertyOp10
 70
     1
102
RTVSPropertyOp11
 70
     1
102
RTVSPropertyOp12
 70
     1
102
RTVSPropertyOp13
 70
     1
102
RTVSPropertyOp14
 70
     1
102
RTVSPropertyOp15
 70
     1
102
RTVSPropertyOp16
 70
     1
102
RTVSPropertyOp17
 70
     1
102
RTVSPropertyOp18
 70
     1
102
RTVSPropertyOp19
 70
     1
102
RTVSPropertyOp20
 70
     1
102
RTVSPropertyOp21
 70
     1
102
RTVSPropertyOp22
 70
     1
102
RTVSPropertyOp23
 70
     1
102
RTVSPropertyOp24
 70
     1
102
RTVSPropertyOp25
 70
     1
102
RTVSPropertyOp26
 70
     1
102
RTVSPropertyOp27
 70
     1
102
RTVSPropertyOp28
 70
     1
102
RTVSPropertyOp29
 70
     1
102
RTVSPropertyOp30
 70
     1
102
RTVSPropertyOp31
 70
     1
102
RTVSPropertyOp32
 70
     1
102
RTVSPropertyOp33
 70
     1
102
RTVSPropertyOp34
 70
     1
102
RTVSPropertyOp35
 70
     1
102
RTVSPropertyOp36
 70
     1
102
RTVSPropertyOp37
 70
     1
102
RTVSPropertyOp38
 70
     1
102
RTVSPropertyOp39
 70
     1
102
RTVSPropertyOp40
 70
     1
102
RTVSPropertyOp41
 70
     1
102
RTVSPropertyOp42
 70
     1
102
RTVSPropertyOp43
 70
     1
102
RTVSPropertyOp44
 70
     1
102
RTVSPropertyOp45
 70
     1
102
RTVSPropertyOp46
 70
     1
102
RTVSPropertyOp47
 70
     1
102
RTVSPropertyOp48
 70
     1
102
RTVSPropertyOp49
 70
     1
102
RTVSPropertyOp50
 70
     1
102
RTVSPropertyOp51
 70
     0
102
RTVSPropertyOp52
 70
     0
102
RTVSPropertyOp53
 70
     1
102
RTVSPropertyOp54
 70
     1
102
RTVSPropertyOp55
 70
     1
102
RTVSPropertyOp56
 70
     1
102
RTVSPropertyOp57
 70
     1
102
RTVSPropertyOp58
 70
     1
102
RTVSPropertyOp59
 70
     1
102
RTVSPropertyOp60
 70
     1
102
RTVSPropertyOp61
 70
     1
102
RTVSPropertyOp62
 70
     1
  0
XRECORD
  5
80C
102
{ACAD_REACTORS
330
80B
102
}
330
80B
100
AcDbXrecord
280
     1
102
RTVSPost2010Prop28
280
     0
102
RTVSPost2010PropOp28
 70
     1
102
RTVSPost2010Prop29
280
     1
102
RTVSPost2010PropOp29
 70
     1
102
RTVSPost2010Prop30
280
     1
102
RTVSPost2010PropOp30
 70
     1
102
RTVSPost2010Prop31
280
     0
102
RTVSPost2010PropOp31
 70
     1
102
RTVSPost2010Prop32
280
     0
102
RTVSPost2010PropOp32
 70
     1
102
RTVSPost2010Prop33
280
     0
102
RTVSPost2010PropOp33
 70
     1
102
RTVSPost2010Prop34
280
     0
102
RTVSPost2010PropOp34
 70
     1
102
RTVSPost2010Prop35
280
     0
102
RTVSPost2010PropOp35
 70
     1
102
RTVSPost2010Prop36
280
     0
102
RTVSPost2010PropOp36
 70
     1
102
RTVSPost2010Prop37
 90
       50
102
RTVSPost2010PropOp37
 70
     1
102
RTVSPost2010Prop38
140
0.0
102
RTVSPost2010PropOp38
 70
     1
102
RTVSPost2010Prop39
140
1.0
102
RTVSPost2010PropOp39
 70
     1
102
RTVSPost2010Prop40
 90
        0
102
RTVSPost2010PropOp40
 70
     1
102
RTVSPost2010Prop41ColorIndex
 90
       18
102
RTVSPost2010Prop41ColorRGB
 90
        0
102
RTVSPost2010PropOp41
 70
     1
102
RTVSPost2010Prop42
 90
       50
102
RTVSPost2010PropOp42
 70
     1
102
RTVSPost2010Prop43
 90
        3
102
RTVSPost2010PropOp43
 70
     1
102
RTVSPost2010Prop44ColorIndex
 90
        5
102
RTVSPost2010Prop44ColorRGB
 90
      255
102
RTVSPost2010PropOp44
 70
     1
102
RTVSPost2010Prop45
280
     0
102
RTVSPost2010PropOp45
 70
     1
102
RTVSPost2010Prop46
 90
       50
102
RTVSPost2010PropOp46
 70
     1
102
RTVSPost2010Prop47
 90
       50
102
RTVSPost2010PropOp47
 70
     1
102
RTVSPost2010Prop48
 90
       50
102
RTVSPost2010PropOp48
 70
     1
102
RTVSPost2010Prop49
280
     0
102
RTVSPost2010PropOp49
 70
     1
102
RTVSPost2010Prop50
 90
       50
102
RTVSPost2010PropOp50
 70
     1
102
RTVSPost2010Prop51ColorIndex
 90
      256
102
RTVSPost2010Prop51ColorRGB
 90
-16777216
102
RTVSPost2010PropOp51
 70
     0
102
RTVSPost2010Prop52
140
1.0
102
RTVSPost2010PropOp52
 70
     0
102
RTVSPost2010Prop53
 90
        2
102
RTVSPost2010PropOp53
 70
     1
102
RTVSPost2010Prop54
  1
strokes_ogs.tif
102
RTVSPost2010PropOp54
 70
     1
102
RTVSPost2010Prop55
280
     0
102
RTVSPost2010PropOp55
 70
     1
102
RTVSPost2010Prop56
140
1.0
102
RTVSPost2010PropOp56
 70
     1
102
RTVSPost2010Prop57
140
1.0
102
RTVSPost2010PropOp57
 70
     1
102
RTVSPropertyOp0
 70
     1
102
RTVSPropertyOp1
 70
     1
102
RTVSPropertyOp2
 70
     1
102
RTVSPropertyOp3
 70
     1
102
RTVSPropertyOp4
 70
     1
102
RTVSPropertyOp5
 70
     1
102
RTVSPropertyOp6
 70
     1
102
RTVSPropertyOp7
 70
     1
102
RTVSPropertyOp8
 70
     1
102
RTVSPropertyOp9
 70
     1
102
RTVSPropertyOp10
 70
     1
102
RTVSPropertyOp11
 70
     1
102
RTVSPropertyOp12
 70
     1
102
RTVSPropertyOp13
 70
     1
102
RTVSPropertyOp14
 70
     1
102
RTVSPropertyOp15
 70
     1
102
RTVSPropertyOp16
 70
     1
102
RTVSPropertyOp17
 70
     1
102
RTVSPropertyOp18
 70
     1
102
RTVSPropertyOp19
 70
     1
102
RTVSPropertyOp20
 70
     1
102
RTVSPropertyOp21
 70
     1
102
RTVSPropertyOp22
 70
     1
102
RTVSPropertyOp23
 70
     1
102
RTVSPropertyOp24
 70
     1
102
RTVSPropertyOp25
 70
     1
102
RTVSPropertyOp26
 70
     1
102
RTVSPropertyOp27
 70
     1
102
RTVSPropertyOp28
 70
     1
102
RTVSPropertyOp29
 70
     1
102
RTVSPropertyOp30
 70
     1
102
RTVSPropertyOp31
 70
     1
102
RTVSPropertyOp32
 70
     1
102
RTVSPropertyOp33
 70
     1
102
RTVSPropertyOp34
 70
     1
102
RTVSPropertyOp35
 70
     1
102
RTVSPropertyOp36
 70
     1
102
RTVSPropertyOp37
 70
     1
102
RTVSPropertyOp38
 70
     1
102
RTVSPropertyOp39
 70
     1
102
RTVSPropertyOp40
 70
     1
102
RTVSPropertyOp41
 70
     1
102
RTVSPropertyOp42
 70
     1
102
RTVSPropertyOp43
 70
     1
102
RTVSPropertyOp44
 70
     1
102
RTVSPropertyOp45
 70
     1
102
RTVSPropertyOp46
 70
     1
102
RTVSPropertyOp47
 70
     1
102
RTVSPropertyOp48
 70
     1
102
RTVSPropertyOp49
 70
     1
102
RTVSPropertyOp50
 70
     1
102
RTVSPropertyOp51
 70
     0
102
RTVSPropertyOp52
 70
     0
102
RTVSPropertyOp53
 70
     1
102
RTVSPropertyOp54
 70
     1
102
RTVSPropertyOp55
 70
     1
102
RTVSPropertyOp56
 70
     1
102
RTVSPropertyOp57
 70
     1
102
RTVSPropertyOp58
 70
     1
102
RTVSPropertyOp59
 70
     1
102
RTVSPropertyOp60
 70
     1
102
RTVSPropertyOp61
 70
     1
102
RTVSPropertyOp62
 70
     1
  0
XRECORD
  5
800
102
{ACAD_REACTORS
330
7FF
102
}
330
7FF
100
AcDbXrecord
280
     1
102
RTVSPost2010Prop28
280
     0
102
RTVSPost2010PropOp28
 70
     1
102
RTVSPost2010Prop29
280
     1
102
RTVSPost2010PropOp29
 70
     1
102
RTVSPost2010Prop30
280
     1
102
RTVSPost2010PropOp30
 70
     1
102
RTVSPost2010Prop31
280
     0
102
RTVSPost2010PropOp31
 70
     1
102
RTVSPost2010Prop32
280
     0
102
RTVSPost2010PropOp32
 70
     1
102
RTVSPost2010Prop33
280
     0
102
RTVSPost2010PropOp33
 70
     1
102
RTVSPost2010Prop34
280
     0
102
RTVSPost2010PropOp34
 70
     1
102
RTVSPost2010Prop35
280
     0
102
RTVSPost2010PropOp35
 70
     1
102
RTVSPost2010Prop36
280
     0
102
RTVSPost2010PropOp36
 70
     1
102
RTVSPost2010Prop37
 90
       50
102
RTVSPost2010PropOp37
 70
     1
102
RTVSPost2010Prop38
140
0.0
102
RTVSPost2010PropOp38
 70
     1
102
RTVSPost2010Prop39
140
1.0
102
RTVSPost2010PropOp39
 70
     1
102
RTVSPost2010Prop40
 90
        0
102
RTVSPost2010PropOp40
 70
     1
102
RTVSPost2010Prop41ColorIndex
 90
       18
102
RTVSPost2010Prop41ColorRGB
 90
        0
102
RTVSPost2010PropOp41
 70
     1
102
RTVSPost2010Prop42
 90
       50
102
RTVSPost2010PropOp42
 70
     1
102
RTVSPost2010Prop43
 90
        3
102
RTVSPost2010PropOp43
 70
     1
102
RTVSPost2010Prop44ColorIndex
 90
        5
102
RTVSPost2010Prop44ColorRGB
 90
      255
102
RTVSPost2010PropOp44
 70
     1
102
RTVSPost2010Prop45
280
     0
102
RTVSPost2010PropOp45
 70
     1
102
RTVSPost2010Prop46
 90
       50
102
RTVSPost2010PropOp46
 70
     1
102
RTVSPost2010Prop47
 90
       50
102
RTVSPost2010PropOp47
 70
     1
102
RTVSPost2010Prop48
 90
       50
102
RTVSPost2010PropOp48
 70
     1
102
RTVSPost2010Prop49
280
     0
102
RTVSPost2010PropOp49
 70
     1
102
RTVSPost2010Prop50
 90
       50
102
RTVSPost2010PropOp50
 70
     1
102
RTVSPost2010Prop51ColorIndex
 90
      256
102
RTVSPost2010Prop51ColorRGB
 90
-16777216
102
RTVSPost2010PropOp51
 70
     0
102
RTVSPost2010Prop52
140
1.0
102
RTVSPost2010PropOp52
 70
     0
102
RTVSPost2010Prop53
 90
        2
102
RTVSPost2010PropOp53
 70
     1
102
RTVSPost2010Prop54
  1
strokes_ogs.tif
102
RTVSPost2010PropOp54
 70
     1
102
RTVSPost2010Prop55
280
     0
102
RTVSPost2010PropOp55
 70
     1
102
RTVSPost2010Prop56
140
1.0
102
RTVSPost2010PropOp56
 70
     1
102
RTVSPost2010Prop57
140
1.0
102
RTVSPost2010PropOp57
 70
     1
102
RTVSPropertyOp0
 70
     1
102
RTVSPropertyOp1
 70
     1
102
RTVSPropertyOp2
 70
     1
102
RTVSPropertyOp3
 70
     1
102
RTVSPropertyOp4
 70
     1
102
RTVSPropertyOp5
 70
     1
102
RTVSPropertyOp6
 70
     1
102
RTVSPropertyOp7
 70
     1
102
RTVSPropertyOp8
 70
     1
102
RTVSPropertyOp9
 70
     1
102
RTVSPropertyOp10
 70
     1
102
RTVSPropertyOp11
 70
     1
102
RTVSPropertyOp12
 70
     1
102
RTVSPropertyOp13
 70
     1
102
RTVSPropertyOp14
 70
     1
102
RTVSPropertyOp15
 70
     1
102
RTVSPropertyOp16
 70
     1
102
RTVSPropertyOp17
 70
     1
102
RTVSPropertyOp18
 70
     1
102
RTVSPropertyOp19
 70
     1
102
RTVSPropertyOp20
 70
     1
102
RTVSPropertyOp21
 70
     1
102
RTVSPropertyOp22
 70
     1
102
RTVSPropertyOp23
 70
     1
102
RTVSPropertyOp24
 70
     1
102
RTVSPropertyOp25
 70
     1
102
RTVSPropertyOp26
 70
     1
102
RTVSPropertyOp27
 70
     1
102
RTVSPropertyOp28
 70
     1
102
RTVSPropertyOp29
 70
     1
102
RTVSPropertyOp30
 70
     1
102
RTVSPropertyOp31
 70
     1
102
RTVSPropertyOp32
 70
     1
102
RTVSPropertyOp33
 70
     1
102
RTVSPropertyOp34
 70
     1
102
RTVSPropertyOp35
 70
     1
102
RTVSPropertyOp36
 70
     1
102
RTVSPropertyOp37
 70
     1
102
RTVSPropertyOp38
 70
     1
102
RTVSPropertyOp39
 70
     1
102
RTVSPropertyOp40
 70
     1
102
RTVSPropertyOp41
 70
     1
102
RTVSPropertyOp42
 70
     1
102
RTVSPropertyOp43
 70
     1
102
RTVSPropertyOp44
 70
     1
102
RTVSPropertyOp45
 70
     1
102
RTVSPropertyOp46
 70
     1
102
RTVSPropertyOp47
 70
     1
102
RTVSPropertyOp48
 70
     1
102
RTVSPropertyOp49
 70
     1
102
RTVSPropertyOp50
 70
     1
102
RTVSPropertyOp51
 70
     0
102
RTVSPropertyOp52
 70
     0
102
RTVSPropertyOp53
 70
     1
102
RTVSPropertyOp54
 70
     1
102
RTVSPropertyOp55
 70
     1
102
RTVSPropertyOp56
 70
     1
102
RTVSPropertyOp57
 70
     1
102
RTVSPropertyOp58
 70
     1
102
RTVSPropertyOp59
 70
     1
102
RTVSPropertyOp60
 70
     1
102
RTVSPropertyOp61
 70
     1
102
RTVSPropertyOp62
 70
     1
  0
XRECORD
  5
818
102
{ACAD_REACTORS
330
817
102
}
330
817
100
AcDbXrecord
280
     1
102
RTVSPost2010Prop28
280
     0
102
RTVSPost2010PropOp28
 70
     1
102
RTVSPost2010Prop29
280
     1
102
RTVSPost2010PropOp29
 70
     1
102
RTVSPost2010Prop30
280
     1
102
RTVSPost2010PropOp30
 70
     1
102
RTVSPost2010Prop31
280
     0
102
RTVSPost2010PropOp31
 70
     1
102
RTVSPost2010Prop32
280
     0
102
RTVSPost2010PropOp32
 70
     1
102
RTVSPost2010Prop33
280
     0
102
RTVSPost2010PropOp33
 70
     1
102
RTVSPost2010Prop34
280
     0
102
RTVSPost2010PropOp34
 70
     1
102
RTVSPost2010Prop35
280
     0
102
RTVSPost2010PropOp35
 70
     1
102
RTVSPost2010Prop36
280
     0
102
RTVSPost2010PropOp36
 70
     1
102
RTVSPost2010Prop37
 90
       50
102
RTVSPost2010PropOp37
 70
     1
102
RTVSPost2010Prop38
140
0.0
102
RTVSPost2010PropOp38
 70
     1
102
RTVSPost2010Prop39
140
1.0
102
RTVSPost2010PropOp39
 70
     1
102
RTVSPost2010Prop40
 90
        0
102
RTVSPost2010PropOp40
 70
     1
102
RTVSPost2010Prop41ColorIndex
 90
       18
102
RTVSPost2010Prop41ColorRGB
 90
        0
102
RTVSPost2010PropOp41
 70
     1
102
RTVSPost2010Prop42
 90
       50
102
RTVSPost2010PropOp42
 70
     1
102
RTVSPost2010Prop43
 90
        3
102
RTVSPost2010PropOp43
 70
     1
102
RTVSPost2010Prop44ColorIndex
 90
        5
102
RTVSPost2010Prop44ColorRGB
 90
      255
102
RTVSPost2010PropOp44
 70
     1
102
RTVSPost2010Prop45
280
     0
102
RTVSPost2010PropOp45
 70
     1
102
RTVSPost2010Prop46
 90
       50
102
RTVSPost2010PropOp46
 70
     1
102
RTVSPost2010Prop47
 90
       50
102
RTVSPost2010PropOp47
 70
     1
102
RTVSPost2010Prop48
 90
       50
102
RTVSPost2010PropOp48
 70
     1
102
RTVSPost2010Prop49
280
     0
102
RTVSPost2010PropOp49
 70
     1
102
RTVSPost2010Prop50
 90
       50
102
RTVSPost2010PropOp50
 70
     1
102
RTVSPost2010Prop51ColorIndex
 90
      256
102
RTVSPost2010Prop51ColorRGB
 90
-16777216
102
RTVSPost2010PropOp51
 70
     0
102
RTVSPost2010Prop52
140
1.0
102
RTVSPost2010PropOp52
 70
     0
102
RTVSPost2010Prop53
 90
        2
102
RTVSPost2010PropOp53
 70
     1
102
RTVSPost2010Prop54
  1
strokes_ogs.tif
102
RTVSPost2010PropOp54
 70
     1
102
RTVSPost2010Prop55
280
     0
102
RTVSPost2010PropOp55
 70
     1
102
RTVSPost2010Prop56
140
1.0
102
RTVSPost2010PropOp56
 70
     1
102
RTVSPost2010Prop57
140
1.0
102
RTVSPost2010PropOp57
 70
     1
102
RTVSPropertyOp0
 70
     1
102
RTVSPropertyOp1
 70
     1
102
RTVSPropertyOp2
 70
     1
102
RTVSPropertyOp3
 70
     1
102
RTVSPropertyOp4
 70
     1
102
RTVSPropertyOp5
 70
     1
102
RTVSPropertyOp6
 70
     1
102
RTVSPropertyOp7
 70
     1
102
RTVSPropertyOp8
 70
     1
102
RTVSPropertyOp9
 70
     1
102
RTVSPropertyOp10
 70
     1
102
RTVSPropertyOp11
 70
     1
102
RTVSPropertyOp12
 70
     1
102
RTVSPropertyOp13
 70
     1
102
RTVSPropertyOp14
 70
     1
102
RTVSPropertyOp15
 70
     1
102
RTVSPropertyOp16
 70
     1
102
RTVSPropertyOp17
 70
     1
102
RTVSPropertyOp18
 70
     1
102
RTVSPropertyOp19
 70
     1
102
RTVSPropertyOp20
 70
     1
102
RTVSPropertyOp21
 70
     1
102
RTVSPropertyOp22
 70
     1
102
RTVSPropertyOp23
 70
     1
102
RTVSPropertyOp24
 70
     1
102
RTVSPropertyOp25
 70
     1
102
RTVSPropertyOp26
 70
     1
102
RTVSPropertyOp27
 70
     1
102
RTVSPropertyOp28
 70
     1
102
RTVSPropertyOp29
 70
     1
102
RTVSPropertyOp30
 70
     1
102
RTVSPropertyOp31
 70
     1
102
RTVSPropertyOp32
 70
     1
102
RTVSPropertyOp33
 70
     1
102
RTVSPropertyOp34
 70
     1
102
RTVSPropertyOp35
 70
     1
102
RTVSPropertyOp36
 70
     1
102
RTVSPropertyOp37
 70
     1
102
RTVSPropertyOp38
 70
     1
102
RTVSPropertyOp39
 70
     1
102
RTVSPropertyOp40
 70
     1
102
RTVSPropertyOp41
 70
     1
102
RTVSPropertyOp42
 70
     1
102
RTVSPropertyOp43
 70
     1
102
RTVSPropertyOp44
 70
     1
102
RTVSPropertyOp45
 70
     1
102
RTVSPropertyOp46
 70
     1
102
RTVSPropertyOp47
 70
     1
102
RTVSPropertyOp48
 70
     1
102
RTVSPropertyOp49
 70
     1
102
RTVSPropertyOp50
 70
     1
102
RTVSPropertyOp51
 70
     0
102
RTVSPropertyOp52
 70
     0
102
RTVSPropertyOp53
 70
     1
102
RTVSPropertyOp54
 70
     1
102
RTVSPropertyOp55
 70
     1
102
RTVSPropertyOp56
 70
     1
102
RTVSPropertyOp57
 70
     1
102
RTVSPropertyOp58
 70
     1
102
RTVSPropertyOp59
 70
     1
102
RTVSPropertyOp60
 70
     1
102
RTVSPropertyOp61
 70
     1
102
RTVSPropertyOp62
 70
     1
  0
ENDSEC
  0
EOF
