  0
SECTION
  2
HEADER
  9
$ACADVER
  1
AC1021
  9
$ACADMAINTVER
 70
    50
  9
$DWGCODEPAGE
  3
ANSI_1252
  9
$LASTSAVEDBY
  1
leeh
  9
$INSBASE
 10
0.0
 20
0.0
 30
0.0
  9
$EXTMIN
 10
7.837830576856958
 20
15.78447031437474
 30
-0.0015258207003583
  9
$EXTMAX
 10
393.4487924508853
 20
570.1896067224322
 30
0.0000000349246037
  9
$LIMMIN
 10
0.0
 20
0.0
  9
$LIMMAX
 10
420.0
 20
297.0
  9
$ORTHOMODE
 70
     0
  9
$REGENMODE
 70
     1
  9
$FILLMODE
 70
     1
  9
$QTEXTMODE
 70
     0
  9
$MIRRTEXT
 70
     0
  9
$LTSCALE
 40
1.0
  9
$ATTMODE
 70
     1
  9
$TEXTSIZE
 40
2.5
  9
$TRACEWID
 40
1.0
  9
$TEXTSTYLE
  7
Standard
  9
$CLAYER
  8
0
  9
$CELTYPE
  6
ByLayer
  9
$CECOLOR
 62
   256
  9
$CELTSCALE
 40
1.0
  9
$DISPSILH
 70
     0
  9
$DIMSCALE
 40
1.0
  9
$DIMASZ
 40
2.5
  9
$DIMEXO
 40
0.625
  9
$DIMDLI
 40
3.75
  9
$DIMRND
 40
0.0
  9
$DIMDLE
 40
0.0
  9
$DIMEXE
 40
1.25
  9
$DIMTP
 40
0.0
  9
$DIMTM
 40
0.0
  9
$DIMTXT
 40
2.5
  9
$DIMCEN
 40
2.5
  9
$DIMTSZ
 40
0.0
  9
$DIMTOL
 70
     0
  9
$DIMLIM
 70
     0
  9
$DIMTIH
 70
     0
  9
$DIMTOH
 70
     0
  9
$DIMSE1
 70
     0
  9
$DIMSE2
 70
     0
  9
$DIMTAD
 70
     1
  9
$DIMZIN
 70
     8
  9
$DIMBLK
  1

  9
$DIMASO
 70
     1
  9
$DIMSHO
 70
     1
  9
$DIMPOST
  1

  9
$DIMAPOST
  1

  9
$DIMALT
 70
     0
  9
$DIMALTD
 70
     3
  9
$DIMALTF
 40
0.03937007874016
  9
$DIMLFAC
 40
1.0
  9
$DIMTOFL
 70
     1
  9
$DIMTVP
 40
0.0
  9
$DIMTIX
 70
     0
  9
$DIMSOXD
 70
     0
  9
$DIMSAH
 70
     0
  9
$DIMBLK1
  1

  9
$DIMBLK2
  1

  9
$DIMSTYLE
  2
ISO-25
  9
$DIMCLRD
 70
     0
  9
$DIMCLRE
 70
     0
  9
$DIMCLRT
 70
     0
  9
$DIMTFAC
 40
1.0
  9
$DIMGAP
 40
0.625
  9
$DIMJUST
 70
     0
  9
$DIMSD1
 70
     0
  9
$DIMSD2
 70
     0
  9
$DIMTOLJ
 70
     0
  9
$DIMTZIN
 70
     8
  9
$DIMALTZ
 70
     0
  9
$DIMALTTZ
 70
     0
  9
$DIMUPT
 70
     0
  9
$DIMDEC
 70
     2
  9
$DIMTDEC
 70
     2
  9
$DIMALTU
 70
     2
  9
$DIMALTTD
 70
     3
  9
$DIMTXSTY
  7
Standard
  9
$DIMAUNIT
 70
     0
  9
$DIMADEC
 70
     0
  9
$DIMALTRND
 40
0.0
  9
$DIMAZIN
 70
     0
  9
$DIMDSEP
 70
    44
  9
$DIMATFIT
 70
     3
  9
$DIMFRAC
 70
     0
  9
$DIMLDRBLK
  1

  9
$DIMLUNIT
 70
     2
  9
$DIMLWD
 70
    -2
  9
$DIMLWE
 70
    -2
  9
$DIMTMOVE
 70
     0
  9
$DIMFXL
 40
1.0
  9
$DIMFXLON
 70
     0
  9
$DIMJOGANG
 40
1.570796326794896
  9
$DIMTFILL
 70
     0
  9
$DIMTFILLCLR
 70
     0
  9
$DIMARCSYM
 70
     0
  9
$DIMLTYPE
  6

  9
$DIMLTEX1
  6

  9
$DIMLTEX2
  6

  9
$LUNITS
 70
     2
  9
$LUPREC
 70
     4
  9
$SKETCHINC
 40
1.0
  9
$FILLETRAD
 40
0.0
  9
$AUNITS
 70
     0
  9
$AUPREC
 70
     0
  9
$MENU
  1
.
  9
$ELEVATION
 40
0.0
  9
$PELEVATION
 40
0.0
  9
$THICKNESS
 40
0.0
  9
$LIMCHECK
 70
     0
  9
$CHAMFERA
 40
0.0
  9
$CHAMFERB
 40
0.0
  9
$CHAMFERC
 40
0.0
  9
$CHAMFERD
 40
0.0
  9
$SKPOLY
 70
     0
  9
$TDCREATE
 40
2459768.432557870
  9
$TDUCREATE
 40
2459767.932557870
  9
$TDUPDATE
 40
2459768.439907407
  9
$TDUUPDATE
 40
2459767.939907408
  9
$TDINDWG
 40
0.0073611111
  9
$TDUSRTIMER
 40
0.0073611111
  9
$USRTIMER
 70
     1
  9
$ANGBASE
 50
0.0
  9
$ANGDIR
 70
     0
  9
$PDMODE
 70
     0
  9
$PDSIZE
 40
0.0
  9
$PLINEWID
 40
0.0
  9
$SPLFRAME
 70
     0
  9
$SPLINETYPE
 70
     6
  9
$SPLINESEGS
 70
     8
  9
$HANDSEED
  5
4CE
  9
$SURFTAB1
 70
     6
  9
$SURFTAB2
 70
     6
  9
$SURFTYPE
 70
     6
  9
$SURFU
 70
     6
  9
$SURFV
 70
     6
  9
$UCSBASE
  2

  9
$UCSNAME
  2

  9
$UCSORG
 10
0.0
 20
0.0
 30
0.0
  9
$UCSXDIR
 10
1.0
 20
0.0
 30
0.0
  9
$UCSYDIR
 10
0.0
 20
1.0
 30
0.0
  9
$UCSORTHOREF
  2

  9
$UCSORTHOVIEW
 70
     0
  9
$UCSORGTOP
 10
0.0
 20
0.0
 30
0.0
  9
$UCSORGBOTTOM
 10
0.0
 20
0.0
 30
0.0
  9
$UCSORGLEFT
 10
0.0
 20
0.0
 30
0.0
  9
$UCSORGRIGHT
 10
0.0
 20
0.0
 30
0.0
  9
$UCSORGFRONT
 10
0.0
 20
0.0
 30
0.0
  9
$UCSORGBACK
 10
0.0
 20
0.0
 30
0.0
  9
$PUCSBASE
  2

  9
$PUCSNAME
  2

  9
$PUCSORG
 10
0.0
 20
0.0
 30
0.0
  9
$PUCSXDIR
 10
1.0
 20
0.0
 30
0.0
  9
$PUCSYDIR
 10
0.0
 20
1.0
 30
0.0
  9
$PUCSORTHOREF
  2

  9
$PUCSORTHOVIEW
 70
     0
  9
$PUCSORGTOP
 10
0.0
 20
0.0
 30
0.0
  9
$PUCSORGBOTTOM
 10
0.0
 20
0.0
 30
0.0
  9
$PUCSORGLEFT
 10
0.0
 20
0.0
 30
0.0
  9
$PUCSORGRIGHT
 10
0.0
 20
0.0
 30
0.0
  9
$PUCSORGFRONT
 10
0.0
 20
0.0
 30
0.0
  9
$PUCSORGBACK
 10
0.0
 20
0.0
 30
0.0
  9
$USERI1
 70
     0
  9
$USERI2
 70
     0
  9
$USERI3
 70
     0
  9
$USERI4
 70
     0
  9
$USERI5
 70
     0
  9
$USERR1
 40
0.0
  9
$USERR2
 40
0.0
  9
$USERR3
 40
0.0
  9
$USERR4
 40
0.0
  9
$USERR5
 40
0.0
  9
$WORLDVIEW
 70
     1
  9
$SHADEDGE
 70
     3
  9
$SHADEDIF
 70
    70
  9
$TILEMODE
 70
     1
  9
$MAXACTVP
 70
    64
  9
$PINSBASE
 10
0.0
 20
0.0
 30
0.0
  9
$PLIMCHECK
 70
     0
  9
$PEXTMIN
 10
1.000000000000000E+20
 20
1.000000000000000E+20
 30
1.000000000000000E+20
  9
$PEXTMAX
 10
-1.000000000000000E+20
 20
-1.000000000000000E+20
 30
-1.000000000000000E+20
  9
$PLIMMIN
 10
0.0
 20
0.0
  9
$PLIMMAX
 10
420.0
 20
297.0
  9
$UNITMODE
 70
     0
  9
$VISRETAIN
 70
     1
  9
$PLINEGEN
 70
     0
  9
$PSLTSCALE
 70
     1
  9
$TREEDEPTH
 70
  3020
  9
$CMLSTYLE
  2
Standard
  9
$CMLJUST
 70
     0
  9
$CMLSCALE
 40
20.0
  9
$PROXYGRAPHICS
 70
     1
  9
$MEASUREMENT
 70
     1
  9
$CELWEIGHT
370
    -1
  9
$ENDCAPS
280
     0
  9
$JOINSTYLE
280
     0
  9
$LWDISPLAY
290
     0
  9
$INSUNITS
 70
     4
  9
$HYPERLINKBASE
  1

  9
$STYLESHEET
  1

  9
$XEDIT
290
     1
  9
$CEPSNTYPE
380
     0
  9
$PSTYLEMODE
290
     1
  9
$FINGERPRINTGUID
  2
{1258F987-5E93-0447-A8DF-DDBAE48F234B}
  9
$VERSIONGUID
  2
{78BA25B5-CB75-1148-BE93-F6F95DE9BF68}
  9
$EXTNAMES
290
     1
  9
$PSVPSCALE
 40
0.0
  9
$OLESTARTUP
290
     0
  9
$SORTENTS
280
   127
  9
$INDEXCTL
280
     0
  9
$HIDETEXT
280
     1
  9
$XCLIPFRAME
290
     0
  9
$HALOGAP
280
     0
  9
$OBSCOLOR
 70
   257
  9
$OBSLTYPE
280
     0
  9
$INTERSECTIONDISPLAY
280
     0
  9
$INTERSECTIONCOLOR
 70
   257
  9
$DIMASSOC
280
     2
  9
$PROJECTNAME
  1

  9
$CAMERADISPLAY
290
     0
  9
$LENSLENGTH
 40
50.0
  9
$CAMERAHEIGHT
 40
0.0
  9
$STEPSPERSEC
 40
2.0
  9
$STEPSIZE
 40
6.0
  9
$3DDWFPREC
 40
2.0
  9
$PSOLWIDTH
 40
0.25
  9
$PSOLHEIGHT
 40
4.0
  9
$LOFTANG1
 40
1.570796326794896
  9
$LOFTANG2
 40
1.570796326794896
  9
$LOFTMAG1
 40
0.0
  9
$LOFTMAG2
 40
0.0
  9
$LOFTPARAM
 70
     7
  9
$LOFTNORMALS
280
     1
  9
$LATITUDE
 40
37.795
  9
$LONGITUDE
 40
-122.394
  9
$NORTHDIRECTION
 40
0.0
  9
$TIMEZONE
 70
 -8000
  9
$LIGHTGLYPHDISPLAY
280
     1
  9
$TILEMODELIGHTSYNCH
280
     1
  9
$CMATERIAL
347
11
  9
$SOLIDHIST
280
     0
  9
$SHOWHIST
280
     1
  9
$DWFFRAME
280
     2
  9
$DGNFRAME
280
     0
  9
$REALWORLDSCALE
290
     1
  9
$INTERFERECOLOR
 62
     1
  9
$INTERFEREOBJVS
345
33
  9
$INTERFEREVPVS
346
30
  9
$CSHADOW
280
     0
  9
$SHADOWPLANELOCATION
 40
0.0
  0
ENDSEC
  0
SECTION
  2
CLASSES
  0
CLASS
  1
ACDBDICTIONARYWDFLT
  2
AcDbDictionaryWithDefault
  3
ObjectDBX Classes
 90
        0
 91
        1
280
     0
281
     0
  0
CLASS
  1
MATERIAL
  2
AcDbMaterial
  3
ObjectDBX Classes
 90
     1153
 91
        3
280
     0
281
     0
  0
CLASS
  1
VISUALSTYLE
  2
AcDbVisualStyle
  3
ObjectDBX Classes
 90
     4095
 91
       24
280
     0
281
     0
  0
CLASS
  1
SCALE
  2
AcDbScale
  3
ObjectDBX Classes
 90
     1153
 91
       17
280
     0
281
     0
  0
CLASS
  1
TABLESTYLE
  2
AcDbTableStyle
  3
ObjectDBX Classes
 90
     4095
 91
        1
280
     0
281
     0
  0
CLASS
  1
MLEADERSTYLE
  2
AcDbMLeaderStyle
  3
ACDB_MLEADERSTYLE_CLASS
 90
     4095
 91
        1
280
     0
281
     0
  0
CLASS
  1
ACDBSECTIONVIEWSTYLE
  2
AcDbSectionViewStyle
  3
ObjectDBX Classes
 90
     1025
 91
        1
280
     0
281
     0
  0
CLASS
  1
ACDBDETAILVIEWSTYLE
  2
AcDbDetailViewStyle
  3
ObjectDBX Classes
 90
     1025
 91
        1
280
     0
281
     0
  0
CLASS
  1
DICTIONARYVAR
  2
AcDbDictionaryVar
  3
ObjectDBX Classes
 90
        0
 91
       16
280
     0
281
     0
  0
CLASS
  1
ACDB_HATCHVIEWCONTEXTDATA_CLASS
  2
AcDbHatchViewContextData
  3
ObjectDBX Classes
 90
     1153
 91
        6
280
     0
281
     0
  0
CLASS
  1
ACDB_HATCHSCALECONTEXTDATA_CLASS
  2
AcDbHatchScaleContextData
  3
ObjectDBX Classes
 90
     1153
 91
        6
280
     0
281
     0
  0
CLASS
  1
SORTENTSTABLE
  2
AcDbSortentsTable
  3
ObjectDBX Classes
 90
        0
 91
        1
280
     0
281
     0
  0
CLASS
  1
CELLSTYLEMAP
  2
AcDbCellStyleMap
  3
ObjectDBX Classes
 90
     1152
 91
        2
280
     0
281
     0
  0
ENDSEC
  0
SECTION
  2
TABLES
  0
TABLE
  2
VPORT
  5
8
330
0
100
AcDbSymbolTable
 70
     1
  0
VPORT
  5
57
330
8
100
AcDbSymbolTableRecord
100
AcDbViewportTableRecord
  2
*Active
 70
     0
 10
0.0
 20
0.0
 11
1.0
 21
1.0
 12
200.643311513871
 22
292.9870385184035
 13
0.0
 23
0.0
 14
10.0
 24
10.0
 15
10.0
 25
10.0
 16
0.0
 26
0.0
 36
1.0
 17
0.0
 27
0.0
 37
0.0
 40
559.025179211458
 41
2.529902642559109
 42
50.0
 43
0.0
 44
0.0
 50
0.0
 51
0.0
 71
     0
 72
  1000
 73
     1
 74
     3
 75
     0
 76
     0
 77
     0
 78
     0
281
     0
 65
     1
110
0.0
120
0.0
130
0.0
111
1.0
121
0.0
131
0.0
112
0.0
122
1.0
132
0.0
 79
     0
146
0.0
348
2F
 60
     2
 61
     5
292
     1
282
     1
141
0.0
142
0.0
 63
   250
421
  3355443
1001
ACAD_NAV_VCDISPLAY
1070
     1
  0
ENDTAB
  0
TABLE
  2
LTYPE
  5
5
330
0
100
AcDbSymbolTable
 70
     3
  0
LTYPE
  5
5B
330
5
100
AcDbSymbolTableRecord
100
AcDbLinetypeTableRecord
  2
ByBlock
 70
     0
  3

 72
    65
 73
     0
 40
0.0
  0
LTYPE
  5
5C
330
5
100
AcDbSymbolTableRecord
100
AcDbLinetypeTableRecord
  2
ByLayer
 70
     0
  3

 72
    65
 73
     0
 40
0.0
  0
LTYPE
  5
5D
330
5
100
AcDbSymbolTableRecord
100
AcDbLinetypeTableRecord
  2
Continuous
 70
     0
  3
Solid line
 72
    65
 73
     0
 40
0.0
  0
LTYPE
  5
BC
330
5
100
AcDbSymbolTableRecord
100
AcDbLinetypeTableRecord
  2
CENTER
 70
     0
  3
Center ____ _ ____ _ ____ _ ____ _ ____ _ ____
 72
    65
 73
     4
 40
50.8
 49
31.75
 74
     0
 49
-6.349999999999999
 74
     0
 49
6.349999999999999
 74
     0
 49
-6.349999999999999
 74
     0
  0
LTYPE
  5
BD
330
5
100
AcDbSymbolTableRecord
100
AcDbLinetypeTableRecord
  2
DASHED
 70
     0
  3
Dashed __ __ __ __ __ __ __ __ __ __ __ __ __ _
 72
    65
 73
     2
 40
19.05
 49
12.7
 74
     0
 49
-6.349999999999999
 74
     0
  0
ENDTAB
  0
TABLE
  2
LAYER
  5
2
102
{ACAD_XDICTIONARY
360
E2
102
}
330
0
100
AcDbSymbolTable
 70
    12
  0
LAYER
  5
54
330
2
100
AcDbSymbolTableRecord
100
AcDbLayerTableRecord
  2
0
 70
     0
 62
     7
  6
Continuous
370
    -3
390
F
347
21
  0
LAYER
  5
BE
102
{ACAD_XDICTIONARY
360
BF
102
}
330
2
100
AcDbSymbolTableRecord
100
AcDbLayerTableRecord
  2
Viewport
 70
     0
 62
     1
  6
Continuous
290
     0
370
    -3
390
F
347
21
  0
LAYER
  5
C0
102
{ACAD_XDICTIONARY
360
C1
102
}
330
2
100
AcDbSymbolTableRecord
100
AcDbLayerTableRecord
  2
dim
 70
     0
 62
     7
  6
Continuous
370
     5
390
F
347
21
  0
LAYER
  5
C2
102
{ACAD_XDICTIONARY
360
C3
102
}
330
2
100
AcDbSymbolTableRecord
100
AcDbLayerTableRecord
  2
Post
 70
     0
 62
     3
  6
Continuous
370
    -3
390
F
347
21
1001
AcAecLayerStandard
1000

1000

  0
LAYER
  5
C4
330
2
100
AcDbSymbolTableRecord
100
AcDbLayerTableRecord
  2
Defpoints
 70
     0
 62
     7
  6
Continuous
290
     0
370
    -3
390
F
347
21
  0
LAYER
  5
C5
102
{ACAD_XDICTIONARY
360
C6
102
}
330
2
100
AcDbSymbolTableRecord
100
AcDbLayerTableRecord
  2
fixing
 70
     0
 62
     4
  6
Continuous
370
     5
390
F
347
21
1001
AcAecLayerStandard
1000

1000

  0
LAYER
  5
C7
102
{ACAD_XDICTIONARY
360
C8
102
}
330
2
100
AcDbSymbolTableRecord
100
AcDbLayerTableRecord
  2
decking
 70
     0
 62
     1
  6
Continuous
370
     9
390
F
347
21
1001
AcAecLayerStandard
1000

1000

  0
LAYER
  5
C9
102
{ACAD_XDICTIONARY
360
CA
102
}
330
2
100
AcDbSymbolTableRecord
100
AcDbLayerTableRecord
  2
shade 8
 70
     0
 62
     8
  6
Continuous
370
     9
390
F
347
21
  0
LAYER
  5
CB
102
{ACAD_XDICTIONARY
360
CC
102
}
330
2
100
AcDbSymbolTableRecord
100
AcDbLayerTableRecord
  2
Object
 70
     0
 62
     5
  6
Continuous
370
    -3
390
F
347
21
1001
AcAecLayerStandard
1000

1000

  0
LAYER
  5
CD
102
{ACAD_XDICTIONARY
360
CE
102
}
330
2
100
AcDbSymbolTableRecord
100
AcDbLayerTableRecord
  2
shade 9
 70
     0
 62
     9
  6
Continuous
370
    -3
390
F
347
21
1001
AcAecLayerStandard
1000

1000

  0
LAYER
  5
CF
102
{ACAD_XDICTIONARY
360
D0
102
}
330
2
100
AcDbSymbolTableRecord
100
AcDbLayerTableRecord
  2
ctrl
 70
     0
 62
   220
  6
CENTER
370
     5
390
F
347
21
1001
AcAecLayerStandard
1000

1000

  0
LAYER
  5
D1
102
{ACAD_XDICTIONARY
360
D2
102
}
330
2
100
AcDbSymbolTableRecord
100
AcDbLayerTableRecord
  2
title
 70
     0
 62
     7
  6
Continuous
370
     0
390
F
347
21
  0
ENDTAB
  0
TABLE
  2
STYLE
  5
3
330
0
100
AcDbSymbolTable
 70
     5
  0
STYLE
  5
55
330
3
100
AcDbSymbolTableRecord
100
AcDbTextStyleTableRecord
  2
Standard
 70
     0
 40
0.0
 41
1.0
 50
0.0
 71
     0
 42
2.5
  3
txt
  4

  0
STYLE
  5
5A
330
3
100
AcDbSymbolTableRecord
100
AcDbTextStyleTableRecord
  2
Annotative
 70
     0
 40
0.0
 41
1.0
 50
0.0
 71
     0
 42
0.2
  3
txt
  4

1001
AcadAnnotative
1000
AnnotativeData
1002
{
1070
     1
1070
     1
1002
}
  0
STYLE
  5
D3
330
3
100
AcDbSymbolTableRecord
100
AcDbTextStyleTableRecord
  2
Arial Narrow
 70
     0
 40
0.0
 41
1.0
 50
0.0
 71
     0
 42
2.5
  3
ARIALN.TTF
  4

1001
ACAD
1000
Arial Narrow
1071
       34
  0
STYLE
  5
D4
330
3
100
AcDbSymbolTableRecord
100
AcDbTextStyleTableRecord
  2
Calibri
 70
     0
 40
0.0
 41
1.0
 50
0.0
 71
     0
 42
15.0
  3
calibri.ttf
  4

1001
ACAD
1000
Calibri
1071
       34
  0
STYLE
  5
D5
330
3
100
AcDbSymbolTableRecord
100
AcDbTextStyleTableRecord
  2
SAM TEXT 1
 70
     0
 40
0.0
 41
1.0
 50
0.0
 71
     0
 42
2.5
  3
arial.ttf
  4

1001
ACAD
1000
Arial
1071
       34
  0
ENDTAB
  0
TABLE
  2
VIEW
  5
6
330
0
100
AcDbSymbolTable
 70
     0
  0
ENDTAB
  0
TABLE
  2
UCS
  5
7
330
0
100
AcDbSymbolTable
 70
     0
  0
ENDTAB
  0
TABLE
  2
APPID
  5
9
330
0
100
AcDbSymbolTable
 70
    11
  0
APPID
  5
56
330
9
100
AcDbSymbolTableRecord
100
AcDbRegAppTableRecord
  2
ACAD
 70
     0
  0
APPID
  5
5E
330
9
100
AcDbSymbolTableRecord
100
AcDbRegAppTableRecord
  2
AcadAnnotative
 70
     0
  0
APPID
  5
7D
330
9
100
AcDbSymbolTableRecord
100
AcDbRegAppTableRecord
  2
ACAD_NAV_VCDISPLAY
 70
     0
  0
APPID
  5
DB
330
9
100
AcDbSymbolTableRecord
100
AcDbRegAppTableRecord
  2
ACAD_PSEXT
 70
     0
  0
APPID
  5
DC
330
9
100
AcDbSymbolTableRecord
100
AcDbRegAppTableRecord
  2
AcAecLayerStandard
 70
     0
  0
APPID
  5
DD
330
9
100
AcDbSymbolTableRecord
100
AcDbRegAppTableRecord
  2
ACAD_DSTYLE_DIMJAG
 70
     0
  0
APPID
  5
DE
330
9
100
AcDbSymbolTableRecord
100
AcDbRegAppTableRecord
  2
ACAD_DSTYLE_DIMTALN
 70
     0
  0
APPID
  5
DF
330
9
100
AcDbSymbolTableRecord
100
AcDbRegAppTableRecord
  2
GradientColor1ACI
 70
     0
  0
APPID
  5
E0
330
9
100
AcDbSymbolTableRecord
100
AcDbRegAppTableRecord
  2
GradientColor2ACI
 70
     0
  0
APPID
  5
E1
330
9
100
AcDbSymbolTableRecord
100
AcDbRegAppTableRecord
  2
ACAD_DSTYLE_DIMBREAK
 70
     0
  0
APPID
  5
4C3
330
9
100
AcDbSymbolTableRecord
100
AcDbRegAppTableRecord
  2
ACAD_MLEADERVER
 70
     0
  0
ENDTAB
  0
TABLE
  2
DIMSTYLE
  5
A
330
0
100
AcDbSymbolTable
 70
     7
100
AcDbDimStyleTable
 71
     0
  0
DIMSTYLE
105
58
330
A
100
AcDbSymbolTableRecord
100
AcDbDimStyleTableRecord
  2
ISO-25
 70
     0
 41
2.5
 42
0.625
 43
3.75
 44
1.25
 50
90.0
 73
     0
 74
     0
 77
     1
 78
     8
140
2.5
141
2.5
143
0.03937007874016
147
0.625
171
     3
172
     1
271
     2
272
     2
274
     3
278
    44
283
     0
284
     8
340
55
  0
DIMSTYLE
105
59
330
A
100
AcDbSymbolTableRecord
100
AcDbDimStyleTableRecord
  2
Annotative
 70
     0
340
55
1001
AcadAnnotative
1000
AnnotativeData
1002
{
1070
     1
1070
     1
1002
}
  0
DIMSTYLE
105
D6
102
{ACAD_REACTORS
330
1A2
330
1A3
330
1A4
330
1A5
330
1A6
330
309
330
30A
330
30B
330
30C
330
30D
102
}
330
A
100
AcDbSymbolTableRecord
100
AcDbDimStyleTableRecord
  2
Spectrum 2
 70
     0
 40
2.0
 41
3.0
 42
1.0
 43
6.0
 44
2.0
 73
     0
 74
     0
 77
     1
 78
     8
140
2.25
141
0.0
143
0.03937007874016
147
1.0
171
     3
172
     1
271
     1
272
     1
274
     3
283
     0
284
     8
340
D4
1001
ACAD_DSTYLE_DIMJAG
1070
   388
1040
1.5
1001
ACAD_DSTYLE_DIMTALN
1070
   392
1070
     0
  0
DIMSTYLE
105
D7
330
A
100
AcDbSymbolTableRecord
100
AcDbDimStyleTableRecord
  2
Spectrum 2.5
 70
     0
 40
2.5
 41
3.0
 42
1.0
 43
6.0
 44
2.0
 73
     0
 74
     0
 77
     1
 78
     8
140
2.25
141
0.0
143
0.03937007874016
147
1.0
171
     3
172
     1
271
     1
272
     1
274
     3
283
     0
284
     8
340
D4
1001
ACAD_DSTYLE_DIMBREAK
1070
   391
1040
3.75
1001
ACAD_DSTYLE_DIMJAG
1070
   388
1040
1.5
1001
ACAD_DSTYLE_DIMTALN
1070
   392
1070
     0
  0
DIMSTYLE
105
D8
330
A
100
AcDbSymbolTableRecord
100
AcDbDimStyleTableRecord
  2
Spectrum
 70
     0
 40
2.0
 41
3.0
 42
1.0
 43
6.0
 44
2.0
 73
     0
 74
     0
 77
     1
 78
     8
140
2.25
141
0.0
143
0.03937007874016
147
1.0
171
     3
172
     1
271
     1
272
     1
274
     3
283
     0
284
     8
340
D4
1001
ACAD_DSTYLE_DIMJAG
1070
   388
1040
1.5
1001
ACAD_DSTYLE_DIMTALN
1070
   392
1070
     0
  0
DIMSTYLE
105
D9
330
A
100
AcDbSymbolTableRecord
100
AcDbDimStyleTableRecord
  2
DIM 1
 70
     0
 40
0.0
 41
2.0
 42
3.0
 43
6.0
 44
1.0
 73
     0
 74
     0
 77
     1
 78
     8
140
2.5
141
0.0
143
0.03937007874016
147
1.0
171
     3
172
     1
179
     1
271
     1
272
     1
274
     3
283
     0
284
     8
340
D5
  0
DIMSTYLE
105
DA
330
A
100
AcDbSymbolTableRecord
100
AcDbDimStyleTableRecord
  2
DIM 2
 70
     0
 40
2.0
 41
2.0
 42
3.0
 43
6.0
 44
1.0
 73
     0
 77
     1
 78
     8
140
2.5
141
0.0
143
0.03937007874016
147
1.0
171
     3
172
     1
179
     1
271
     1
272
     1
274
     3
283
     0
284
     8
340
D5
1001
ACAD_DSTYLE_DIMBREAK
1070
   391
1040
3.75
1001
ACAD_DSTYLE_DIMJAG
1070
   388
1040
1.5
1001
ACAD_DSTYLE_DIMTALN
1070
   392
1070
     0
  0
ENDTAB
  0
TABLE
  2
BLOCK_RECORD
  5
1
330
0
100
AcDbSymbolTable
 70
    12
  0
BLOCK_RECORD
  5
70
330
1
100
AcDbSymbolTableRecord
100
AcDbBlockTableRecord
  2
*Model_Space
340
73
 70
     0
280
     1
281
     0
  0
BLOCK_RECORD
  5
6C
330
1
100
AcDbSymbolTableRecord
100
AcDbBlockTableRecord
  2
*Paper_Space
340
6F
 70
     0
280
     1
281
     0
  0
BLOCK_RECORD
  5
74
330
1
100
AcDbSymbolTableRecord
100
AcDbBlockTableRecord
  2
*Paper_Space0
340
77
 70
     0
280
     1
281
     0
  0
BLOCK_RECORD
  5
80
330
1
100
AcDbSymbolTableRecord
100
AcDbBlockTableRecord
  2
*D1
340
0
 70
     0
280
     1
281
     0
  0
BLOCK_RECORD
  5
8C
330
1
100
AcDbSymbolTableRecord
100
AcDbBlockTableRecord
  2
*D2
340
0
 70
     0
280
     1
281
     0
  0
BLOCK_RECORD
  5
98
330
1
100
AcDbSymbolTableRecord
100
AcDbBlockTableRecord
  2
*D3
340
0
 70
     0
280
     1
281
     0
  0
BLOCK_RECORD
  5
A4
330
1
100
AcDbSymbolTableRecord
100
AcDbBlockTableRecord
  2
*D4
340
0
 70
     0
280
     1
281
     0
  0
BLOCK_RECORD
  5
B0
330
1
100
AcDbSymbolTableRecord
100
AcDbBlockTableRecord
  2
*D5
340
0
 70
     0
280
     1
281
     0
  0
BLOCK_RECORD
  5
3A7
330
1
100
AcDbSymbolTableRecord
100
AcDbBlockTableRecord
  2
*D7
340
0
 70
     0
280
     1
281
     0
  0
BLOCK_RECORD
  5
3B3
330
1
100
AcDbSymbolTableRecord
100
AcDbBlockTableRecord
  2
*D8
340
0
 70
     0
280
     1
281
     0
  0
BLOCK_RECORD
  5
3BF
330
1
100
AcDbSymbolTableRecord
100
AcDbBlockTableRecord
  2
*D9
340
0
 70
     0
280
     1
281
     0
  0
BLOCK_RECORD
  5
3CB
330
1
100
AcDbSymbolTableRecord
100
AcDbBlockTableRecord
  2
*D10
340
0
 70
     0
280
     1
281
     0
  0
BLOCK_RECORD
  5
3D7
330
1
100
AcDbSymbolTableRecord
100
AcDbBlockTableRecord
  2
*D11
340
0
 70
     0
280
     1
281
     0
  0
ENDTAB
  0
ENDSEC
  0
SECTION
  2
BLOCKS
  0
BLOCK
  5
71
330
70
100
AcDbEntity
  8
0
100
AcDbBlockBegin
  2
*Model_Space
 70
     0
 10
0.0
 20
0.0
 30
0.0
  3
*Model_Space
  1

  0
ENDBLK
  5
72
330
70
100
AcDbEntity
  8
0
100
AcDbBlockEnd
  0
BLOCK
  5
6D
330
6C
100
AcDbEntity
 67
     1
  8
0
100
AcDbBlockBegin
  2
*Paper_Space
 70
     0
 10
0.0
 20
0.0
 30
0.0
  3
*Paper_Space
  1

  0
ENDBLK
  5
6E
330
6C
100
AcDbEntity
 67
     1
  8
0
100
AcDbBlockEnd
  0
BLOCK
  5
75
330
74
100
AcDbEntity
 67
     1
  8
0
100
AcDbBlockBegin
  2
*Paper_Space0
 70
     0
 10
0.0
 20
0.0
 30
0.0
  3
*Paper_Space0
  1

  0
ENDBLK
  5
76
330
74
100
AcDbEntity
 67
     1
  8
0
100
AcDbBlockEnd
  0
BLOCK
  5
81
330
80
100
AcDbEntity
  8
0
100
AcDbBlockBegin
  2
*D1
 70
     1
 10
0.0
 20
0.0
 30
0.0
  3
*D1
  1

  0
LINE
  5
82
330
80
100
AcDbEntity
  8
dim
 62
     0
440
 16777216
370
    -2
100
AcDbLine
 10
11460.09680976336
 20
441.885346244719
 30
0.0
 11
11374.58055070814
 21
441.8853462447189
 31
0.0
  0
LINE
  5
83
330
80
100
AcDbEntity
  8
dim
 62
     0
440
 16777216
370
    -2
100
AcDbLine
 10
11460.4807454503
 20
531.885346244719
 30
0.0
 11
11374.58055070814
 21
531.885346244719
 31
0.0
  0
LINE
  5
84
330
80
100
AcDbEntity
  8
dim
 62
     0
440
 16777216
370
    -2
100
AcDbLine
 10
11378.58055070814
 20
447.8853462447189
 30
0.0
 11
11378.58055070814
 21
525.885346244719
 31
0.0
  0
SOLID
  5
85
330
80
100
AcDbEntity
  8
dim
 62
     0
440
 16777216
100
AcDbTrace
 10
11377.58055070814
 20
447.8853462447189
 30
0.0
 11
11379.58055070814
 21
447.8853462447189
 31
0.0
 12
11378.58055070814
 22
441.8853462447189
 32
0.0
 13
11378.58055070814
 23
441.8853462447189
 33
0.0
  0
SOLID
  5
86
330
80
100
AcDbEntity
  8
dim
 62
     0
440
 16777216
100
AcDbTrace
 10
11377.58055070814
 20
525.885346244719
 30
0.0
 11
11379.58055070814
 21
525.885346244719
 31
0.0
 12
11378.58055070814
 22
531.885346244719
 32
0.0
 13
11378.58055070814
 23
531.885346244719
 33
0.0
  0
MTEXT
  5
87
330
80
100
AcDbEntity
  8
dim
 62
     0
440
 16777216
100
AcDbMText
 10
11374.27516609275
 20
486.8853462447296
 30
0.0
 40
4.5
 41
0.0
 46
0.0
 71
     5
 72
     1
  1
90
  7
Calibri
 11
0.0000000000000001
 21
1.0
 31
0.0
 73
     1
 44
1.0
  0
POINT
  5
88
330
80
100
AcDbEntity
  8
Defpoints
 62
     0
440
 16777216
100
AcDbPoint
 10
11464.09680976336
 20
441.885346244719
 30
0.0
  0
POINT
  5
89
330
80
100
AcDbEntity
  8
Defpoints
 62
     0
440
 16777216
100
AcDbPoint
 10
11464.4807454503
 20
531.885346244719
 30
0.0
  0
POINT
  5
8A
330
80
100
AcDbEntity
  8
Defpoints
 62
     0
440
 16777216
100
AcDbPoint
 10
11378.58055070814
 20
531.885346244719
 30
0.0
  0
ENDBLK
  5
8B
330
80
100
AcDbEntity
  8
0
100
AcDbBlockEnd
  0
BLOCK
  5
8D
330
8C
100
AcDbEntity
  8
0
100
AcDbBlockBegin
  2
*D2
 70
     1
 10
0.0
 20
0.0
 30
0.0
  3
*D2
  1

  0
LINE
  5
8E
330
8C
100
AcDbEntity
  8
dim
 62
     0
440
 16777216
370
    -2
100
AcDbLine
 10
11460.4807454503
 20
531.885346244719
 30
0.0
 11
11374.58055070814
 21
531.885346244719
 31
0.0
  0
LINE
  5
8F
330
8C
100
AcDbEntity
  8
dim
 62
     0
440
 16777216
370
    -2
100
AcDbLine
 10
11388.98925996531
 20
566.885346244719
 30
0.0
 11
11374.58055070814
 21
566.885346244719
 31
0.0
  0
LINE
  5
90
330
8C
100
AcDbEntity
  8
dim
 62
     0
440
 16777216
370
    -2
100
AcDbLine
 10
11378.58055070814
 20
537.885346244719
 30
0.0
 11
11378.58055070814
 21
560.885346244719
 31
0.0
  0
SOLID
  5
91
330
8C
100
AcDbEntity
  8
dim
 62
     0
440
 16777216
100
AcDbTrace
 10
11377.58055070814
 20
537.885346244719
 30
0.0
 11
11379.58055070814
 21
537.885346244719
 31
0.0
 12
11378.58055070814
 22
531.885346244719
 32
0.0
 13
11378.58055070814
 23
531.885346244719
 33
0.0
  0
SOLID
  5
92
330
8C
100
AcDbEntity
  8
dim
 62
     0
440
 16777216
100
AcDbTrace
 10
11377.58055070814
 20
560.885346244719
 30
0.0
 11
11379.58055070814
 21
560.885346244719
 31
0.0
 12
11378.58055070814
 22
566.885346244719
 32
0.0
 13
11378.58055070814
 23
566.885346244719
 33
0.0
  0
MTEXT
  5
93
330
8C
100
AcDbEntity
  8
dim
 62
     0
440
 16777216
100
AcDbMText
 10
11374.25093532352
 20
549.3853462447187
 30
0.0
 40
4.5
 41
0.0
 46
0.0
 71
     5
 72
     1
  1
25 min
  7
Calibri
 11
0.0000000000000001
 21
1.0
 31
0.0
 73
     1
 44
1.0
  0
POINT
  5
94
330
8C
100
AcDbEntity
  8
Defpoints
 62
     0
440
 16777216
100
AcDbPoint
 10
11464.4807454503
 20
531.885346244719
 30
0.0
  0
POINT
  5
95
330
8C
100
AcDbEntity
  8
Defpoints
 62
     0
440
 16777216
100
AcDbPoint
 10
11392.98925996531
 20
566.885346244719
 30
0.0
  0
POINT
  5
96
330
8C
100
AcDbEntity
  8
Defpoints
 62
     0
440
 16777216
100
AcDbPoint
 10
11378.58055070814
 20
566.885346244719
 30
0.0
  0
ENDBLK
  5
97
330
8C
100
AcDbEntity
  8
0
100
AcDbBlockEnd
  0
BLOCK
  5
99
330
98
100
AcDbEntity
  8
0
100
AcDbBlockBegin
  2
*D3
 70
     1
 10
0.0
 20
0.0
 30
0.0
  3
*D3
  1

  0
LINE
  5
9A
330
98
100
AcDbEntity
  8
dim
 62
     0
440
 16777216
370
    -2
100
AcDbLine
 10
11416.86471822064
 20
416.885346244719
 30
0.0
 11
11374.58055070814
 21
416.8853462447189
 31
0.0
  0
LINE
  5
9B
330
98
100
AcDbEntity
  8
dim
 62
     0
440
 16777216
370
    -2
100
AcDbLine
 10
11460.09680976336
 20
441.885346244719
 30
0.0
 11
11374.58055070814
 21
441.8853462447189
 31
0.0
  0
LINE
  5
9C
330
98
100
AcDbEntity
  8
dim
 62
     0
440
 16777216
370
    -2
100
AcDbLine
 10
11378.58055070814
 20
422.8853462447189
 30
0.0
 11
11378.58055070814
 21
435.8853462447189
 31
0.0
  0
SOLID
  5
9D
330
98
100
AcDbEntity
  8
dim
 62
     0
440
 16777216
100
AcDbTrace
 10
11377.58055070814
 20
422.8853462447189
 30
0.0
 11
11379.58055070814
 21
422.8853462447189
 31
0.0
 12
11378.58055070814
 22
416.8853462447189
 32
0.0
 13
11378.58055070814
 23
416.8853462447189
 33
0.0
  0
SOLID
  5
9E
330
98
100
AcDbEntity
  8
dim
 62
     0
440
 16777216
100
AcDbTrace
 10
11377.58055070814
 20
435.8853462447189
 30
0.0
 11
11379.58055070814
 21
435.8853462447189
 31
0.0
 12
11378.58055070814
 22
441.8853462447189
 32
0.0
 13
11378.58055070814
 23
441.8853462447189
 33
0.0
  0
MTEXT
  5
9F
330
98
100
AcDbEntity
  8
dim
 62
     0
440
 16777216
100
AcDbMText
 10
11374.25093532352
 20
429.3853462447296
 30
0.0
 40
4.5
 41
0.0
 46
0.0
 71
     5
 72
     1
  1
25 min
  7
Calibri
 11
0.0000000000000001
 21
1.0
 31
0.0
 73
     1
 44
1.0
  0
POINT
  5
A0
330
98
100
AcDbEntity
  8
Defpoints
 62
     0
440
 16777216
100
AcDbPoint
 10
11420.86471822064
 20
416.885346244719
 30
0.0
  0
POINT
  5
A1
330
98
100
AcDbEntity
  8
Defpoints
 62
     0
440
 16777216
100
AcDbPoint
 10
11464.09680976336
 20
441.885346244719
 30
0.0
  0
POINT
  5
A2
330
98
100
AcDbEntity
  8
Defpoints
 62
     0
440
 16777216
100
AcDbPoint
 10
11378.58055070814
 20
441.8853462447189
 30
0.0
  0
ENDBLK
  5
A3
330
98
100
AcDbEntity
  8
0
100
AcDbBlockEnd
  0
BLOCK
  5
A5
330
A4
100
AcDbEntity
  8
0
100
AcDbBlockBegin
  2
*D4
 70
     1
 10
0.0
 20
0.0
 30
0.0
  3
*D4
  1

  0
LINE
  5
A6
330
A4
100
AcDbEntity
  8
dim
 62
     0
440
 16777216
370
    -2
100
AcDbLine
 10
11415.36471822063
 20
416.8855148735477
 30
0.0
 11
11360.58055070814
 21
416.8855148735477
 31
0.0
  0
LINE
  5
A7
330
A4
100
AcDbEntity
  8
dim
 62
     0
440
 16777216
370
    -2
100
AcDbLine
 10
11387.48925996531
 20
566.885346244719
 30
0.0
 11
11360.58055070814
 21
566.885346244719
 31
0.0
  0
LINE
  5
A8
330
A4
100
AcDbEntity
  8
dim
 62
     0
440
 16777216
370
    -2
100
AcDbLine
 10
11364.58055070814
 20
422.8855148735477
 30
0.0
 11
11364.58055070814
 21
560.885346244719
 31
0.0
  0
SOLID
  5
A9
330
A4
100
AcDbEntity
  8
dim
 62
     0
440
 16777216
100
AcDbTrace
 10
11363.58055070814
 20
422.8855148735477
 30
0.0
 11
11365.58055070814
 21
422.8855148735477
 31
0.0
 12
11364.58055070814
 22
416.8855148735477
 32
0.0
 13
11364.58055070814
 23
416.8855148735477
 33
0.0
  0
SOLID
  5
AA
330
A4
100
AcDbEntity
  8
dim
 62
     0
440
 16777216
100
AcDbTrace
 10
11363.58055070814
 20
560.885346244719
 30
0.0
 11
11365.58055070814
 21
560.885346244719
 31
0.0
 12
11364.58055070814
 22
566.885346244719
 32
0.0
 13
11364.58055070814
 23
566.885346244719
 33
0.0
  0
MTEXT
  5
AB
330
A4
100
AcDbEntity
  8
dim
 62
     0
440
 16777216
100
AcDbMText
 10
11359.53958916968
 20
491.885430559145
 30
0.0
 40
4.5
 41
0.0
 46
0.0
 71
     5
 72
     1
  1
140 min section depth
  7
Calibri
 11
0.0000000000000001
 21
1.0
 31
0.0
 73
     1
 44
1.0
  0
POINT
  5
AC
330
A4
100
AcDbEntity
  8
Defpoints
 62
     0
440
 16777216
100
AcDbPoint
 10
11419.36471822063
 20
416.8855148735477
 30
0.0
  0
POINT
  5
AD
330
A4
100
AcDbEntity
  8
Defpoints
 62
     0
440
 16777216
100
AcDbPoint
 10
11391.48925996531
 20
566.885346244719
 30
0.0
  0
POINT
  5
AE
330
A4
100
AcDbEntity
  8
Defpoints
 62
     0
440
 16777216
100
AcDbPoint
 10
11364.58055070814
 20
566.885346244719
 30
0.0
  0
ENDBLK
  5
AF
330
A4
100
AcDbEntity
  8
0
100
AcDbBlockEnd
  0
BLOCK
  5
B1
330
B0
100
AcDbEntity
  8
0
100
AcDbBlockBegin
  2
*D5
 70
     1
 10
0.0
 20
0.0
 30
0.0
  3
*D5
  1

  0
LINE
  5
B2
330
B0
100
AcDbEntity
  8
dim
 62
     0
440
 16777216
370
    -2
100
AcDbLine
 10
11494.36471822063
 20
555.171994641034
 30
0.0
 11
11494.36471822063
 21
601.9846910030211
 31
0.0
  0
LINE
  5
B3
330
B0
100
AcDbEntity
  8
dim
 62
     0
440
 16777216
370
    -2
100
AcDbLine
 10
11544.36471822063
 20
588.8853462447188
 30
0.0
 11
11544.36471822063
 21
601.9846910030211
 31
0.0
  0
LINE
  5
B4
330
B0
100
AcDbEntity
  8
dim
 62
     0
440
 16777216
370
    -2
100
AcDbLine
 10
11500.36471822063
 20
597.9846910030211
 30
0.0
 11
11538.36471822063
 21
597.9846910030211
 31
0.0
  0
SOLID
  5
B5
330
B0
100
AcDbEntity
  8
dim
 62
     0
440
 16777216
100
AcDbTrace
 10
11500.36471822063
 20
598.9846910030211
 30
0.0
 11
11500.36471822063
 21
596.9846910030211
 31
0.0
 12
11494.36471822063
 22
597.9846910030211
 32
0.0
 13
11494.36471822063
 23
597.9846910030211
 33
0.0
  0
SOLID
  5
B6
330
B0
100
AcDbEntity
  8
dim
 62
     0
440
 16777216
100
AcDbTrace
 10
11538.36471822063
 20
598.9846910030211
 30
0.0
 11
11538.36471822063
 21
596.9846910030211
 31
0.0
 12
11544.36471822063
 22
597.9846910030211
 32
0.0
 13
11544.36471822063
 23
597.9846910030211
 33
0.0
  0
MTEXT
  5
B7
330
B0
100
AcDbEntity
  8
dim
 62
     0
440
 16777216
100
AcDbMText
 10
11519.36471822063
 20
602.2900756184057
 30
0.0
 40
4.5
 41
0.0
 46
0.0
 71
     5
 72
     1
  1
50 max
  7
Calibri
 73
     1
 44
1.0
  0
POINT
  5
B8
330
B0
100
AcDbEntity
  8
Defpoints
 62
     0
440
 16777216
100
AcDbPoint
 10
11494.36471822063
 20
551.171994641034
 30
0.0
  0
POINT
  5
B9
330
B0
100
AcDbEntity
  8
Defpoints
 62
     0
440
 16777216
100
AcDbPoint
 10
11544.36471822063
 20
584.8853462447188
 30
0.0
  0
POINT
  5
BA
330
B0
100
AcDbEntity
  8
Defpoints
 62
     0
440
 16777216
100
AcDbPoint
 10
11544.36471822063
 20
597.9846910030211
 30
0.0
  0
ENDBLK
  5
BB
330
B0
100
AcDbEntity
  8
0
100
AcDbBlockEnd
  0
BLOCK
  5
3A8
330
3A7
100
AcDbEntity
  8
0
100
AcDbBlockBegin
  2
*D7
 70
     1
 10
0.0
 20
0.0
 30
0.0
  3
*D7
  1

  0
LINE
  5
410
330
3A7
100
AcDbEntity
  8
dim
 62
     0
440
 16777216
370
    -2
100
AcDbLine
 10
124.5100429253944
 20
223.1566519237914
 30
0.0
 11
38.99378387017345
 21
223.1566519237914
 31
0.0
  0
LINE
  5
411
330
3A7
100
AcDbEntity
  8
dim
 62
     0
440
 16777216
370
    -2
100
AcDbLine
 10
124.8939786123374
 20
313.1566519237913
 30
0.0
 11
38.99378387017343
 21
313.1566519237913
 31
0.0
  0
LINE
  5
412
330
3A7
100
AcDbEntity
  8
dim
 62
     0
440
 16777216
370
    -2
100
AcDbLine
 10
42.99378387017344
 20
229.1566519237914
 30
0.0
 11
42.99378387017342
 21
307.1566519237913
 31
0.0
  0
SOLID
  5
413
330
3A7
100
AcDbEntity
  8
dim
 62
     0
440
 16777216
100
AcDbTrace
 10
41.99378387017344
 20
229.1566519237914
 30
0.0
 11
43.99378387017344
 21
229.1566519237914
 31
0.0
 12
42.99378387017344
 22
223.1566519237914
 32
0.0
 13
42.99378387017344
 23
223.1566519237914
 33
0.0
  0
SOLID
  5
414
330
3A7
100
AcDbEntity
  8
dim
 62
     0
440
 16777216
100
AcDbTrace
 10
41.99378387017342
 20
307.1566519237913
 30
0.0
 11
43.99378387017342
 21
307.1566519237913
 31
0.0
 12
42.99378387017342
 22
313.1566519237913
 32
0.0
 13
42.99378387017342
 23
313.1566519237913
 33
0.0
  0
MTEXT
  5
415
330
3A7
100
AcDbEntity
  8
dim
 62
     0
440
 16777216
100
AcDbMText
 10
38.68839925478889
 20
268.1566519238022
 30
0.0
 40
4.5
 41
0.0
 46
0.0
 71
     5
 72
     1
  1
90
  7
Calibri
 11
0.0000000000000001
 21
1.0
 31
0.0
 73
     1
 44
1.0
  0
POINT
  5
416
330
3A7
100
AcDbEntity
  8
Defpoints
 62
     0
440
 16777216
100
AcDbPoint
 10
128.5100429253944
 20
223.1566519237914
 30
0.0
  0
POINT
  5
417
330
3A7
100
AcDbEntity
  8
Defpoints
 62
     0
440
 16777216
100
AcDbPoint
 10
128.8939786123374
 20
313.1566519237914
 30
0.0
  0
POINT
  5
418
330
3A7
100
AcDbEntity
  8
Defpoints
 62
     0
440
 16777216
100
AcDbPoint
 10
42.99378387017342
 20
313.1566519237913
 30
0.0
  0
ENDBLK
  5
3A9
330
3A7
100
AcDbEntity
  8
0
100
AcDbBlockEnd
  0
BLOCK
  5
3B4
330
3B3
100
AcDbEntity
  8
0
100
AcDbBlockBegin
  2
*D8
 70
     1
 10
0.0
 20
0.0
 30
0.0
  3
*D8
  1

  0
LINE
  5
419
330
3B3
100
AcDbEntity
  8
dim
 62
     0
440
 16777216
370
    -2
100
AcDbLine
 10
124.8939786123374
 20
313.1566519237913
 30
0.0
 11
38.99378387017341
 21
313.1566519237913
 31
0.0
  0
LINE
  5
41A
330
3B3
100
AcDbEntity
  8
dim
 62
     0
440
 16777216
370
    -2
100
AcDbLine
 10
53.40249312734525
 20
348.1566519237914
 30
0.0
 11
38.99378387017341
 21
348.1566519237914
 31
0.0
  0
LINE
  5
41B
330
3B3
100
AcDbEntity
  8
dim
 62
     0
440
 16777216
370
    -2
100
AcDbLine
 10
42.99378387017341
 20
319.1566519237913
 30
0.0
 11
42.9937838701734
 21
342.1566519237914
 31
0.0
  0
SOLID
  5
41C
330
3B3
100
AcDbEntity
  8
dim
 62
     0
440
 16777216
100
AcDbTrace
 10
41.99378387017342
 20
319.1566519237913
 30
0.0
 11
43.99378387017342
 21
319.1566519237913
 31
0.0
 12
42.99378387017341
 22
313.1566519237913
 32
0.0
 13
42.99378387017341
 23
313.1566519237913
 33
0.0
  0
SOLID
  5
41D
330
3B3
100
AcDbEntity
  8
dim
 62
     0
440
 16777216
100
AcDbTrace
 10
41.99378387017341
 20
342.1566519237914
 30
0.0
 11
43.99378387017341
 21
342.1566519237914
 31
0.0
 12
42.9937838701734
 22
348.1566519237914
 32
0.0
 13
42.9937838701734
 23
348.1566519237914
 33
0.0
  0
MTEXT
  5
41E
330
3B3
100
AcDbEntity
  8
dim
 62
     0
440
 16777216
100
AcDbMText
 10
38.66416848555811
 20
330.6566519237913
 30
0.0
 40
4.5
 41
0.0
 46
0.0
 71
     5
 72
     1
  1
25 min
  7
Calibri
 11
0.0000000000000001
 21
1.0
 31
0.0
 73
     1
 44
1.0
  0
POINT
  5
41F
330
3B3
100
AcDbEntity
  8
Defpoints
 62
     0
440
 16777216
100
AcDbPoint
 10
128.8939786123374
 20
313.1566519237914
 30
0.0
  0
POINT
  5
420
330
3B3
100
AcDbEntity
  8
Defpoints
 62
     0
440
 16777216
100
AcDbPoint
 10
57.40249312734525
 20
348.1566519237914
 30
0.0
  0
POINT
  5
421
330
3B3
100
AcDbEntity
  8
Defpoints
 62
     0
440
 16777216
100
AcDbPoint
 10
42.9937838701734
 20
348.1566519237914
 30
0.0
  0
ENDBLK
  5
3B5
330
3B3
100
AcDbEntity
  8
0
100
AcDbBlockEnd
  0
BLOCK
  5
3C0
330
3BF
100
AcDbEntity
  8
0
100
AcDbBlockBegin
  2
*D9
 70
     1
 10
0.0
 20
0.0
 30
0.0
  3
*D9
  1

  0
LINE
  5
422
330
3BF
100
AcDbEntity
  8
dim
 62
     0
440
 16777216
370
    -2
100
AcDbLine
 10
81.27795138266813
 20
198.1566519237914
 30
0.0
 11
38.99378387017345
 21
198.1566519237913
 31
0.0
  0
LINE
  5
423
330
3BF
100
AcDbEntity
  8
dim
 62
     0
440
 16777216
370
    -2
100
AcDbLine
 10
124.5100429253944
 20
223.1566519237914
 30
0.0
 11
38.99378387017345
 21
223.1566519237914
 31
0.0
  0
LINE
  5
424
330
3BF
100
AcDbEntity
  8
dim
 62
     0
440
 16777216
370
    -2
100
AcDbLine
 10
42.99378387017345
 20
204.1566519237913
 30
0.0
 11
42.99378387017344
 21
217.1566519237914
 31
0.0
  0
SOLID
  5
425
330
3BF
100
AcDbEntity
  8
dim
 62
     0
440
 16777216
100
AcDbTrace
 10
41.99378387017345
 20
204.1566519237913
 30
0.0
 11
43.99378387017345
 21
204.1566519237913
 31
0.0
 12
42.99378387017345
 22
198.1566519237913
 32
0.0
 13
42.99378387017345
 23
198.1566519237913
 33
0.0
  0
SOLID
  5
426
330
3BF
100
AcDbEntity
  8
dim
 62
     0
440
 16777216
100
AcDbTrace
 10
41.99378387017344
 20
217.1566519237914
 30
0.0
 11
43.99378387017344
 21
217.1566519237914
 31
0.0
 12
42.99378387017344
 22
223.1566519237914
 32
0.0
 13
42.99378387017344
 23
223.1566519237914
 33
0.0
  0
MTEXT
  5
427
330
3BF
100
AcDbEntity
  8
dim
 62
     0
440
 16777216
100
AcDbMText
 10
38.66416848555811
 20
210.6566519238022
 30
0.0
 40
4.5
 41
0.0
 46
0.0
 71
     5
 72
     1
  1
25 min
  7
Calibri
 11
0.0000000000000001
 21
1.0
 31
0.0
 73
     1
 44
1.0
  0
POINT
  5
428
330
3BF
100
AcDbEntity
  8
Defpoints
 62
     0
440
 16777216
100
AcDbPoint
 10
85.27795138266814
 20
198.1566519237914
 30
0.0
  0
POINT
  5
429
330
3BF
100
AcDbEntity
  8
Defpoints
 62
     0
440
 16777216
100
AcDbPoint
 10
128.5100429253944
 20
223.1566519237914
 30
0.0
  0
POINT
  5
42A
330
3BF
100
AcDbEntity
  8
Defpoints
 62
     0
440
 16777216
100
AcDbPoint
 10
42.99378387017344
 20
223.1566519237914
 30
0.0
  0
ENDBLK
  5
3C1
330
3BF
100
AcDbEntity
  8
0
100
AcDbBlockEnd
  0
BLOCK
  5
3CC
330
3CB
100
AcDbEntity
  8
0
100
AcDbBlockBegin
  2
*D10
 70
     1
 10
0.0
 20
0.0
 30
0.0
  3
*D10
  1

  0
LINE
  5
42B
330
3CB
100
AcDbEntity
  8
dim
 62
     0
440
 16777216
370
    -2
100
AcDbLine
 10
79.77795138266813
 20
198.1568205526201
 30
0.0
 11
24.99378387017345
 21
198.1568205526201
 31
0.0
  0
LINE
  5
42C
330
3CB
100
AcDbEntity
  8
dim
 62
     0
440
 16777216
370
    -2
100
AcDbLine
 10
51.90249312734525
 20
348.1566519237914
 30
0.0
 11
24.99378387017341
 21
348.1566519237914
 31
0.0
  0
LINE
  5
42D
330
3CB
100
AcDbEntity
  8
dim
 62
     0
440
 16777216
370
    -2
100
AcDbLine
 10
28.99378387017345
 20
204.1568205526201
 30
0.0
 11
28.99378387017342
 21
342.1566519237914
 31
0.0
  0
SOLID
  5
42E
330
3CB
100
AcDbEntity
  8
dim
 62
     0
440
 16777216
100
AcDbTrace
 10
27.99378387017345
 20
204.1568205526201
 30
0.0
 11
29.99378387017344
 21
204.1568205526201
 31
0.0
 12
28.99378387017345
 22
198.1568205526201
 32
0.0
 13
28.99378387017345
 23
198.1568205526201
 33
0.0
  0
SOLID
  5
42F
330
3CB
100
AcDbEntity
  8
dim
 62
     0
440
 16777216
100
AcDbTrace
 10
27.99378387017342
 20
342.1566519237914
 30
0.0
 11
29.99378387017342
 21
342.1566519237914
 31
0.0
 12
28.99378387017341
 22
348.1566519237914
 32
0.0
 13
28.99378387017341
 23
348.1566519237914
 33
0.0
  0
MTEXT
  5
430
330
3CB
100
AcDbEntity
  8
dim
 62
     0
440
 16777216
100
AcDbMText
 10
23.95282233171196
 20
273.1567362382175
 30
0.0
 40
4.5
 41
0.0
 46
0.0
 71
     5
 72
     1
  1
140 min section depth
  7
Calibri
 11
0.0000000000000001
 21
1.0
 31
0.0
 73
     1
 44
1.0
  0
POINT
  5
431
330
3CB
100
AcDbEntity
  8
Defpoints
 62
     0
440
 16777216
100
AcDbPoint
 10
83.77795138266813
 20
198.1568205526201
 30
0.0
  0
POINT
  5
432
330
3CB
100
AcDbEntity
  8
Defpoints
 62
     0
440
 16777216
100
AcDbPoint
 10
55.90249312734525
 20
348.1566519237914
 30
0.0
  0
POINT
  5
433
330
3CB
100
AcDbEntity
  8
Defpoints
 62
     0
440
 16777216
100
AcDbPoint
 10
28.99378387017341
 20
348.1566519237914
 30
0.0
  0
ENDBLK
  5
3CD
330
3CB
100
AcDbEntity
  8
0
100
AcDbBlockEnd
  0
BLOCK
  5
3D8
330
3D7
100
AcDbEntity
  8
0
100
AcDbBlockBegin
  2
*D11
 70
     1
 10
0.0
 20
0.0
 30
0.0
  3
*D11
  1

  0
LINE
  5
434
330
3D7
100
AcDbEntity
  8
dim
 62
     0
440
 16777216
370
    -2
100
AcDbLine
 10
158.7779513826681
 20
336.4433003201066
 30
0.0
 11
158.7779513826681
 21
383.2559966820936
 31
0.0
  0
LINE
  5
435
330
3D7
100
AcDbEntity
  8
dim
 62
     0
440
 16777216
370
    -2
100
AcDbLine
 10
208.7779513826681
 20
370.1566519237913
 30
0.0
 11
208.7779513826681
 21
383.2559966820936
 31
0.0
  0
LINE
  5
436
330
3D7
100
AcDbEntity
  8
dim
 62
     0
440
 16777216
370
    -2
100
AcDbLine
 10
164.7779513826681
 20
379.2559966820936
 30
0.0
 11
202.7779513826681
 21
379.2559966820936
 31
0.0
  0
SOLID
  5
437
330
3D7
100
AcDbEntity
  8
dim
 62
     0
440
 16777216
100
AcDbTrace
 10
164.7779513826681
 20
380.2559966820936
 30
0.0
 11
164.7779513826681
 21
378.2559966820936
 31
0.0
 12
158.7779513826681
 22
379.2559966820936
 32
0.0
 13
158.7779513826681
 23
379.2559966820936
 33
0.0
  0
SOLID
  5
438
330
3D7
100
AcDbEntity
  8
dim
 62
     0
440
 16777216
100
AcDbTrace
 10
202.7779513826681
 20
380.2559966820936
 30
0.0
 11
202.7779513826681
 21
378.2559966820936
 31
0.0
 12
208.7779513826681
 22
379.2559966820936
 32
0.0
 13
208.7779513826681
 23
379.2559966820936
 33
0.0
  0
MTEXT
  5
439
330
3D7
100
AcDbEntity
  8
dim
 62
     0
440
 16777216
100
AcDbMText
 10
183.7779513826681
 20
383.5613812974782
 30
0.0
 40
4.5
 41
0.0
 46
0.0
 71
     5
 72
     1
  1
50 max
  7
Calibri
 73
     1
 44
1.0
  0
POINT
  5
43A
330
3D7
100
AcDbEntity
  8
Defpoints
 62
     0
440
 16777216
100
AcDbPoint
 10
158.7779513826681
 20
332.4433003201066
 30
0.0
  0
POINT
  5
43B
330
3D7
100
AcDbEntity
  8
Defpoints
 62
     0
440
 16777216
100
AcDbPoint
 10
208.7779513826681
 20
366.1566519237913
 30
0.0
  0
POINT
  5
43C
330
3D7
100
AcDbEntity
  8
Defpoints
 62
     0
440
 16777216
100
AcDbPoint
 10
208.7779513826681
 20
379.2559966820936
 30
0.0
  0
ENDBLK
  5
3D9
330
3D7
100
AcDbEntity
  8
0
100
AcDbBlockEnd
  0
ENDSEC
  0
SECTION
  2
ENTITIES
  0
HATCH
  5
24C
330
70
100
AcDbEntity
  8
shade 8
100
AcDbHatch
 10
0.0
 20
0.0
 30
0.0
210
0.0
220
0.0
230
1.0
  2
ANSI31
 70
     0
 71
     0
 91
        1
 92
        7
 72
     1
 73
     1
 93
       10
 10
146.7779513826681
 20
338.6566519237913
 42
-0.4142135623730951
 10
152.7779513826681
 20
332.6566519237913
 42
0.0
 10
152.7779513826681
 20
213.65682055262
 42
-0.4142135623730951
 10
146.7779513826681
 20
207.65682055262
 42
0.0
 10
83.7779513826681
 20
207.65682055262
 42
0.0
 10
83.7779513826681
 20
198.15682055262
 42
0.0
 10
158.7779513826535
 20
198.15682055262
 42
0.0
 10
158.7779513826681
 20
348.1566519237913
 42
0.0
 10
83.7779513826681
 20
348.1566519237913
 42
0.0
 10
83.7779513826681
 20
338.6566519237913
 42
0.0
 97
        0
 75
     0
 76
     1
 52
0.0
 41
2.0
 77
     0
 78
     1
 53
45.0
 43
-669.204652459477
 44
-156.0871751349405
 45
-4.490128060534575
 46
4.490128060534576
 79
     0
 47
0.4114865302881821
 98
        1
 10
138.5854781757662
 20
342.6310388682887
1001
ACAD
1010
0.0
1020
0.0
1030
0.0
  0
LWPOLYLINE
  5
24D
330
70
100
AcDbEntity
  8
0
100
AcDbPolyline
 90
       10
 70
     1
 43
0.0
 10
83.7779513826681
 20
338.6566519237913
 10
83.7779513826681
 20
348.1566519237913
 10
158.7779513826681
 20
348.1566519237913
 10
158.7779513826681
 20
198.15682055262
 10
83.7779513826681
 20
198.15682055262
 10
83.7779513826681
 20
207.65682055262
 10
146.7779513826681
 20
207.65682055262
 42
0.4142135623730951
 10
152.7779513826681
 20
213.65682055262
 10
152.7779513826681
 20
332.6566519237913
 42
0.4142135623730951
 10
146.7779513826681
 20
338.6566519237913
  0
LINE
  5
24E
330
70
100
AcDbEntity
  8
decking
100
AcDbLine
 10
205.7779513826681
 20
348.1566519237913
 30
0.0
 11
55.90249312734522
 21
348.1566519237913
 31
0.0
  0
LINE
  5
24F
330
70
100
AcDbEntity
  8
decking
100
AcDbLine
 10
205.7779513826681
 20
351.1566519237913
 30
0.0
 11
55.90249312734522
 21
351.1566519237913
 31
0.0
  0
LINE
  5
250
330
70
100
AcDbEntity
  8
decking
100
AcDbLine
 10
205.7779513826681
 20
354.1566519237913
 30
0.0
 11
55.90249312734522
 21
354.1566519237913
 31
0.0
  0
LINE
  5
251
330
70
100
AcDbEntity
  8
decking
100
AcDbLine
 10
205.7779513826681
 20
357.1566519237913
 30
0.0
 11
55.90249312734522
 21
357.1566519237913
 31
0.0
  0
LINE
  5
252
330
70
100
AcDbEntity
  8
decking
100
AcDbLine
 10
205.7779513826681
 20
360.1566519237913
 30
0.0
 11
55.90249312734522
 21
360.1566519237913
 31
0.0
  0
LINE
  5
253
330
70
100
AcDbEntity
  8
decking
100
AcDbLine
 10
161.7779513826681
 20
363.1566519237913
 30
0.0
 11
55.90249312734522
 21
363.1566519237913
 31
0.0
  0
HATCH
  5
254
330
70
100
AcDbEntity
  8
shade 9
100
AcDbHatch
 10
0.0
 20
0.0
 30
0.0
210
0.0
220
0.0
230
1.0
  2
SOLID
 70
     1
 71
     0
 91
        1
 92
        7
 72
     1
 73
     1
 93
        8
 10
208.7779513826681
 20
367.6566519237913
 42
0.0
 10
55.90249312734522
 20
367.6566519237913
 42
0.0
 10
55.90249312734522
 20
366.1566519237913
 42
0.0
 10
161.7779513826681
 20
366.1566519237913
 42
0.0
 10
208.7779513826681
 20
366.1566519237913
 42
0.0
 10
208.7779513826681
 20
326.1566519237913
 42
0.0
 10
210.2779513826681
 20
326.1566519237913
 42
0.0
 10
210.2779513826681
 20
366.1566519237913
 42
0.4142135623730896
 97
        0
 75
     1
 76
     1
 47
0.2012253100529754
 98
        1
 10
73.45341004645161
 20
366.6246529849504
450
        0
451
        0
460
0.0
461
0.0
452
        0
462
1.0
453
        2
463
0.0
 63
     5
421
      255
463
1.0
 63
     2
421
 16776960
470
LINEAR
1001
GradientColor1ACI
1070
     5
1001
GradientColor2ACI
1070
     2
1001
ACAD
1010
0.0
1020
0.0
1030
0.0
  0
LINE
  5
255
330
70
100
AcDbEntity
  8
decking
100
AcDbLine
 10
161.7779513826681
 20
366.1566519237913
 30
0.0
 11
55.90249312734522
 21
366.1566519237913
 31
0.0
  0
LINE
  5
256
330
70
100
AcDbEntity
  8
fixing
100
AcDbLine
 10
150.7779513826681
 20
323.1566519237913
 30
0.0
 11
150.7779513826681
 21
303.1566519237913
 31
0.0
  0
LINE
  5
257
330
70
100
AcDbEntity
  8
fixing
100
AcDbLine
 10
142.7779513826681
 20
321.1566519237913
 30
0.0
 11
142.7779513826681
 21
305.1566519237913
 31
0.0
  0
LINE
  5
258
330
70
100
AcDbEntity
  8
fixing
100
AcDbLine
 10
150.7779513826681
 20
323.1566519237913
 30
0.0
 11
152.7779513826681
 21
323.1566519237913
 31
0.0
  0
LINE
  5
259
330
70
100
AcDbEntity
  8
fixing
100
AcDbLine
 10
152.7779513826681
 20
303.1566519237913
 30
0.0
 11
150.7779513826681
 21
303.1566519237913
 31
0.0
  0
LINE
  5
25A
330
70
100
AcDbEntity
  8
fixing
100
AcDbLine
 10
142.7779513826681
 20
305.1566519237913
 30
0.0
 11
150.7779513826681
 21
305.1566519237913
 31
0.0
  0
LINE
  5
25B
330
70
100
AcDbEntity
  8
fixing
100
AcDbLine
 10
144.1819529839558
 20
313.1566519237913
 30
0.0
 11
150.7779513826681
 21
313.1566519237913
 31
0.0
  0
ARC
  5
25C
330
70
100
AcDbEntity
  8
fixing
100
AcDbCircle
 10
149.1779513826768
 20
309.1566519237913
 30
0.0
 40
6.4
100
AcDbArc
 50
141.3178125459655
 51
216.3858678167841
  0
ARC
  5
25D
330
70
100
AcDbEntity
  8
fixing
100
AcDbCircle
 10
144.4282145478501
 20
305.6566519237913
 30
0.0
 40
0.5
100
AcDbArc
 50
216.3858678167841
 51
270.0
  0
LINE
  5
25E
330
70
100
AcDbEntity
  8
fixing
100
AcDbLine
 10
142.7779513826681
 20
321.1566519237913
 30
0.0
 11
150.7779513826681
 21
321.1566519237913
 31
0.0
  0
ARC
  5
25F
330
70
100
AcDbEntity
  8
fixing
100
AcDbCircle
 10
149.1779513826768
 20
317.1566519237913
 30
0.0
 40
6.4
100
AcDbArc
 50
143.6141321832159
 51
218.6821874540345
  0
ARC
  5
260
330
70
100
AcDbEntity
  8
fixing
100
AcDbCircle
 10
144.4282145478501
 20
320.6566519237913
 30
0.0
 40
0.5
100
AcDbArc
 50
90.0
 51
143.6141321832159
  0
LINE
  5
261
330
70
100
AcDbEntity
  8
ctrl
 48
0.25
100
AcDbLine
 10
176.5944110142154
 20
223.1566519237913
 30
0.0
 11
128.5100429253944
 21
223.1566519237913
 31
0.0
  0
LINE
  5
262
330
70
100
AcDbEntity
  8
ctrl
 48
0.25
100
AcDbLine
 10
190.8518116529012
 20
313.1566519237913
 30
0.0
 11
128.8939786123374
 21
313.1566519237913
 31
0.0
  0
LINE
  5
263
330
70
100
AcDbEntity
  8
Post
100
AcDbLine
 10
272.0779513826856
 20
294.723318590457
 30
0.0
 11
272.077951382671
 21
527.8310650565199
 31
0.0
  0
LINE
  5
264
330
70
100
AcDbEntity
  8
Post
100
AcDbLine
 10
221.277951382639
 20
311.6566519238004
 30
0.0
 11
221.2779513826681
 21
527.9299231557943
 31
0.0
  0
LINE
  5
265
330
70
100
AcDbEntity
  8
Post
370
     9
100
AcDbLine
 10
224.2779513826972
 20
310.6566519237822
 30
0.0
 11
224.2779513826681
 21
529.2645737065249
 31
0.0
  0
LINE
  5
266
330
70
100
AcDbEntity
  8
Post
370
     9
100
AcDbLine
 10
269.0779513826856
 20
295.7233185904588
 30
0.0
 11
269.077951382671
 21
526.4193258678224
 31
0.0
  0
SPLINE
  5
267
330
70
100
AcDbEntity
  8
dim
  6
DASHED
 48
0.2
370
     5
100
AcDbSpline
210
0.0
220
0.0
230
1.0
 70
  1064
 71
     3
 72
    10
 73
     6
 74
     4
 42
0.000000001
 43
0.0000000001
 44
0.00001
 40
0.0
 40
0.0
 40
0.0
 40
0.0
 40
25.64484207792298
 40
44.54267333147289
 40
68.78748080469968
 40
68.78748080469968
 40
68.78748080469968
 40
68.78748080469968
 10
213.8157434028253
 20
524.053163642402
 30
0.0
 10
222.1126818245466
 20
528.5463236184246
 30
0.0
 10
236.5236819693178
 20
536.3504968613597
 30
0.0
 10
257.428418042741
 20
519.3434503128073
 30
0.0
 10
271.2550808605173
 20
527.2109049152178
 30
0.0
 10
279.0252305545728
 20
531.6321792635426
 30
0.0
 11
213.8157434028253
 21
524.053163642402
 31
0.0
 11
238.4167401219165
 21
531.295335619563
 31
0.0
 11
255.9407340446487
 21
524.2215872344768
 31
0.0
 11
279.0252305545728
 21
531.6321792635426
 31
0.0
  0
LINE
  5
268
330
70
100
AcDbEntity
  8
Post
  6
DASHED
 48
0.25
370
     5
100
AcDbLine
 10
221.2779513826681
 20
288.1566519237913
 30
0.0
 11
272.077951382671
 21
288.1566519237913
 31
0.0
  0
SPLINE
  5
269
330
70
100
AcDbEntity
  8
Object
 62
     6
100
AcDbSpline
210
0.0
220
0.0
230
1.0
 70
     8
 71
     3
 72
    12
 73
     8
 74
     0
 42
0.000000001
 43
0.0000000001
 40
2.783541086065567
 40
2.783541086065567
 40
2.783541086065567
 40
2.783541086065567
 40
3.106448092486674
 40
3.106448092486674
 40
3.500432055107447
 40
3.500432055107447
 40
3.634360855033405
 40
3.634360855033405
 40
3.634360855033405
 40
3.634360855033405
 10
173.2779581165523
 20
325.7139842440156
 30
0.0
 10
173.2782465262426
 20
325.4183634696965
 30
0.0
 10
173.4698371508857
 20
324.9670737447577
 30
0.0
 10
174.1144162405253
 20
323.828686769617
 30
0.0
 10
174.666723583985
 20
323.0188427773155
 30
0.0
 10
175.5474031654594
 20
321.8024193000947
 30
0.0
 10
175.782746996294
 20
321.4826035953247
 30
0.0
 10
176.0242801322456
 20
321.1566519237913
 30
0.0
  0
SPLINE
  5
26A
330
70
100
AcDbEntity
  8
Object
 62
     6
100
AcDbSpline
210
0.0
220
0.0
230
1.0
 70
     8
 71
     3
 72
    12
 73
     8
 74
     0
 42
0.000000001
 43
0.0000000001
 40
5.55609292162897
 40
5.55609292162897
 40
5.55609292162897
 40
5.55609292162897
 40
5.690021721554987
 40
5.690021721554987
 40
6.084005684175759
 40
6.084005684175759
 40
6.406912690598177
 40
6.406912690598177
 40
6.406912690598177
 40
6.406912690598177
 10
176.0242801322747
 20
305.1566519237913
 30
0.0
 10
175.7827469963085
 20
304.8307002522561
 30
0.0
 10
175.5474031654594
 20
304.5108845474842
 30
0.0
 10
174.666723583985
 20
303.2944610702652
 30
0.0
 10
174.1144162405253
 20
302.4846170779619
 30
0.0
 10
173.4698371508857
 20
301.3462301028212
 30
0.0
 10
173.2782465262426
 20
300.8949403778806
 30
0.0
 10
173.2779581165523
 20
300.5993196035615
 30
0.0
  0
ARC
  5
26B
330
70
100
AcDbEntity
  8
Object
 62
     6
100
AcDbCircle
 10
183.2779513826681
 20
334.8642441243519
 30
0.0
 40
10.0
100
AcDbArc
 50
180.0
 51
251.5650511771408
  0
LINE
  5
26C
330
70
100
AcDbEntity
  8
Object
 62
     6
100
AcDbLine
 10
182.5851753958705
 20
267.3029869247093
 30
0.0
 11
182.9723666538921
 21
267.3298752065148
 31
0.0
  0
LINE
  5
26D
330
70
100
AcDbEntity
  8
Object
 62
     6
100
AcDbLine
 10
173.2779513826681
 20
200.1566519237913
 30
0.0
 11
173.2779513826681
 21
206.1566519237913
 31
0.0
  0
LINE
  5
26E
330
70
100
AcDbEntity
  8
Object
 62
     6
100
AcDbLine
 10
160.2779513826681
 20
206.1566519237913
 30
0.0
 11
160.2779513826681
 21
330.1566519237913
 31
0.0
  0
ARC
  5
26F
330
70
100
AcDbEntity
  8
Object
 62
     6
100
AcDbCircle
 10
183.2779513826681
 20
257.3270127150317
 30
0.0
 40
9.999999999999989
100
AcDbArc
 50
93.97249594100131
 51
180.0
  0
LINE
  5
270
330
70
100
AcDbEntity
  8
Object
 62
     6
100
AcDbLine
 10
173.2779513826681
 20
206.1566519237913
 30
0.0
 11
173.2779513826681
 21
330.1566519237913
 31
0.0
  0
LINE
  5
271
330
70
100
AcDbEntity
  8
Object
 62
     6
100
AcDbLine
 10
183.4662669885729
 20
324.2605467218182
 30
0.0
 11
180.1156737224955
 21
325.3774111438452
 31
0.0
  0
LINE
  5
272
330
70
100
AcDbEntity
  8
Object
 62
     6
100
AcDbLine
 10
160.2779513826681
 20
198.1566519237913
 30
0.0
 11
171.2779513826681
 21
198.1566519237913
 31
0.0
  0
ARC
  5
273
330
70
100
AcDbEntity
  8
Object
 62
     6
100
AcDbCircle
 10
279.2779513826681
 20
290.2151334836781
 30
0.0
 40
2.0
100
AcDbArc
 50
0.0
 51
71.56505117714082
  0
LINE
  5
274
330
70
100
AcDbEntity
  8
Object
 62
     6
100
AcDbLine
 10
281.2779513826681
 20
276.0225797655421
 30
0.0
 11
281.2779513826681
 21
290.2151334836781
 31
0.0
  0
LINE
  5
275
330
70
100
AcDbEntity
  8
Object
 62
     6
100
AcDbLine
 10
173.2779513826681
 20
330.1566519237913
 30
0.0
 11
173.2779513826681
 21
336.1566519237913
 31
0.0
  0
ARC
  5
276
330
70
100
AcDbEntity
  8
Object
 62
     6
100
AcDbCircle
 10
279.2779513826681
 20
276.0225797655421
 30
0.0
 40
2.0
100
AcDbArc
 50
273.9724959410013
 51
0.0
  0
LINE
  5
277
330
70
100
AcDbEntity
  8
Object
 62
     6
100
AcDbLine
 10
160.2779513826681
 20
330.1566519237913
 30
0.0
 11
160.2779513826681
 21
338.1566519237913
 31
0.0
  0
ARC
  5
278
330
70
100
AcDbEntity
  8
Object
 62
     6
100
AcDbCircle
 10
171.2779513826681
 20
336.1566519237913
 30
0.0
 40
2.0
100
AcDbArc
 50
0.0
 51
90.0
  0
LINE
  5
279
330
70
100
AcDbEntity
  8
Object
 62
     6
100
AcDbLine
 10
182.9723666538921
 20
267.3298752065148
 30
0.0
 11
279.4165065800189
 21
274.0273849236055
 31
0.0
  0
LINE
  5
27A
330
70
100
AcDbEntity
  8
Object
 62
     6
100
AcDbLine
 10
160.2779513826681
 20
338.1566519237913
 30
0.0
 11
171.2779513826681
 21
338.1566519237913
 31
0.0
  0
LINE
  5
27B
330
70
100
AcDbEntity
  8
Object
 62
     6
100
AcDbLine
 10
279.9104069146997
 20
292.1125000797783
 30
0.0
 11
183.4662669885729
 21
324.2605467218182
 31
0.0
  0
LINE
  5
27C
330
70
100
AcDbEntity
  8
Object
 62
     6
100
AcDbLine
 10
160.2779513826681
 20
198.1566519237913
 30
0.0
 11
160.2779513826681
 21
206.1566519237913
 31
0.0
  0
ARC
  5
27D
330
70
100
AcDbEntity
  8
Object
 62
     6
100
AcDbCircle
 10
171.2779513826681
 20
200.1566519237913
 30
0.0
 40
2.0
100
AcDbArc
 50
270.0
 51
0.0
  0
LINE
  5
27E
330
70
100
AcDbEntity
  8
Object
 62
     6
100
AcDbLine
 10
171.2779513826681
 20
330.1566519237913
 30
0.0
 11
171.2779513826681
 21
206.1566519237913
 31
0.0
  0
LINE
  5
27F
330
70
100
AcDbEntity
  8
Object
 62
     6
100
AcDbLine
 10
182.9078347775648
 20
269.3250700484514
 30
0.0
 11
182.9078347775648
 21
322.3631801257179
 31
0.0
  0
ELLIPSE
  5
280
330
70
100
AcDbEntity
  8
Object
 62
     6
100
AcDbEllipse
 10
182.8338114565413
 20
322.3631801257179
 30
0.0
 11
0.6324555320337027
 21
1.897366596101051
 31
0.0
210
0.0
220
0.0
230
1.0
 40
0.035114749361045
 41
-1.559091944841573
 42
0.0
  0
LINE
  5
281
330
70
100
AcDbEntity
  8
Object
 62
     6
100
AcDbLine
 10
171.2779513826681
 20
206.1566519237913
 30
0.0
 11
171.2779513826681
 21
198.1566519237913
 31
0.0
  0
LINE
  5
282
330
70
100
AcDbEntity
  8
Object
 62
     6
100
AcDbLine
 10
281.2779513826681
 20
276.0225797655421
 30
0.0
 11
279.3519747036771
 21
276.0225797655421
 31
0.0
  0
LINE
  5
283
330
70
100
AcDbEntity
  8
Object
 62
     6
100
AcDbLine
 10
182.9078347775648
 20
269.3250700484514
 30
0.0
 11
182.5851753958705
 21
269.2981817666423
 31
0.0
  0
LINE
  5
284
330
70
100
AcDbEntity
  8
Object
 62
     6
100
AcDbLine
 10
171.2779513826681
 20
338.1566519237913
 30
0.0
 11
171.2779513826681
 21
330.1566519237913
 31
0.0
  0
ELLIPSE
  5
285
330
70
100
AcDbEntity
  8
Object
 62
     6
100
AcDbEllipse
 10
182.4466201985196
 20
269.2981817666423
 30
0.0
 11
0.1385551973566521
 21
-1.995194841935358
 31
0.0
210
0.0
220
0.0
230
1.0
 40
0.0691119497427749
 41
0.0
 42
1.56599692269114
  0
LINE
  5
286
330
70
100
AcDbEntity
  8
Object
 62
     6
100
AcDbLine
 10
171.2779513826681
 20
330.1566519237913
 30
0.0
 11
173.2779513826681
 21
330.1566519237913
 31
0.0
  0
LINE
  5
287
330
70
100
AcDbEntity
  8
Object
 62
     6
100
AcDbLine
 10
182.9078347775648
 20
322.3631801257179
 30
0.0
 11
279.3519747036771
 21
290.2151334836781
 31
0.0
  0
ELLIPSE
  5
288
330
70
100
AcDbEntity
  8
Object
 62
     6
100
AcDbEllipse
 10
183.2779513826681
 20
257.3270127150317
 30
0.0
 11
0.0
 21
11.99999999999998
 31
0.0
210
0.0
220
0.0
230
1.0
 40
0.8333333333333342
 41
0.0693331336882064
 42
1.570796326794896
  0
ELLIPSE
  5
289
330
70
100
AcDbEntity
  8
Object
 62
     6
100
AcDbEllipse
 10
179.4832181904639
 20
323.4800445477467
 30
0.0
 11
0.6324555320336458
 21
1.897366596101022
 31
0.0
210
0.0
220
0.0
230
1.0
 40
0.3015113445777828
 41
-1.470628905633335
 42
0.0
  0
LINE
  5
28A
330
70
100
AcDbEntity
  8
Object
 62
     6
100
AcDbLine
 10
279.3519747036771
 20
290.2151334836781
 30
0.0
 11
279.3519747036771
 21
276.0225797655421
 31
0.0
  0
LINE
  5
28B
330
70
100
AcDbEntity
  8
Object
 62
     6
100
AcDbLine
 10
279.3519747036771
 20
290.2151334836781
 30
0.0
 11
281.2779513826681
 21
290.2151334836781
 31
0.0
  0
LINE
  5
28C
330
70
100
AcDbEntity
  8
Object
 62
     6
100
AcDbLine
 10
171.2779513826681
 20
206.1566519237913
 30
0.0
 11
173.2779513826681
 21
206.1566519237913
 31
0.0
  0
LINE
  5
28D
330
70
100
AcDbEntity
  8
Object
 62
     6
100
AcDbLine
 10
180.1156737224955
 20
323.4800445477467
 30
0.0
 11
182.9078347775648
 21
322.3631801257179
 31
0.0
  0
LINE
  5
28E
330
70
100
AcDbEntity
  8
Object
 62
     6
100
AcDbLine
 10
279.3519747036771
 20
276.0225797655421
 30
0.0
 11
182.9078347775648
 21
269.3250700484514
 31
0.0
  0
ELLIPSE
  5
28F
330
70
100
AcDbEntity
  8
Object
 62
     6
100
AcDbEllipse
 10
279.2779513826681
 20
290.2151334836781
 30
0.0
 11
0.6324555320336457
 21
1.89736659610105
 31
0.0
210
0.0
220
0.0
230
1.0
 40
0.0351147493610453
 41
-1.559091944841575
 42
0.0
  0
ELLIPSE
  5
290
330
70
100
AcDbEntity
  8
Object
 62
     6
100
AcDbEllipse
 10
279.2779513826681
 20
276.0225797655421
 30
0.0
 11
0.1385551973566521
 21
-1.995194841935358
 31
0.0
210
0.0
220
0.0
230
1.0
 40
0.0369228584453014
 41
0.0
 42
1.568232245022073
  0
ELLIPSE
  5
291
330
70
100
AcDbEntity
  8
Object
 62
     6
100
AcDbEllipse
 10
183.2779513826681
 20
334.8642441243519
 30
0.0
 11
0.0
 21
-12.0
 31
0.0
210
0.0
220
0.0
230
1.0
 40
0.8333333333333333
 41
-1.570796326794896
 42
-0.3217505543966441
  0
LINE
  5
292
330
70
100
AcDbEntity
  8
Object
 62
     6
100
AcDbLine
 10
160.2779513826681
 20
330.1566519237913
 30
0.0
 11
171.2779513826681
 21
330.1566519237913
 31
0.0
  0
ELLIPSE
  5
293
330
70
100
AcDbEntity
  8
Object
 62
     6
100
AcDbEllipse
 10
182.8338114565413
 20
269.3250700484514
 30
0.0
 11
0.1385551973565953
 21
-1.995194841935358
 31
0.0
210
0.0
220
0.0
230
1.0
 40
0.0369228584452732
 41
0.0
 42
1.568232245022077
  0
LINE
  5
294
330
70
100
AcDbEntity
  8
Object
 62
     6
100
AcDbLine
 10
160.2779513826681
 20
206.1566519237913
 30
0.0
 11
171.2779513826681
 21
206.1566519237913
 31
0.0
  0
HATCH
  5
295
330
70
100
AcDbEntity
  8
shade 8
100
AcDbHatch
 10
0.0
 20
0.0
 30
0.0
210
0.0
220
0.0
230
1.0
  2
ANSI31
 70
     0
 71
     0
 91
        1
 92
        1
 93
        6
 72
     1
 10
208.7779513826681
 20
366.1566519237913
 11
161.7779513826681
 21
366.1566519237913
 72
     1
 10
161.7779513826681
 20
366.1566519237913
 11
161.7779513826681
 21
363.1566519237913
 72
     1
 10
161.7779513826681
 20
363.1566519237913
 11
205.7779513826681
 21
363.1566519237913
 72
     1
 10
205.7779513826681
 20
363.1566519237913
 11
205.7779513826681
 21
326.1566519237913
 72
     1
 10
205.7779513826681
 20
326.1566519237913
 11
208.7779513826681
 21
326.1566519237913
 72
     1
 10
208.7779513826681
 20
326.1566519237913
 11
208.7779513826681
 21
366.1566519237913
 97
        0
 75
     0
 76
     1
 52
0.0
 41
1.0
 77
     0
 78
     1
 53
45.0
 43
-72136.89944043828
 44
-549.5512703145159
 45
-2.245064030267287
 46
2.245064030267288
 79
     0
 98
        1
 10
207.1263624286221
 20
357.5781731961634
1001
ACAD
1010
0.0
1020
0.0
1030
0.0
  0
LWPOLYLINE
  5
296
330
70
100
AcDbEntity
  8
Object
 62
     1
100
AcDbPolyline
 90
        7
 70
     0
 43
0.0
 10
161.7779513826681
 20
366.1566519237913
 10
208.7779513826681
 20
366.1566519237913
 10
208.7779513826681
 20
326.1566519237913
 10
205.7779513826681
 20
326.1566519237913
 10
205.7779513826681
 20
363.1566519237913
 10
161.7779513826681
 20
363.1566519237913
 10
161.7779513826681
 20
366.1566519237913
  0
LINE
  5
297
330
70
100
AcDbEntity
  8
Post
  6
DASHED
 48
0.25
370
     5
100
AcDbLine
 10
221.2779513826536
 20
311.6566519237931
 30
0.0
 11
221.2779513826681
 21
288.1566519237913
 31
0.0
  0
LINE
  5
298
330
70
100
AcDbEntity
  8
Post
  6
DASHED
 48
0.25
370
     5
100
AcDbLine
 10
224.2779513826972
 20
310.6566519237786
 30
0.0
 11
224.2779513826972
 21
288.1566519237913
 31
0.0
  0
LINE
  5
299
330
70
100
AcDbEntity
  8
Post
  6
DASHED
 48
0.25
370
     5
100
AcDbLine
 10
272.0779513826856
 20
294.723318590457
 30
0.0
 11
272.0779513826856
 21
288.1566519237913
 31
0.0
  0
LINE
  5
29A
330
70
100
AcDbEntity
  8
Post
  6
DASHED
 48
0.25
370
     5
100
AcDbLine
 10
269.0779513826856
 20
295.7233185904497
 30
0.0
 11
269.0779513826856
 21
288.1566519237913
 31
0.0
  0
LINE
  5
29B
330
70
100
AcDbEntity
  8
fixing
100
AcDbLine
 10
182.4779513826652
 20
320.6566519237913
 30
0.0
 11
182.4779513826652
 21
305.6566519237913
 31
0.0
  0
ARC
  5
29C
330
70
100
AcDbEntity
  8
fixing
100
AcDbCircle
 10
181.9779513826652
 20
305.6566519237913
 30
0.0
 40
0.5
100
AcDbArc
 50
270.0
 51
0.0
  0
LINE
  5
29D
330
70
100
AcDbEntity
  8
fixing
100
AcDbLine
 10
181.9779513826652
 20
305.1566519237913
 30
0.0
 11
174.4779513826652
 21
305.1566519237913
 31
0.0
  0
LINE
  5
29E
330
70
100
AcDbEntity
  8
fixing
100
AcDbLine
 10
181.0739497813774
 20
313.1566519237913
 30
0.0
 11
174.4779513826652
 21
313.1566519237913
 31
0.0
  0
ARC
  5
29F
330
70
100
AcDbEntity
  8
fixing
100
AcDbCircle
 10
176.0779513826564
 20
309.1566519237913
 30
0.0
 40
6.4
100
AcDbArc
 50
323.6141321830459
 51
38.68218745386893
  0
ARC
  5
2A0
330
70
100
AcDbEntity
  8
fixing
100
AcDbCircle
 10
180.8276882174832
 20
305.6566519237913
 30
0.0
 40
0.5
100
AcDbArc
 50
270.0
 51
323.6141321830459
  0
LINE
  5
2A1
330
70
100
AcDbEntity
  8
fixing
100
AcDbLine
 10
181.9779513826652
 20
321.1566519237913
 30
0.0
 11
174.4779513826652
 21
321.1566519237913
 31
0.0
  0
ARC
  5
2A2
330
70
100
AcDbEntity
  8
fixing
100
AcDbCircle
 10
181.9779513826652
 20
320.6566519237913
 30
0.0
 40
0.5
100
AcDbArc
 50
0.0
 51
90.0
  0
ARC
  5
2A3
330
70
100
AcDbEntity
  8
fixing
100
AcDbCircle
 10
176.0779513826564
 20
317.1566519237913
 30
0.0
 40
6.4
100
AcDbArc
 50
321.3178125461311
 51
36.38586781695416
  0
ARC
  5
2A4
330
70
100
AcDbEntity
  8
fixing
100
AcDbCircle
 10
180.8276882174832
 20
320.6566519237913
 30
0.0
 40
0.5
100
AcDbArc
 50
36.38586781695416
 51
90.0
  0
LWPOLYLINE
  5
2A5
330
70
100
AcDbEntity
  8
fixing
100
AcDbPolyline
 90
        4
 70
     1
 43
0.0
 10
174.4779513826652
 20
322.6566519237913
 10
173.2779513826681
 20
322.6566519237913
 10
173.2779513826681
 20
303.6566519237913
 10
174.4779513826652
 20
303.6566519237913
  0
LINE
  5
2A6
330
70
100
AcDbEntity
  8
fixing
100
AcDbLine
 10
142.7779513826681
 20
228.1566519237913
 30
0.0
 11
134.9718757847877
 21
228.1566519237913
 31
0.0
  0
LINE
  5
2A7
330
70
100
AcDbEntity
  8
fixing
100
AcDbLine
 10
150.7779513826681
 20
233.1566519237913
 30
0.0
 11
150.7779513826681
 21
213.1566519237913
 31
0.0
  0
LINE
  5
2A8
330
70
100
AcDbEntity
  8
fixing
100
AcDbLine
 10
142.7779513826681
 20
231.1566519237913
 30
0.0
 11
142.7779513826681
 21
215.1566519237913
 31
0.0
  0
LINE
  5
2A9
330
70
100
AcDbEntity
  8
fixing
100
AcDbLine
 10
150.7779513826681
 20
233.1566519237913
 30
0.0
 11
152.7779513826681
 21
233.1566519237913
 31
0.0
  0
LINE
  5
2AA
330
70
100
AcDbEntity
  8
fixing
100
AcDbLine
 10
152.7779513826681
 20
213.1566519237913
 30
0.0
 11
150.7779513826681
 21
213.1566519237913
 31
0.0
  0
LINE
  5
2AB
330
70
100
AcDbEntity
  8
fixing
100
AcDbLine
 10
142.7779513826681
 20
215.1566519237913
 30
0.0
 11
150.7779513826681
 21
215.1566519237913
 31
0.0
  0
LINE
  5
2AC
330
70
100
AcDbEntity
  8
fixing
100
AcDbLine
 10
144.1819529839558
 20
223.1566519237913
 30
0.0
 11
150.7779513826681
 21
223.1566519237913
 31
0.0
  0
ARC
  5
2AD
330
70
100
AcDbEntity
  8
fixing
100
AcDbCircle
 10
149.1779513826768
 20
219.1566519237913
 30
0.0
 40
6.4
100
AcDbArc
 50
141.3178125459655
 51
216.3858678167841
  0
ARC
  5
2AE
330
70
100
AcDbEntity
  8
fixing
100
AcDbCircle
 10
144.4282145478501
 20
215.6566519237913
 30
0.0
 40
0.5
100
AcDbArc
 50
216.3858678167841
 51
270.0
  0
LINE
  5
2AF
330
70
100
AcDbEntity
  8
fixing
100
AcDbLine
 10
142.7779513826681
 20
231.1566519237913
 30
0.0
 11
150.7779513826681
 21
231.1566519237913
 31
0.0
  0
ARC
  5
2B0
330
70
100
AcDbEntity
  8
fixing
100
AcDbCircle
 10
149.1779513826768
 20
227.1566519237913
 30
0.0
 40
6.4
100
AcDbArc
 50
143.6141321832159
 51
218.6821874540345
  0
ARC
  5
2B1
330
70
100
AcDbEntity
  8
fixing
100
AcDbCircle
 10
144.4282145478501
 20
230.6566519237913
 30
0.0
 40
0.5
100
AcDbArc
 50
90.0
 51
143.6141321832159
  0
LINE
  5
2B2
330
70
100
AcDbEntity
  8
fixing
100
AcDbLine
 10
142.7779513826681
 20
227.3566519237902
 30
0.0
 11
134.1718757847848
 21
227.3566519237902
 31
0.0
  0
LINE
  5
2B3
330
70
100
AcDbEntity
  8
fixing
100
AcDbLine
 10
142.7779513826681
 20
218.9566519237906
 30
0.0
 11
134.1718757847848
 21
218.9566519237906
 31
0.0
  0
LINE
  5
2B4
330
70
100
AcDbEntity
  8
fixing
100
AcDbLine
 10
142.7779513826681
 20
218.1566519237913
 30
0.0
 11
134.9718757847877
 21
218.1566519237913
 31
0.0
  0
LINE
  5
2B5
330
70
100
AcDbEntity
  8
fixing
100
AcDbLine
 10
134.9718757847877
 20
228.1566519237913
 30
0.0
 11
134.9718757847877
 21
218.1566519237913
 31
0.0
  0
LINE
  5
2B6
330
70
100
AcDbEntity
  8
fixing
100
AcDbLine
 10
134.1718757847848
 20
227.3566519237902
 30
0.0
 11
134.1718757847848
 21
218.9566519237906
 31
0.0
  0
LINE
  5
2B7
330
70
100
AcDbEntity
  8
fixing
100
AcDbLine
 10
134.1718757847848
 20
227.3566519237902
 30
0.0
 11
134.9718757847877
 21
228.1566519237913
 31
0.0
  0
LINE
  5
2B8
330
70
100
AcDbEntity
  8
fixing
100
AcDbLine
 10
134.1718757847848
 20
218.9566519237906
 30
0.0
 11
134.9718757847877
 21
218.1566519237913
 31
0.0
  0
LINE
  5
2B9
330
70
100
AcDbEntity
  8
fixing
  6
DASHED
 48
0.3
370
     5
100
AcDbLine
 10
152.7779513826681
 20
228.1566519237913
 30
0.0
 11
167.4779513826652
 21
228.1566519237913
 31
0.0
  0
LINE
  5
2BA
330
70
100
AcDbEntity
  8
fixing
  6
DASHED
 48
0.3
370
     5
100
AcDbLine
 10
152.7779513826681
 20
227.3566519237902
 30
0.0
 11
167.4779513826652
 21
227.3566519237902
 31
0.0
  0
LINE
  5
2BB
330
70
100
AcDbEntity
  8
fixing
  6
DASHED
 48
0.3
370
     5
100
AcDbLine
 10
152.7779513826681
 20
218.9566519237906
 30
0.0
 11
167.4779513826652
 21
218.9566519237906
 31
0.0
  0
LINE
  5
2BC
330
70
100
AcDbEntity
  8
fixing
  6
DASHED
 48
0.3
370
     5
100
AcDbLine
 10
152.7779513826681
 20
218.1566519237913
 30
0.0
 11
167.4779513826652
 21
218.1566519237895
 31
0.0
  0
LINE
  5
2BE
330
70
100
AcDbEntity
  8
Post
  6
DASHED
 48
0.25
370
     5
100
AcDbLine
 10
244.6492978998431
 20
288.1566519237895
 30
0.0
 11
244.6492978998431
 21
293.1566519237895
 31
0.0
  0
LINE
  5
2BF
330
70
100
AcDbEntity
  8
Post
  6
DASHED
 48
0.25
370
     5
100
AcDbLine
 10
244.6492978998431
 20
293.1566519237895
 30
0.0
 11
248.6492978998431
 21
293.1566519237895
 31
0.0
  0
LINE
  5
2C0
330
70
100
AcDbEntity
  8
Post
  6
DASHED
 48
0.25
370
     5
100
AcDbLine
 10
248.6492978998431
 20
293.1566519237895
 30
0.0
 11
248.6492978998431
 21
288.1566519237895
 31
0.0
  0
LINE
  5
2C1
330
70
100
AcDbEntity
  8
fixing
100
AcDbLine
 10
142.7779513826681
 20
318.1566519237913
 30
0.0
 11
134.9718757847877
 21
318.1566519237913
 31
0.0
  0
LINE
  5
2C2
330
70
100
AcDbEntity
  8
fixing
100
AcDbLine
 10
142.7779513826681
 20
317.3566519237902
 30
0.0
 11
134.1718757847848
 21
317.3566519237902
 31
0.0
  0
LINE
  5
2C3
330
70
100
AcDbEntity
  8
fixing
100
AcDbLine
 10
142.7779513826681
 20
308.9566519237906
 30
0.0
 11
134.1718757847848
 21
308.9566519237906
 31
0.0
  0
LINE
  5
2C4
330
70
100
AcDbEntity
  8
fixing
100
AcDbLine
 10
142.7779513826681
 20
308.1566519237913
 30
0.0
 11
134.9718757847877
 21
308.1566519237913
 31
0.0
  0
LINE
  5
2C5
330
70
100
AcDbEntity
  8
fixing
100
AcDbLine
 10
134.9718757847877
 20
318.1566519237913
 30
0.0
 11
134.9718757847877
 21
308.1566519237913
 31
0.0
  0
LINE
  5
2C6
330
70
100
AcDbEntity
  8
fixing
100
AcDbLine
 10
134.1718757847848
 20
317.3566519237902
 30
0.0
 11
134.1718757847848
 21
308.9566519237906
 31
0.0
  0
LINE
  5
2C7
330
70
100
AcDbEntity
  8
fixing
100
AcDbLine
 10
134.1718757847848
 20
317.3566519237902
 30
0.0
 11
134.9718757847877
 21
318.1566519237913
 31
0.0
  0
LINE
  5
2C8
330
70
100
AcDbEntity
  8
fixing
100
AcDbLine
 10
134.1718757847848
 20
308.9566519237906
 30
0.0
 11
134.9718757847877
 21
308.1566519237913
 31
0.0
  0
LINE
  5
2C9
330
70
100
AcDbEntity
  8
fixing
  6
DASHED
 48
0.3
370
     5
100
AcDbLine
 10
152.7779513826681
 20
318.1566519237913
 30
0.0
 11
173.2779513826681
 21
318.1566519237913
 31
0.0
  0
LINE
  5
2CA
330
70
100
AcDbEntity
  8
fixing
  6
DASHED
 48
0.3
370
     5
100
AcDbLine
 10
152.7779513826681
 20
317.3566519237902
 30
0.0
 11
173.2779513826681
 21
317.3566519237902
 31
0.0
  0
LINE
  5
2CB
330
70
100
AcDbEntity
  8
fixing
  6
DASHED
 48
0.3
370
     5
100
AcDbLine
 10
152.7779513826681
 20
308.1566519237913
 30
0.0
 11
173.2779513826681
 21
308.1566519237913
 31
0.0
  0
LINE
  5
2CC
330
70
100
AcDbEntity
  8
fixing
  6
DASHED
 48
0.3
370
     5
100
AcDbLine
 10
152.7779513826681
 20
308.9566519237906
 30
0.0
 11
173.2779513826681
 21
308.9566519237906
 31
0.0
  0
HATCH
  5
2CD
330
70
100
AcDbEntity
  8
shade 8
100
AcDbHatch
 10
0.0
 20
0.0
 30
0.0
210
0.0
220
0.0
230
1.0
  2
SOLID
 70
     1
 71
     0
 91
        8
 92
        7
 72
     0
 73
     1
 93
        5
 10
160.2779513826681
 20
338.1566519237913
 10
158.7779513826681
 20
338.1566519237913
 10
158.7779513826681
 20
317.1566519237913
 10
160.2779513826681
 20
317.1566519237913
 10
160.2779513826681
 20
330.1566519237913
 97
        0
 92
        7
 72
     0
 73
     1
 93
        4
 10
160.2779513826681
 20
317.1566519237913
 10
158.7779513826681
 20
317.1566519237913
 10
158.7779513826681
 20
313.1566519237913
 10
160.2779513826681
 20
313.1566519237913
 97
        0
 92
        7
 72
     0
 73
     1
 93
        4
 10
160.2779513826681
 20
313.1566519237913
 10
158.7779513826681
 20
313.1566519237913
 10
158.7779513826681
 20
309.1566519237913
 10
160.2779513826681
 20
309.1566519237913
 97
        0
 92
        7
 72
     0
 73
     1
 93
        4
 10
160.2779513826681
 20
309.1566519237913
 10
158.7779513826681
 20
309.1566519237913
 10
158.7779513826681
 20
278.821222912462
 10
160.2779513826681
 20
278.821222912462
 97
        0
 92
        7
 72
     0
 73
     1
 93
        4
 10
160.2779513826681
 20
278.821222912462
 10
158.7779513826681
 20
278.821222912462
 10
158.7779513826681
 20
227.1566519237913
 10
160.2779513826681
 20
227.1566519237913
 97
        0
 92
        7
 72
     0
 73
     1
 93
        4
 10
160.2779513826681
 20
227.1566519237913
 10
158.7779513826681
 20
227.1566519237913
 10
158.7779513826681
 20
223.1566519237913
 10
160.2779513826681
 20
223.1566519237913
 97
        0
 92
        7
 72
     0
 73
     1
 93
        4
 10
160.2779513826681
 20
223.1566519237913
 10
158.7779513826681
 20
223.1566519237913
 10
158.7779513826681
 20
219.1566519237913
 10
160.2779513826681
 20
219.1566519237913
 97
        0
 92
        7
 72
     0
 73
     1
 93
        5
 10
160.2779513826681
 20
219.1566519237913
 10
158.7779513826681
 20
219.1566519237913
 10
158.7779513826681
 20
198.1566519237913
 10
160.2779513826681
 20
198.1566519237913
 10
160.2779513826681
 20
206.1566519237913
 97
        0
 75
     1
 76
     1
 47
0.1133806671145275
 98
        8
 10
159.388093240399
 20
330.4962385143826
 10
159.6150127013534
 20
314.0560589700854
 10
159.6150127013534
 20
310.6546291598879
 10
159.388093240399
 20
304.4186745078423
 10
159.7228821189637
 20
272.1669835996818
 10
159.4913959235273
 20
224.0271097540772
 10
159.8318538517487
 20
221.4193727149341
 10
159.3778574562602
 20
211.5552649883557
450
        0
451
        0
460
0.0
461
0.0
452
        0
462
1.0
453
        2
463
0.0
 63
     5
421
      255
463
1.0
 63
     2
421
 16776960
470
LINEAR
1001
GradientColor1ACI
1070
     5
1001
GradientColor2ACI
1070
     2
1001
ACAD
1010
0.0
1020
0.0
1030
0.0
  0
LINE
  5
2CE
330
70
100
AcDbEntity
  8
0
100
AcDbLine
 10
160.2779513826681
 20
338.1566519237913
 30
0.0
 11
158.7779513826681
 21
338.1566519237913
 31
0.0
  0
LINE
  5
2CF
330
70
100
AcDbEntity
  8
0
100
AcDbLine
 10
160.2779513826681
 20
198.1566519237913
 30
0.0
 11
158.7779513826681
 21
198.1566519237913
 31
0.0
  0
ARC
  5
2D0
330
70
100
AcDbEntity
  8
shade 9
 48
100.0
100
AcDbCircle
 10
475.8609851728106
 20
261.2120930514629
 30
0.0
 40
301.8000935944588
100
AcDbArc
 50
180.0821941807366
 51
188.5404561189224
  0
LINE
  5
2D1
330
70
100
AcDbEntity
  8
shade 9
 48
10.0
100
AcDbLine
 10
174.061202842975
 20
260.779143136293
 30
0.0
 11
175.5609848786844
 21
260.9762865927205
 31
0.0
  0
ARC
  5
2D2
330
70
100
AcDbEntity
  8
shade 9
 48
100.0
100
AcDbCircle
 10
475.8609851728106
 20
261.2120930514629
 30
0.0
 40
300.3000928760095
100
AcDbArc
 50
180.0449907161306
 51
180.5723947537937
  0
LINE
  5
2D3
330
70
100
AcDbEntity
  8
shade 9
 48
10.0
100
AcDbLine
 10
175.5758776810544
 20
258.2120930514629
 30
0.0
 11
178.8609851728106
 21
258.2120930514629
 31
0.0
  0
ARC
  5
2D4
330
70
100
AcDbEntity
  8
shade 9
 48
100.0
100
AcDbCircle
 10
178.8609851728106
 20
256.7120930514629
 30
0.0
 40
1.5
100
AcDbArc
 50
221.8103148954763
 51
90.0
  0
LINE
  5
2D5
330
70
100
AcDbEntity
  8
shade 9
 48
10.0
100
AcDbLine
 10
177.74295118406
 20
255.712093051463
 30
0.0
 11
175.6112628060218
 21
255.712093051463
 31
0.0
  0
ARC
  5
2D6
330
70
100
AcDbEntity
  8
shade 9
 48
100.0
100
AcDbCircle
 10
475.8609851728106
 20
261.2120930514629
 30
0.0
 40
300.3000935944588
100
AcDbArc
 50
181.0494316023413
 51
188.5404561174042
  0
ARC
  5
2D7
330
70
100
AcDbEntity
  8
shade 9
 48
100.0
100
AcDbCircle
 10
189.0766301728145
 20
218.1448430514629
 30
0.0
 40
10.30000019061725
100
AcDbArc
 50
188.5404564099117
 51
262.5733826399937
  0
ARC
  5
2D8
330
70
100
AcDbEntity
  8
shade 9
 48
100.0
100
AcDbCircle
 10
226.5609851728077
 20
505.7120930514629
 30
0.0
 40
300.3000005141503
100
AcDbArc
 50
262.5733758066759
 51
277.4178578107694
  0
ARC
  5
2D9
330
70
100
AcDbEntity
  8
shade 9
 48
100.0
100
AcDbCircle
 10
264.0013401728211
 20
218.1391110514633
 30
0.0
 40
10.30000059669576
100
AcDbArc
 50
277.4178573390805
 51
333.6818543098455
  0
ARC
  5
2DA
330
70
100
AcDbEntity
  8
shade 9
 48
100.0
100
AcDbCircle
 10
4.060985172807704
 20
346.7120930514629
 30
0.0
 40
300.3000003516929
100
AcDbArc
 50
333.68185288774
 51
347.7978990468352
  0
ARC
  5
2DB
330
70
100
AcDbEntity
  8
shade 9
 48
100.0
100
AcDbCircle
 10
300.020171172815
 20
282.712093051463
 30
0.0
 40
2.49999972403209
100
AcDbArc
 50
119.3272092098645
 51
167.7979160703054
  0
ARC
  5
2DC
330
70
100
AcDbEntity
  8
shade 9
 48
100.0
100
AcDbCircle
 10
298.0609851728077
 20
286.199439895363
 30
0.0
 40
1.499999999999943
100
AcDbArc
 50
299.3272092098645
 51
0.0
  0
LINE
  5
2DD
330
70
100
AcDbEntity
  8
shade 9
 48
10.0
100
AcDbLine
 10
299.5609851728077
 20
286.199439895363
 30
0.0
 11
299.5609851728077
 21
289.1062717495151
 31
0.0
  0
ARC
  5
2DE
330
70
100
AcDbEntity
  8
shade 9
 48
100.0
100
AcDbCircle
 10
294.9633402538457
 20
289.1062717495151
 30
0.0
 40
4.597644918963339
100
AcDbArc
 50
0.0
 51
59.90285642640568
  0
ARC
  5
2DF
330
70
100
AcDbEntity
  8
shade 9
 48
100.0
100
AcDbCircle
 10
294.5609851728077
 20
288.4120930514637
 30
0.0
 40
5.399999999999985
100
AcDbArc
 50
59.90285642640568
 51
90.0
  0
LINE
  5
2E0
330
70
100
AcDbEntity
  8
shade 9
 48
10.0
100
AcDbLine
 10
294.5609851728077
 20
293.8120930514633
 30
0.0
 11
291.8609851728106
 21
293.8120930514633
 31
0.0
  0
ARC
  5
2E1
330
70
100
AcDbEntity
  8
shade 9
 48
100.0
100
AcDbCircle
 10
291.8609851728106
 20
292.4120930514637
 30
0.0
 40
1.399999999999977
100
AcDbArc
 50
90.0
 51
180.0
  0
LINE
  5
2E2
330
70
100
AcDbEntity
  8
shade 9
 48
10.0
100
AcDbLine
 10
290.4609851728164
 20
292.4120930514637
 30
0.0
 11
290.4609851728164
 21
291.012093051464
 31
0.0
  0
ARC
  5
2E3
330
70
100
AcDbEntity
  8
shade 9
 48
100.0
100
AcDbCircle
 10
291.8609851728106
 20
291.012093051464
 30
0.0
 40
1.399999999999977
100
AcDbArc
 50
180.0
 51
270.0
  0
LINE
  5
2E4
330
70
100
AcDbEntity
  8
shade 9
 48
10.0
100
AcDbLine
 10
291.8609851728106
 20
289.6120930514644
 30
0.0
 11
292.9444700338208
 21
289.6120930514644
 31
0.0
  0
ARC
  5
2E5
330
70
100
AcDbEntity
  8
shade 9
 48
100.0
100
AcDbCircle
 10
293.8609851728106
 20
289.212093051463
 30
0.0
 40
1.0
100
AcDbArc
 50
270.0
 51
156.4218215217973
  0
LINE
  5
2E6
330
70
100
AcDbEntity
  8
shade 9
 48
10.0
100
AcDbLine
 10
293.8609851728106
 20
288.2120930514629
 30
0.0
 11
291.8609851728106
 21
288.2120930514629
 31
0.0
  0
ARC
  5
2E7
330
70
100
AcDbEntity
  8
shade 9
 48
100.0
100
AcDbCircle
 10
291.8609851728106
 20
291.012093051464
 30
0.0
 40
2.799999999999954
100
AcDbArc
 50
180.0
 51
270.0
  0
LINE
  5
2E8
330
70
100
AcDbEntity
  8
shade 9
 48
10.0
100
AcDbLine
 10
289.0609851728077
 20
291.012093051464
 30
0.0
 11
289.0609851728077
 21
292.4120930514637
 31
0.0
  0
ARC
  5
2E9
330
70
100
AcDbEntity
  8
shade 9
 48
100.0
100
AcDbCircle
 10
291.8609851728106
 20
292.4120930514637
 30
0.0
 40
2.800000000000068
100
AcDbArc
 50
90.0
 51
180.0
  0
LINE
  5
2EA
330
70
100
AcDbEntity
  8
shade 9
 48
10.0
100
AcDbLine
 10
291.8609851728106
 20
295.212093051463
 30
0.0
 11
293.0723101728072
 21
295.212093051463
 31
0.0
  0
LINE
  5
2EB
330
70
100
AcDbEntity
  8
shade 9
 48
10.0
100
AcDbLine
 10
293.0723101728072
 20
295.212093051463
 30
0.0
 11
293.3609851728106
 21
295.712093051463
 31
0.0
  0
LINE
  5
2EC
330
70
100
AcDbEntity
  8
shade 9
 48
10.0
100
AcDbLine
 10
293.3609851728106
 20
295.712093051463
 30
0.0
 11
293.6496601728141
 21
295.212093051463
 31
0.0
  0
LINE
  5
2ED
330
70
100
AcDbEntity
  8
shade 9
 48
10.0
100
AcDbLine
 10
293.6496601728141
 20
295.212093051463
 30
0.0
 11
294.5609851728077
 21
295.212093051463
 31
0.0
  0
ARC
  5
2EE
330
70
100
AcDbEntity
  8
shade 9
 48
100.0
100
AcDbCircle
 10
294.5609851728077
 20
288.4120930514637
 30
0.0
 40
6.800000000000068
100
AcDbArc
 50
44.75329174582927
 51
90.0
  0
ARC
  5
2EF
330
70
100
AcDbEntity
  8
shade 9
 48
100.0
100
AcDbCircle
 10
299.4609851728164
 20
293.2700761720607
 30
0.0
 40
0.0999999999999659
100
AcDbArc
 50
224.7532917458292
 51
0.0
  0
LINE
  5
2F0
330
70
100
AcDbEntity
  8
shade 9
 48
10.0
100
AcDbLine
 10
299.5609851728077
 20
293.2700761720607
 30
0.0
 11
299.5609851728077
 21
298.6120930514644
 31
0.0
  0
LINE
  5
2F1
330
70
100
AcDbEntity
  8
shade 9
 48
10.0
100
AcDbLine
 10
301.5609851728077
 20
298.348788056288
 30
0.0
 11
301.5609851728077
 21
283.7120930514629
 31
0.0
  0
LINE
  5
2F2
330
70
100
AcDbEntity
  8
shade 9
 48
10.0
100
AcDbLine
 10
301.5609851728077
 20
283.7120930514629
 30
0.0
 11
300.020171172815
 21
283.7120929134798
 31
0.0
  0
ARC
  5
2F3
330
70
100
AcDbEntity
  8
shade 9
 48
100.0
100
AcDbCircle
 10
300.020171172815
 20
282.712093051463
 30
0.0
 40
0.999999862016125
100
AcDbArc
 50
90.0
 51
167.7979440710185
  0
ARC
  5
2F4
330
70
100
AcDbEntity
  8
shade 9
 48
100.0
100
AcDbCircle
 10
4.060985172807704
 20
346.7120930514629
 30
0.0
 40
301.8000003516928
100
AcDbArc
 50
333.681852802636
 51
347.7978990386309
  0
ARC
  5
2F5
330
70
100
AcDbEntity
  8
shade 9
 48
100.0
100
AcDbCircle
 10
264.0013401728211
 20
218.1391110514633
 30
0.0
 40
11.80000059669569
100
AcDbArc
 50
277.4178600599094
 51
333.6818519531261
  0
ARC
  5
2F6
330
70
100
AcDbEntity
  8
shade 9
 48
100.0
100
AcDbCircle
 10
226.5609851728077
 20
505.7120930514629
 30
0.0
 40
301.8000005141503
100
AcDbArc
 50
262.5733758066759
 51
277.4178579150284
  0
ARC
  5
2F7
330
70
100
AcDbEntity
  8
shade 9
 48
100.0
100
AcDbCircle
 10
189.0766301728145
 20
218.1448430514629
 30
0.0
 40
11.80000019061731
100
AcDbArc
 50
188.5404564099117
 51
262.57338177143
  0
LINE
  5
2F8
330
70
100
AcDbEntity
  8
shade 9
 48
10.0
100
AcDbLine
 10
299.5609851728077
 20
298.6120930514644
 30
0.0
 11
301.5609851728077
 21
298.348788056288
 31
0.0
  0
LINE
  5
2F9
330
70
100
AcDbEntity
  8
Object
100
AcDbLine
 10
208.7779513826681
 20
326.1566519237913
 30
0.0
 11
210.2779513826681
 21
326.1566519237913
 31
0.0
  0
LINE
  5
2FA
330
70
100
AcDbEntity
  8
Object
100
AcDbLine
 10
210.2779513826681
 20
326.1566519237913
 30
0.0
 11
210.2779513826681
 21
366.1566519237913
 31
0.0
  0
ARC
  5
2FB
330
70
100
AcDbEntity
  8
Object
100
AcDbCircle
 10
208.7779513826681
 20
366.1566519237913
 30
0.0
 40
1.5
100
AcDbArc
 50
0.0
 51
90.0
  0
LINE
  5
2FC
330
70
100
AcDbEntity
  8
Object
100
AcDbLine
 10
208.7779513826681
 20
367.6566519237913
 30
0.0
 11
55.90249312734522
 21
367.6566519237913
 31
0.0
  0
LINE
  5
2FD
330
70
100
AcDbEntity
  8
fixing
  6
DASHED
 48
0.25
370
     5
100
AcDbLine
 10
167.4779513826506
 20
228.1566519237876
 30
0.0
 11
172.2779513826681
 21
232.9566519237906
 31
0.0
  0
LINE
  5
2FE
330
70
100
AcDbEntity
  8
fixing
  6
DASHED
 48
0.25
370
     5
100
AcDbLine
 10
167.4779513826652
 20
218.1566519237931
 30
0.0
 11
172.2779513826535
 21
213.3566519237902
 31
0.0
  0
LINE
  5
2FF
330
70
100
AcDbEntity
  8
fixing
  6
DASHED
 48
0.25
370
     5
100
AcDbLine
 10
172.2779513826681
 20
232.9566519237906
 30
0.0
 11
173.2779513826681
 21
232.9566519237906
 31
0.0
  0
LINE
  5
300
330
70
100
AcDbEntity
  8
fixing
  6
DASHED
 48
0.25
370
     5
100
AcDbLine
 10
172.2779513826535
 20
213.3566519237902
 30
0.0
 11
173.2779513826681
 21
213.3566519237902
 31
0.0
  0
LINE
  5
301
330
70
100
AcDbEntity
  8
fixing
  6
DASHED
 48
0.25
370
     5
100
AcDbLine
 10
172.2779513826681
 20
232.9566519237906
 30
0.0
 11
172.2779513826535
 21
213.3566519237902
 31
0.0
  0
LINE
  5
302
330
70
100
AcDbEntity
  8
fixing
  6
DASHED
 48
0.25
370
     5
100
AcDbLine
 10
173.2779513826681
 20
232.9566519237906
 30
0.0
 11
173.2779513826535
 21
213.3566519237902
 31
0.0
  0
LINE
  5
303
330
70
100
AcDbEntity
  8
fixing
100
AcDbLine
 10
167.4779513826652
 20
228.1566519237895
 30
0.0
 11
167.4779513826652
 21
218.1566519237913
 31
0.0
  0
SOLID
  5
304
330
70
100
AcDbEntity
  8
dim
100
AcDbTrace
 10
301.7874416999112
 20
278.623919671214
 30
0.0
 11
295.7874416999112
 21
279.623919671214
 31
0.0
 12
301.7874416999112
 22
280.6239196712141
 32
0.0
 13
301.7874416999112
 23
280.6239196712141
 33
0.0
1001
ACAD
1000
DSTYLE
1002
{
1070
    40
1040
1.0
1070
    41
1040
6.0
1070
    50
1040
1.570796326794896
1070
    77
1070
     0
1002
}
  0
LWPOLYLINE
  5
305
330
70
100
AcDbEntity
  8
dim
100
AcDbPolyline
 90
        2
 70
     0
 43
0.0
 10
297.8024870482331
 20
279.623919671214
 10
310.228150618219
 20
279.623919671214
1001
ACAD
1000
DSTYLE
1002
{
1070
    40
1040
1.0
1070
    41
1040
6.0
1070
    50
1040
1.570796326794896
1070
    77
1070
     0
1002
}
  0
LWPOLYLINE
  5
306
330
70
100
AcDbEntity
  8
dim
100
AcDbPolyline
 90
        2
 70
     0
 43
0.0
 10
246.3595548921876
 20
297.3116082902725
 10
310.3123937644414
 20
297.3116082902725
1001
ACAD
1000
DSTYLE
1002
{
1070
    40
1040
1.0
1070
    41
1040
6.0
1070
    50
1040
1.570796326794896
1070
    77
1070
     0
1002
}
  0
SOLID
  5
307
330
70
100
AcDbEntity
  8
dim
100
AcDbTrace
 10
247.3595548921876
 20
295.0801975641516
 30
0.0
 11
246.3595548921876
 21
289.0801975641516
 31
0.0
 12
245.3595548921876
 22
295.0801975641516
 32
0.0
 13
245.3595548921876
 23
295.0801975641516
 33
0.0
1001
ACAD
1000
DSTYLE
1002
{
1070
    40
1040
1.0
1070
    41
1040
6.0
1070
    50
1040
1.570796326794896
1070
    77
1070
     0
1002
}
  0
LWPOLYLINE
  5
308
330
70
100
AcDbEntity
  8
dim
100
AcDbPolyline
 90
        2
 70
     0
 43
0.0
 10
246.3595548921876
 20
295.0801975641516
 10
246.3595548921876
 20
297.3116082902725
1001
ACAD
1000
DSTYLE
1002
{
1070
    40
1040
1.0
1070
    41
1040
6.0
1070
    50
1040
1.570796326794896
1070
    77
1070
     0
1002
}
  0
DIMENSION
  5
309
330
70
100
AcDbEntity
  8
dim
100
AcDbDimension
  2
*D7
 10
42.99378387017342
 20
313.1566519237913
 30
0.0
 11
42.9937838701735
 21
268.1566519238022
 31
0.0
 70
   160
  1
90
 71
     5
 42
89.99999999999998
 73
     0
 74
     0
 75
     0
  3
Spectrum 2
100
AcDbAlignedDimension
 13
128.5100429253944
 23
223.1566519237913
 33
0.0
 14
128.8939786123374
 24
313.1566519237913
 34
0.0
 50
90.0
100
AcDbRotatedDimension
1001
ACAD
1000
DSTYLE
1002
{
1070
   340
1005
D4
1070
   140
1040
2.25
1070
    42
1040
2.0
1070
    40
1040
2.0
1002
}
  0
DIMENSION
  5
30A
330
70
100
AcDbEntity
  8
dim
100
AcDbDimension
  2
*D8
 10
42.9937838701734
 20
348.1566519237914
 30
0.0
 11
42.9937838701735
 21
330.6566519237913
 31
0.0
 70
   160
  1
25 min
 71
     5
 42
35.00000000000006
 73
     0
 74
     0
 75
     0
  3
Spectrum 2
100
AcDbAlignedDimension
 13
128.8939786123374
 23
313.1566519237913
 33
0.0
 14
57.40249312734523
 24
348.1566519237913
 34
0.0
 50
90.0
100
AcDbRotatedDimension
1001
ACAD
1000
DSTYLE
1002
{
1070
   340
1005
D4
1070
   140
1040
2.25
1070
    42
1040
2.0
1070
    40
1040
2.0
1002
}
  0
DIMENSION
  5
30B
330
70
100
AcDbEntity
  8
dim
100
AcDbDimension
  2
*D9
 10
42.99378387017344
 20
223.1566519237914
 30
0.0
 11
42.9937838701735
 21
210.6566519238022
 31
0.0
 70
   160
  1
25 min
 71
     5
 42
25.0
 73
     0
 74
     0
 75
     0
  3
Spectrum 2
100
AcDbAlignedDimension
 13
85.2779513826681
 23
198.1566519237913
 33
0.0
 14
128.5100429253944
 24
223.1566519237913
 34
0.0
 50
90.0
100
AcDbRotatedDimension
1001
ACAD
1000
DSTYLE
1002
{
1070
   340
1005
D4
1070
   140
1040
2.25
1070
    42
1040
2.0
1070
    40
1040
2.0
1002
}
  0
DIMENSION
  5
30C
330
70
100
AcDbEntity
  8
dim
100
AcDbDimension
  2
*D10
 10
28.99378387017341
 20
348.1566519237914
 30
0.0
 11
28.9937838701735
 21
273.1567362382175
 31
0.0
 70
   160
  1
140 min section depth
 71
     5
 42
149.9998313711713
 73
     0
 74
     0
 75
     0
  3
Spectrum 2
100
AcDbAlignedDimension
 13
83.7779513826681
 23
198.15682055262
 33
0.0
 14
55.90249312734522
 24
348.1566519237913
 34
0.0
 50
90.0
100
AcDbRotatedDimension
1001
ACAD
1000
DSTYLE
1002
{
1070
   340
1005
D4
1070
   140
1040
2.25
1070
    42
1040
2.0
1070
    40
1040
2.0
1002
}
  0
DIMENSION
  5
30D
330
70
100
AcDbEntity
  8
dim
100
AcDbDimension
  2
*D11
 10
208.7779513826681
 20
379.2559966820936
 30
0.0
 11
183.7779513826681
 21
383.5613812974782
 31
0.0
 70
    32
  1
50 max
 71
     5
 42
50.0
 73
     0
 74
     0
 75
     0
  3
Spectrum 2
100
AcDbAlignedDimension
 13
158.7779513826681
 23
332.4433003201066
 33
0.0
 14
208.7779513826681
 24
366.1566519237913
 34
0.0
100
AcDbRotatedDimension
1001
ACAD
1000
DSTYLE
1002
{
1070
   340
1005
D4
1070
   140
1040
2.25
1070
    42
1040
2.0
1070
    40
1040
2.0
1002
}
  0
LEADER
  5
30E
330
70
100
AcDbEntity
  8
dim
100
AcDbLeader
  3
Spectrum 2
 76
     2
 10
264.8325819959282
 20
365.9457354876267
 30
0.0
 10
310.3123937644414
 20
365.9457354876267
 30
0.0
211
1.0
221
-0.0000000000000002
231
0.0
213
-0.0000000000000031
223
-12.5
233
0.0
1001
ACAD
1000
DSTYLE
1002
{
1070
    41
1040
6.0
1070
    40
1040
1.0
1070
    50
1040
1.570796326794896
1070
    77
1070
     0
1002
}
  0
LEADER
  5
30F
330
70
100
AcDbEntity
  8
dim
100
AcDbLeader
  3
Spectrum 2
 76
     2
 10
169.6888487678516
 20
219.1502985842053
 30
0.0
 10
310.3123937644414
 20
219.1502985842053
 30
0.0
211
1.0
221
-0.0000000000000002
231
0.0
213
-0.0000000000000031
223
-12.5
233
0.0
1001
ACAD
1000
DSTYLE
1002
{
1070
    40
1040
1.0
1070
    41
1040
6.0
1070
    50
1040
1.570796326794896
1070
    77
1070
     0
1002
}
  0
LEADER
  5
310
330
70
100
AcDbEntity
  8
dim
100
AcDbLeader
  3
Spectrum 2
 76
     2
 10
210.2779513826827
 20
331.8128174351823
 30
0.0
 10
311.0184772651701
 20
331.8113739623786
 30
0.0
211
1.0
221
-0.0000000000000002
231
0.0
213
-0.0000000000000031
223
-12.5
233
0.0
1001
ACAD
1000
DSTYLE
1002
{
1070
    40
1040
1.0
1070
    41
1040
6.0
1070
    50
1040
1.570796326794896
1070
    77
1070
     0
1002
}
  0
MTEXT
  5
311
102
{ACAD_XDICTIONARY
360
312
102
}
330
70
100
AcDbEntity
  8
dim
100
AcDbMText
 10
200.0
 20
567.6080283128794
 30
0.0
 40
9.0
 41
329.6444955504412
 46
36.93479037691032
 71
     2
 72
     5
  1
{\fArial Narrow|b1|i0|c0|p34;\LCLEARSPAN\l or \LCLEARVIEW\l FACE FIXED\PTO STEEL WITH CASTAWAY BRACKET\H1.30194x; }
  7
Arial Narrow
 73
     1
 44
0.8333333333333335
1001
ACAD
1000
ACAD_MTEXT_DEFINED_HEIGHT_BEGIN
1070
    46
1040
36.93479037691032
1000
ACAD_MTEXT_DEFINED_HEIGHT_END
  0
MTEXT
  5
313
330
70
100
AcDbEntity
  8
dim
100
AcDbMText
 10
312.618097121871
 20
365.4931571768211
 30
0.0
 40
4.5
 41
90.0
 46
0.0
 71
     4
 72
     5
  1
50.8 x 50.8 post
  7
Calibri
 73
     1
 44
1.0
  0
MTEXT
  5
314
330
70
100
AcDbEntity
  8
dim
100
AcDbMText
 10
313.1439081433054
 20
218.1235003637321
 30
0.0
 40
4.5
 41
80.11018384408089
 46
28.41770450285654
 71
     4
 72
     5
  1
Fixing consists of (4x) 316 S/S M10 bolt, nut and washer (with high strength threadlocker). CSK to lower holes if required (for gutter clearance)
  7
Calibri
 73
     1
 44
0.9333333333333333
1001
ACAD
1000
ACAD_MTEXT_DEFINED_HEIGHT_BEGIN
1070
    46
1040
28.41770450285654
1000
ACAD_MTEXT_DEFINED_HEIGHT_END
  0
MTEXT
  5
315
330
70
100
AcDbEntity
  8
dim
370
     5
100
AcDbMText
 10
50.67640376879717
 20
330.0215238399996
 30
0.0
 40
4.5
 41
39.36593251144224
 46
0.0
 71
     5
 72
     5
  1
edge\Pdistance
  7
Calibri
 11
0.0000000000000001
 21
1.0
 31
0.0
 73
     1
 44
1.0
  0
MTEXT
  5
316
330
70
100
AcDbEntity
  8
dim
370
     5
100
AcDbMText
 10
50.67640376879717
 20
210.0215238399997
 30
0.0
 40
4.5
 41
39.36593251144224
 46
0.0
 71
     5
 72
     5
  1
edge\Pdistance
  7
Calibri
 11
0.0000000000000001
 21
1.0
 31
0.0
 73
     1
 44
1.0
  0
MTEXT
  5
317
330
70
100
AcDbEntity
  8
dim
100
AcDbMText
 10
312.7661955422082
 20
331.9608864615148
 30
0.0
 40
4.5
 41
69.5477400447271
 46
0.0
 71
     4
 72
     5
  1
On a 140mm deep section a 40mm drip edge must be used (or a 50mm to be notched at each bracket location)
  7
Calibri
 73
     1
 44
1.0
  0
LEADER
  5
318
330
70
100
AcDbEntity
  8
dim
100
AcDbLeader
  3
Spectrum 2
 76
     2
 10
159.7313856934925
 20
257.1546409794191
 30
0.0
 10
310.3123937644414
 20
257.1546409794191
 30
0.0
211
1.0
221
-0.0000000000000002
231
0.0
213
-0.0000000000000031
223
-12.5
233
0.0
1001
ACAD
1000
DSTYLE
1002
{
1070
    40
1040
1.0
1070
    41
1040
6.0
1070
    50
1040
1.570796326794896
1070
    77
1070
     0
1002
}
  0
MTEXT
  5
319
330
70
100
AcDbEntity
  8
dim
100
AcDbMText
 10
313.2420401573763
 20
297.1461695897724
 30
0.0
 40
4.5
 41
78.0
 46
0.0
 71
     4
 72
     5
  1
Drainage slot
  7
Calibri
 73
     1
 44
1.0
  0
MTEXT
  5
31A
330
70
100
AcDbEntity
  8
dim
100
AcDbMText
 10
313.711825950566
 20
257.1979324002823
 30
0.0
 40
4.5
 41
75.0
 46
0.0
 71
     4
 72
     5
  1
Rigid plastic separation spacer where required
  7
Calibri
 73
     1
 44
1.0
  0
MTEXT
  5
31B
330
70
100
AcDbEntity
  8
dim
100
AcDbMText
 10
312.5338539756485
 20
279.1713413604084
 30
0.0
 40
4.5
 41
90.0
 46
0.0
 71
     4
 72
     5
  1
Gutter (not part of system)
  7
Calibri
 73
     1
 44
1.0
  0
LINE
  5
32A
330
70
100
AcDbEntity
  8
title
100
AcDbLine
 10
121.846000000005
 20
31.6780000000017
 30
0.0
 11
121.846000000005
 21
24.36187306453758
 31
0.0
  0
ARC
  5
32B
330
70
100
AcDbEntity
  8
title
100
AcDbCircle
 10
112.3420000000187
 20
30.88600000000042
 30
0.0
 40
1.583999999999994
100
AcDbArc
 50
0.0
 51
180.0
  0
LINE
  5
32C
330
70
100
AcDbEntity
  8
title
100
AcDbLine
 10
108.3820000000269
 20
34.63812693546242
 30
0.0
 11
110.7580000000162
 21
34.84599999999955
 31
0.0
  0
LINE
  5
32D
330
70
100
AcDbEntity
  8
title
100
AcDbLine
 10
110.7580000000162
 20
34.84599999999955
 30
0.0
 11
110.7580000000162
 21
33.77343503836346
 31
0.0
  0
ARC
  5
32E
330
70
100
AcDbEntity
  8
title
100
AcDbCircle
 10
113.1340000000054
 20
31.6780000000017
 30
0.0
 40
3.167999999999932
100
AcDbArc
 50
28.95502437188692
 51
138.5903778907244
  0
ARC
  5
32F
330
70
100
AcDbEntity
  8
title
100
AcDbCircle
 10
118.6779999999999
 20
31.6780000000017
 30
0.0
 40
3.168000000000042
100
AcDbArc
 50
0.0
 51
151.0449756281131
  0
ARC
  5
330
330
70
100
AcDbEntity
  8
title
100
AcDbCircle
 10
117.8860000000131
 20
30.88600000000042
 30
0.0
 40
1.583999999999994
100
AcDbArc
 50
0.0
 51
180.0
  0
HATCH
  5
331
330
70
100
AcDbEntity
  8
title
100
AcDbHatch
 10
0.0
 20
0.0
 30
0.0
210
0.0
220
0.0
230
1.0
  2
SOLID
 70
     1
 71
     0
 91
        2
 92
        7
 72
     1
 73
     1
 93
        8
 10
48.78399999999965
 20
34.84599999999955
 42
0.2416525696711335
 10
46.2100000000064
 20
33.52482105251147
 42
0.0
 10
46.2100000000064
 20
34.84599999999955
 42
0.0
 10
43.83400000001711
 20
34.63812693546242
 42
0.0
 10
43.83400000001711
 20
20.97612693546216
 42
0.0
 10
46.2100000000064
 20
21.18399999999929
 42
0.0
 10
46.2100000000064
 20
25.47517894748853
 42
0.2416525696711312
 10
48.78399999999965
 20
24.15400000000045
 42
1.0
 97
        0
 92
       20
 93
        1
 72
     3
 10
48.98200000000361
 20
29.50000000000182
 11
0.0
 21
3.168
 40
0.8432858722721601
 50
0.0
 51
360.0
 73
     1
 97
        0
 75
     0
 76
     1
 47
0.0533697688817678
 98
        2
 10
51.79775989484915
 20
32.74767840057211
 10
51.79775989484915
 20
32.74767840057211
450
        0
451
        0
460
0.0
461
0.0
452
        0
462
0.0
453
        0
470

1001
ACAD
1010
0.0
1020
0.0
1030
0.0
  0
HATCH
  5
332
330
70
100
AcDbEntity
  8
title
 62
     8
100
AcDbHatch
 10
0.0
 20
0.0
 30
0.0
210
0.0
220
0.0
230
1.0
  2
SOLID
 70
     1
 71
     0
 91
        1
 92
        7
 72
     1
 73
     1
 93
        8
 10
30.76600000001781
 20
32.86599999999999
 42
0.4142135623730951
 10
28.78600000000734
 20
34.84599999999955
 42
0.0
 10
22.05400000001828
 20
34.84599999999955
 42
0.4142135623730951
 10
20.0740000000078
 20
32.86599999999999
 42
0.0
 10
20.0740000000078
 20
26.13400000000002
 42
0.4142135623730974
 10
22.05400000001828
 20
24.15400000000045
 42
0.0
 10
28.78600000000734
 20
24.15400000000045
 42
0.4142135623730926
 10
30.76600000001781
 20
26.13400000000002
 42
0.0
 97
        0
 75
     0
 76
     1
 47
0.1082592480357776
 98
        1
 10
26.46459899171896
 20
28.91638806323863
450
        0
451
        0
460
0.0
461
0.0
452
        0
462
0.0
453
        0
470

1001
ACAD
1010
0.0
1020
0.0
1030
0.0
  0
HATCH
  5
333
330
70
100
AcDbEntity
  8
title
100
AcDbHatch
 10
0.0
 20
0.0
 30
0.0
210
0.0
220
0.0
230
1.0
  2
SOLID
 70
     1
 71
     0
 91
        1
 92
        7
 72
     1
 73
     1
 93
        2
 10
17.50000000001455
 20
24.15400000000045
 42
0.0
 10
17.50000000001455
 20
34.84599999999955
 42
1.0
 97
        0
 75
     0
 76
     1
 47
0.0533697688817678
 98
        1
 10
14.58491007513657
 20
30.95125203735552
450
        0
451
        0
460
0.0
461
0.0
452
        0
462
0.0
453
        0
470

1001
ACAD
1010
0.0
1020
0.0
1030
0.0
  0
HATCH
  5
334
330
70
100
AcDbEntity
  8
title
100
AcDbHatch
 10
0.0
 20
0.0
 30
0.0
210
0.0
220
0.0
230
1.0
  2
SOLID
 70
     1
 71
     0
 91
        1
 92
        7
 72
     1
 73
     1
 93
       20
 10
38.62840371190396
 20
26.63843393964817
 42
-0.3012846663385126
 10
36.15939541660191
 20
26.7764142067881
 42
0.0
 10
35.14992521407839
 20
27.52973131314684
 42
0.0
 10
33.56338198813319
 20
26.19846347739986
 42
0.0
 10
34.49073105522257
 20
25.33614209012194
 42
0.4458507091054388
 10
41.03417541283124
 20
25.9247798277047
 42
0.3326569577304132
 10
41.03417541283124
 20
28.71922017229918
 42
0.1735965709070794
 10
38.55193656381743
 20
30.36239387457135
 42
0.0
 10
36.96384954494715
 20
30.75267264948525
 42
-0.0722414400542119
 10
36.36759628810978
 20
30.99443393964794
 42
-0.5734605933816534
 10
36.36759628810978
 20
32.36156606035184
 42
-0.301284666338504
 10
38.83660458344093
 20
32.2235857932119
 42
0.0
 10
39.84607478593535
 20
31.4702686868568
 42
0.0
 10
41.43261801190965
 20
32.80153652260378
 42
0.0
 10
40.50526894479117
 20
33.66385790987806
 42
0.4458507091054385
 10
33.96182458718249
 20
33.07522017229894
 42
0.3326569577304224
 10
33.96182458718249
 20
30.28077982770446
 42
0.1735965709070752
 10
36.44406343619631
 20
28.63760612543229
 42
0.0
 10
38.03215045509569
 20
28.24732735051839
 42
-0.0722414400542143
 10
38.62840371190396
 20
28.00556606035207
 42
-0.5734605933816371
 97
        0
 75
     0
 76
     1
 47
0.0533697688817678
 98
        1
 10
40.1687433997431
 20
27.35839931092596
450
        0
451
        0
460
0.0
461
0.0
452
        0
462
0.0
453
        0
470

1001
ACAD
1010
0.0
1020
0.0
1030
0.0
  0
HATCH
  5
335
330
70
100
AcDbEntity
  8
title
100
AcDbHatch
 10
0.0
 20
0.0
 30
0.0
210
0.0
220
0.0
230
1.0
  2
SOLID
 70
     1
 71
     0
 91
        1
 92
        7
 72
     1
 73
     1
 93
        4
 10
77.26592913740024
 20
25.48863354306195
 42
0.0
 10
76.00343964919739
 20
27.29165538918278
 42
-2.463129903974627
 10
76.00343964919739
 20
31.70834461081722
 42
0.0
 10
77.26592913740024
 20
33.51136645694169
 42
2.213691826143602
 97
        0
 75
     0
 76
     1
 47
0.0407585876075802
 98
        1
 10
72.26106739130045
 20
24.93107292920285
450
        0
451
        0
460
0.0
461
0.0
452
        0
462
0.0
453
        0
470

1001
ACAD
1010
0.0
1020
0.0
1030
0.0
  0
HATCH
  5
336
330
70
100
AcDbEntity
  8
title
100
AcDbHatch
 10
0.0
 20
0.0
 30
0.0
210
0.0
220
0.0
230
1.0
  2
SOLID
 70
     1
 71
     0
 91
        2
 92
        7
 72
     1
 73
     1
 93
        6
 10
66.48738223592227
 20
31.78432312983023
 42
1.817188575814173
 10
61.6540000000241
 20
24.15400000000045
 42
0.1736979194000531
 10
65.92840120497567
 20
25.68510408303882
 42
0.0
 10
64.96244437199493
 20
27.756605196284
 42
-0.2061487455951641
 10
61.6540000000241
 20
26.33200000000034
 42
-0.2063556810793467
 10
59.35074576425541
 20
27.32485772295149
 42
0.0
 97
        0
 92
       22
 72
     1
 73
     1
 93
        2
 10
58.50737238772854
 20
29.13263278640625
 42
-0.6328959439340069
 10
63.36357821930142
 20
32.16712697712683
 42
0.0
 97
        0
 75
     0
 76
     1
 47
0.0407585876075802
 98
        2
 10
60.23121407961298
 20
29.28898097343154
 10
60.23121407961298
 20
29.28898097343154
450
        0
451
        0
460
0.0
461
0.0
452
        0
462
0.0
453
        0
470

1001
ACAD
1010
0.0
1020
0.0
1030
0.0
  0
HATCH
  5
337
330
70
100
AcDbEntity
  8
title
100
AcDbHatch
 10
0.0
 20
0.0
 30
0.0
210
0.0
220
0.0
230
1.0
  2
SOLID
 70
     1
 71
     0
 91
        1
 92
        7
 72
     1
 73
     1
 93
       16
 10
83.6320000000269
 20
32.27199999999903
 42
0.0
 10
85.81000000001223
 20
32.27199999999903
 42
0.0
 10
85.81000000001223
 20
34.44999999999891
 42
0.0
 10
83.6320000000269
 20
34.44999999999891
 42
0.0
 10
83.6320000000269
 20
37.22199999999975
 42
0.0
 10
81.05800000000455
 20
36.28514061699934
 42
0.0
 10
81.05800000000455
 20
34.44999999999891
 42
0.0
 10
79.85804016400653
 20
34.44999999999891
 42
0.0
 10
79.47400000000198
 20
32.27199999999903
 42
0.0
 10
81.05800000000455
 20
32.27199999999903
 42
0.0
 10
81.05800000000455
 20
27.32200000000194
 42
0.4142135623731022
 10
84.22600000000967
 20
24.15400000000045
 42
0.0
 10
85.82040665890962
 20
24.15400000000045
 42
0.0
 10
86.4040000000241
 20
26.33200000000034
 42
0.0
 10
85.21600000000034
 20
26.33200000000034
 42
-0.4142135623730937
 10
83.6320000000269
 20
27.91599999999926
 42
0.0
 97
        0
 75
     0
 76
     1
 47
0.0407585876075802
 98
        1
 10
82.83765024012245
 20
28.4012597568817
450
        0
451
        0
460
0.0
461
0.0
452
        0
462
0.0
453
        0
470

1001
ACAD
1010
0.0
1020
0.0
1030
0.0
  0
HATCH
  5
338
330
70
100
AcDbEntity
  8
title
100
AcDbHatch
 10
0.0
 20
0.0
 30
0.0
210
0.0
220
0.0
230
1.0
  2
SOLID
 70
     1
 71
     0
 91
        1
 92
        7
 72
     1
 73
     1
 93
       15
 10
108.3820000000269
 20
24.15400000000045
 42
0.0
 10
110.7580000000162
 20
24.36187306453758
 42
0.0
 10
110.7580000000162
 20
30.88600000000042
 42
-1.0
 10
113.9260000000213
 20
30.88600000000042
 42
0.0
 10
113.9260000000213
 20
24.15400000000045
 42
0.0
 10
116.3020000000106
 20
24.36187306453758
 42
0.0
 10
116.3020000000106
 20
30.88600000000042
 42
-1.0
 10
119.4700000000157
 20
30.88600000000042
 42
0.0
 10
119.4700000000157
 20
24.15400000000045
 42
0.0
 10
121.846000000005
 20
24.36187306453758
 42
0.0
 10
121.846000000005
 20
31.6780000000017
 42
0.7745966692414762
 10
115.9060000000027
 20
33.21170140509821
 42
0.5185464877096924
 10
110.7580000000162
 20
33.77343503836346
 42
0.0
 10
110.7580000000162
 20
34.84599999999955
 42
0.0
 10
108.3820000000269
 20
34.63812693546242
 42
0.0
 97
        0
 75
     0
 76
     1
 47
0.0407585876075802
 98
        1
 10
109.4809501451527
 20
27.19072908702401
450
        0
451
        0
460
0.0
461
0.0
452
        0
462
0.0
453
        0
470

1001
ACAD
1010
0.0
1020
0.0
1030
0.0
  0
HATCH
  5
339
330
70
100
AcDbEntity
  8
title
100
AcDbHatch
 10
0.0
 20
0.0
 30
0.0
210
0.0
220
0.0
230
1.0
  2
SOLID
 70
     1
 71
     0
 91
        1
 92
        7
 72
     1
 73
     1
 93
        8
 10
91.35400000000663
 20
33.26200000000063
 42
0.0
 10
91.35400000000663
 20
34.64799999999923
 42
0.0
 10
88.97800000001735
 20
34.4401269354621
 42
0.0
 10
88.97800000001735
 20
24.15400000000045
 42
0.0
 10
91.35400000000663
 20
24.36187306453758
 42
0.0
 10
91.35400000000663
 20
29.10400000000118
 42
-0.4091883002397951
 10
94.46755188899988
 20
32.27153206822004
 42
0.0
 10
94.91800000001967
 20
34.8261502509431
 42
0.2626681772803663
 97
        0
 75
     0
 76
     1
 47
0.0407585876075802
 98
        1
 10
89.05442035272427
 20
28.88547166063109
450
        0
451
        0
460
0.0
461
0.0
452
        0
462
0.0
453
        0
470

1001
ACAD
1010
0.0
1020
0.0
1030
0.0
  0
HATCH
  5
33A
330
70
100
AcDbEntity
  8
title
100
AcDbHatch
 10
0.0
 20
0.0
 30
0.0
210
0.0
220
0.0
230
1.0
  2
SOLID
 70
     1
 71
     0
 91
        1
 92
        7
 72
     1
 73
     1
 93
       11
 10
96.7000000000262
 20
27.32200000000194
 42
0.4142135623730939
 10
99.86800000000222
 20
24.15400000000045
 42
0.1844830881382527
 10
103.0360000000073
 20
25.36406832364264
 42
0.0
 10
103.0360000000073
 20
24.15400000000045
 42
0.0
 10
105.4120000000257
 20
24.36187306453758
 42
0.0
 10
105.4120000000257
 20
34.84599999999955
 42
0.0
 10
103.0360000000073
 20
34.63812693546242
 42
0.0
 10
103.0360000000073
 20
28.3119999999999
 42
-1.0
 10
99.07600000001549
 20
28.3119999999999
 42
0.0
 10
99.07600000001549
 20
34.84599999999955
 42
0.0
 10
96.7000000000262
 20
34.63812693546242
 42
0.0
 97
        0
 75
     0
 76
     1
 47
0.0407585876075802
 98
        1
 10
97.45109683343617
 20
28.23985548546807
450
        0
451
        0
460
0.0
461
0.0
452
        0
462
0.0
453
        0
470

1001
ACAD
1010
0.0
1020
0.0
1030
0.0
  0
LWPOLYLINE
  5
33B
330
70
100
AcDbEntity
  8
title
100
AcDbPolyline
 90
        8
 70
     1
 43
0.0
 10
48.78399999999965
 20
24.15400000000045
 42
-0.2416525696711377
 10
46.2100000000064
 20
25.47517894748853
 10
46.2100000000064
 20
21.18399999999929
 10
43.83400000001711
 20
20.97612693546216
 10
43.83400000001711
 20
34.63812693546242
 10
46.2100000000064
 20
34.84599999999955
 10
46.2100000000064
 20
33.52482105251147
 42
-0.2416525696711376
 10
48.78399999999965
 20
34.84599999999955
 42
-0.9999999999999998
  0
LWPOLYLINE
  5
33C
330
70
100
AcDbEntity
  8
title
 62
     8
100
AcDbPolyline
 90
        8
 70
     1
 43
0.0
 10
28.78600000000734
 20
34.84599999999955
 42
-0.4142135623730951
 10
30.76600000001781
 20
32.86599999999999
 10
30.76600000001781
 20
26.13400000000002
 42
-0.4142135623730951
 10
28.78600000000734
 20
24.15400000000045
 10
22.05400000001828
 20
24.15400000000045
 42
-0.4142135623730951
 10
20.0740000000078
 20
26.13400000000002
 10
20.0740000000078
 20
32.86599999999999
 42
-0.4142135623730951
 10
22.05400000001828
 20
34.84599999999955
  0
LWPOLYLINE
  5
33D
330
70
100
AcDbEntity
  8
title
100
AcDbPolyline
 90
        2
 70
     1
 43
0.0
 10
17.50000000001455
 20
34.84599999999955
 42
0.9999999999999998
 10
17.50000000001455
 20
24.15400000000045
  0
LWPOLYLINE
  5
33E
330
70
100
AcDbEntity
  8
title
100
AcDbPolyline
 90
       20
 70
     1
 43
0.0
 10
41.03417541283124
 20
25.9247798277047
 42
0.3326569577304226
 10
41.03417541283124
 20
28.71922017229918
 42
0.1735965709070816
 10
38.55193656381743
 20
30.36239387457135
 10
36.96384954494715
 20
30.75267264948525
 42
-0.0722414400542184
 10
36.36759628810978
 20
30.99443393964794
 42
-0.5734605933816416
 10
36.36759628810978
 20
32.36156606035184
 42
-0.3012846663385096
 10
38.83660458344093
 20
32.2235857932119
 10
39.84607478593535
 20
31.4702686868568
 10
41.43261801190965
 20
32.80153652260378
 10
40.50526894479117
 20
33.66385790987806
 42
0.4458507091054321
 10
33.96182458718249
 20
33.07522017229894
 42
0.3326569577304224
 10
33.96182458718249
 20
30.28077982770446
 42
0.1735965709070817
 10
36.44406343619631
 20
28.63760612543229
 10
38.03215045509569
 20
28.24732735051839
 42
-0.0722414400542175
 10
38.62840371190396
 20
28.00556606035207
 42
-0.5734605933816429
 10
38.62840371190396
 20
26.63843393964817
 42
-0.3012846663385095
 10
36.15939541660191
 20
26.7764142067881
 10
35.14992521407839
 20
27.52973131314684
 10
33.56338198813319
 20
26.19846347739986
 10
34.49073105522257
 20
25.33614209012194
 42
0.4458507091054351
  0
LWPOLYLINE
  5
33F
330
70
100
AcDbEntity
  8
title
100
AcDbPolyline
 90
        4
 70
     1
 43
0.0
 10
76.00343964919739
 20
31.70834461081722
 10
77.26592913740024
 20
33.51136645694169
 42
2.213691826143604
 10
77.26592913740024
 20
25.48863354306195
 10
76.00343964919739
 20
27.29165538918278
 42
-2.463129903974627
  0
LWPOLYLINE
  5
340
330
70
100
AcDbEntity
  8
title
100
AcDbPolyline
 90
        6
 70
     1
 43
0.0
 10
61.6540000000241
 20
26.33200000000034
 42
-0.2063556810793417
 10
59.35074576425541
 20
27.32485772295149
 10
66.48738223592227
 20
31.78432312983023
 42
1.817188575814202
 10
61.6540000000241
 20
24.15400000000045
 42
0.1736979194000479
 10
65.92840120497567
 20
25.68510408303882
 10
64.96244437199493
 20
27.756605196284
 42
-0.2061487455951671
  0
LWPOLYLINE
  5
341
330
70
100
AcDbEntity
  8
title
100
AcDbPolyline
 90
       16
 70
     1
 43
0.0
 10
83.6320000000269
 20
34.44999999999891
 10
83.6320000000269
 20
37.22199999999975
 10
81.05800000000455
 20
36.28514061699934
 10
81.05800000000455
 20
34.44999999999891
 10
79.85804016400653
 20
34.44999999999891
 10
79.47400000000198
 20
32.27199999999903
 10
81.05800000000455
 20
32.27199999999903
 10
81.05800000000455
 20
27.32200000000194
 42
0.4142135623730951
 10
84.22600000000967
 20
24.15400000000045
 10
85.82040665890962
 20
24.15400000000045
 10
86.4040000000241
 20
26.33200000000034
 10
85.21600000000034
 20
26.33200000000034
 42
-0.4142135623730951
 10
83.6320000000269
 20
27.91599999999926
 10
83.6320000000269
 20
32.27199999999903
 10
85.81000000001223
 20
32.27199999999903
 10
85.81000000001223
 20
34.44999999999891
  0
ELLIPSE
  5
342
330
70
100
AcDbEntity
  8
title
100
AcDbEllipse
 10
48.98200000000361
 20
29.50000000000182
 30
0.0
 11
0.0
 21
3.168
 31
0.0
210
0.0
220
0.0
230
1.0
 40
0.8432858722721602
 41
0.0
 42
6.283185307179586
  0
LWPOLYLINE
  5
343
330
70
100
AcDbEntity
  8
title
100
AcDbPolyline
 90
        2
 70
     1
 43
0.0
 10
58.50737238772854
 20
29.13263278640625
 10
63.36357821930142
 20
32.16712697712683
 42
0.632895943934007
  0
LWPOLYLINE
  5
344
330
70
100
AcDbEntity
  8
title
100
AcDbPolyline
 90
        9
 70
     0
 43
0.0
 10
94.92150004634458
 20
34.84599999999955
 10
94.46755188899988
 20
32.27153206822004
 42
0.4091883002397918
 10
91.35400000000663
 20
29.10400000000118
 10
91.35400000000663
 20
24.36187306453758
 10
88.97800000001735
 20
24.15400000000045
 10
88.97800000001735
 20
34.4401269354621
 10
91.35400000000663
 20
34.64799999999923
 10
91.35400000000663
 20
33.26200000000063
 42
-0.262668177280371
 10
94.91800000001967
 20
34.8261502509431
  0
LWPOLYLINE
  5
345
330
70
100
AcDbEntity
  8
title
100
AcDbPolyline
 90
       11
 70
     1
 43
0.0
 10
103.0360000000073
 20
28.3119999999999
 42
-0.9999999999999998
 10
99.07600000001549
 20
28.3119999999999
 10
99.07600000001549
 20
34.84599999999955
 10
96.7000000000262
 20
34.63812693546242
 10
96.7000000000262
 20
27.32200000000194
 42
0.4142135623730951
 10
99.86800000000222
 20
24.15400000000045
 42
0.184483088138253
 10
103.0360000000073
 20
25.36406832364264
 10
103.0360000000073
 20
24.15400000000045
 10
105.4120000000257
 20
24.36187306453758
 10
105.4120000000257
 20
34.84599999999955
 10
103.0360000000073
 20
34.63812693546242
  0
LINE
  5
346
330
70
100
AcDbEntity
  8
title
100
AcDbLine
 10
116.3020000000106
 20
30.88600000000042
 30
0.0
 11
116.3020000000106
 21
24.36187306453758
 31
0.0
  0
LINE
  5
347
330
70
100
AcDbEntity
  8
title
100
AcDbLine
 10
116.3020000000106
 20
24.36187306453758
 30
0.0
 11
113.9260000000213
 21
24.15400000000045
 31
0.0
  0
LINE
  5
348
330
70
100
AcDbEntity
  8
title
100
AcDbLine
 10
113.9260000000213
 20
24.15400000000045
 30
0.0
 11
113.9260000000213
 21
30.88600000000042
 31
0.0
  0
LINE
  5
349
330
70
100
AcDbEntity
  8
title
100
AcDbLine
 10
110.7580000000162
 20
30.88600000000042
 30
0.0
 11
110.7580000000162
 21
24.36187306453758
 31
0.0
  0
LINE
  5
34A
330
70
100
AcDbEntity
  8
title
100
AcDbLine
 10
110.7580000000162
 20
24.36187306453758
 30
0.0
 11
108.3820000000269
 21
24.15400000000045
 31
0.0
  0
LINE
  5
34B
330
70
100
AcDbEntity
  8
title
100
AcDbLine
 10
108.3820000000269
 20
24.15400000000045
 30
0.0
 11
108.3820000000269
 21
34.63812693546242
 31
0.0
  0
LINE
  5
34C
330
70
100
AcDbEntity
  8
title
100
AcDbLine
 10
121.846000000005
 20
24.36187306453758
 30
0.0
 11
119.4700000000157
 21
24.15400000000045
 31
0.0
  0
LINE
  5
34D
330
70
100
AcDbEntity
  8
title
100
AcDbLine
 10
119.4700000000157
 20
24.15400000000045
 30
0.0
 11
119.4700000000157
 21
30.88600000000042
 31
0.0
  0
MTEXT
  5
356
330
70
100
AcDbEntity
  8
0
100
AcDbMText
 10
391.0
 20
34.49393306291313
 30
0.0
 40
10.0
 41
69.3415025044867
 46
0.0
 71
     6
 72
     5
  1
{\fArial|b0|i0|c0|p34;BL.3.1.16}
  7
Arial Narrow
 73
     1
 44
1.0
  0
MTEXT
  5
357
102
{ACAD_XDICTIONARY
360
358
102
}
330
70
100
AcDbEntity
  8
0
100
AcDbMText
 10
391.1160196939018
 20
19.89854106251005
 30
0.0
 40
4.0
 41
42.1548074414593
 46
11.36832070896309
 71
     6
 72
     5
  1
Rev:C 11.6.19
  7
Arial Narrow
 73
     1
 44
0.8333333333333335
1001
ACAD
1000
ACAD_MTEXT_DEFINED_HEIGHT_BEGIN
1070
    46
1040
35.50427969761552
1000
ACAD_MTEXT_DEFINED_HEIGHT_END
  0
MTEXT
  5
359
102
{ACAD_XDICTIONARY
360
35A
102
}
330
70
100
AcDbEntity
  8
dim
100
AcDbMText
 10
4.417494721783441
 20
90.11743007319092
 30
0.0
 40
4.5
 41
400.3596694944863
 46
79.5676245593404
 71
     1
 72
     5
  3
\pi-13.5,l18,t18;-       Applicable to occupancy types A, B, C3 & E.\P-^IThis fixing detail PS1 should be used in conjunction with the appropriate system PS1.\P-^IThe barrier may extend above the handrail by max  200mm (e.g. Clearview offset or Face Hu
  3
ng Fin)\P-^IThis is a balustrade connection detail. Deck design, construction and  water-proofing is the responsibility of others. For all other applications or non-standard or site specific connections not covered under the standard detail manual ple
  1
ase contact Spectrum.
  7
Calibri
 73
     1
 44
0.9333333333333333
1001
ACAD
1000
ACAD_MTEXT_DEFINED_HEIGHT_BEGIN
1070
    46
1040
75.2852101506287
1000
ACAD_MTEXT_DEFINED_HEIGHT_END
  0
MTEXT
  5
35B
330
70
100
AcDbEntity
  8
0
100
AcDbMText
 10
8.290334991863346
 20
82.88153642329053
 30
0.0
 40
4.5
 41
329.6444955504266
 46
85.60397865527193
 71
     1
 72
     5
  1
{\fArial|b0|i0|c0|p34;■}
  7
Arial Narrow
 73
     1
 44
0.9333333333333333
1001
ACAD
1000
ACAD_MTEXT_DEFINED_HEIGHT_BEGIN
1070
    46
1040
85.60397865527193
1000
ACAD_MTEXT_DEFINED_HEIGHT_END
  0
MTEXT
  5
35C
330
70
100
AcDbEntity
  8
0
100
AcDbMText
 10
200.0
 20
29.5
 30
0.0
 40
5.5
 41
126.0
 46
0.0
 71
     5
 72
     5
  1
0800 355 366\Pinfo@spectrum.co.nz\Pwww.spectrum.co.nz
  7
Calibri
 73
     1
 44
1.0
1001
ACAD
1000
ACAD_MTEXT_COLUMN_INFO_BEGIN
1070
    75
1070
     2
1070
    79
1070
     0
1070
    76
1070
     1
1070
    78
1070
     0
1070
    48
1040
126.0
1070
    49
1040
75.0
1070
    50
1070
     1
1040
35.00000000000146
1000
ACAD_MTEXT_COLUMN_INFO_END
  0
MTEXT
  5
35D
330
70
100
AcDbEntity
  8
0
100
AcDbMText
 10
8.290334991863346
 20
75.526918904583
 30
0.0
 40
4.5
 41
329.6444955504266
 46
85.60397865527193
 71
     1
 72
     5
  1
{\fArial|b0|i0|c0|p34;■}
  7
Arial Narrow
 73
     1
 44
0.9333333333333333
1001
ACAD
1000
ACAD_MTEXT_DEFINED_HEIGHT_BEGIN
1070
    46
1040
85.60397865527193
1000
ACAD_MTEXT_DEFINED_HEIGHT_END
  0
MTEXT
  5
35E
330
70
100
AcDbEntity
  8
0
100
AcDbMText
 10
8.290334991863346
 20
68.20554087210985
 30
0.0
 40
4.5
 41
329.6444955504266
 46
85.60397865527193
 71
     1
 72
     5
  1
{\fArial|b0|i0|c0|p34;■}
  7
Arial Narrow
 73
     1
 44
0.9333333333333333
1001
ACAD
1000
ACAD_MTEXT_DEFINED_HEIGHT_BEGIN
1070
    46
1040
85.60397865527193
1000
ACAD_MTEXT_DEFINED_HEIGHT_END
  0
MTEXT
  5
35F
330
70
100
AcDbEntity
  8
0
100
AcDbMText
 10
8.290334991863346
 20
90.341239761623
 30
0.0
 40
4.5
 41
329.6444955504266
 46
85.60397865527193
 71
     1
 72
     5
  1
{\fArial|b0|i0|c0|p34;■}
  7
Arial Narrow
 73
     1
 44
0.9333333333333333
1001
ACAD
1000
ACAD_MTEXT_DEFINED_HEIGHT_BEGIN
1070
    46
1040
85.60397865527193
1000
ACAD_MTEXT_DEFINED_HEIGHT_END
  0
LINE
  5
360
330
70
100
AcDbEntity
  8
dim
370
    20
100
AcDbLine
 10
208.9999999999709
 20
96.40710731415129
 30
0.0
 11
208.9999999999855
 21
150.4071073141458
 31
0.0
  0
LINE
  5
361
330
70
100
AcDbEntity
  8
dim
370
    20
100
AcDbLine
 10
208.9999999999855
 20
152.4071073141422
 30
0.0
 11
209.0
 21
164.407107314144
 31
0.0
  0
LWPOLYLINE
  5
362
330
70
100
AcDbEntity
  8
dim
370
    20
100
AcDbPolyline
 90
        4
 70
     1
 43
0.0
 10
384.0
 20
182.4071073141349
 10
159.0000000000145
 20
182.407107314144
 10
159.0
 20
152.4071073141476
 10
384.0
 20
152.4071073141385
  0
LINE
  5
363
330
70
100
AcDbEntity
  8
dim
370
    20
100
AcDbLine
 10
158.9999999999854
 20
150.4071073141476
 30
0.0
 11
158.9999999999854
 21
96.4071073141531
 31
0.0
  0
LINE
  5
364
330
70
100
AcDbEntity
  8
dim
370
    20
100
AcDbLine
 10
384.0
 20
132.4071073141385
 30
0.0
 11
158.9999999999854
 21
132.4071073141476
 31
0.0
  0
LINE
  5
365
330
70
100
AcDbEntity
  8
dim
370
    20
100
AcDbLine
 10
147.0
 20
132.4071073141476
 30
0.0
 11
96.0
 21
132.4071073141494
 31
0.0
  0
LINE
  5
366
330
70
100
AcDbEntity
  8
dim
370
    20
100
AcDbLine
 10
184.0
 20
164.4071073141458
 30
0.0
 11
183.9999999999854
 21
152.4071073141458
 31
0.0
  0
LINE
  5
367
330
70
100
AcDbEntity
  8
dim
370
    20
100
AcDbLine
 10
183.9999999999854
 20
150.4071073141458
 30
0.0
 11
183.9999999999854
 21
96.4071073141531
 31
0.0
  0
LINE
  5
368
330
70
100
AcDbEntity
  8
dim
370
    20
100
AcDbLine
 10
384.0
 20
164.4071073141367
 30
0.0
 11
159.0000000000145
 21
164.4071073141458
 31
0.0
  0
MTEXT
  5
369
330
70
100
AcDbEntity
  8
dim
370
    20
100
AcDbMText
 10
153.9999999999854
 20
123.4071073141513
 30
0.0
 40
4.0
 41
53.99999999999636
 46
9.999999999998653
 71
     5
 72
     5
  1
Maximum post ctrs
  7
Calibri
 11
0.0000000000000001
 21
1.0
 31
0.0
 73
     1
 44
1.0
1001
ACAD
1000
ACAD_MTEXT_DEFINED_HEIGHT_BEGIN
1070
    46
1040
15.00000000000001
1000
ACAD_MTEXT_DEFINED_HEIGHT_END
  0
MTEXT
  5
36A
330
70
100
AcDbEntity
  8
dim
370
    20
100
AcDbMText
 10
196.5
 20
158.4071073141458
 30
0.0
 40
4.5
 41
25.0
 46
12.00000000000002
 71
     5
 72
     5
  1
1.00m
  7
Calibri
 73
     1
 44
1.0
1001
ACAD
1000
ACAD_MTEXT_DEFINED_HEIGHT_BEGIN
1070
    46
1040
10.00000000000001
1000
ACAD_MTEXT_DEFINED_HEIGHT_END
  0
MTEXT
  5
36B
330
70
100
AcDbEntity
  8
dim
370
    20
100
AcDbMText
 10
221.5
 20
158.4071073141458
 30
0.0
 40
4.5
 41
25.0
 46
11.9999999999999
 71
     5
 72
     5
  1
1.05m
  7
Calibri
 73
     1
 44
1.0
1001
ACAD
1000
ACAD_MTEXT_DEFINED_HEIGHT_BEGIN
1070
    46
1040
10.00000000000013
1000
ACAD_MTEXT_DEFINED_HEIGHT_END
  0
MTEXT
  5
36C
330
70
100
AcDbEntity
  8
dim
370
    20
100
AcDbMText
 10
246.5
 20
158.4071073141422
 30
0.0
 40
4.5
 41
25.0
 46
12.00000000000184
 71
     5
 72
     5
  1
1.10m
  7
Calibri
 73
     1
 44
1.0
1001
ACAD
1000
ACAD_MTEXT_DEFINED_HEIGHT_BEGIN
1070
    46
1040
10.00000000000001
1000
ACAD_MTEXT_DEFINED_HEIGHT_END
  0
MTEXT
  5
36D
330
70
100
AcDbEntity
  8
dim
370
    20
100
AcDbMText
 10
271.5
 20
158.4071073141422
 30
0.0
 40
4.5
 41
25.0
 46
12.00000000000184
 71
     5
 72
     5
  1
1.15m
  7
Calibri
 73
     1
 44
1.0
1001
ACAD
1000
ACAD_MTEXT_DEFINED_HEIGHT_BEGIN
1070
    46
1040
10.00000000000001
1000
ACAD_MTEXT_DEFINED_HEIGHT_END
  0
MTEXT
  5
36E
330
70
100
AcDbEntity
  8
dim
370
    20
100
AcDbMText
 10
296.5
 20
158.4071073141385
 30
0.0
 40
4.5
 41
25.0
 46
12.00000000000184
 71
     5
 72
     5
  1
1.20m
  7
Calibri
 73
     1
 44
1.0
1001
ACAD
1000
ACAD_MTEXT_DEFINED_HEIGHT_BEGIN
1070
    46
1040
10.00000000000001
1000
ACAD_MTEXT_DEFINED_HEIGHT_END
  0
MTEXT
  5
36F
330
70
100
AcDbEntity
  8
dim
370
    20
100
AcDbMText
 10
171.5
 20
158.4071073141476
 30
0.0
 40
4.5
 41
25.0
 46
12.00000000000002
 71
     5
 72
     5
  1
0.95m
  7
Calibri
 73
     1
 44
1.0
1001
ACAD
1000
ACAD_MTEXT_DEFINED_HEIGHT_BEGIN
1070
    46
1040
10.00000000000001
1000
ACAD_MTEXT_DEFINED_HEIGHT_END
  0
MTEXT
  5
370
330
70
100
AcDbEntity
  8
dim
370
    20
100
AcDbMText
 10
321.5
 20
158.4071073141385
 30
0.0
 40
4.5
 41
25.00000000001455
 46
12.00000000000184
 71
     5
 72
     5
  1
1.25m
  7
Calibri
 73
     1
 44
1.0
1001
ACAD
1000
ACAD_MTEXT_DEFINED_HEIGHT_BEGIN
1070
    46
1040
10.00000000000001
1000
ACAD_MTEXT_DEFINED_HEIGHT_END
  0
MTEXT
  5
371
330
70
100
AcDbEntity
  8
dim
370
    20
100
AcDbMText
 10
346.5
 20
158.4071073141385
 30
0.0
 40
4.5
 41
25.0
 46
12.00000000000002
 71
     5
 72
     5
  1
1.30m
  7
Calibri
 73
     1
 44
1.0
1001
ACAD
1000
ACAD_MTEXT_DEFINED_HEIGHT_BEGIN
1070
    46
1040
10.00000000000001
1000
ACAD_MTEXT_DEFINED_HEIGHT_END
  0
MTEXT
  5
372
330
70
100
AcDbEntity
  8
dim
370
    20
100
AcDbMText
 10
371.5
 20
158.4071073141385
 30
0.0
 40
4.5
 41
25.0
 46
12.00000000000002
 71
     5
 72
     5
  1
1.35m
  7
Calibri
 73
     1
 44
1.0
1001
ACAD
1000
ACAD_MTEXT_DEFINED_HEIGHT_BEGIN
1070
    46
1040
10.00000000000001
1000
ACAD_MTEXT_DEFINED_HEIGHT_END
  0
LINE
  5
373
330
70
100
AcDbEntity
  8
dim
370
    20
100
AcDbLine
 10
96.0
 20
150.4071073141513
 30
0.0
 11
96.0
 21
96.40710731415493
 31
0.0
  0
LINE
  5
374
330
70
100
AcDbEntity
  8
dim
370
    20
100
AcDbLine
 10
233.9999999999709
 20
96.40710731415129
 30
0.0
 11
233.9999999999855
 21
150.407107314144
 31
0.0
  0
LINE
  5
375
330
70
100
AcDbEntity
  8
dim
370
    20
100
AcDbLine
 10
233.9999999999855
 20
152.4071073141422
 30
0.0
 11
234.0
 21
164.4071073141422
 31
0.0
  0
LINE
  5
376
330
70
100
AcDbEntity
  8
dim
370
    20
100
AcDbLine
 10
259.0
 20
96.40710731414765
 30
0.0
 11
259.0
 21
150.4071073141422
 31
0.0
  0
LINE
  5
377
330
70
100
AcDbEntity
  8
dim
370
    20
100
AcDbLine
 10
259.0
 20
152.4071073141422
 30
0.0
 11
259.0
 21
164.4071073141404
 31
0.0
  0
LINE
  5
378
330
70
100
AcDbEntity
  8
dim
370
    20
100
AcDbLine
 10
284.0000000000145
 20
96.40710731414948
 30
0.0
 11
284.0000000000145
 21
150.4071073141422
 31
0.0
  0
LINE
  5
379
330
70
100
AcDbEntity
  8
dim
370
    20
100
AcDbLine
 10
284.0000000000145
 20
152.4071073141404
 30
0.0
 11
284.0
 21
164.4071073141404
 31
0.0
  0
LINE
  5
37A
330
70
100
AcDbEntity
  8
dim
370
    20
100
AcDbLine
 10
309.0
 20
96.40710731414765
 30
0.0
 11
309.0
 21
150.4071073141422
 31
0.0
  0
LINE
  5
37B
330
70
100
AcDbEntity
  8
dim
370
    20
100
AcDbLine
 10
309.0
 20
152.4071073141404
 30
0.0
 11
309.0
 21
164.4071073141385
 31
0.0
  0
LINE
  5
37C
330
70
100
AcDbEntity
  8
dim
370
    20
100
AcDbLine
 10
334.0000000000437
 20
96.40710731414584
 30
0.0
 11
334.0000000000145
 21
150.4071073141403
 31
0.0
  0
LINE
  5
37D
330
70
100
AcDbEntity
  8
dim
370
    20
100
AcDbLine
 10
334.0000000000145
 20
152.4071073141404
 30
0.0
 11
334.0
 21
164.4071073141385
 31
0.0
  0
LINE
  5
37E
330
70
100
AcDbEntity
  8
dim
370
    20
100
AcDbLine
 10
359.0000000000437
 20
96.40710731414584
 30
0.0
 11
359.0000000000145
 21
150.4071073141385
 31
0.0
  0
LINE
  5
37F
330
70
100
AcDbEntity
  8
dim
370
    20
100
AcDbLine
 10
359.0
 20
152.4071073141385
 30
0.0
 11
359.0
 21
164.4071073141367
 31
0.0
  0
LWPOLYLINE
  5
380
330
70
100
AcDbEntity
  8
dim
370
    20
100
AcDbPolyline
 90
        4
 70
     1
 43
0.0
 10
148.9999999999854
 20
96.40710731415129
 10
383.9999999999855
 20
96.40710731414401
 10
384.0
 20
150.4071073141385
 10
148.9999999999854
 20
150.4071073141495
  0
LINE
  5
381
330
70
100
AcDbEntity
  8
dim
370
    20
100
AcDbLine
 10
384.0
 20
114.4071073141404
 30
0.0
 11
158.9999999999854
 21
114.4071073141494
 31
0.0
  0
LINE
  5
382
330
70
100
AcDbEntity
  8
dim
370
    20
100
AcDbLine
 10
146.9999999999854
 20
114.4071073141494
 30
0.0
 11
16.00000000001455
 21
114.4071073141531
 31
0.0
  0
MTEXT
  5
383
330
70
100
AcDbEntity
  8
dim
370
    20
100
AcDbMText
 10
121.5
 20
141.4071073141476
 30
0.0
 40
4.0
 41
50.99999999999273
 46
18.00000000000183
 71
     5
 72
     5
  1
Up to very high wind zone (50m/s)
  7
Calibri
 73
     1
 44
1.0
1001
ACAD
1000
ACAD_MTEXT_DEFINED_HEIGHT_BEGIN
1070
    46
1040
10.00000000000001
1000
ACAD_MTEXT_DEFINED_HEIGHT_END
  0
MTEXT
  5
384
330
70
100
AcDbEntity
  8
dim
370
    20
100
AcDbMText
 10
121.5
 20
123.4071073141495
 30
0.0
 40
4.0
 41
50.99999999999273
 46
17.9999999999982
 71
     5
 72
     5
  1
Extra high wind\Pzone (55m/s)
  7
Calibri
 73
     1
 44
1.0
1001
ACAD
1000
ACAD_MTEXT_DEFINED_HEIGHT_BEGIN
1070
    46
1040
10.00000000000001
1000
ACAD_MTEXT_DEFINED_HEIGHT_END
  0
MTEXT
  5
385
330
70
100
AcDbEntity
  8
dim
370
    20
100
AcDbMText
 10
121.5
 20
105.4071073141513
 30
0.0
 40
4.0
 41
50.99999999999273
 46
17.9999999999982
 71
     5
 72
     5
  1
All wind zones\P(up to 55m/s)
  7
Calibri
 73
     1
 44
1.0
1001
ACAD
1000
ACAD_MTEXT_DEFINED_HEIGHT_BEGIN
1070
    46
1040
10.00000000000001
1000
ACAD_MTEXT_DEFINED_HEIGHT_END
  0
MTEXT
  5
386
330
70
100
AcDbEntity
  8
dim
370
    20
100
AcDbMText
 10
56.0
 20
132.4071073141494
 30
0.0
 40
4.0
 41
80.0
 46
35.9999999999982
 71
     5
 72
     5
  1
Glass or Solid infill (Vista, Classic, Clearview)
  7
Calibri
 73
     1
 44
1.0
1001
ACAD
1000
ACAD_MTEXT_DEFINED_HEIGHT_BEGIN
1070
    46
1040
15.00000000000001
1000
ACAD_MTEXT_DEFINED_HEIGHT_END
  0
MTEXT
  5
387
330
70
100
AcDbEntity
  8
dim
370
    20
100
AcDbMText
 10
56.0
 20
105.4071073141549
 30
0.0
 40
4.0
 41
79.99999999999272
 46
18.00000000000183
 71
     5
 72
     5
  1
35% max closed area (Settler, Heritage, Face hung fin)
  7
Calibri
 73
     1
 44
1.0
1001
ACAD
1000
ACAD_MTEXT_DEFINED_HEIGHT_BEGIN
1070
    46
1040
15.00000000000001
1000
ACAD_MTEXT_DEFINED_HEIGHT_END
  0
LWPOLYLINE
  5
388
330
70
100
AcDbEntity
  8
dim
370
    20
100
AcDbPolyline
 90
        4
 70
     1
 43
0.0
 10
146.9999999999854
 20
150.4071073141476
 10
16.0
 20
150.4071073141513
 10
16.0
 20
96.40710731415493
 10
146.9999999999854
 20
96.40710731415129
  0
MTEXT
  5
389
330
70
100
AcDbEntity
  8
dim
370
    20
100
AcDbMText
 10
196.4999999999854
 20
141.4071073141458
 30
0.0
 40
4.5
 41
24.9999999999709
 46
18.00000000000024
 71
     5
 72
     5
  1
1.32m
  7
Calibri
 73
     1
 44
1.0
1001
ACAD
1000
ACAD_MTEXT_DEFINED_HEIGHT_BEGIN
1070
    46
1040
10.00000000000001
1000
ACAD_MTEXT_DEFINED_HEIGHT_END
  0
MTEXT
  5
38A
330
70
100
AcDbEntity
  8
dim
370
    20
100
AcDbMText
 10
221.4999999999855
 20
141.4071073141422
 30
0.0
 40
4.5
 41
24.99999999998545
 46
17.9999999999966
 71
     5
 72
     5
  1
1.26m
  7
Calibri
 73
     1
 44
1.0
1001
ACAD
1000
ACAD_MTEXT_DEFINED_HEIGHT_BEGIN
1070
    46
1040
10.00000000000001
1000
ACAD_MTEXT_DEFINED_HEIGHT_END
  0
MTEXT
  5
38B
330
70
100
AcDbEntity
  8
dim
370
    20
100
AcDbMText
 10
246.5
 20
141.4071073141422
 30
0.0
 40
4.5
 41
25.00000000001455
 46
17.9999999999982
 71
     5
 72
     5
  1
1.20m
  7
Calibri
 73
     1
 44
1.0
1001
ACAD
1000
ACAD_MTEXT_DEFINED_HEIGHT_BEGIN
1070
    46
1040
10.00000000000001
1000
ACAD_MTEXT_DEFINED_HEIGHT_END
  0
MTEXT
  5
38C
330
70
100
AcDbEntity
  8
dim
370
    20
100
AcDbMText
 10
271.5
 20
141.4071073141403
 30
0.0
 40
4.5
 41
25.0
 46
17.9999999999982
 71
     5
 72
     5
  1
1.15m
  7
Calibri
 73
     1
 44
1.0
1001
ACAD
1000
ACAD_MTEXT_DEFINED_HEIGHT_BEGIN
1070
    46
1040
10.00000000000001
1000
ACAD_MTEXT_DEFINED_HEIGHT_END
  0
MTEXT
  5
38D
330
70
100
AcDbEntity
  8
dim
370
    20
100
AcDbMText
 10
296.5
 20
141.4071073141385
 30
0.0
 40
4.5
 41
25.0
 46
17.99999999999456
 71
     5
 72
     5
  1
1.10m
  7
Calibri
 73
     1
 44
1.0
1001
ACAD
1000
ACAD_MTEXT_DEFINED_HEIGHT_BEGIN
1070
    46
1040
10.00000000000001
1000
ACAD_MTEXT_DEFINED_HEIGHT_END
  0
MTEXT
  5
38E
330
70
100
AcDbEntity
  8
dim
370
    20
100
AcDbMText
 10
171.4999999999854
 20
141.4071073141458
 30
0.0
 40
4.5
 41
24.99999999998545
 46
18.00000000000206
 71
     5
 72
     5
  1
1.39m
  7
Calibri
 73
     1
 44
1.0
1001
ACAD
1000
ACAD_MTEXT_DEFINED_HEIGHT_BEGIN
1070
    46
1040
10.00000000000001
1000
ACAD_MTEXT_DEFINED_HEIGHT_END
  0
MTEXT
  5
38F
330
70
100
AcDbEntity
  8
dim
370
    20
100
AcDbMText
 10
321.5000000000145
 20
141.4071073141385
 30
0.0
 40
4.5
 41
25.00000000002911
 46
17.99999999999638
 71
     5
 72
     5
  1
1.05m
  7
Calibri
 73
     1
 44
1.0
1001
ACAD
1000
ACAD_MTEXT_DEFINED_HEIGHT_BEGIN
1070
    46
1040
10.00000000000001
1000
ACAD_MTEXT_DEFINED_HEIGHT_END
  0
MTEXT
  5
390
330
70
100
AcDbEntity
  8
dim
370
    20
100
AcDbMText
 10
346.5
 20
141.4071073141385
 30
0.0
 40
4.5
 41
24.9999999999709
 46
17.9999999999982
 71
     5
 72
     5
  1
0.95m
  7
Calibri
 73
     1
 44
1.0
1001
ACAD
1000
ACAD_MTEXT_DEFINED_HEIGHT_BEGIN
1070
    46
1040
10.00000000000001
1000
ACAD_MTEXT_DEFINED_HEIGHT_END
  0
MTEXT
  5
391
330
70
100
AcDbEntity
  8
dim
370
    20
100
AcDbMText
 10
371.5
 20
141.4071073141385
 30
0.0
 40
4.5
 41
24.99999999998545
 46
18.00000000000002
 71
     5
 72
     5
  1
0.85m
  7
Calibri
 73
     1
 44
1.0
1001
ACAD
1000
ACAD_MTEXT_DEFINED_HEIGHT_BEGIN
1070
    46
1040
10.00000000000001
1000
ACAD_MTEXT_DEFINED_HEIGHT_END
  0
MTEXT
  5
392
330
70
100
AcDbEntity
  8
dim
370
    20
100
AcDbMText
 10
196.4999999999709
 20
105.4071073141494
 30
0.0
 40
4.5
 41
24.99999999998545
 46
17.9999999999966
 71
     5
 72
     5
  1
1.32m
  7
Calibri
 73
     1
 44
1.0
1001
ACAD
1000
ACAD_MTEXT_DEFINED_HEIGHT_BEGIN
1070
    46
1040
10.00000000000001
1000
ACAD_MTEXT_DEFINED_HEIGHT_END
  0
MTEXT
  5
393
330
70
100
AcDbEntity
  8
dim
370
    20
100
AcDbMText
 10
221.5
 20
105.4071073141476
 30
0.0
 40
4.5
 41
25.0
 46
17.99999999999842
 71
     5
 72
     5
  1
1.26m
  7
Calibri
 73
     1
 44
1.0
1001
ACAD
1000
ACAD_MTEXT_DEFINED_HEIGHT_BEGIN
1070
    46
1040
10.00000000000001
1000
ACAD_MTEXT_DEFINED_HEIGHT_END
  0
MTEXT
  5
394
330
70
100
AcDbEntity
  8
dim
370
    20
100
AcDbMText
 10
246.5
 20
105.4071073141422
 30
0.0
 40
4.5
 41
25.00000000001455
 46
17.99999999999092
 71
     5
 72
     5
  1
1.20m
  7
Calibri
 73
     1
 44
1.0
1001
ACAD
1000
ACAD_MTEXT_DEFINED_HEIGHT_BEGIN
1070
    46
1040
10.00000000000001
1000
ACAD_MTEXT_DEFINED_HEIGHT_END
  0
MTEXT
  5
395
330
70
100
AcDbEntity
  8
dim
370
    20
100
AcDbMText
 10
271.5
 20
105.407107314144
 30
0.0
 40
4.5
 41
25.00000000002183
 46
17.99999999999456
 71
     5
 72
     5
  1
1.15m
  7
Calibri
 73
     1
 44
1.0
1001
ACAD
1000
ACAD_MTEXT_DEFINED_HEIGHT_BEGIN
1070
    46
1040
10.00000000000001
1000
ACAD_MTEXT_DEFINED_HEIGHT_END
  0
MTEXT
  5
396
330
70
100
AcDbEntity
  8
dim
370
    20
100
AcDbMText
 10
296.5
 20
105.4071073141404
 30
0.0
 40
4.5
 41
25.0
 46
17.99999999999092
 71
     5
 72
     5
  1
1.10m
  7
Calibri
 73
     1
 44
1.0
1001
ACAD
1000
ACAD_MTEXT_DEFINED_HEIGHT_BEGIN
1070
    46
1040
10.00000000000001
1000
ACAD_MTEXT_DEFINED_HEIGHT_END
  0
MTEXT
  5
397
330
70
100
AcDbEntity
  8
dim
370
    20
100
AcDbMText
 10
171.5
 20
105.4071073141494
 30
0.0
 40
4.5
 41
25.0
 46
18.00000000000024
 71
     5
 72
     5
  1
1.39m
  7
Calibri
 73
     1
 44
1.0
1001
ACAD
1000
ACAD_MTEXT_DEFINED_HEIGHT_BEGIN
1070
    46
1040
10.00000000000001
1000
ACAD_MTEXT_DEFINED_HEIGHT_END
  0
MTEXT
  5
398
330
70
100
AcDbEntity
  8
dim
370
    20
100
AcDbMText
 10
321.5000000000291
 20
105.407107314144
 30
0.0
 40
4.5
 41
25.00000000004366
 46
17.99999999999638
 71
     5
 72
     5
  1
1.05m
  7
Calibri
 73
     1
 44
1.0
1001
ACAD
1000
ACAD_MTEXT_DEFINED_HEIGHT_BEGIN
1070
    46
1040
10.00000000000001
1000
ACAD_MTEXT_DEFINED_HEIGHT_END
  0
MTEXT
  5
399
330
70
100
AcDbEntity
  8
dim
370
    20
100
AcDbMText
 10
346.5000000000291
 20
105.4071073141349
 30
0.0
 40
4.5
 41
25.00000000004366
 46
17.99999999997637
 71
     5
 72
     5
  1
0.95m
  7
Calibri
 73
     1
 44
1.0
1001
ACAD
1000
ACAD_MTEXT_DEFINED_HEIGHT_BEGIN
1070
    46
1040
10.00000000000001
1000
ACAD_MTEXT_DEFINED_HEIGHT_END
  0
MTEXT
  5
39A
330
70
100
AcDbEntity
  8
dim
370
    20
100
AcDbMText
 10
371.5
 20
105.4071073141422
 30
0.0
 40
4.5
 41
24.99999999998545
 46
17.99999999999638
 71
     5
 72
     5
  1
0.85m
  7
Calibri
 73
     1
 44
1.0
1001
ACAD
1000
ACAD_MTEXT_DEFINED_HEIGHT_BEGIN
1070
    46
1040
10.00000000000001
1000
ACAD_MTEXT_DEFINED_HEIGHT_END
  0
MTEXT
  5
39B
330
70
100
AcDbEntity
  8
dim
370
    20
100
AcDbMText
 10
196.4999999999854
 20
123.4071073141458
 30
0.0
 40
4.5
 41
24.9999999999709
 46
18.00000000000024
 71
     5
 72
     5
  1
1.32m
  7
Calibri
 73
     1
 44
1.0
1001
ACAD
1000
ACAD_MTEXT_DEFINED_HEIGHT_BEGIN
1070
    46
1040
10.00000000000001
1000
ACAD_MTEXT_DEFINED_HEIGHT_END
  0
MTEXT
  5
39C
330
70
100
AcDbEntity
  8
dim
370
    20
100
AcDbMText
 10
221.4999999999855
 20
123.4071073141422
 30
0.0
 40
4.5
 41
24.99999999998545
 46
17.9999999999966
 71
     5
 72
     5
  1
1.24m
  7
Calibri
 73
     1
 44
1.0
1001
ACAD
1000
ACAD_MTEXT_DEFINED_HEIGHT_BEGIN
1070
    46
1040
10.00000000000001
1000
ACAD_MTEXT_DEFINED_HEIGHT_END
  0
MTEXT
  5
39D
330
70
100
AcDbEntity
  8
dim
370
    20
100
AcDbMText
 10
246.5
 20
123.4071073141422
 30
0.0
 40
4.5
 41
25.00000000001455
 46
17.9999999999982
 71
     5
 72
     5
  1
1.13m
  7
Calibri
 73
     1
 44
1.0
1001
ACAD
1000
ACAD_MTEXT_DEFINED_HEIGHT_BEGIN
1070
    46
1040
10.00000000000001
1000
ACAD_MTEXT_DEFINED_HEIGHT_END
  0
MTEXT
  5
39E
330
70
100
AcDbEntity
  8
dim
370
    20
100
AcDbMText
 10
271.5
 20
123.4071073141403
 30
0.0
 40
4.5
 41
25.0
 46
17.9999999999982
 71
     5
 72
     5
  1
1.03m
  7
Calibri
 73
     1
 44
1.0
1001
ACAD
1000
ACAD_MTEXT_DEFINED_HEIGHT_BEGIN
1070
    46
1040
10.00000000000001
1000
ACAD_MTEXT_DEFINED_HEIGHT_END
  0
MTEXT
  5
39F
330
70
100
AcDbEntity
  8
dim
370
    20
100
AcDbMText
 10
296.5
 20
123.4071073141385
 30
0.0
 40
4.5
 41
25.0
 46
17.99999999999456
 71
     5
 72
     5
  1
0.95m
  7
Calibri
 73
     1
 44
1.0
1001
ACAD
1000
ACAD_MTEXT_DEFINED_HEIGHT_BEGIN
1070
    46
1040
10.00000000000001
1000
ACAD_MTEXT_DEFINED_HEIGHT_END
  0
MTEXT
  5
3A0
330
70
100
AcDbEntity
  8
dim
370
    20
100
AcDbMText
 10
171.4999999999854
 20
123.4071073141458
 30
0.0
 40
4.5
 41
24.99999999998545
 46
18.00000000000206
 71
     5
 72
     5
  1
1.39m
  7
Calibri
 73
     1
 44
1.0
1001
ACAD
1000
ACAD_MTEXT_DEFINED_HEIGHT_BEGIN
1070
    46
1040
10.00000000000001
1000
ACAD_MTEXT_DEFINED_HEIGHT_END
  0
MTEXT
  5
3A1
330
70
100
AcDbEntity
  8
dim
370
    20
100
AcDbMText
 10
321.5000000000145
 20
123.4071073141385
 30
0.0
 40
4.5
 41
25.00000000002911
 46
17.99999999999638
 71
     5
 72
     5
  1
0.87m
  7
Calibri
 73
     1
 44
1.0
1001
ACAD
1000
ACAD_MTEXT_DEFINED_HEIGHT_BEGIN
1070
    46
1040
10.00000000000001
1000
ACAD_MTEXT_DEFINED_HEIGHT_END
  0
MTEXT
  5
3A2
330
70
100
AcDbEntity
  8
dim
370
    20
100
AcDbMText
 10
346.5
 20
123.4071073141385
 30
0.0
 40
4.5
 41
24.9999999999709
 46
17.9999999999982
 71
     5
 72
     5
  1
0.78m
  7
Calibri
 73
     1
 44
1.0
1001
ACAD
1000
ACAD_MTEXT_DEFINED_HEIGHT_BEGIN
1070
    46
1040
10.00000000000001
1000
ACAD_MTEXT_DEFINED_HEIGHT_END
  0
MTEXT
  5
3A3
330
70
100
AcDbEntity
  8
dim
370
    20
100
AcDbMText
 10
371.5
 20
123.4071073141385
 30
0.0
 40
4.5
 41
24.99999999998545
 46
18.00000000000002
 71
     5
 72
     5
  1
0.68m
  7
Calibri
 73
     1
 44
1.0
1001
ACAD
1000
ACAD_MTEXT_DEFINED_HEIGHT_BEGIN
1070
    46
1040
10.00000000000001
1000
ACAD_MTEXT_DEFINED_HEIGHT_END
  0
MTEXT
  5
3A4
330
70
100
AcDbEntity
  8
dim
100
AcDbMText
 10
271.5
 20
173.4071073141385
 30
0.0
 40
4.0
 41
225.0
 46
17.9999999999891
 71
     5
 72
     5
  1
Leverage height {\Lmax} (distance from top of handrail to bottom of post)
  7
Calibri
 73
     1
 44
1.0
1001
ACAD
1000
ACAD_MTEXT_DEFINED_HEIGHT_BEGIN
1070
    46
1040
15.00000000000001
1000
ACAD_MTEXT_DEFINED_HEIGHT_END
  0
MTEXT
  5
3A5
102
{ACAD_XDICTIONARY
360
3A6
102
}
330
70
100
AcDbEntity
  8
0
100
AcDbMText
 10
274.1927834194503
 20
29.5
 30
0.0
 40
3.25
 41
77.51234181714244
 46
0.0
 71
     4
 72
     5
  1
Balustrade.\Psubject to change\Pwithout notice.
  7
Calibri
 73
     1
 44
1.0
1001
ACAD
1000
ACAD_MTEXT_COLUMN_INFO_BEGIN
1070
    75
1070
     2
1070
    79
1070
     0
1070
    76
1070
     1
1070
    78
1070
     0
1070
    48
1040
77.51234181714244
1070
    49
1040
75.0
1070
    50
1070
     1
1040
0.0
1000
ACAD_MTEXT_COLUMN_INFO_END
  0
ENDSEC
  0
SECTION
  2
OBJECTS
  0
DICTIONARY
  5
C
330
0
100
AcDbDictionary
281
     1
  3
ACAD_CIP_PREVIOUS_PRODUCT_INFO
350
7E
  3
ACAD_COLOR
350
63
  3
ACAD_DETAILVIEWSTYLE
350
6A
  3
ACAD_GROUP
350
D
  3
ACAD_LAYOUT
350
62
  3
ACAD_MATERIAL
350
10
  3
ACAD_MLEADERSTYLE
350
66
  3
ACAD_MLINESTYLE
350
5F
  3
ACAD_PLOTSETTINGS
350
61
  3
ACAD_PLOTSTYLENAME
350
E
  3
ACAD_SCALELIST
350
42
  3
ACAD_SECTIONVIEWSTYLE
350
68
  3
ACAD_TABLESTYLE
350
64
  3
ACAD_VISUALSTYLE
350
29
  3
ACDB_RECOMPOSE_DATA
350
492
  3
AcDbVariableDictionary
350
78
  0
DICTIONARY
  5
E2
330
2
100
AcDbDictionary
280
     1
281
     1
  3
ACAD_LAYERSTATES
360
E3
  0
DICTIONARY
  5
BF
330
BE
100
AcDbDictionary
280
     1
281
     1
  0
DICTIONARY
  5
C1
330
C0
100
AcDbDictionary
280
     1
281
     1
  0
DICTIONARY
  5
C3
330
C2
100
AcDbDictionary
280
     1
281
     1
  0
DICTIONARY
  5
C6
330
C5
100
AcDbDictionary
280
     1
281
     1
  0
DICTIONARY
  5
C8
330
C7
100
AcDbDictionary
280
     1
281
     1
  0
DICTIONARY
  5
CA
330
C9
100
AcDbDictionary
280
     1
281
     1
  0
DICTIONARY
  5
CC
330
CB
100
AcDbDictionary
280
     1
281
     1
  0
DICTIONARY
  5
CE
330
CD
100
AcDbDictionary
280
     1
281
     1
  0
DICTIONARY
  5
D0
330
CF
100
AcDbDictionary
280
     1
281
     1
  0
DICTIONARY
  5
D2
330
D1
100
AcDbDictionary
280
     1
281
     1
  0
DICTIONARY
  5
312
330
311
100
AcDbDictionary
280
     1
281
     1
  3
ACAD_MTEXT_2008_RT
360
48E
  0
DICTIONARY
  5
358
330
357
100
AcDbDictionary
280
     1
281
     1
  3
ACAD_MTEXT_2008_RT
360
48F
  0
DICTIONARY
  5
35A
330
359
100
AcDbDictionary
280
     1
281
     1
  3
ACAD_MTEXT_2008_RT
360
490
  0
DICTIONARY
  5
3A6
330
3A5
100
AcDbDictionary
280
     1
281
     1
  3
ACAD_MTEXT_2008_RT
360
491
  0
XRECORD
  5
7E
102
{ACAD_REACTORS
330
C
102
}
330
C
100
AcDbXrecord
280
     1
300
ACDLT
300
2023
300

  0
DICTIONARY
  5
63
102
{ACAD_REACTORS
330
C
102
}
330
C
100
AcDbDictionary
281
     1
  0
DICTIONARY
  5
6A
102
{ACAD_REACTORS
330
C
102
}
330
C
100
AcDbDictionary
281
     1
  3
Metric50
350
6B
  0
DICTIONARY
  5
D
102
{ACAD_REACTORS
330
C
102
}
330
C
100
AcDbDictionary
281
     1
  0
DICTIONARY
  5
62
102
{ACAD_REACTORS
330
C
102
}
330
C
100
AcDbDictionary
281
     1
  3
Layout1
350
6F
  3
Layout2
350
77
  3
Model
350
73
  0
DICTIONARY
  5
10
102
{ACAD_REACTORS
330
C
102
}
330
C
100
AcDbDictionary
281
     1
  3
ByBlock
350
19
  3
ByLayer
350
11
  3
Global
350
21
  0
DICTIONARY
  5
66
102
{ACAD_REACTORS
330
C
102
}
330
C
100
AcDbDictionary
281
     1
  3
Standard
350
67
  0
DICTIONARY
  5
5F
102
{ACAD_REACTORS
330
C
102
}
330
C
100
AcDbDictionary
281
     1
  3
Standard
350
60
  0
DICTIONARY
  5
61
102
{ACAD_REACTORS
330
C
102
}
330
C
100
AcDbDictionary
281
     1
  0
ACDBDICTIONARYWDFLT
  5
E
102
{ACAD_REACTORS
330
C
102
}
330
C
100
AcDbDictionary
281
     1
  3
Normal
350
F
100
AcDbDictionaryWithDefault
340
F
  0
DICTIONARY
  5
42
102
{ACAD_REACTORS
330
C
102
}
330
C
100
AcDbDictionary
281
     1
  3
A0
350
43
  3
A1
350
44
  3
A2
350
45
  3
A3
350
46
  3
A4
350
47
  3
A5
350
48
  3
A6
350
49
  3
A7
350
4A
  3
A8
350
4B
  3
A9
350
4C
  3
B0
350
4D
  3
B1
350
4E
  3
B2
350
4F
  3
B3
350
50
  3
B4
350
51
  3
B5
350
52
  3
B6
350
53
  0
DICTIONARY
  5
68
102
{ACAD_REACTORS
330
C
102
}
330
C
100
AcDbDictionary
281
     1
  3
Metric50
350
69
  0
DICTIONARY
  5
64
102
{ACAD_REACTORS
330
C
102
}
330
C
100
AcDbDictionary
281
     1
  3
Standard
350
65
  0
DICTIONARY
  5
29
102
{ACAD_REACTORS
330
C
102
}
330
C
100
AcDbDictionary
281
     1
  3
2dWireframe
350
2F
  3
Basic
350
2E
  3
Brighten
350
35
  3
ColorChange
350
39
  3
Conceptual
350
32
  3
Dim
350
34
  3
EdgeColorOff
350
41
  3
Facepattern
350
38
  3
Flat
350
2A
  3
FlatWithEdges
350
2B
  3
Gouraud
350
2C
  3
GouraudWithEdges
350
2D
  3
Hidden
350
31
  3
JitterOff
350
3F
  3
Linepattern
350
37
  3
OverhangOff
350
40
  3
Realistic
350
33
  3
Shaded
350
3E
  3
Shaded with edges
350
3D
  3
Shades of Gray
350
3A
  3
Sketchy
350
3B
  3
Thicken
350
36
  3
Wireframe
350
30
  3
X-Ray
350
3C
  0
XRECORD
  5
492
102
{ACAD_REACTORS
330
C
102
}
330
C
100
AcDbXrecord
280
     1
 90
        1
330
65
330
311
330
357
330
359
330
35C
330
3A5
  0
DICTIONARY
  5
78
102
{ACAD_REACTORS
330
C
102
}
330
C
100
AcDbDictionary
281
     1
  3
CANNOSCALE
350
48A
  3
CENTEREXE
350
79
  3
CENTERLTYPEFILE
350
7A
  3
CMLEADERSTYLE
350
487
  3
CTABLESTYLE
350
486
  3
CVIEWDETAILSTYLE
350
488
  3
CVIEWSECTIONSTYLE
350
489
  3
XCLIPFRAME
350
48B
  0
DICTIONARY
  5
E3
102
{ACAD_REACTORS
330
E2
102
}
330
E2
100
AcDbDictionary
281
     1
  0
XRECORD
  5
48E
102
{ACAD_REACTORS
330
312
102
}
330
312
100
AcDbXrecord
280
     1
 40
479776.0
  1
\pxsm1;{\fArial Narrow|b1|i0|c0|p34;\LCLEARSPAN\l or \LCLEARVIEW\l FACE FIXED\PTO STEEL WITH CASTAWAY BRACKET}
  0
XRECORD
  5
48F
102
{ACAD_REACTORS
330
358
102
}
330
358
100
AcDbXrecord
280
     1
 40
4921.0
  1
\pxqr;Rev:C 11.6.19
  0
XRECORD
  5
490
102
{ACAD_REACTORS
330
35A
102
}
330
35A
100
AcDbXrecord
280
     1
 40
12638498.0
  1
\pxi-3,l4,ql,t4;-       Applicable to occupancy types A, B, C3 & E.\P-^IThis fixing detail PS1 should be used in conjunction with the appropriate system PS1.\P-^IThe barrier may extend above the handrail by max  200mm (e.g. Clearview offset or Face Hun
  1
g Fin)\P-^IThis is a balustrade connection detail. Deck design, construction and  water-proofing is the responsibility of others. For all other applications or non-standard or site specific connections not covered under the standard detail manual plea
  1
se contact Spectrum.
  0
XRECORD
  5
491
102
{ACAD_REACTORS
330
3A6
102
}
330
3A6
100
AcDbXrecord
280
     1
 40
109764.0
  1
\pxql;Balustrade.\Psubject to change\Pwithout notice.
  0
ACDBDETAILVIEWSTYLE
  5
6B
102
{ACAD_XDICTIONARY
360
4C8
102
}
102
{ACAD_REACTORS
330
6A
102
}
330
6A
100
AcDbModelDocViewStyle
 70
     0
  3
Metric50
290
     0
100
AcDbDetailViewStyle
 70
     0
 71
     0
 90
        3
 71
     1
340
55
 62
   256
 40
5.0
340
0
 62
   256
 40
5.0
300

 40
0.36
280
     1
 71
     2
340
5D
 90
       25
 62
   256
 71
     3
340
55
 62
   256
 40
5.0
 90
        0
 40
15.0
 90
        1
300
%<\AcVar ViewDetailId>% (%<\AcVar ViewScale \f "%sn">%)
 71
     4
340
5D
 90
       25
 62
   256
340
5D
 90
       25
 62
   256
280
     0
  0
LAYOUT
  5
6F
102
{ACAD_REACTORS
330
62
102
}
330
62
100
AcDbPlotSettings
  1

  2
Z:\Resources\AutoCAD\Plotting\PC3\Eng Office.pc3
  4

  6

 40
0.0
 41
0.0
 42
0.0
 43
0.0
 44
0.0
 45
0.0
 46
0.0
 47
0.0
 48
0.0
 49
0.0
140
0.0
141
0.0
142
1.0
143
1.0
 70
   688
 72
     0
 73
     0
 74
     5
  7

 75
    16
147
1.0
 76
     0
 77
     2
 78
   300
148
0.0
149
0.0
100
AcDbLayout
  1
Layout1
 70
     1
 71
     1
 10
0.0
 20
0.0
 11
420.0
 21
297.0
 12
0.0
 22
0.0
 32
0.0
 14
1.000000000000000E+20
 24
1.000000000000000E+20
 34
1.000000000000000E+20
 15
-1.000000000000000E+20
 25
-1.000000000000000E+20
 35
-1.000000000000000E+20
146
0.0
 13
0.0
 23
0.0
 33
0.0
 16
1.0
 26
0.0
 36
0.0
 17
0.0
 27
1.0
 37
0.0
 76
     0
330
6C
  0
LAYOUT
  5
77
102
{ACAD_REACTORS
330
62
102
}
330
62
100
AcDbPlotSettings
  1

  2
Z:\Resources\AutoCAD\Plotting\PC3\Eng Office.pc3
  4

  6

 40
0.0
 41
0.0
 42
0.0
 43
0.0
 44
0.0
 45
0.0
 46
0.0
 47
0.0
 48
0.0
 49
0.0
140
0.0
141
0.0
142
1.0
143
1.0
 70
   688
 72
     0
 73
     0
 74
     5
  7

 75
    16
147
1.0
 76
     0
 77
     2
 78
   300
148
0.0
149
0.0
100
AcDbLayout
  1
Layout2
 70
     1
 71
     2
 10
0.0
 20
0.0
 11
12.0
 21
9.0
 12
0.0
 22
0.0
 32
0.0
 14
0.0
 24
0.0
 34
0.0
 15
0.0
 25
0.0
 35
0.0
146
0.0
 13
0.0
 23
0.0
 33
0.0
 16
1.0
 26
0.0
 36
0.0
 17
0.0
 27
1.0
 37
0.0
 76
     0
330
74
  0
LAYOUT
  5
73
102
{ACAD_REACTORS
330
62
102
}
330
62
100
AcDbPlotSettings
  1

  2
Z:\Resources\AutoCAD\Plotting\PC3\Eng Office.pc3
  4

  6

 40
0.0
 41
0.0
 42
0.0
 43
0.0
 44
0.0
 45
0.0
 46
0.0
 47
0.0
 48
0.0
 49
0.0
140
0.0
141
0.0
142
1.0
143
1.0
 70
  1712
 72
     0
 73
     0
 74
     0
  7

 75
     0
147
1.0
 76
     0
 77
     2
 78
   300
148
0.0
149
0.0
100
AcDbLayout
  1
Model
 70
     1
 71
     0
 10
0.0
 20
0.0
 11
12.0
 21
9.0
 12
0.0
 22
0.0
 32
0.0
 14
0.0
 24
0.0
 34
0.0
 15
0.0
 25
0.0
 35
0.0
146
0.0
 13
0.0
 23
0.0
 33
0.0
 16
1.0
 26
0.0
 36
0.0
 17
0.0
 27
1.0
 37
0.0
 76
     0
330
70
331
57
  0
MATERIAL
  5
19
102
{ACAD_XDICTIONARY
360
1A
102
}
102
{ACAD_REACTORS
330
10
102
}
330
10
100
AcDbMaterial
  1
ByBlock
 72
     0
 43
0.0208333333333333
 43
0.0
 43
0.0
 43
0.0
 43
0.0
 43
0.0208333333333333
 43
0.0
 43
0.0
 43
0.0
 43
0.0
 43
1.0
 43
0.0
 43
0.0
 43
0.0
 43
0.0
 43
1.0
 77
     0
 47
0.0208333333333333
 47
0.0
 47
0.0
 47
0.0
 47
0.0
 47
0.0208333333333333
 47
0.0
 47
0.0
 47
0.0
 47
0.0
 47
1.0
 47
0.0
 47
0.0
 47
0.0
 47
0.0
 47
1.0
171
     0
 49
0.0208333333333333
 49
0.0
 49
0.0
 49
0.0
 49
0.0
 49
0.0208333333333333
 49
0.0
 49
0.0
 49
0.0
 49
0.0
 49
1.0
 49
0.0
 49
0.0
 49
0.0
 49
0.0
 49
1.0
175
     0
142
0.0208333333333333
142
0.0
142
0.0
142
0.0
142
0.0
142
0.0208333333333333
142
0.0
142
0.0
142
0.0
142
0.0
142
1.0
142
0.0
142
0.0
142
0.0
142
0.0
142
1.0
179
     0
144
0.0208333333333333
144
0.0
144
0.0
144
0.0
144
0.0
144
0.0208333333333333
144
0.0
144
0.0
144
0.0
144
0.0
144
1.0
144
0.0
144
0.0
144
0.0
144
0.0
144
1.0
147
0.0208333333333333
147
0.0
147
0.0
147
0.0
147
0.0
147
0.0208333333333333
147
0.0
147
0.0
147
0.0
147
0.0
147
1.0
147
0.0
147
0.0
147
0.0
147
0.0
147
1.0
  0
MATERIAL
  5
11
102
{ACAD_XDICTIONARY
360
12
102
}
102
{ACAD_REACTORS
330
10
102
}
330
10
100
AcDbMaterial
  1
ByLayer
 72
     0
 43
0.0208333333333333
 43
0.0
 43
0.0
 43
0.0
 43
0.0
 43
0.0208333333333333
 43
0.0
 43
0.0
 43
0.0
 43
0.0
 43
1.0
 43
0.0
 43
0.0
 43
0.0
 43
0.0
 43
1.0
 77
     0
 47
0.0208333333333333
 47
0.0
 47
0.0
 47
0.0
 47
0.0
 47
0.0208333333333333
 47
0.0
 47
0.0
 47
0.0
 47
0.0
 47
1.0
 47
0.0
 47
0.0
 47
0.0
 47
0.0
 47
1.0
171
     0
 49
0.0208333333333333
 49
0.0
 49
0.0
 49
0.0
 49
0.0
 49
0.0208333333333333
 49
0.0
 49
0.0
 49
0.0
 49
0.0
 49
1.0
 49
0.0
 49
0.0
 49
0.0
 49
0.0
 49
1.0
175
     0
142
0.0208333333333333
142
0.0
142
0.0
142
0.0
142
0.0
142
0.0208333333333333
142
0.0
142
0.0
142
0.0
142
0.0
142
1.0
142
0.0
142
0.0
142
0.0
142
0.0
142
1.0
179
     0
144
0.0208333333333333
144
0.0
144
0.0
144
0.0
144
0.0
144
0.0208333333333333
144
0.0
144
0.0
144
0.0
144
0.0
144
1.0
144
0.0
144
0.0
144
0.0
144
0.0
144
1.0
147
0.0208333333333333
147
0.0
147
0.0
147
0.0
147
0.0
147
0.0208333333333333
147
0.0
147
0.0
147
0.0
147
0.0
147
1.0
147
0.0
147
0.0
147
0.0
147
0.0
147
1.0
  0
MATERIAL
  5
21
102
{ACAD_XDICTIONARY
360
22
102
}
102
{ACAD_REACTORS
330
10
102
}
330
10
100
AcDbMaterial
  1
Global
 72
     0
 43
0.0208333333333333
 43
0.0
 43
0.0
 43
0.0
 43
0.0
 43
0.0208333333333333
 43
0.0
 43
0.0
 43
0.0
 43
0.0
 43
1.0
 43
0.0
 43
0.0
 43
0.0
 43
0.0
 43
1.0
 77
     0
 47
0.0208333333333333
 47
0.0
 47
0.0
 47
0.0
 47
0.0
 47
0.0208333333333333
 47
0.0
 47
0.0
 47
0.0
 47
0.0
 47
1.0
 47
0.0
 47
0.0
 47
0.0
 47
0.0
 47
1.0
171
     0
 49
0.0208333333333333
 49
0.0
 49
0.0
 49
0.0
 49
0.0
 49
0.0208333333333333
 49
0.0
 49
0.0
 49
0.0
 49
0.0
 49
1.0
 49
0.0
 49
0.0
 49
0.0
 49
0.0
 49
1.0
175
     0
142
0.0208333333333333
142
0.0
142
0.0
142
0.0
142
0.0
142
0.0208333333333333
142
0.0
142
0.0
142
0.0
142
0.0
142
1.0
142
0.0
142
0.0
142
0.0
142
0.0
142
1.0
179
     0
144
0.0208333333333333
144
0.0
144
0.0
144
0.0
144
0.0
144
0.0208333333333333
144
0.0
144
0.0
144
0.0
144
0.0
144
1.0
144
0.0
144
0.0
144
0.0
144
0.0
144
1.0
147
0.0208333333333333
147
0.0
147
0.0
147
0.0
147
0.0
147
0.0208333333333333
147
0.0
147
0.0
147
0.0
147
0.0
147
1.0
147
0.0
147
0.0
147
0.0
147
0.0
147
1.0
  0
MLEADERSTYLE
  5
67
102
{ACAD_XDICTIONARY
360
4C4
102
}
102
{ACAD_REACTORS
330
66
102
}
330
66
100
AcDbMLeaderStyle
170
     2
171
     1
172
     0
 90
        2
 40
0.0
 41
0.0
173
     1
 91
-1056964608
340
5B
 92
       -2
290
     1
 42
0.09
291
     1
 43
0.36
  3
Standard
 44
0.18
300

342
55
174
     1
178
     6
175
     1
176
     0
 93
-1056964608
 45
0.18
292
     0
297
     0
 46
0.18
 94
-1056964608
 47
1.0
 49
1.0
140
1.0
293
     1
141
0.0
294
     1
177
     0
142
1.0
295
     0
296
     0
143
0.125
1001
ACAD_MLEADERVER
1070
     2
  0
MLINESTYLE
  5
60
102
{ACAD_REACTORS
330
5F
102
}
330
5F
100
AcDbMlineStyle
  2
STANDARD
 70
     0
  3

 62
   256
 51
90.0
 52
90.0
 71
     2
 49
0.5
 62
   256
  6
BYLAYER
 49
-0.5
 62
   256
  6
BYLAYER
  0
ACDBPLACEHOLDER
  5
F
102
{ACAD_REACTORS
330
E
102
}
330
E
  0
SCALE
  5
43
102
{ACAD_REACTORS
330
42
102
}
330
42
100
AcDbScale
 70
     0
300
1:1
140
1.0
141
1.0
290
     1
  0
SCALE
  5
44
102
{ACAD_REACTORS
330
42
102
}
330
42
100
AcDbScale
 70
     0
300
1:2
140
1.0
141
2.0
290
     0
  0
SCALE
  5
45
102
{ACAD_REACTORS
330
42
102
}
330
42
100
AcDbScale
 70
     0
300
1:4
140
1.0
141
4.0
290
     0
  0
SCALE
  5
46
102
{ACAD_REACTORS
330
42
102
}
330
42
100
AcDbScale
 70
     0
300
1:5
140
1.0
141
5.0
290
     0
  0
SCALE
  5
47
102
{ACAD_REACTORS
330
42
102
}
330
42
100
AcDbScale
 70
     0
300
1:8
140
1.0
141
8.0
290
     0
  0
SCALE
  5
48
102
{ACAD_REACTORS
330
42
102
}
330
42
100
AcDbScale
 70
     0
300
1:10
140
1.0
141
10.0
290
     0
  0
SCALE
  5
49
102
{ACAD_REACTORS
330
42
102
}
330
42
100
AcDbScale
 70
     0
300
1:16
140
1.0
141
16.0
290
     0
  0
SCALE
  5
4A
102
{ACAD_REACTORS
330
42
102
}
330
42
100
AcDbScale
 70
     0
300
1:20
140
1.0
141
20.0
290
     0
  0
SCALE
  5
4B
102
{ACAD_REACTORS
330
42
102
}
330
42
100
AcDbScale
 70
     0
300
1:30
140
1.0
141
30.0
290
     0
  0
SCALE
  5
4C
102
{ACAD_REACTORS
330
42
102
}
330
42
100
AcDbScale
 70
     0
300
1:40
140
1.0
141
40.0
290
     0
  0
SCALE
  5
4D
102
{ACAD_REACTORS
330
42
102
}
330
42
100
AcDbScale
 70
     0
300
1:50
140
1.0
141
50.0
290
     0
  0
SCALE
  5
4E
102
{ACAD_REACTORS
330
42
102
}
330
42
100
AcDbScale
 70
     0
300
1:100
140
1.0
141
100.0
290
     0
  0
SCALE
  5
4F
102
{ACAD_REACTORS
330
42
102
}
330
42
100
AcDbScale
 70
     0
300
2:1
140
2.0
141
1.0
290
     0
  0
SCALE
  5
50
102
{ACAD_REACTORS
330
42
102
}
330
42
100
AcDbScale
 70
     0
300
4:1
140
4.0
141
1.0
290
     0
  0
SCALE
  5
51
102
{ACAD_REACTORS
330
42
102
}
330
42
100
AcDbScale
 70
     0
300
8:1
140
8.0
141
1.0
290
     0
  0
SCALE
  5
52
102
{ACAD_REACTORS
330
42
102
}
330
42
100
AcDbScale
 70
     0
300
10:1
140
10.0
141
1.0
290
     0
  0
SCALE
  5
53
102
{ACAD_REACTORS
330
42
102
}
330
42
100
AcDbScale
 70
     0
300
100:1
140
100.0
141
1.0
290
     0
  0
ACDBSECTIONVIEWSTYLE
  5
69
102
{ACAD_XDICTIONARY
360
4C6
102
}
102
{ACAD_REACTORS
330
68
102
}
330
68
100
AcDbModelDocViewStyle
 70
     0
  3
Metric50
290
     0
100
AcDbSectionViewStyle
 70
     0
 71
     0
 90
      102
 71
     1
340
55
 62
   256
 40
5.0
340
0
340
0
 62
   256
 40
5.0
300
I, O, Q, S, X, Z
 40
10.0
 90
        0
 40
2.5
 90
        0
 71
     2
340
5D
 90
       25
 62
   256
340
5D
 90
       50
 62
   256
 40
5.0
 40
2.5
 40
5.0
 71
     3
340
55
 62
   256
 40
5.0
 90
        0
 40
15.0
 90
        1
300
%<\AcVar ViewSectionStartId>%-%<\AcVar ViewSectionEndId>% (%<\AcVar ViewScale \f "%sn">%)
 71
     4
 62
   256
 62
   257
300
ANSI31
 40
1.0
 90
        0
290
     0
290
     0
 90
        6
 40
0.0
 40
1.570796326794896
 40
0.2617993877991494
 40
1.308996938995747
 40
-0.2617993877991494
 40
1.832595714594046
  0
TABLESTYLE
  5
65
102
{ACAD_XDICTIONARY
360
48C
102
}
102
{ACAD_REACTORS
330
64
102
}
330
64
100
AcDbTableStyle
  3
Standard
 70
     0
 71
     0
 40
1.5
 41
1.5
280
     0
281
     0
  7
Standard
140
4.5
170
     2
 62
     0
 63
     7
283
     0
 90
      512
 91
        0
  1

274
    -2
284
     1
 64
     0
275
    -2
285
     1
 65
     0
276
    -2
286
     1
 66
     0
277
    -2
287
     1
 67
     0
278
    -2
288
     1
 68
     0
279
    -2
289
     1
 69
     0
  7
Standard
140
6.0
170
     5
 62
     0
 63
     7
283
     0
 90
      512
 91
        0
  1

274
    -2
284
     1
 64
     0
275
    -2
285
     1
 65
     0
276
    -2
286
     1
 66
     0
277
    -2
287
     1
 67
     0
278
    -2
288
     1
 68
     0
279
    -2
289
     1
 69
     0
  7
Standard
140
4.5
170
     5
 62
     0
 63
     7
283
     0
 90
      512
 91
        0
  1

274
    -2
284
     1
 64
     0
275
    -2
285
     1
 65
     0
276
    -2
286
     1
 66
     0
277
    -2
287
     1
 67
     0
278
    -2
288
     1
 68
     0
279
    -2
289
     1
 69
     0
  0
VISUALSTYLE
  5
2F
102
{ACAD_XDICTIONARY
360
49D
102
}
102
{ACAD_REACTORS
330
29
102
}
330
29
100
AcDbVisualStyle
  2
2dWireframe
 70
     4
 71
     0
 72
     2
 73
     0
 90
        0
 40
-0.6
 41
-30.0
 62
     5
 63
     7
421
 16777215
 74
     1
 91
        4
 64
     7
 65
   257
 75
     1
175
     1
 42
1.0
 92
        0
 66
   257
 43
1.0
 76
     1
 77
     6
 78
     2
 67
     7
 79
     5
170
     0
171
     0
290
     0
174
     0
 93
        1
 44
0.0
173
     0
291
     0
 45
0.0
1001
ACAD
1000
AcDbSavedByObjectVersion
1070
     0
  0
VISUALSTYLE
  5
2E
102
{ACAD_XDICTIONARY
360
49B
102
}
102
{ACAD_REACTORS
330
29
102
}
330
29
100
AcDbVisualStyle
  2
Basic
 70
     7
 71
     1
 72
     0
 73
     1
 90
        0
 40
-0.6
 41
-30.0
 62
     5
 63
     7
421
 16777215
 74
     0
 91
        4
 64
     7
 65
   257
 75
     1
175
     1
 42
1.0
 92
        8
 66
     7
 43
1.0
 76
     1
 77
     6
 78
     2
 67
     7
 79
     5
170
     0
171
     0
290
     0
174
     0
 93
        1
 44
0.0
173
     0
291
     1
 45
0.0
1001
ACAD
1000
AcDbSavedByObjectVersion
1070
     0
  0
VISUALSTYLE
  5
35
102
{ACAD_XDICTIONARY
360
4A9
102
}
102
{ACAD_REACTORS
330
29
102
}
330
29
100
AcDbVisualStyle
  2
Brighten
 70
    12
 71
     2
 72
     2
 73
     0
 90
        0
 40
-0.6
 41
-30.0
 62
     5
 63
     7
421
 16777215
 74
     1
 91
        4
 64
     7
 65
   257
 75
     1
175
     1
 42
1.0
 92
        8
 66
     7
 43
1.0
 76
     1
 77
     6
 78
     2
 67
     7
 79
     5
170
     0
171
     0
290
     0
174
     0
 93
        1
 44
50.0
173
     0
291
     1
 45
0.0
1001
ACAD
1000
AcDbSavedByObjectVersion
1070
     0
  0
VISUALSTYLE
  5
39
102
{ACAD_XDICTIONARY
360
4B1
102
}
102
{ACAD_REACTORS
330
29
102
}
330
29
100
AcDbVisualStyle
  2
ColorChange
 70
    16
 71
     2
 72
     2
 73
     3
 90
        0
 40
-0.6
 41
-30.0
 62
     5
 63
     8
421
  8421504
 74
     1
 91
        4
 64
     7
 65
   257
 75
     1
175
     1
 42
1.0
 92
        8
 66
     8
424
  8421504
 43
1.0
 76
     1
 77
     6
 78
     2
 67
     7
 79
     5
170
     0
171
     0
290
     0
174
     0
 93
        1
 44
0.0
173
     0
291
     1
 45
0.0
1001
ACAD
1000
AcDbSavedByObjectVersion
1070
     0
  0
VISUALSTYLE
  5
32
102
{ACAD_XDICTIONARY
360
4A3
102
}
102
{ACAD_REACTORS
330
29
102
}
330
29
100
AcDbVisualStyle
  2
Conceptual
 70
     9
 71
     3
 72
     2
 73
     0
 90
        0
 40
-0.6
 41
-30.0
 62
     5
 63
     7
421
 16777215
 74
     2
 91
        2
 64
     7
 65
   257
 75
     1
175
     1
 42
179.0
 92
        8
 66
     7
 43
1.0
 76
     1
 77
     6
 78
     2
 67
     7
 79
     3
170
     0
171
     0
290
     0
174
     0
 93
        1
 44
0.0
173
     0
291
     0
 45
0.0
1001
ACAD
1000
AcDbSavedByObjectVersion
1070
     0
  0
VISUALSTYLE
  5
34
102
{ACAD_XDICTIONARY
360
4A7
102
}
102
{ACAD_REACTORS
330
29
102
}
330
29
100
AcDbVisualStyle
  2
Dim
 70
    11
 71
     2
 72
     2
 73
     0
 90
        0
 40
-0.6
 41
-30.0
 62
     5
 63
     7
421
 16777215
 74
     1
 91
        4
 64
     7
 65
   257
 75
     1
175
     1
 42
1.0
 92
        8
 66
     7
 43
1.0
 76
     1
 77
     6
 78
     2
 67
     7
 79
     5
170
     0
171
     0
290
     0
174
     0
 93
        1
 44
-50.0
173
     0
291
     1
 45
0.0
1001
ACAD
1000
AcDbSavedByObjectVersion
1070
     0
  0
VISUALSTYLE
  5
41
102
{ACAD_XDICTIONARY
360
4C1
102
}
102
{ACAD_REACTORS
330
29
102
}
330
29
100
AcDbVisualStyle
  2
EdgeColorOff
 70
    22
 71
     2
 72
     2
 73
     0
 90
        0
 40
-0.6
 41
-30.0
 62
     5
 63
     7
421
 16777215
 74
     1
 91
        4
 64
     7
 65
   257
 75
     1
175
     1
 42
1.0
 92
        8
 66
     7
 43
1.0
 76
     1
 77
     6
 78
     2
 67
     7
 79
     5
170
     0
171
     0
290
     0
174
     0
 93
        1
 44
0.0
173
     0
291
     1
 45
0.0
1001
ACAD
1000
AcDbSavedByObjectVersion
1070
     0
  0
VISUALSTYLE
  5
38
102
{ACAD_XDICTIONARY
360
4AF
102
}
102
{ACAD_REACTORS
330
29
102
}
330
29
100
AcDbVisualStyle
  2
Facepattern
 70
    15
 71
     2
 72
     2
 73
     0
 90
        0
 40
-0.6
 41
-30.0
 62
     5
 63
     7
421
 16777215
 74
     1
 91
        4
 64
     7
 65
   257
 75
     1
175
     1
 42
1.0
 92
        8
 66
     7
 43
1.0
 76
     1
 77
     6
 78
     2
 67
     7
 79
     5
170
     0
171
     0
290
     0
174
     0
 93
        1
 44
0.0
173
     0
291
     1
 45
0.0
1001
ACAD
1000
AcDbSavedByObjectVersion
1070
     0
  0
VISUALSTYLE
  5
2A
102
{ACAD_XDICTIONARY
360
493
102
}
102
{ACAD_REACTORS
330
29
102
}
330
29
100
AcDbVisualStyle
  2
Flat
 70
     0
 71
     2
 72
     1
 73
     1
 90
        2
 40
-0.6
 41
30.0
 62
     5
 63
     7
421
 16777215
 74
     0
 91
        0
 64
     7
 65
   257
 75
     1
175
     1
 42
1.0
 92
        8
 66
     7
 43
1.0
 76
     1
 77
     6
 78
     2
 67
     7
 79
     5
170
     0
171
     0
290
     0
174
     0
 93
       13
 44
0.0
173
     0
291
     1
 45
0.0
1001
ACAD
1000
AcDbSavedByObjectVersion
1070
     0
  0
VISUALSTYLE
  5
2B
102
{ACAD_XDICTIONARY
360
495
102
}
102
{ACAD_REACTORS
330
29
102
}
330
29
100
AcDbVisualStyle
  2
FlatWithEdges
 70
     1
 71
     2
 72
     1
 73
     1
 90
        2
 40
-0.6
 41
30.0
 62
     5
 63
     7
421
 16777215
 74
     1
 91
        0
 64
     7
 65
   257
 75
     1
175
     1
 42
1.0
 92
        0
 66
   257
 43
1.0
 76
     1
 77
     6
 78
     2
 67
     7
 79
     5
170
     0
171
     0
290
     0
174
     0
 93
       13
 44
0.0
173
     0
291
     1
 45
0.0
1001
ACAD
1000
AcDbSavedByObjectVersion
1070
     0
  0
VISUALSTYLE
  5
2C
102
{ACAD_XDICTIONARY
360
497
102
}
102
{ACAD_REACTORS
330
29
102
}
330
29
100
AcDbVisualStyle
  2
Gouraud
 70
     2
 71
     2
 72
     2
 73
     1
 90
        2
 40
-0.6
 41
30.0
 62
     5
 63
     7
421
 16777215
 74
     0
 91
        0
 64
     7
 65
   257
 75
     1
175
     1
 42
1.0
 92
        0
 66
     7
 43
1.0
 76
     1
 77
     6
 78
     2
 67
     7
 79
     5
170
     0
171
     0
290
     0
174
     0
 93
       13
 44
0.0
173
     0
291
     1
 45
0.0
1001
ACAD
1000
AcDbSavedByObjectVersion
1070
     0
  0
VISUALSTYLE
  5
2D
102
{ACAD_XDICTIONARY
360
499
102
}
102
{ACAD_REACTORS
330
29
102
}
330
29
100
AcDbVisualStyle
  2
GouraudWithEdges
 70
     3
 71
     2
 72
     2
 73
     1
 90
        2
 40
-0.6
 41
30.0
 62
     5
 63
     7
421
 16777215
 74
     1
 91
        0
 64
     7
 65
   257
 75
     1
175
     1
 42
1.0
 92
        0
 66
   257
 43
1.0
 76
     1
 77
     6
 78
     2
 67
     7
 79
     5
170
     0
171
     0
290
     0
174
     0
 93
       13
 44
0.0
173
     0
291
     1
 45
0.0
1001
ACAD
1000
AcDbSavedByObjectVersion
1070
     0
  0
VISUALSTYLE
  5
31
102
{ACAD_XDICTIONARY
360
4A1
102
}
102
{ACAD_REACTORS
330
29
102
}
330
29
100
AcDbVisualStyle
  2
Hidden
 70
     6
 71
     1
 72
     2
 73
     2
 90
        0
 40
-0.6
 41
-30.0
 62
     5
 63
     7
421
 16777215
 74
     2
 91
        2
 64
     7
 65
   257
 75
     2
175
     1
 42
40.0
 92
        0
 66
   257
 43
1.0
 76
     1
 77
     6
 78
     2
 67
     7
 79
     3
170
     0
171
     0
290
     0
174
     0
 93
        1
 44
0.0
173
     0
291
     0
 45
0.0
1001
ACAD
1000
AcDbSavedByObjectVersion
1070
     0
  0
VISUALSTYLE
  5
3F
102
{ACAD_XDICTIONARY
360
4BD
102
}
102
{ACAD_REACTORS
330
29
102
}
330
29
100
AcDbVisualStyle
  2
JitterOff
 70
    20
 71
     2
 72
     2
 73
     0
 90
        0
 40
-0.6
 41
-30.0
 62
     5
 63
     7
421
 16777215
 74
     1
 91
        4
 64
     7
 65
   257
 75
     1
175
     1
 42
1.0
 92
       10
 66
     7
 43
1.0
 76
     1
 77
     6
 78
     2
 67
     7
 79
     5
170
     0
171
     0
290
     0
174
     0
 93
        1
 44
0.0
173
     0
291
     1
 45
0.0
1001
ACAD
1000
AcDbSavedByObjectVersion
1070
     0
  0
VISUALSTYLE
  5
37
102
{ACAD_XDICTIONARY
360
4AD
102
}
102
{ACAD_REACTORS
330
29
102
}
330
29
100
AcDbVisualStyle
  2
Linepattern
 70
    14
 71
     2
 72
     2
 73
     0
 90
        0
 40
-0.6
 41
-30.0
 62
     5
 63
     7
421
 16777215
 74
     1
 91
        4
 64
     7
 65
   257
 75
     7
175
     7
 42
1.0
 92
        8
 66
     7
 43
1.0
 76
     1
 77
     6
 78
     2
 67
     7
 79
     5
170
     0
171
     0
290
     0
174
     0
 93
        1
 44
0.0
173
     0
291
     1
 45
0.0
1001
ACAD
1000
AcDbSavedByObjectVersion
1070
     0
  0
VISUALSTYLE
  5
40
102
{ACAD_XDICTIONARY
360
4BF
102
}
102
{ACAD_REACTORS
330
29
102
}
330
29
100
AcDbVisualStyle
  2
OverhangOff
 70
    21
 71
     2
 72
     2
 73
     0
 90
        0
 40
-0.6
 41
-30.0
 62
     5
 63
     7
421
 16777215
 74
     1
 91
        4
 64
     7
 65
   257
 75
     1
175
     1
 42
1.0
 92
        9
 66
     7
 43
1.0
 76
     1
 77
     6
 78
     2
 67
     7
 79
     5
170
     0
171
     0
290
     0
174
     0
 93
        1
 44
0.0
173
     0
291
     1
 45
0.0
1001
ACAD
1000
AcDbSavedByObjectVersion
1070
     0
  0
VISUALSTYLE
  5
33
102
{ACAD_XDICTIONARY
360
4A5
102
}
102
{ACAD_REACTORS
330
29
102
}
330
29
100
AcDbVisualStyle
  2
Realistic
 70
     8
 71
     2
 72
     3
 73
     0
 90
        2
 40
-0.6
 41
30.0
 62
     5
 63
     7
421
 16777215
 74
     0
 91
        0
 64
     7
 65
   257
 75
     1
175
     1
 42
1.0
 92
        8
 66
   257
 43
1.0
 76
     1
 77
     6
 78
     2
 67
     7
 79
     3
170
     0
171
     0
290
     0
174
     0
 93
       13
 44
0.0
173
     0
291
     0
 45
0.0
1001
ACAD
1000
AcDbSavedByObjectVersion
1070
     0
  0
VISUALSTYLE
  5
3E
102
{ACAD_XDICTIONARY
360
4BB
102
}
102
{ACAD_REACTORS
330
29
102
}
330
29
100
AcDbVisualStyle
  2
Shaded
 70
    27
 71
     2
 72
     2
 73
     1
 90
        2
 40
-0.6
 41
30.0
 62
     5
 63
     7
421
 16777215
 74
     0
 91
        4
 64
     7
 65
   257
 75
     1
175
     1
 42
1.0
 92
        8
 66
   257
 43
1.0
 76
     1
 77
     6
 78
     2
 67
     8
425
  7895160
 79
     3
170
     0
171
     0
290
     0
174
     0
 93
        5
 44
0.0
173
     0
291
     0
 45
0.0
1001
ACAD
1000
AcDbSavedByObjectVersion
1070
     0
  0
VISUALSTYLE
  5
3D
102
{ACAD_XDICTIONARY
360
4B9
102
}
102
{ACAD_REACTORS
330
29
102
}
330
29
100
AcDbVisualStyle
  2
Shaded with edges
 70
    26
 71
     2
 72
     2
 73
     1
 90
        2
 40
-0.6
 41
30.0
 62
     5
 63
     7
421
 16777215
 74
     1
 91
        2
 64
     7
 65
   257
 75
     2
175
     1
 42
1.0
 92
        8
 66
   257
 43
1.0
 76
     1
 77
     6
 78
     2
 67
     7
 79
     3
170
     0
171
     0
290
     0
174
     0
 93
        5
 44
0.0
173
     0
291
     0
 45
0.0
1001
ACAD
1000
AcDbSavedByObjectVersion
1070
     0
  0
VISUALSTYLE
  5
3A
102
{ACAD_XDICTIONARY
360
4B3
102
}
102
{ACAD_REACTORS
330
29
102
}
330
29
100
AcDbVisualStyle
  2
Shades of Gray
 70
    23
 71
     2
 72
     2
 73
     3
 90
        0
 40
-0.6
 41
-30.0
 62
     5
 63
     7
421
 16777215
 74
     2
 91
        2
 64
     7
 65
     7
 75
     1
175
     1
 42
40.0
 92
        8
 66
     7
 43
1.0
 76
     1
 77
     6
 78
     2
 67
     7
 79
     3
170
     0
171
     0
290
     0
174
     0
 93
        1
 44
0.0
173
     0
291
     0
 45
0.0
1001
ACAD
1000
AcDbSavedByObjectVersion
1070
     0
  0
VISUALSTYLE
  5
3B
102
{ACAD_XDICTIONARY
360
4B5
102
}
102
{ACAD_REACTORS
330
29
102
}
330
29
100
AcDbVisualStyle
  2
Sketchy
 70
    24
 71
     1
 72
     2
 73
     2
 90
        0
 40
-0.6
 41
-30.0
 62
     5
 63
     7
421
 16777215
 74
     2
 91
        2
 64
     7
 65
     7
 75
     1
175
     1
 42
40.0
 92
       11
 66
     7
 43
1.0
 76
     1
 77
     6
 78
     2
 67
     7
 79
     6
170
     0
171
     0
290
     0
174
     0
 93
        1
 44
0.0
173
     0
291
     0
 45
0.0
1001
ACAD
1000
AcDbSavedByObjectVersion
1070
     0
  0
VISUALSTYLE
  5
36
102
{ACAD_XDICTIONARY
360
4AB
102
}
102
{ACAD_REACTORS
330
29
102
}
330
29
100
AcDbVisualStyle
  2
Thicken
 70
    13
 71
     2
 72
     2
 73
     0
 90
        0
 40
-0.6
 41
-30.0
 62
     5
 63
     7
421
 16777215
 74
     1
 91
        4
 64
     7
 65
   257
 75
     1
175
     1
 42
1.0
 92
       12
 66
     7
 43
1.0
 76
     1
 77
     6
 78
     2
 67
     7
 79
     5
170
     0
171
     0
290
     0
174
     0
 93
        1
 44
0.0
173
     0
291
     1
 45
0.0
1001
ACAD
1000
AcDbSavedByObjectVersion
1070
     0
  0
VISUALSTYLE
  5
30
102
{ACAD_XDICTIONARY
360
49F
102
}
102
{ACAD_REACTORS
330
29
102
}
330
29
100
AcDbVisualStyle
  2
Wireframe
 70
     5
 71
     0
 72
     2
 73
     0
 90
        0
 40
-0.6
 41
-30.0
 62
     5
 63
     7
421
 16777215
 74
     1
 91
        4
 64
     7
 65
   257
 75
     1
175
     1
 42
1.0
 92
        0
 66
   257
 43
1.0
 76
     1
 77
     6
 78
     2
 67
     7
 79
     3
170
     0
171
     0
290
     0
174
     0
 93
        1
 44
0.0
173
     0
291
     0
 45
0.0
1001
ACAD
1000
AcDbSavedByObjectVersion
1070
     0
  0
VISUALSTYLE
  5
3C
102
{ACAD_XDICTIONARY
360
4B7
102
}
102
{ACAD_REACTORS
330
29
102
}
330
29
100
AcDbVisualStyle
  2
X-Ray
 70
    25
 71
     2
 72
     2
 73
     1
 90
        1
 40
0.5
 41
-30.0
 62
     5
 63
     7
421
 16777215
 74
     1
 91
        0
 64
     7
 65
   257
 75
     1
175
     1
 42
1.0
 92
        8
 66
     7
 43
1.0
 76
     1
 77
     6
 78
     2
 67
     7
 79
     3
170
     0
171
     0
290
     0
174
     0
 93
       13
 44
0.0
173
     0
291
     0
 45
0.0
1001
ACAD
1000
AcDbSavedByObjectVersion
1070
     0
  0
DICTIONARYVAR
  5
48A
102
{ACAD_REACTORS
330
78
102
}
330
78
100
DictionaryVariables
280
     0
  1
1:1
  0
DICTIONARYVAR
  5
79
102
{ACAD_REACTORS
330
78
102
}
330
78
100
DictionaryVariables
280
     0
  1
3.500000
  0
DICTIONARYVAR
  5
7A
102
{ACAD_REACTORS
330
78
102
}
330
78
100
DictionaryVariables
280
     0
  1
ACADLTiso.lin
  0
DICTIONARYVAR
  5
487
102
{ACAD_REACTORS
330
78
102
}
330
78
100
DictionaryVariables
280
     0
  1
STANDARD
  0
DICTIONARYVAR
  5
486
102
{ACAD_REACTORS
330
78
102
}
330
78
100
DictionaryVariables
280
     0
  1
STANDARD
  0
DICTIONARYVAR
  5
488
102
{ACAD_REACTORS
330
78
102
}
330
78
100
DictionaryVariables
280
     0
  1
Metric50
  0
DICTIONARYVAR
  5
489
102
{ACAD_REACTORS
330
78
102
}
330
78
100
DictionaryVariables
280
     0
  1
Metric50
  0
DICTIONARYVAR
  5
48B
102
{ACAD_REACTORS
330
78
102
}
330
78
100
DictionaryVariables
280
     0
  1
2
  0
DICTIONARY
  5
4C8
330
6B
100
AcDbDictionary
280
     1
281
     1
  3
ACAD_XREC_ROUNDTRIP
360
4C9
  0
DICTIONARY
  5
1A
330
19
100
AcDbDictionary
280
     1
281
     1
  3
BUMPTILE
360
1C
  3
DIFFUSETILE
360
1B
  3
OPACITYTILE
360
1F
  3
REFLECTIONTILE
360
1E
  3
REFRACTIONTILE
360
20
  3
SPECULARTILE
360
1D
  0
DICTIONARY
  5
12
330
11
100
AcDbDictionary
280
     1
281
     1
  3
BUMPTILE
360
14
  3
DIFFUSETILE
360
13
  3
OPACITYTILE
360
17
  3
REFLECTIONTILE
360
16
  3
REFRACTIONTILE
360
18
  3
SPECULARTILE
360
15
  0
DICTIONARY
  5
22
330
21
100
AcDbDictionary
280
     1
281
     1
  3
BUMPTILE
360
24
  3
DIFFUSETILE
360
23
  3
OPACITYTILE
360
27
  3
REFLECTIONTILE
360
26
  3
REFRACTIONTILE
360
28
  3
SPECULARTILE
360
25
  0
DICTIONARY
  5
4C4
330
67
100
AcDbDictionary
280
     1
281
     1
  3
ACAD_XREC_ROUNDTRIP
360
4C5
  0
DICTIONARY
  5
4C6
330
69
100
AcDbDictionary
280
     1
281
     1
  3
ACAD_XREC_ROUNDTRIP
360
4C7
  0
DICTIONARY
  5
48C
330
65
100
AcDbDictionary
280
     1
281
     1
  3
ACAD_ROUNDTRIP_2008_TABLESTYLE_CELLSTYLEMAP
360
48D
  0
DICTIONARY
  5
49D
330
2F
100
AcDbDictionary
280
     1
281
     1
  3
ACAD_XREC_ROUNDTRIP
360
49E
  0
DICTIONARY
  5
49B
330
2E
100
AcDbDictionary
280
     1
281
     1
  3
ACAD_XREC_ROUNDTRIP
360
49C
  0
DICTIONARY
  5
4A9
330
35
100
AcDbDictionary
280
     1
281
     1
  3
ACAD_XREC_ROUNDTRIP
360
4AA
  0
DICTIONARY
  5
4B1
330
39
100
AcDbDictionary
280
     1
281
     1
  3
ACAD_XREC_ROUNDTRIP
360
4B2
  0
DICTIONARY
  5
4A3
330
32
100
AcDbDictionary
280
     1
281
     1
  3
ACAD_XREC_ROUNDTRIP
360
4A4
  0
DICTIONARY
  5
4A7
330
34
100
AcDbDictionary
280
     1
281
     1
  3
ACAD_XREC_ROUNDTRIP
360
4A8
  0
DICTIONARY
  5
4C1
330
41
100
AcDbDictionary
280
     1
281
     1
  3
ACAD_XREC_ROUNDTRIP
360
4C2
  0
DICTIONARY
  5
4AF
330
38
100
AcDbDictionary
280
     1
281
     1
  3
ACAD_XREC_ROUNDTRIP
360
4B0
  0
DICTIONARY
  5
493
330
2A
100
AcDbDictionary
280
     1
281
     1
  3
ACAD_XREC_ROUNDTRIP
360
494
  0
DICTIONARY
  5
495
330
2B
100
AcDbDictionary
280
     1
281
     1
  3
ACAD_XREC_ROUNDTRIP
360
496
  0
DICTIONARY
  5
497
330
2C
100
AcDbDictionary
280
     1
281
     1
  3
ACAD_XREC_ROUNDTRIP
360
498
  0
DICTIONARY
  5
499
330
2D
100
AcDbDictionary
280
     1
281
     1
  3
ACAD_XREC_ROUNDTRIP
360
49A
  0
DICTIONARY
  5
4A1
330
31
100
AcDbDictionary
280
     1
281
     1
  3
ACAD_XREC_ROUNDTRIP
360
4A2
  0
DICTIONARY
  5
4BD
330
3F
100
AcDbDictionary
280
     1
281
     1
  3
ACAD_XREC_ROUNDTRIP
360
4BE
  0
DICTIONARY
  5
4AD
330
37
100
AcDbDictionary
280
     1
281
     1
  3
ACAD_XREC_ROUNDTRIP
360
4AE
  0
DICTIONARY
  5
4BF
330
40
100
AcDbDictionary
280
     1
281
     1
  3
ACAD_XREC_ROUNDTRIP
360
4C0
  0
DICTIONARY
  5
4A5
330
33
100
AcDbDictionary
280
     1
281
     1
  3
ACAD_XREC_ROUNDTRIP
360
4A6
  0
DICTIONARY
  5
4BB
330
3E
100
AcDbDictionary
280
     1
281
     1
  3
ACAD_XREC_ROUNDTRIP
360
4BC
  0
DICTIONARY
  5
4B9
330
3D
100
AcDbDictionary
280
     1
281
     1
  3
ACAD_XREC_ROUNDTRIP
360
4BA
  0
DICTIONARY
  5
4B3
330
3A
100
AcDbDictionary
280
     1
281
     1
  3
ACAD_XREC_ROUNDTRIP
360
4B4
  0
DICTIONARY
  5
4B5
330
3B
100
AcDbDictionary
280
     1
281
     1
  3
ACAD_XREC_ROUNDTRIP
360
4B6
  0
DICTIONARY
  5
4AB
330
36
100
AcDbDictionary
280
     1
281
     1
  3
ACAD_XREC_ROUNDTRIP
360
4AC
  0
DICTIONARY
  5
49F
330
30
100
AcDbDictionary
280
     1
281
     1
  3
ACAD_XREC_ROUNDTRIP
360
4A0
  0
DICTIONARY
  5
4B7
330
3C
100
AcDbDictionary
280
     1
281
     1
  3
ACAD_XREC_ROUNDTRIP
360
4B8
  0
XRECORD
  5
4C9
102
{ACAD_REACTORS
330
4C8
102
}
330
4C8
100
AcDbXrecord
280
     1
102
DISPLAYNAME
  1
Metric50
102
FLAGS
 90
        0
  0
XRECORD
  5
1C
102
{ACAD_REACTORS
330
1A
102
}
330
1A
100
AcDbXrecord
280
     1
270
     1
271
     1
  0
XRECORD
  5
1B
102
{ACAD_REACTORS
330
1A
102
}
330
1A
100
AcDbXrecord
280
     1
270
     1
271
     1
  0
XRECORD
  5
1F
102
{ACAD_REACTORS
330
1A
102
}
330
1A
100
AcDbXrecord
280
     1
270
     1
271
     1
  0
XRECORD
  5
1E
102
{ACAD_REACTORS
330
1A
102
}
330
1A
100
AcDbXrecord
280
     1
270
     1
271
     1
  0
XRECORD
  5
20
102
{ACAD_REACTORS
330
1A
102
}
330
1A
100
AcDbXrecord
280
     1
270
     1
271
     1
  0
XRECORD
  5
1D
102
{ACAD_REACTORS
330
1A
102
}
330
1A
100
AcDbXrecord
280
     1
270
     1
271
     1
  0
XRECORD
  5
14
102
{ACAD_REACTORS
330
12
102
}
330
12
100
AcDbXrecord
280
     1
270
     1
271
     1
  0
XRECORD
  5
13
102
{ACAD_REACTORS
330
12
102
}
330
12
100
AcDbXrecord
280
     1
270
     1
271
     1
  0
XRECORD
  5
17
102
{ACAD_REACTORS
330
12
102
}
330
12
100
AcDbXrecord
280
     1
270
     1
271
     1
  0
XRECORD
  5
16
102
{ACAD_REACTORS
330
12
102
}
330
12
100
AcDbXrecord
280
     1
270
     1
271
     1
  0
XRECORD
  5
18
102
{ACAD_REACTORS
330
12
102
}
330
12
100
AcDbXrecord
280
     1
270
     1
271
     1
  0
XRECORD
  5
15
102
{ACAD_REACTORS
330
12
102
}
330
12
100
AcDbXrecord
280
     1
270
     1
271
     1
  0
XRECORD
  5
24
102
{ACAD_REACTORS
330
22
102
}
330
22
100
AcDbXrecord
280
     1
270
     1
271
     1
  0
XRECORD
  5
23
102
{ACAD_REACTORS
330
22
102
}
330
22
100
AcDbXrecord
280
     1
270
     1
271
     1
  0
XRECORD
  5
27
102
{ACAD_REACTORS
330
22
102
}
330
22
100
AcDbXrecord
280
     1
270
     1
271
     1
  0
XRECORD
  5
26
102
{ACAD_REACTORS
330
22
102
}
330
22
100
AcDbXrecord
280
     1
270
     1
271
     1
  0
XRECORD
  5
28
102
{ACAD_REACTORS
330
22
102
}
330
22
100
AcDbXrecord
280
     1
270
     1
271
     1
  0
XRECORD
  5
25
102
{ACAD_REACTORS
330
22
102
}
330
22
100
AcDbXrecord
280
     1
270
     1
271
     1
  0
XRECORD
  5
4C5
102
{ACAD_REACTORS
330
4C4
102
}
330
4C4
100
AcDbXrecord
280
     1
102
ACAD_ROUNDTRIP_2012_MLEADER_STYLE
298
     1
  0
XRECORD
  5
4C7
102
{ACAD_REACTORS
330
4C6
102
}
330
4C6
100
AcDbXrecord
280
     1
102
DISPLAYNAME
  1
Metric50
102
FLAGS
 90
        0
  0
CELLSTYLEMAP
  5
48D
102
{ACAD_REACTORS
330
48C
102
}
330
48C
100
AcDbCellStyleMap
 90
        3
300
CELLSTYLE
  1
TABLEFORMAT_BEGIN
 90
        5
170
     1
 91
        0
 92
    32768
 62
   257
 93
        1
300
CONTENTFORMAT
  1
CONTENTFORMAT_BEGIN
 90
        0
 91
        0
 92
      512
 93
        0
300

 40
0.0
140
1.0
 94
        5
 62
     0
340
55
144
6.0
309
CONTENTFORMAT_END
171
     1
301
MARGIN
  1
CELLMARGIN_BEGIN
 40
1.5
 40
1.5
 40
1.5
 40
1.5
 40
4.5
 40
4.5
309
CELLMARGIN_END
 94
        6
 95
        1
302
GRIDFORMAT
  1
GRIDFORMAT_BEGIN
 90
        0
 91
        1
 62
     0
 92
       -2
340
0
 93
        0
 40
1.125
309
GRIDFORMAT_END
 95
        2
302
GRIDFORMAT
  1
GRIDFORMAT_BEGIN
 90
        0
 91
        1
 62
     0
 92
       -2
340
0
 93
        0
 40
1.125
309
GRIDFORMAT_END
 95
        4
302
GRIDFORMAT
  1
GRIDFORMAT_BEGIN
 90
        0
 91
        1
 62
     0
 92
       -2
340
0
 93
        0
 40
1.125
309
GRIDFORMAT_END
 95
        8
302
GRIDFORMAT
  1
GRIDFORMAT_BEGIN
 90
        0
 91
        1
 62
     0
 92
       -2
340
0
 93
        0
 40
1.125
309
GRIDFORMAT_END
 95
       16
302
GRIDFORMAT
  1
GRIDFORMAT_BEGIN
 90
        0
 91
        1
 62
     0
 92
       -2
340
0
 93
        0
 40
1.125
309
GRIDFORMAT_END
 95
       32
302
GRIDFORMAT
  1
GRIDFORMAT_BEGIN
 90
        0
 91
        1
 62
     0
 92
       -2
340
0
 93
        0
 40
1.125
309
GRIDFORMAT_END
309
TABLEFORMAT_END
  1
CELLSTYLE_BEGIN
 90
        1
 91
        1
300
_TITLE
309
CELLSTYLE_END
300
CELLSTYLE
  1
TABLEFORMAT_BEGIN
 90
        5
170
     1
 91
        0
 92
        0
 62
   257
 93
        1
300
CONTENTFORMAT
  1
CONTENTFORMAT_BEGIN
 90
        0
 91
        0
 92
      512
 93
        0
300

 40
0.0
140
1.0
 94
        5
 62
     0
340
55
144
4.5
309
CONTENTFORMAT_END
171
     1
301
MARGIN
  1
CELLMARGIN_BEGIN
 40
1.5
 40
1.5
 40
1.5
 40
1.5
 40
4.5
 40
4.5
309
CELLMARGIN_END
 94
        6
 95
        1
302
GRIDFORMAT
  1
GRIDFORMAT_BEGIN
 90
        0
 91
        1
 62
     0
 92
       -2
340
0
 93
        0
 40
1.125
309
GRIDFORMAT_END
 95
        2
302
GRIDFORMAT
  1
GRIDFORMAT_BEGIN
 90
        0
 91
        1
 62
     0
 92
       -2
340
0
 93
        0
 40
1.125
309
GRIDFORMAT_END
 95
        4
302
GRIDFORMAT
  1
GRIDFORMAT_BEGIN
 90
        0
 91
        1
 62
     0
 92
       -2
340
0
 93
        0
 40
1.125
309
GRIDFORMAT_END
 95
        8
302
GRIDFORMAT
  1
GRIDFORMAT_BEGIN
 90
        0
 91
        1
 62
     0
 92
       -2
340
0
 93
        0
 40
1.125
309
GRIDFORMAT_END
 95
       16
302
GRIDFORMAT
  1
GRIDFORMAT_BEGIN
 90
        0
 91
        1
 62
     0
 92
       -2
340
0
 93
        0
 40
1.125
309
GRIDFORMAT_END
 95
       32
302
GRIDFORMAT
  1
GRIDFORMAT_BEGIN
 90
        0
 91
        1
 62
     0
 92
       -2
340
0
 93
        0
 40
1.125
309
GRIDFORMAT_END
309
TABLEFORMAT_END
  1
CELLSTYLE_BEGIN
 90
        2
 91
        1
300
_HEADER
309
CELLSTYLE_END
300
CELLSTYLE
  1
TABLEFORMAT_BEGIN
 90
        5
170
     1
 91
        0
 92
        0
 62
   257
 93
        1
300
CONTENTFORMAT
  1
CONTENTFORMAT_BEGIN
 90
        0
 91
        0
 92
      512
 93
        0
300

 40
0.0
140
1.0
 94
        2
 62
     0
340
55
144
4.5
309
CONTENTFORMAT_END
171
     1
301
MARGIN
  1
CELLMARGIN_BEGIN
 40
1.5
 40
1.5
 40
1.5
 40
1.5
 40
4.5
 40
4.5
309
CELLMARGIN_END
 94
        6
 95
        1
302
GRIDFORMAT
  1
GRIDFORMAT_BEGIN
 90
        0
 91
        1
 62
     0
 92
       -2
340
0
 93
        0
 40
1.125
309
GRIDFORMAT_END
 95
        2
302
GRIDFORMAT
  1
GRIDFORMAT_BEGIN
 90
        0
 91
        1
 62
     0
 92
       -2
340
0
 93
        0
 40
1.125
309
GRIDFORMAT_END
 95
        4
302
GRIDFORMAT
  1
GRIDFORMAT_BEGIN
 90
        0
 91
        1
 62
     0
 92
       -2
340
0
 93
        0
 40
1.125
309
GRIDFORMAT_END
 95
        8
302
GRIDFORMAT
  1
GRIDFORMAT_BEGIN
 90
        0
 91
        1
 62
     0
 92
       -2
340
0
 93
        0
 40
1.125
309
GRIDFORMAT_END
 95
       16
302
GRIDFORMAT
  1
GRIDFORMAT_BEGIN
 90
        0
 91
        1
 62
     0
 92
       -2
340
0
 93
        0
 40
1.125
309
GRIDFORMAT_END
 95
       32
302
GRIDFORMAT
  1
GRIDFORMAT_BEGIN
 90
        0
 91
        1
 62
     0
 92
       -2
340
0
 93
        0
 40
1.125
309
GRIDFORMAT_END
309
TABLEFORMAT_END
  1
CELLSTYLE_BEGIN
 90
        3
 91
        2
300
_DATA
309
CELLSTYLE_END
  0
XRECORD
  5
49E
102
{ACAD_REACTORS
330
49D
102
}
330
49D
100
AcDbXrecord
280
     1
102
RTVSPost2010Prop28
280
     1
102
RTVSPost2010PropOp28
 70
     1
102
RTVSPost2010Prop29
280
     1
102
RTVSPost2010PropOp29
 70
     1
102
RTVSPost2010Prop30
280
     0
102
RTVSPost2010PropOp30
 70
     1
102
RTVSPost2010Prop31
280
     0
102
RTVSPost2010PropOp31
 70
     1
102
RTVSPost2010Prop32
280
     0
102
RTVSPost2010PropOp32
 70
     1
102
RTVSPost2010Prop33
280
     0
102
RTVSPost2010PropOp33
 70
     1
102
RTVSPost2010Prop34
280
     0
102
RTVSPost2010PropOp34
 70
     1
102
RTVSPost2010Prop35
280
     0
102
RTVSPost2010PropOp35
 70
     1
102
RTVSPost2010Prop36
280
     0
102
RTVSPost2010PropOp36
 70
     1
102
RTVSPost2010Prop37
 90
       50
102
RTVSPost2010PropOp37
 70
     1
102
RTVSPost2010Prop38
140
0.0
102
RTVSPost2010PropOp38
 70
     1
102
RTVSPost2010Prop39
140
1.0
102
RTVSPost2010PropOp39
 70
     1
102
RTVSPost2010Prop40
 90
        0
102
RTVSPost2010PropOp40
 70
     1
102
RTVSPost2010Prop41ColorIndex
 90
       18
102
RTVSPost2010Prop41ColorRGB
 90
        0
102
RTVSPost2010PropOp41
 70
     1
102
RTVSPost2010Prop42
 90
       50
102
RTVSPost2010PropOp42
 70
     1
102
RTVSPost2010Prop43
 90
        3
102
RTVSPost2010PropOp43
 70
     1
102
RTVSPost2010Prop44ColorIndex
 90
        5
102
RTVSPost2010Prop44ColorRGB
 90
      255
102
RTVSPost2010PropOp44
 70
     1
102
RTVSPost2010Prop45
280
     0
102
RTVSPost2010PropOp45
 70
     1
102
RTVSPost2010Prop46
 90
       50
102
RTVSPost2010PropOp46
 70
     1
102
RTVSPost2010Prop47
 90
       50
102
RTVSPost2010PropOp47
 70
     1
102
RTVSPost2010Prop48
 90
       50
102
RTVSPost2010PropOp48
 70
     1
102
RTVSPost2010Prop49
280
     0
102
RTVSPost2010PropOp49
 70
     1
102
RTVSPost2010Prop50
 90
       50
102
RTVSPost2010PropOp50
 70
     1
102
RTVSPost2010Prop51ColorIndex
 90
      256
102
RTVSPost2010Prop51ColorRGB
 90
-16777216
102
RTVSPost2010PropOp51
 70
     0
102
RTVSPost2010Prop52
140
1.0
102
RTVSPost2010PropOp52
 70
     0
102
RTVSPost2010Prop53
 90
        2
102
RTVSPost2010PropOp53
 70
     1
102
RTVSPost2010Prop54
  1
strokes_ogs.tif
102
RTVSPost2010PropOp54
 70
     1
102
RTVSPost2010Prop55
280
     0
102
RTVSPost2010PropOp55
 70
     1
102
RTVSPost2010Prop56
140
1.0
102
RTVSPost2010PropOp56
 70
     1
102
RTVSPost2010Prop57
140
1.0
102
RTVSPost2010PropOp57
 70
     1
102
RTVSPropertyOp0
 70
     1
102
RTVSPropertyOp1
 70
     1
102
RTVSPropertyOp2
 70
     1
102
RTVSPropertyOp3
 70
     1
102
RTVSPropertyOp4
 70
     1
102
RTVSPropertyOp5
 70
     1
102
RTVSPropertyOp6
 70
     1
102
RTVSPropertyOp7
 70
     1
102
RTVSPropertyOp8
 70
     1
102
RTVSPropertyOp9
 70
     1
102
RTVSPropertyOp10
 70
     1
102
RTVSPropertyOp11
 70
     1
102
RTVSPropertyOp12
 70
     1
102
RTVSPropertyOp13
 70
     1
102
RTVSPropertyOp14
 70
     1
102
RTVSPropertyOp15
 70
     1
102
RTVSPropertyOp16
 70
     1
102
RTVSPropertyOp17
 70
     1
102
RTVSPropertyOp18
 70
     1
102
RTVSPropertyOp19
 70
     1
102
RTVSPropertyOp20
 70
     1
102
RTVSPropertyOp21
 70
     1
102
RTVSPropertyOp22
 70
     1
102
RTVSPropertyOp23
 70
     1
102
RTVSPropertyOp24
 70
     1
102
RTVSPropertyOp25
 70
     1
102
RTVSPropertyOp26
 70
     1
102
RTVSPropertyOp27
 70
     1
102
RTVSPropertyOp28
 70
     1
102
RTVSPropertyOp29
 70
     1
102
RTVSPropertyOp30
 70
     1
102
RTVSPropertyOp31
 70
     1
102
RTVSPropertyOp32
 70
     1
102
RTVSPropertyOp33
 70
     1
102
RTVSPropertyOp34
 70
     1
102
RTVSPropertyOp35
 70
     1
102
RTVSPropertyOp36
 70
     1
102
RTVSPropertyOp37
 70
     1
102
RTVSPropertyOp38
 70
     1
102
RTVSPropertyOp39
 70
     1
102
RTVSPropertyOp40
 70
     1
102
RTVSPropertyOp41
 70
     1
102
RTVSPropertyOp42
 70
     1
102
RTVSPropertyOp43
 70
     1
102
RTVSPropertyOp44
 70
     1
102
RTVSPropertyOp45
 70
     1
102
RTVSPropertyOp46
 70
     1
102
RTVSPropertyOp47
 70
     1
102
RTVSPropertyOp48
 70
     1
102
RTVSPropertyOp49
 70
     1
102
RTVSPropertyOp50
 70
     1
102
RTVSPropertyOp51
 70
     0
102
RTVSPropertyOp52
 70
     0
102
RTVSPropertyOp53
 70
     1
102
RTVSPropertyOp54
 70
     1
102
RTVSPropertyOp55
 70
     1
102
RTVSPropertyOp56
 70
     1
102
RTVSPropertyOp57
 70
     1
102
RTVSPropertyOp58
 70
     1
102
RTVSPropertyOp59
 70
     1
102
RTVSPropertyOp60
 70
     1
102
RTVSPropertyOp61
 70
     1
102
RTVSPropertyOp62
 70
     1
  0
XRECORD
  5
49C
102
{ACAD_REACTORS
330
49B
102
}
330
49B
100
AcDbXrecord
280
     1
102
RTVSPost2010Prop28
280
     0
102
RTVSPost2010PropOp28
 70
     1
102
RTVSPost2010Prop29
280
     1
102
RTVSPost2010PropOp29
 70
     1
102
RTVSPost2010Prop30
280
     1
102
RTVSPost2010PropOp30
 70
     1
102
RTVSPost2010Prop31
280
     0
102
RTVSPost2010PropOp31
 70
     1
102
RTVSPost2010Prop32
280
     0
102
RTVSPost2010PropOp32
 70
     1
102
RTVSPost2010Prop33
280
     0
102
RTVSPost2010PropOp33
 70
     1
102
RTVSPost2010Prop34
280
     0
102
RTVSPost2010PropOp34
 70
     1
102
RTVSPost2010Prop35
280
     0
102
RTVSPost2010PropOp35
 70
     1
102
RTVSPost2010Prop36
280
     0
102
RTVSPost2010PropOp36
 70
     1
102
RTVSPost2010Prop37
 90
       50
102
RTVSPost2010PropOp37
 70
     1
102
RTVSPost2010Prop38
140
0.0
102
RTVSPost2010PropOp38
 70
     1
102
RTVSPost2010Prop39
140
1.0
102
RTVSPost2010PropOp39
 70
     1
102
RTVSPost2010Prop40
 90
        0
102
RTVSPost2010PropOp40
 70
     1
102
RTVSPost2010Prop41ColorIndex
 90
       18
102
RTVSPost2010Prop41ColorRGB
 90
        0
102
RTVSPost2010PropOp41
 70
     1
102
RTVSPost2010Prop42
 90
       50
102
RTVSPost2010PropOp42
 70
     1
102
RTVSPost2010Prop43
 90
        3
102
RTVSPost2010PropOp43
 70
     1
102
RTVSPost2010Prop44ColorIndex
 90
        5
102
RTVSPost2010Prop44ColorRGB
 90
      255
102
RTVSPost2010PropOp44
 70
     1
102
RTVSPost2010Prop45
280
     0
102
RTVSPost2010PropOp45
 70
     1
102
RTVSPost2010Prop46
 90
       50
102
RTVSPost2010PropOp46
 70
     1
102
RTVSPost2010Prop47
 90
       50
102
RTVSPost2010PropOp47
 70
     1
102
RTVSPost2010Prop48
 90
       50
102
RTVSPost2010PropOp48
 70
     1
102
RTVSPost2010Prop49
280
     0
102
RTVSPost2010PropOp49
 70
     1
102
RTVSPost2010Prop50
 90
       50
102
RTVSPost2010PropOp50
 70
     1
102
RTVSPost2010Prop51ColorIndex
 90
      256
102
RTVSPost2010Prop51ColorRGB
 90
-16777216
102
RTVSPost2010PropOp51
 70
     0
102
RTVSPost2010Prop52
140
1.0
102
RTVSPost2010PropOp52
 70
     0
102
RTVSPost2010Prop53
 90
        2
102
RTVSPost2010PropOp53
 70
     1
102
RTVSPost2010Prop54
  1
strokes_ogs.tif
102
RTVSPost2010PropOp54
 70
     1
102
RTVSPost2010Prop55
280
     0
102
RTVSPost2010PropOp55
 70
     1
102
RTVSPost2010Prop56
140
1.0
102
RTVSPost2010PropOp56
 70
     1
102
RTVSPost2010Prop57
140
1.0
102
RTVSPost2010PropOp57
 70
     1
102
RTVSPropertyOp0
 70
     1
102
RTVSPropertyOp1
 70
     1
102
RTVSPropertyOp2
 70
     1
102
RTVSPropertyOp3
 70
     1
102
RTVSPropertyOp4
 70
     1
102
RTVSPropertyOp5
 70
     1
102
RTVSPropertyOp6
 70
     1
102
RTVSPropertyOp7
 70
     1
102
RTVSPropertyOp8
 70
     1
102
RTVSPropertyOp9
 70
     1
102
RTVSPropertyOp10
 70
     1
102
RTVSPropertyOp11
 70
     1
102
RTVSPropertyOp12
 70
     1
102
RTVSPropertyOp13
 70
     1
102
RTVSPropertyOp14
 70
     1
102
RTVSPropertyOp15
 70
     1
102
RTVSPropertyOp16
 70
     1
102
RTVSPropertyOp17
 70
     1
102
RTVSPropertyOp18
 70
     1
102
RTVSPropertyOp19
 70
     1
102
RTVSPropertyOp20
 70
     1
102
RTVSPropertyOp21
 70
     1
102
RTVSPropertyOp22
 70
     1
102
RTVSPropertyOp23
 70
     1
102
RTVSPropertyOp24
 70
     1
102
RTVSPropertyOp25
 70
     1
102
RTVSPropertyOp26
 70
     1
102
RTVSPropertyOp27
 70
     1
102
RTVSPropertyOp28
 70
     1
102
RTVSPropertyOp29
 70
     1
102
RTVSPropertyOp30
 70
     1
102
RTVSPropertyOp31
 70
     1
102
RTVSPropertyOp32
 70
     1
102
RTVSPropertyOp33
 70
     1
102
RTVSPropertyOp34
 70
     1
102
RTVSPropertyOp35
 70
     1
102
RTVSPropertyOp36
 70
     1
102
RTVSPropertyOp37
 70
     1
102
RTVSPropertyOp38
 70
     1
102
RTVSPropertyOp39
 70
     1
102
RTVSPropertyOp40
 70
     1
102
RTVSPropertyOp41
 70
     1
102
RTVSPropertyOp42
 70
     1
102
RTVSPropertyOp43
 70
     1
102
RTVSPropertyOp44
 70
     1
102
RTVSPropertyOp45
 70
     1
102
RTVSPropertyOp46
 70
     1
102
RTVSPropertyOp47
 70
     1
102
RTVSPropertyOp48
 70
     1
102
RTVSPropertyOp49
 70
     1
102
RTVSPropertyOp50
 70
     1
102
RTVSPropertyOp51
 70
     0
102
RTVSPropertyOp52
 70
     0
102
RTVSPropertyOp53
 70
     1
102
RTVSPropertyOp54
 70
     1
102
RTVSPropertyOp55
 70
     1
102
RTVSPropertyOp56
 70
     1
102
RTVSPropertyOp57
 70
     1
102
RTVSPropertyOp58
 70
     1
102
RTVSPropertyOp59
 70
     1
102
RTVSPropertyOp60
 70
     1
102
RTVSPropertyOp61
 70
     1
102
RTVSPropertyOp62
 70
     1
  0
XRECORD
  5
4AA
102
{ACAD_REACTORS
330
4A9
102
}
330
4A9
100
AcDbXrecord
280
     1
102
RTVSPost2010Prop28
280
     0
102
RTVSPost2010PropOp28
 70
     1
102
RTVSPost2010Prop29
280
     1
102
RTVSPost2010PropOp29
 70
     1
102
RTVSPost2010Prop30
280
     1
102
RTVSPost2010PropOp30
 70
     1
102
RTVSPost2010Prop31
280
     0
102
RTVSPost2010PropOp31
 70
     1
102
RTVSPost2010Prop32
280
     0
102
RTVSPost2010PropOp32
 70
     1
102
RTVSPost2010Prop33
280
     0
102
RTVSPost2010PropOp33
 70
     1
102
RTVSPost2010Prop34
280
     0
102
RTVSPost2010PropOp34
 70
     1
102
RTVSPost2010Prop35
280
     0
102
RTVSPost2010PropOp35
 70
     1
102
RTVSPost2010Prop36
280
     0
102
RTVSPost2010PropOp36
 70
     1
102
RTVSPost2010Prop37
 90
       50
102
RTVSPost2010PropOp37
 70
     1
102
RTVSPost2010Prop38
140
0.0
102
RTVSPost2010PropOp38
 70
     1
102
RTVSPost2010Prop39
140
1.0
102
RTVSPost2010PropOp39
 70
     1
102
RTVSPost2010Prop40
 90
        0
102
RTVSPost2010PropOp40
 70
     1
102
RTVSPost2010Prop41ColorIndex
 90
       18
102
RTVSPost2010Prop41ColorRGB
 90
        0
102
RTVSPost2010PropOp41
 70
     1
102
RTVSPost2010Prop42
 90
       50
102
RTVSPost2010PropOp42
 70
     1
102
RTVSPost2010Prop43
 90
        3
102
RTVSPost2010PropOp43
 70
     1
102
RTVSPost2010Prop44ColorIndex
 90
        5
102
RTVSPost2010Prop44ColorRGB
 90
      255
102
RTVSPost2010PropOp44
 70
     1
102
RTVSPost2010Prop45
280
     0
102
RTVSPost2010PropOp45
 70
     1
102
RTVSPost2010Prop46
 90
       50
102
RTVSPost2010PropOp46
 70
     1
102
RTVSPost2010Prop47
 90
       50
102
RTVSPost2010PropOp47
 70
     1
102
RTVSPost2010Prop48
 90
       50
102
RTVSPost2010PropOp48
 70
     1
102
RTVSPost2010Prop49
280
     0
102
RTVSPost2010PropOp49
 70
     1
102
RTVSPost2010Prop50
 90
       50
102
RTVSPost2010PropOp50
 70
     1
102
RTVSPost2010Prop51ColorIndex
 90
      256
102
RTVSPost2010Prop51ColorRGB
 90
-16777216
102
RTVSPost2010PropOp51
 70
     0
102
RTVSPost2010Prop52
140
1.0
102
RTVSPost2010PropOp52
 70
     0
102
RTVSPost2010Prop53
 90
        2
102
RTVSPost2010PropOp53
 70
     1
102
RTVSPost2010Prop54
  1
strokes_ogs.tif
102
RTVSPost2010PropOp54
 70
     1
102
RTVSPost2010Prop55
280
     0
102
RTVSPost2010PropOp55
 70
     1
102
RTVSPost2010Prop56
140
1.0
102
RTVSPost2010PropOp56
 70
     1
102
RTVSPost2010Prop57
140
1.0
102
RTVSPost2010PropOp57
 70
     1
102
RTVSPropertyOp0
 70
     1
102
RTVSPropertyOp1
 70
     1
102
RTVSPropertyOp2
 70
     1
102
RTVSPropertyOp3
 70
     1
102
RTVSPropertyOp4
 70
     1
102
RTVSPropertyOp5
 70
     1
102
RTVSPropertyOp6
 70
     1
102
RTVSPropertyOp7
 70
     1
102
RTVSPropertyOp8
 70
     1
102
RTVSPropertyOp9
 70
     1
102
RTVSPropertyOp10
 70
     1
102
RTVSPropertyOp11
 70
     1
102
RTVSPropertyOp12
 70
     1
102
RTVSPropertyOp13
 70
     1
102
RTVSPropertyOp14
 70
     1
102
RTVSPropertyOp15
 70
     1
102
RTVSPropertyOp16
 70
     1
102
RTVSPropertyOp17
 70
     1
102
RTVSPropertyOp18
 70
     1
102
RTVSPropertyOp19
 70
     1
102
RTVSPropertyOp20
 70
     1
102
RTVSPropertyOp21
 70
     1
102
RTVSPropertyOp22
 70
     1
102
RTVSPropertyOp23
 70
     1
102
RTVSPropertyOp24
 70
     1
102
RTVSPropertyOp25
 70
     1
102
RTVSPropertyOp26
 70
     1
102
RTVSPropertyOp27
 70
     1
102
RTVSPropertyOp28
 70
     1
102
RTVSPropertyOp29
 70
     1
102
RTVSPropertyOp30
 70
     1
102
RTVSPropertyOp31
 70
     1
102
RTVSPropertyOp32
 70
     1
102
RTVSPropertyOp33
 70
     1
102
RTVSPropertyOp34
 70
     1
102
RTVSPropertyOp35
 70
     1
102
RTVSPropertyOp36
 70
     1
102
RTVSPropertyOp37
 70
     1
102
RTVSPropertyOp38
 70
     1
102
RTVSPropertyOp39
 70
     1
102
RTVSPropertyOp40
 70
     1
102
RTVSPropertyOp41
 70
     1
102
RTVSPropertyOp42
 70
     1
102
RTVSPropertyOp43
 70
     1
102
RTVSPropertyOp44
 70
     1
102
RTVSPropertyOp45
 70
     1
102
RTVSPropertyOp46
 70
     1
102
RTVSPropertyOp47
 70
     1
102
RTVSPropertyOp48
 70
     1
102
RTVSPropertyOp49
 70
     1
102
RTVSPropertyOp50
 70
     1
102
RTVSPropertyOp51
 70
     0
102
RTVSPropertyOp52
 70
     0
102
RTVSPropertyOp53
 70
     1
102
RTVSPropertyOp54
 70
     1
102
RTVSPropertyOp55
 70
     1
102
RTVSPropertyOp56
 70
     1
102
RTVSPropertyOp57
 70
     1
102
RTVSPropertyOp58
 70
     1
102
RTVSPropertyOp59
 70
     1
102
RTVSPropertyOp60
 70
     1
102
RTVSPropertyOp61
 70
     1
102
RTVSPropertyOp62
 70
     1
  0
XRECORD
  5
4B2
102
{ACAD_REACTORS
330
4B1
102
}
330
4B1
100
AcDbXrecord
280
     1
102
RTVSPost2010Prop28
280
     0
102
RTVSPost2010PropOp28
 70
     1
102
RTVSPost2010Prop29
280
     1
102
RTVSPost2010PropOp29
 70
     1
102
RTVSPost2010Prop30
280
     1
102
RTVSPost2010PropOp30
 70
     1
102
RTVSPost2010Prop31
280
     0
102
RTVSPost2010PropOp31
 70
     1
102
RTVSPost2010Prop32
280
     0
102
RTVSPost2010PropOp32
 70
     1
102
RTVSPost2010Prop33
280
     0
102
RTVSPost2010PropOp33
 70
     1
102
RTVSPost2010Prop34
280
     0
102
RTVSPost2010PropOp34
 70
     1
102
RTVSPost2010Prop35
280
     0
102
RTVSPost2010PropOp35
 70
     1
102
RTVSPost2010Prop36
280
     0
102
RTVSPost2010PropOp36
 70
     1
102
RTVSPost2010Prop37
 90
       50
102
RTVSPost2010PropOp37
 70
     1
102
RTVSPost2010Prop38
140
0.0
102
RTVSPost2010PropOp38
 70
     1
102
RTVSPost2010Prop39
140
1.0
102
RTVSPost2010PropOp39
 70
     1
102
RTVSPost2010Prop40
 90
        0
102
RTVSPost2010PropOp40
 70
     1
102
RTVSPost2010Prop41ColorIndex
 90
       18
102
RTVSPost2010Prop41ColorRGB
 90
        0
102
RTVSPost2010PropOp41
 70
     1
102
RTVSPost2010Prop42
 90
       50
102
RTVSPost2010PropOp42
 70
     1
102
RTVSPost2010Prop43
 90
        3
102
RTVSPost2010PropOp43
 70
     1
102
RTVSPost2010Prop44ColorIndex
 90
        5
102
RTVSPost2010Prop44ColorRGB
 90
      255
102
RTVSPost2010PropOp44
 70
     1
102
RTVSPost2010Prop45
280
     0
102
RTVSPost2010PropOp45
 70
     1
102
RTVSPost2010Prop46
 90
       50
102
RTVSPost2010PropOp46
 70
     1
102
RTVSPost2010Prop47
 90
       50
102
RTVSPost2010PropOp47
 70
     1
102
RTVSPost2010Prop48
 90
       50
102
RTVSPost2010PropOp48
 70
     1
102
RTVSPost2010Prop49
280
     0
102
RTVSPost2010PropOp49
 70
     1
102
RTVSPost2010Prop50
 90
       50
102
RTVSPost2010PropOp50
 70
     1
102
RTVSPost2010Prop51ColorIndex
 90
      256
102
RTVSPost2010Prop51ColorRGB
 90
-16777216
102
RTVSPost2010PropOp51
 70
     0
102
RTVSPost2010Prop52
140
1.0
102
RTVSPost2010PropOp52
 70
     0
102
RTVSPost2010Prop53
 90
        2
102
RTVSPost2010PropOp53
 70
     1
102
RTVSPost2010Prop54
  1
strokes_ogs.tif
102
RTVSPost2010PropOp54
 70
     1
102
RTVSPost2010Prop55
280
     0
102
RTVSPost2010PropOp55
 70
     1
102
RTVSPost2010Prop56
140
1.0
102
RTVSPost2010PropOp56
 70
     1
102
RTVSPost2010Prop57
140
1.0
102
RTVSPost2010PropOp57
 70
     1
102
RTVSPropertyOp0
 70
     1
102
RTVSPropertyOp1
 70
     1
102
RTVSPropertyOp2
 70
     1
102
RTVSPropertyOp3
 70
     1
102
RTVSPropertyOp4
 70
     1
102
RTVSPropertyOp5
 70
     1
102
RTVSPropertyOp6
 70
     1
102
RTVSPropertyOp7
 70
     1
102
RTVSPropertyOp8
 70
     1
102
RTVSPropertyOp9
 70
     1
102
RTVSPropertyOp10
 70
     1
102
RTVSPropertyOp11
 70
     1
102
RTVSPropertyOp12
 70
     1
102
RTVSPropertyOp13
 70
     1
102
RTVSPropertyOp14
 70
     1
102
RTVSPropertyOp15
 70
     1
102
RTVSPropertyOp16
 70
     1
102
RTVSPropertyOp17
 70
     1
102
RTVSPropertyOp18
 70
     1
102
RTVSPropertyOp19
 70
     1
102
RTVSPropertyOp20
 70
     1
102
RTVSPropertyOp21
 70
     1
102
RTVSPropertyOp22
 70
     1
102
RTVSPropertyOp23
 70
     1
102
RTVSPropertyOp24
 70
     1
102
RTVSPropertyOp25
 70
     1
102
RTVSPropertyOp26
 70
     1
102
RTVSPropertyOp27
 70
     1
102
RTVSPropertyOp28
 70
     1
102
RTVSPropertyOp29
 70
     1
102
RTVSPropertyOp30
 70
     1
102
RTVSPropertyOp31
 70
     1
102
RTVSPropertyOp32
 70
     1
102
RTVSPropertyOp33
 70
     1
102
RTVSPropertyOp34
 70
     1
102
RTVSPropertyOp35
 70
     1
102
RTVSPropertyOp36
 70
     1
102
RTVSPropertyOp37
 70
     1
102
RTVSPropertyOp38
 70
     1
102
RTVSPropertyOp39
 70
     1
102
RTVSPropertyOp40
 70
     1
102
RTVSPropertyOp41
 70
     1
102
RTVSPropertyOp42
 70
     1
102
RTVSPropertyOp43
 70
     1
102
RTVSPropertyOp44
 70
     1
102
RTVSPropertyOp45
 70
     1
102
RTVSPropertyOp46
 70
     1
102
RTVSPropertyOp47
 70
     1
102
RTVSPropertyOp48
 70
     1
102
RTVSPropertyOp49
 70
     1
102
RTVSPropertyOp50
 70
     1
102
RTVSPropertyOp51
 70
     0
102
RTVSPropertyOp52
 70
     0
102
RTVSPropertyOp53
 70
     1
102
RTVSPropertyOp54
 70
     1
102
RTVSPropertyOp55
 70
     1
102
RTVSPropertyOp56
 70
     1
102
RTVSPropertyOp57
 70
     1
102
RTVSPropertyOp58
 70
     1
102
RTVSPropertyOp59
 70
     1
102
RTVSPropertyOp60
 70
     1
102
RTVSPropertyOp61
 70
     1
102
RTVSPropertyOp62
 70
     1
  0
XRECORD
  5
4A4
102
{ACAD_REACTORS
330
4A3
102
}
330
4A3
100
AcDbXrecord
280
     1
102
RTVSPost2010Prop28
280
     0
102
RTVSPost2010PropOp28
 70
     1
102
RTVSPost2010Prop29
280
     1
102
RTVSPost2010PropOp29
 70
     1
102
RTVSPost2010Prop30
280
     1
102
RTVSPost2010PropOp30
 70
     1
102
RTVSPost2010Prop31
280
     0
102
RTVSPost2010PropOp31
 70
     1
102
RTVSPost2010Prop32
280
     0
102
RTVSPost2010PropOp32
 70
     1
102
RTVSPost2010Prop33
280
     0
102
RTVSPost2010PropOp33
 70
     1
102
RTVSPost2010Prop34
280
     0
102
RTVSPost2010PropOp34
 70
     1
102
RTVSPost2010Prop35
280
     0
102
RTVSPost2010PropOp35
 70
     1
102
RTVSPost2010Prop36
280
     0
102
RTVSPost2010PropOp36
 70
     1
102
RTVSPost2010Prop37
 90
       50
102
RTVSPost2010PropOp37
 70
     1
102
RTVSPost2010Prop38
140
0.0
102
RTVSPost2010PropOp38
 70
     1
102
RTVSPost2010Prop39
140
1.0
102
RTVSPost2010PropOp39
 70
     1
102
RTVSPost2010Prop40
 90
        0
102
RTVSPost2010PropOp40
 70
     1
102
RTVSPost2010Prop41ColorIndex
 90
       18
102
RTVSPost2010Prop41ColorRGB
 90
        0
102
RTVSPost2010PropOp41
 70
     1
102
RTVSPost2010Prop42
 90
       50
102
RTVSPost2010PropOp42
 70
     1
102
RTVSPost2010Prop43
 90
        3
102
RTVSPost2010PropOp43
 70
     1
102
RTVSPost2010Prop44ColorIndex
 90
        5
102
RTVSPost2010Prop44ColorRGB
 90
      255
102
RTVSPost2010PropOp44
 70
     1
102
RTVSPost2010Prop45
280
     0
102
RTVSPost2010PropOp45
 70
     1
102
RTVSPost2010Prop46
 90
       50
102
RTVSPost2010PropOp46
 70
     1
102
RTVSPost2010Prop47
 90
       50
102
RTVSPost2010PropOp47
 70
     1
102
RTVSPost2010Prop48
 90
       50
102
RTVSPost2010PropOp48
 70
     1
102
RTVSPost2010Prop49
280
     0
102
RTVSPost2010PropOp49
 70
     1
102
RTVSPost2010Prop50
 90
       50
102
RTVSPost2010PropOp50
 70
     1
102
RTVSPost2010Prop51ColorIndex
 90
      256
102
RTVSPost2010Prop51ColorRGB
 90
-16777216
102
RTVSPost2010PropOp51
 70
     0
102
RTVSPost2010Prop52
140
1.0
102
RTVSPost2010PropOp52
 70
     0
102
RTVSPost2010Prop53
 90
        2
102
RTVSPost2010PropOp53
 70
     1
102
RTVSPost2010Prop54
  1
strokes_ogs.tif
102
RTVSPost2010PropOp54
 70
     1
102
RTVSPost2010Prop55
280
     0
102
RTVSPost2010PropOp55
 70
     1
102
RTVSPost2010Prop56
140
1.0
102
RTVSPost2010PropOp56
 70
     1
102
RTVSPost2010Prop57
140
1.0
102
RTVSPost2010PropOp57
 70
     1
102
RTVSPropertyOp0
 70
     1
102
RTVSPropertyOp1
 70
     1
102
RTVSPropertyOp2
 70
     1
102
RTVSPropertyOp3
 70
     1
102
RTVSPropertyOp4
 70
     1
102
RTVSPropertyOp5
 70
     1
102
RTVSPropertyOp6
 70
     1
102
RTVSPropertyOp7
 70
     1
102
RTVSPropertyOp8
 70
     1
102
RTVSPropertyOp9
 70
     1
102
RTVSPropertyOp10
 70
     1
102
RTVSPropertyOp11
 70
     1
102
RTVSPropertyOp12
 70
     1
102
RTVSPropertyOp13
 70
     1
102
RTVSPropertyOp14
 70
     1
102
RTVSPropertyOp15
 70
     1
102
RTVSPropertyOp16
 70
     1
102
RTVSPropertyOp17
 70
     1
102
RTVSPropertyOp18
 70
     1
102
RTVSPropertyOp19
 70
     1
102
RTVSPropertyOp20
 70
     1
102
RTVSPropertyOp21
 70
     1
102
RTVSPropertyOp22
 70
     1
102
RTVSPropertyOp23
 70
     1
102
RTVSPropertyOp24
 70
     1
102
RTVSPropertyOp25
 70
     1
102
RTVSPropertyOp26
 70
     1
102
RTVSPropertyOp27
 70
     1
102
RTVSPropertyOp28
 70
     1
102
RTVSPropertyOp29
 70
     1
102
RTVSPropertyOp30
 70
     1
102
RTVSPropertyOp31
 70
     1
102
RTVSPropertyOp32
 70
     1
102
RTVSPropertyOp33
 70
     1
102
RTVSPropertyOp34
 70
     1
102
RTVSPropertyOp35
 70
     1
102
RTVSPropertyOp36
 70
     1
102
RTVSPropertyOp37
 70
     1
102
RTVSPropertyOp38
 70
     1
102
RTVSPropertyOp39
 70
     1
102
RTVSPropertyOp40
 70
     1
102
RTVSPropertyOp41
 70
     1
102
RTVSPropertyOp42
 70
     1
102
RTVSPropertyOp43
 70
     1
102
RTVSPropertyOp44
 70
     1
102
RTVSPropertyOp45
 70
     1
102
RTVSPropertyOp46
 70
     1
102
RTVSPropertyOp47
 70
     1
102
RTVSPropertyOp48
 70
     1
102
RTVSPropertyOp49
 70
     1
102
RTVSPropertyOp50
 70
     1
102
RTVSPropertyOp51
 70
     0
102
RTVSPropertyOp52
 70
     0
102
RTVSPropertyOp53
 70
     1
102
RTVSPropertyOp54
 70
     1
102
RTVSPropertyOp55
 70
     1
102
RTVSPropertyOp56
 70
     1
102
RTVSPropertyOp57
 70
     1
102
RTVSPropertyOp58
 70
     1
102
RTVSPropertyOp59
 70
     1
102
RTVSPropertyOp60
 70
     1
102
RTVSPropertyOp61
 70
     1
102
RTVSPropertyOp62
 70
     1
  0
XRECORD
  5
4A8
102
{ACAD_REACTORS
330
4A7
102
}
330
4A7
100
AcDbXrecord
280
     1
102
RTVSPost2010Prop28
280
     0
102
RTVSPost2010PropOp28
 70
     1
102
RTVSPost2010Prop29
280
     1
102
RTVSPost2010PropOp29
 70
     1
102
RTVSPost2010Prop30
280
     1
102
RTVSPost2010PropOp30
 70
     1
102
RTVSPost2010Prop31
280
     0
102
RTVSPost2010PropOp31
 70
     1
102
RTVSPost2010Prop32
280
     0
102
RTVSPost2010PropOp32
 70
     1
102
RTVSPost2010Prop33
280
     0
102
RTVSPost2010PropOp33
 70
     1
102
RTVSPost2010Prop34
280
     0
102
RTVSPost2010PropOp34
 70
     1
102
RTVSPost2010Prop35
280
     0
102
RTVSPost2010PropOp35
 70
     1
102
RTVSPost2010Prop36
280
     0
102
RTVSPost2010PropOp36
 70
     1
102
RTVSPost2010Prop37
 90
       50
102
RTVSPost2010PropOp37
 70
     1
102
RTVSPost2010Prop38
140
0.0
102
RTVSPost2010PropOp38
 70
     1
102
RTVSPost2010Prop39
140
1.0
102
RTVSPost2010PropOp39
 70
     1
102
RTVSPost2010Prop40
 90
        0
102
RTVSPost2010PropOp40
 70
     1
102
RTVSPost2010Prop41ColorIndex
 90
       18
102
RTVSPost2010Prop41ColorRGB
 90
        0
102
RTVSPost2010PropOp41
 70
     1
102
RTVSPost2010Prop42
 90
       50
102
RTVSPost2010PropOp42
 70
     1
102
RTVSPost2010Prop43
 90
        3
102
RTVSPost2010PropOp43
 70
     1
102
RTVSPost2010Prop44ColorIndex
 90
        5
102
RTVSPost2010Prop44ColorRGB
 90
      255
102
RTVSPost2010PropOp44
 70
     1
102
RTVSPost2010Prop45
280
     0
102
RTVSPost2010PropOp45
 70
     1
102
RTVSPost2010Prop46
 90
       50
102
RTVSPost2010PropOp46
 70
     1
102
RTVSPost2010Prop47
 90
       50
102
RTVSPost2010PropOp47
 70
     1
102
RTVSPost2010Prop48
 90
       50
102
RTVSPost2010PropOp48
 70
     1
102
RTVSPost2010Prop49
280
     0
102
RTVSPost2010PropOp49
 70
     1
102
RTVSPost2010Prop50
 90
       50
102
RTVSPost2010PropOp50
 70
     1
102
RTVSPost2010Prop51ColorIndex
 90
      256
102
RTVSPost2010Prop51ColorRGB
 90
-16777216
102
RTVSPost2010PropOp51
 70
     0
102
RTVSPost2010Prop52
140
1.0
102
RTVSPost2010PropOp52
 70
     0
102
RTVSPost2010Prop53
 90
        2
102
RTVSPost2010PropOp53
 70
     1
102
RTVSPost2010Prop54
  1
strokes_ogs.tif
102
RTVSPost2010PropOp54
 70
     1
102
RTVSPost2010Prop55
280
     0
102
RTVSPost2010PropOp55
 70
     1
102
RTVSPost2010Prop56
140
1.0
102
RTVSPost2010PropOp56
 70
     1
102
RTVSPost2010Prop57
140
1.0
102
RTVSPost2010PropOp57
 70
     1
102
RTVSPropertyOp0
 70
     1
102
RTVSPropertyOp1
 70
     1
102
RTVSPropertyOp2
 70
     1
102
RTVSPropertyOp3
 70
     1
102
RTVSPropertyOp4
 70
     1
102
RTVSPropertyOp5
 70
     1
102
RTVSPropertyOp6
 70
     1
102
RTVSPropertyOp7
 70
     1
102
RTVSPropertyOp8
 70
     1
102
RTVSPropertyOp9
 70
     1
102
RTVSPropertyOp10
 70
     1
102
RTVSPropertyOp11
 70
     1
102
RTVSPropertyOp12
 70
     1
102
RTVSPropertyOp13
 70
     1
102
RTVSPropertyOp14
 70
     1
102
RTVSPropertyOp15
 70
     1
102
RTVSPropertyOp16
 70
     1
102
RTVSPropertyOp17
 70
     1
102
RTVSPropertyOp18
 70
     1
102
RTVSPropertyOp19
 70
     1
102
RTVSPropertyOp20
 70
     1
102
RTVSPropertyOp21
 70
     1
102
RTVSPropertyOp22
 70
     1
102
RTVSPropertyOp23
 70
     1
102
RTVSPropertyOp24
 70
     1
102
RTVSPropertyOp25
 70
     1
102
RTVSPropertyOp26
 70
     1
102
RTVSPropertyOp27
 70
     1
102
RTVSPropertyOp28
 70
     1
102
RTVSPropertyOp29
 70
     1
102
RTVSPropertyOp30
 70
     1
102
RTVSPropertyOp31
 70
     1
102
RTVSPropertyOp32
 70
     1
102
RTVSPropertyOp33
 70
     1
102
RTVSPropertyOp34
 70
     1
102
RTVSPropertyOp35
 70
     1
102
RTVSPropertyOp36
 70
     1
102
RTVSPropertyOp37
 70
     1
102
RTVSPropertyOp38
 70
     1
102
RTVSPropertyOp39
 70
     1
102
RTVSPropertyOp40
 70
     1
102
RTVSPropertyOp41
 70
     1
102
RTVSPropertyOp42
 70
     1
102
RTVSPropertyOp43
 70
     1
102
RTVSPropertyOp44
 70
     1
102
RTVSPropertyOp45
 70
     1
102
RTVSPropertyOp46
 70
     1
102
RTVSPropertyOp47
 70
     1
102
RTVSPropertyOp48
 70
     1
102
RTVSPropertyOp49
 70
     1
102
RTVSPropertyOp50
 70
     1
102
RTVSPropertyOp51
 70
     0
102
RTVSPropertyOp52
 70
     0
102
RTVSPropertyOp53
 70
     1
102
RTVSPropertyOp54
 70
     1
102
RTVSPropertyOp55
 70
     1
102
RTVSPropertyOp56
 70
     1
102
RTVSPropertyOp57
 70
     1
102
RTVSPropertyOp58
 70
     1
102
RTVSPropertyOp59
 70
     1
102
RTVSPropertyOp60
 70
     1
102
RTVSPropertyOp61
 70
     1
102
RTVSPropertyOp62
 70
     1
  0
XRECORD
  5
4C2
102
{ACAD_REACTORS
330
4C1
102
}
330
4C1
100
AcDbXrecord
280
     1
102
RTVSPost2010Prop28
280
     0
102
RTVSPost2010PropOp28
 70
     0
102
RTVSPost2010Prop29
280
     1
102
RTVSPost2010PropOp29
 70
     0
102
RTVSPost2010Prop30
280
     1
102
RTVSPost2010PropOp30
 70
     0
102
RTVSPost2010Prop31
280
     0
102
RTVSPost2010PropOp31
 70
     0
102
RTVSPost2010Prop32
280
     0
102
RTVSPost2010PropOp32
 70
     0
102
RTVSPost2010Prop33
280
     0
102
RTVSPost2010PropOp33
 70
     0
102
RTVSPost2010Prop34
280
     0
102
RTVSPost2010PropOp34
 70
     0
102
RTVSPost2010Prop35
280
     0
102
RTVSPost2010PropOp35
 70
     0
102
RTVSPost2010Prop36
280
     0
102
RTVSPost2010PropOp36
 70
     0
102
RTVSPost2010Prop37
 90
       50
102
RTVSPost2010PropOp37
 70
     0
102
RTVSPost2010Prop38
140
0.0
102
RTVSPost2010PropOp38
 70
     0
102
RTVSPost2010Prop39
140
1.0
102
RTVSPost2010PropOp39
 70
     0
102
RTVSPost2010Prop40
 90
        0
102
RTVSPost2010PropOp40
 70
     0
102
RTVSPost2010Prop41ColorIndex
 90
       18
102
RTVSPost2010Prop41ColorRGB
 90
        0
102
RTVSPost2010PropOp41
 70
     0
102
RTVSPost2010Prop42
 90
       50
102
RTVSPost2010PropOp42
 70
     0
102
RTVSPost2010Prop43
 90
        3
102
RTVSPost2010PropOp43
 70
     0
102
RTVSPost2010Prop44ColorIndex
 90
        5
102
RTVSPost2010Prop44ColorRGB
 90
      255
102
RTVSPost2010PropOp44
 70
     0
102
RTVSPost2010Prop45
280
     0
102
RTVSPost2010PropOp45
 70
     0
102
RTVSPost2010Prop46
 90
       50
102
RTVSPost2010PropOp46
 70
     0
102
RTVSPost2010Prop47
 90
       50
102
RTVSPost2010PropOp47
 70
     0
102
RTVSPost2010Prop48
 90
       50
102
RTVSPost2010PropOp48
 70
     0
102
RTVSPost2010Prop49
280
     0
102
RTVSPost2010PropOp49
 70
     0
102
RTVSPost2010Prop50
 90
       50
102
RTVSPost2010PropOp50
 70
     0
102
RTVSPost2010Prop51ColorIndex
 90
      256
102
RTVSPost2010Prop51ColorRGB
 90
-16777216
102
RTVSPost2010PropOp51
 70
     0
102
RTVSPost2010Prop52
140
1.0
102
RTVSPost2010PropOp52
 70
     0
102
RTVSPost2010Prop53
 90
        2
102
RTVSPost2010PropOp53
 70
     0
102
RTVSPost2010Prop54
  1
strokes_ogs.tif
102
RTVSPost2010PropOp54
 70
     0
102
RTVSPost2010Prop55
280
     0
102
RTVSPost2010PropOp55
 70
     0
102
RTVSPost2010Prop56
140
1.0
102
RTVSPost2010PropOp56
 70
     0
102
RTVSPost2010Prop57
140
1.0
102
RTVSPost2010PropOp57
 70
     0
102
RTVSPropertyOp0
 70
     0
102
RTVSPropertyOp1
 70
     0
102
RTVSPropertyOp2
 70
     0
102
RTVSPropertyOp3
 70
     0
102
RTVSPropertyOp4
 70
     0
102
RTVSPropertyOp5
 70
     0
102
RTVSPropertyOp6
 70
     0
102
RTVSPropertyOp7
 70
     0
102
RTVSPropertyOp8
 70
     0
102
RTVSPropertyOp9
 70
     0
102
RTVSPropertyOp10
 70
     0
102
RTVSPropertyOp11
 70
     0
102
RTVSPropertyOp12
 70
     0
102
RTVSPropertyOp13
 70
     0
102
RTVSPropertyOp14
 70
     2
102
RTVSPropertyOp15
 70
     0
102
RTVSPropertyOp16
 70
     0
102
RTVSPropertyOp17
 70
     0
102
RTVSPropertyOp18
 70
     0
102
RTVSPropertyOp19
 70
     0
102
RTVSPropertyOp20
 70
     0
102
RTVSPropertyOp21
 70
     0
102
RTVSPropertyOp22
 70
     0
102
RTVSPropertyOp23
 70
     0
102
RTVSPropertyOp24
 70
     0
102
RTVSPropertyOp25
 70
     0
102
RTVSPropertyOp26
 70
     0
102
RTVSPropertyOp27
 70
     0
102
RTVSPropertyOp28
 70
     0
102
RTVSPropertyOp29
 70
     0
102
RTVSPropertyOp30
 70
     0
102
RTVSPropertyOp31
 70
     0
102
RTVSPropertyOp32
 70
     0
102
RTVSPropertyOp33
 70
     0
102
RTVSPropertyOp34
 70
     0
102
RTVSPropertyOp35
 70
     0
102
RTVSPropertyOp36
 70
     0
102
RTVSPropertyOp37
 70
     0
102
RTVSPropertyOp38
 70
     0
102
RTVSPropertyOp39
 70
     0
102
RTVSPropertyOp40
 70
     0
102
RTVSPropertyOp41
 70
     0
102
RTVSPropertyOp42
 70
     0
102
RTVSPropertyOp43
 70
     0
102
RTVSPropertyOp44
 70
     0
102
RTVSPropertyOp45
 70
     0
102
RTVSPropertyOp46
 70
     0
102
RTVSPropertyOp47
 70
     0
102
RTVSPropertyOp48
 70
     0
102
RTVSPropertyOp49
 70
     0
102
RTVSPropertyOp50
 70
     0
102
RTVSPropertyOp51
 70
     0
102
RTVSPropertyOp52
 70
     0
102
RTVSPropertyOp53
 70
     0
102
RTVSPropertyOp54
 70
     0
102
RTVSPropertyOp55
 70
     0
102
RTVSPropertyOp56
 70
     0
102
RTVSPropertyOp57
 70
     0
102
RTVSPropertyOp58
 70
     0
102
RTVSPropertyOp59
 70
     0
102
RTVSPropertyOp60
 70
     0
102
RTVSPropertyOp61
 70
     0
102
RTVSPropertyOp62
 70
     0
  0
XRECORD
  5
4B0
102
{ACAD_REACTORS
330
4AF
102
}
330
4AF
100
AcDbXrecord
280
     1
102
RTVSPost2010Prop28
280
     0
102
RTVSPost2010PropOp28
 70
     1
102
RTVSPost2010Prop29
280
     1
102
RTVSPost2010PropOp29
 70
     1
102
RTVSPost2010Prop30
280
     1
102
RTVSPost2010PropOp30
 70
     1
102
RTVSPost2010Prop31
280
     0
102
RTVSPost2010PropOp31
 70
     1
102
RTVSPost2010Prop32
280
     0
102
RTVSPost2010PropOp32
 70
     1
102
RTVSPost2010Prop33
280
     0
102
RTVSPost2010PropOp33
 70
     1
102
RTVSPost2010Prop34
280
     0
102
RTVSPost2010PropOp34
 70
     1
102
RTVSPost2010Prop35
280
     0
102
RTVSPost2010PropOp35
 70
     1
102
RTVSPost2010Prop36
280
     0
102
RTVSPost2010PropOp36
 70
     1
102
RTVSPost2010Prop37
 90
       50
102
RTVSPost2010PropOp37
 70
     1
102
RTVSPost2010Prop38
140
0.0
102
RTVSPost2010PropOp38
 70
     1
102
RTVSPost2010Prop39
140
1.0
102
RTVSPost2010PropOp39
 70
     1
102
RTVSPost2010Prop40
 90
        0
102
RTVSPost2010PropOp40
 70
     1
102
RTVSPost2010Prop41ColorIndex
 90
       18
102
RTVSPost2010Prop41ColorRGB
 90
        0
102
RTVSPost2010PropOp41
 70
     1
102
RTVSPost2010Prop42
 90
       50
102
RTVSPost2010PropOp42
 70
     1
102
RTVSPost2010Prop43
 90
        3
102
RTVSPost2010PropOp43
 70
     1
102
RTVSPost2010Prop44ColorIndex
 90
        5
102
RTVSPost2010Prop44ColorRGB
 90
      255
102
RTVSPost2010PropOp44
 70
     1
102
RTVSPost2010Prop45
280
     0
102
RTVSPost2010PropOp45
 70
     1
102
RTVSPost2010Prop46
 90
       50
102
RTVSPost2010PropOp46
 70
     1
102
RTVSPost2010Prop47
 90
       50
102
RTVSPost2010PropOp47
 70
     1
102
RTVSPost2010Prop48
 90
       50
102
RTVSPost2010PropOp48
 70
     1
102
RTVSPost2010Prop49
280
     0
102
RTVSPost2010PropOp49
 70
     1
102
RTVSPost2010Prop50
 90
       50
102
RTVSPost2010PropOp50
 70
     1
102
RTVSPost2010Prop51ColorIndex
 90
      256
102
RTVSPost2010Prop51ColorRGB
 90
-16777216
102
RTVSPost2010PropOp51
 70
     0
102
RTVSPost2010Prop52
140
1.0
102
RTVSPost2010PropOp52
 70
     0
102
RTVSPost2010Prop53
 90
        2
102
RTVSPost2010PropOp53
 70
     1
102
RTVSPost2010Prop54
  1
strokes_ogs.tif
102
RTVSPost2010PropOp54
 70
     1
102
RTVSPost2010Prop55
280
     0
102
RTVSPost2010PropOp55
 70
     1
102
RTVSPost2010Prop56
140
1.0
102
RTVSPost2010PropOp56
 70
     1
102
RTVSPost2010Prop57
140
1.0
102
RTVSPost2010PropOp57
 70
     1
102
RTVSPropertyOp0
 70
     1
102
RTVSPropertyOp1
 70
     1
102
RTVSPropertyOp2
 70
     1
102
RTVSPropertyOp3
 70
     1
102
RTVSPropertyOp4
 70
     1
102
RTVSPropertyOp5
 70
     1
102
RTVSPropertyOp6
 70
     1
102
RTVSPropertyOp7
 70
     1
102
RTVSPropertyOp8
 70
     1
102
RTVSPropertyOp9
 70
     1
102
RTVSPropertyOp10
 70
     1
102
RTVSPropertyOp11
 70
     1
102
RTVSPropertyOp12
 70
     1
102
RTVSPropertyOp13
 70
     1
102
RTVSPropertyOp14
 70
     1
102
RTVSPropertyOp15
 70
     1
102
RTVSPropertyOp16
 70
     1
102
RTVSPropertyOp17
 70
     1
102
RTVSPropertyOp18
 70
     1
102
RTVSPropertyOp19
 70
     1
102
RTVSPropertyOp20
 70
     1
102
RTVSPropertyOp21
 70
     1
102
RTVSPropertyOp22
 70
     1
102
RTVSPropertyOp23
 70
     1
102
RTVSPropertyOp24
 70
     1
102
RTVSPropertyOp25
 70
     1
102
RTVSPropertyOp26
 70
     1
102
RTVSPropertyOp27
 70
     1
102
RTVSPropertyOp28
 70
     1
102
RTVSPropertyOp29
 70
     1
102
RTVSPropertyOp30
 70
     1
102
RTVSPropertyOp31
 70
     1
102
RTVSPropertyOp32
 70
     1
102
RTVSPropertyOp33
 70
     1
102
RTVSPropertyOp34
 70
     1
102
RTVSPropertyOp35
 70
     1
102
RTVSPropertyOp36
 70
     1
102
RTVSPropertyOp37
 70
     1
102
RTVSPropertyOp38
 70
     1
102
RTVSPropertyOp39
 70
     1
102
RTVSPropertyOp40
 70
     1
102
RTVSPropertyOp41
 70
     1
102
RTVSPropertyOp42
 70
     1
102
RTVSPropertyOp43
 70
     1
102
RTVSPropertyOp44
 70
     1
102
RTVSPropertyOp45
 70
     1
102
RTVSPropertyOp46
 70
     1
102
RTVSPropertyOp47
 70
     1
102
RTVSPropertyOp48
 70
     1
102
RTVSPropertyOp49
 70
     1
102
RTVSPropertyOp50
 70
     1
102
RTVSPropertyOp51
 70
     0
102
RTVSPropertyOp52
 70
     0
102
RTVSPropertyOp53
 70
     1
102
RTVSPropertyOp54
 70
     1
102
RTVSPropertyOp55
 70
     1
102
RTVSPropertyOp56
 70
     1
102
RTVSPropertyOp57
 70
     1
102
RTVSPropertyOp58
 70
     1
102
RTVSPropertyOp59
 70
     1
102
RTVSPropertyOp60
 70
     1
102
RTVSPropertyOp61
 70
     1
102
RTVSPropertyOp62
 70
     1
  0
XRECORD
  5
494
102
{ACAD_REACTORS
330
493
102
}
330
493
100
AcDbXrecord
280
     1
102
RTVSPost2010Prop28
280
     0
102
RTVSPost2010PropOp28
 70
     1
102
RTVSPost2010Prop29
280
     1
102
RTVSPost2010PropOp29
 70
     1
102
RTVSPost2010Prop30
280
     1
102
RTVSPost2010PropOp30
 70
     1
102
RTVSPost2010Prop31
280
     0
102
RTVSPost2010PropOp31
 70
     1
102
RTVSPost2010Prop32
280
     0
102
RTVSPost2010PropOp32
 70
     1
102
RTVSPost2010Prop33
280
     0
102
RTVSPost2010PropOp33
 70
     1
102
RTVSPost2010Prop34
280
     0
102
RTVSPost2010PropOp34
 70
     1
102
RTVSPost2010Prop35
280
     0
102
RTVSPost2010PropOp35
 70
     1
102
RTVSPost2010Prop36
280
     0
102
RTVSPost2010PropOp36
 70
     1
102
RTVSPost2010Prop37
 90
       50
102
RTVSPost2010PropOp37
 70
     1
102
RTVSPost2010Prop38
140
0.0
102
RTVSPost2010PropOp38
 70
     1
102
RTVSPost2010Prop39
140
1.0
102
RTVSPost2010PropOp39
 70
     1
102
RTVSPost2010Prop40
 90
        0
102
RTVSPost2010PropOp40
 70
     1
102
RTVSPost2010Prop41ColorIndex
 90
       18
102
RTVSPost2010Prop41ColorRGB
 90
        0
102
RTVSPost2010PropOp41
 70
     1
102
RTVSPost2010Prop42
 90
       50
102
RTVSPost2010PropOp42
 70
     1
102
RTVSPost2010Prop43
 90
        3
102
RTVSPost2010PropOp43
 70
     1
102
RTVSPost2010Prop44ColorIndex
 90
        5
102
RTVSPost2010Prop44ColorRGB
 90
      255
102
RTVSPost2010PropOp44
 70
     1
102
RTVSPost2010Prop45
280
     0
102
RTVSPost2010PropOp45
 70
     1
102
RTVSPost2010Prop46
 90
       50
102
RTVSPost2010PropOp46
 70
     1
102
RTVSPost2010Prop47
 90
       50
102
RTVSPost2010PropOp47
 70
     1
102
RTVSPost2010Prop48
 90
       50
102
RTVSPost2010PropOp48
 70
     1
102
RTVSPost2010Prop49
280
     0
102
RTVSPost2010PropOp49
 70
     1
102
RTVSPost2010Prop50
 90
       50
102
RTVSPost2010PropOp50
 70
     1
102
RTVSPost2010Prop51ColorIndex
 90
      256
102
RTVSPost2010Prop51ColorRGB
 90
-16777216
102
RTVSPost2010PropOp51
 70
     0
102
RTVSPost2010Prop52
140
1.0
102
RTVSPost2010PropOp52
 70
     0
102
RTVSPost2010Prop53
 90
        2
102
RTVSPost2010PropOp53
 70
     1
102
RTVSPost2010Prop54
  1
strokes_ogs.tif
102
RTVSPost2010PropOp54
 70
     1
102
RTVSPost2010Prop55
280
     0
102
RTVSPost2010PropOp55
 70
     1
102
RTVSPost2010Prop56
140
1.0
102
RTVSPost2010PropOp56
 70
     1
102
RTVSPost2010Prop57
140
1.0
102
RTVSPost2010PropOp57
 70
     1
102
RTVSPropertyOp0
 70
     1
102
RTVSPropertyOp1
 70
     1
102
RTVSPropertyOp2
 70
     1
102
RTVSPropertyOp3
 70
     1
102
RTVSPropertyOp4
 70
     1
102
RTVSPropertyOp5
 70
     1
102
RTVSPropertyOp6
 70
     1
102
RTVSPropertyOp7
 70
     1
102
RTVSPropertyOp8
 70
     1
102
RTVSPropertyOp9
 70
     1
102
RTVSPropertyOp10
 70
     1
102
RTVSPropertyOp11
 70
     1
102
RTVSPropertyOp12
 70
     1
102
RTVSPropertyOp13
 70
     1
102
RTVSPropertyOp14
 70
     1
102
RTVSPropertyOp15
 70
     1
102
RTVSPropertyOp16
 70
     1
102
RTVSPropertyOp17
 70
     1
102
RTVSPropertyOp18
 70
     1
102
RTVSPropertyOp19
 70
     1
102
RTVSPropertyOp20
 70
     1
102
RTVSPropertyOp21
 70
     1
102
RTVSPropertyOp22
 70
     1
102
RTVSPropertyOp23
 70
     1
102
RTVSPropertyOp24
 70
     1
102
RTVSPropertyOp25
 70
     1
102
RTVSPropertyOp26
 70
     1
102
RTVSPropertyOp27
 70
     1
102
RTVSPropertyOp28
 70
     1
102
RTVSPropertyOp29
 70
     1
102
RTVSPropertyOp30
 70
     1
102
RTVSPropertyOp31
 70
     1
102
RTVSPropertyOp32
 70
     1
102
RTVSPropertyOp33
 70
     1
102
RTVSPropertyOp34
 70
     1
102
RTVSPropertyOp35
 70
     1
102
RTVSPropertyOp36
 70
     1
102
RTVSPropertyOp37
 70
     1
102
RTVSPropertyOp38
 70
     1
102
RTVSPropertyOp39
 70
     1
102
RTVSPropertyOp40
 70
     1
102
RTVSPropertyOp41
 70
     1
102
RTVSPropertyOp42
 70
     1
102
RTVSPropertyOp43
 70
     1
102
RTVSPropertyOp44
 70
     1
102
RTVSPropertyOp45
 70
     1
102
RTVSPropertyOp46
 70
     1
102
RTVSPropertyOp47
 70
     1
102
RTVSPropertyOp48
 70
     1
102
RTVSPropertyOp49
 70
     1
102
RTVSPropertyOp50
 70
     1
102
RTVSPropertyOp51
 70
     0
102
RTVSPropertyOp52
 70
     0
102
RTVSPropertyOp53
 70
     1
102
RTVSPropertyOp54
 70
     1
102
RTVSPropertyOp55
 70
     1
102
RTVSPropertyOp56
 70
     1
102
RTVSPropertyOp57
 70
     1
102
RTVSPropertyOp58
 70
     1
102
RTVSPropertyOp59
 70
     1
102
RTVSPropertyOp60
 70
     1
102
RTVSPropertyOp61
 70
     1
102
RTVSPropertyOp62
 70
     1
  0
XRECORD
  5
496
102
{ACAD_REACTORS
330
495
102
}
330
495
100
AcDbXrecord
280
     1
102
RTVSPost2010Prop28
280
     0
102
RTVSPost2010PropOp28
 70
     1
102
RTVSPost2010Prop29
280
     1
102
RTVSPost2010PropOp29
 70
     1
102
RTVSPost2010Prop30
280
     1
102
RTVSPost2010PropOp30
 70
     1
102
RTVSPost2010Prop31
280
     0
102
RTVSPost2010PropOp31
 70
     1
102
RTVSPost2010Prop32
280
     0
102
RTVSPost2010PropOp32
 70
     1
102
RTVSPost2010Prop33
280
     0
102
RTVSPost2010PropOp33
 70
     1
102
RTVSPost2010Prop34
280
     0
102
RTVSPost2010PropOp34
 70
     1
102
RTVSPost2010Prop35
280
     0
102
RTVSPost2010PropOp35
 70
     1
102
RTVSPost2010Prop36
280
     0
102
RTVSPost2010PropOp36
 70
     1
102
RTVSPost2010Prop37
 90
       50
102
RTVSPost2010PropOp37
 70
     1
102
RTVSPost2010Prop38
140
0.0
102
RTVSPost2010PropOp38
 70
     1
102
RTVSPost2010Prop39
140
1.0
102
RTVSPost2010PropOp39
 70
     1
102
RTVSPost2010Prop40
 90
        0
102
RTVSPost2010PropOp40
 70
     1
102
RTVSPost2010Prop41ColorIndex
 90
       18
102
RTVSPost2010Prop41ColorRGB
 90
        0
102
RTVSPost2010PropOp41
 70
     1
102
RTVSPost2010Prop42
 90
       50
102
RTVSPost2010PropOp42
 70
     1
102
RTVSPost2010Prop43
 90
        3
102
RTVSPost2010PropOp43
 70
     1
102
RTVSPost2010Prop44ColorIndex
 90
        5
102
RTVSPost2010Prop44ColorRGB
 90
      255
102
RTVSPost2010PropOp44
 70
     1
102
RTVSPost2010Prop45
280
     0
102
RTVSPost2010PropOp45
 70
     1
102
RTVSPost2010Prop46
 90
       50
102
RTVSPost2010PropOp46
 70
     1
102
RTVSPost2010Prop47
 90
       50
102
RTVSPost2010PropOp47
 70
     1
102
RTVSPost2010Prop48
 90
       50
102
RTVSPost2010PropOp48
 70
     1
102
RTVSPost2010Prop49
280
     0
102
RTVSPost2010PropOp49
 70
     1
102
RTVSPost2010Prop50
 90
       50
102
RTVSPost2010PropOp50
 70
     1
102
RTVSPost2010Prop51ColorIndex
 90
      256
102
RTVSPost2010Prop51ColorRGB
 90
-16777216
102
RTVSPost2010PropOp51
 70
     0
102
RTVSPost2010Prop52
140
1.0
102
RTVSPost2010PropOp52
 70
     0
102
RTVSPost2010Prop53
 90
        2
102
RTVSPost2010PropOp53
 70
     1
102
RTVSPost2010Prop54
  1
strokes_ogs.tif
102
RTVSPost2010PropOp54
 70
     1
102
RTVSPost2010Prop55
280
     0
102
RTVSPost2010PropOp55
 70
     1
102
RTVSPost2010Prop56
140
1.0
102
RTVSPost2010PropOp56
 70
     1
102
RTVSPost2010Prop57
140
1.0
102
RTVSPost2010PropOp57
 70
     1
102
RTVSPropertyOp0
 70
     1
102
RTVSPropertyOp1
 70
     1
102
RTVSPropertyOp2
 70
     1
102
RTVSPropertyOp3
 70
     1
102
RTVSPropertyOp4
 70
     1
102
RTVSPropertyOp5
 70
     1
102
RTVSPropertyOp6
 70
     1
102
RTVSPropertyOp7
 70
     1
102
RTVSPropertyOp8
 70
     1
102
RTVSPropertyOp9
 70
     1
102
RTVSPropertyOp10
 70
     1
102
RTVSPropertyOp11
 70
     1
102
RTVSPropertyOp12
 70
     1
102
RTVSPropertyOp13
 70
     1
102
RTVSPropertyOp14
 70
     1
102
RTVSPropertyOp15
 70
     1
102
RTVSPropertyOp16
 70
     1
102
RTVSPropertyOp17
 70
     1
102
RTVSPropertyOp18
 70
     1
102
RTVSPropertyOp19
 70
     1
102
RTVSPropertyOp20
 70
     1
102
RTVSPropertyOp21
 70
     1
102
RTVSPropertyOp22
 70
     1
102
RTVSPropertyOp23
 70
     1
102
RTVSPropertyOp24
 70
     1
102
RTVSPropertyOp25
 70
     1
102
RTVSPropertyOp26
 70
     1
102
RTVSPropertyOp27
 70
     1
102
RTVSPropertyOp28
 70
     1
102
RTVSPropertyOp29
 70
     1
102
RTVSPropertyOp30
 70
     1
102
RTVSPropertyOp31
 70
     1
102
RTVSPropertyOp32
 70
     1
102
RTVSPropertyOp33
 70
     1
102
RTVSPropertyOp34
 70
     1
102
RTVSPropertyOp35
 70
     1
102
RTVSPropertyOp36
 70
     1
102
RTVSPropertyOp37
 70
     1
102
RTVSPropertyOp38
 70
     1
102
RTVSPropertyOp39
 70
     1
102
RTVSPropertyOp40
 70
     1
102
RTVSPropertyOp41
 70
     1
102
RTVSPropertyOp42
 70
     1
102
RTVSPropertyOp43
 70
     1
102
RTVSPropertyOp44
 70
     1
102
RTVSPropertyOp45
 70
     1
102
RTVSPropertyOp46
 70
     1
102
RTVSPropertyOp47
 70
     1
102
RTVSPropertyOp48
 70
     1
102
RTVSPropertyOp49
 70
     1
102
RTVSPropertyOp50
 70
     1
102
RTVSPropertyOp51
 70
     0
102
RTVSPropertyOp52
 70
     0
102
RTVSPropertyOp53
 70
     1
102
RTVSPropertyOp54
 70
     1
102
RTVSPropertyOp55
 70
     1
102
RTVSPropertyOp56
 70
     1
102
RTVSPropertyOp57
 70
     1
102
RTVSPropertyOp58
 70
     1
102
RTVSPropertyOp59
 70
     1
102
RTVSPropertyOp60
 70
     1
102
RTVSPropertyOp61
 70
     1
102
RTVSPropertyOp62
 70
     1
  0
XRECORD
  5
498
102
{ACAD_REACTORS
330
497
102
}
330
497
100
AcDbXrecord
280
     1
102
RTVSPost2010Prop28
280
     0
102
RTVSPost2010PropOp28
 70
     1
102
RTVSPost2010Prop29
280
     1
102
RTVSPost2010PropOp29
 70
     1
102
RTVSPost2010Prop30
280
     1
102
RTVSPost2010PropOp30
 70
     1
102
RTVSPost2010Prop31
280
     0
102
RTVSPost2010PropOp31
 70
     1
102
RTVSPost2010Prop32
280
     0
102
RTVSPost2010PropOp32
 70
     1
102
RTVSPost2010Prop33
280
     0
102
RTVSPost2010PropOp33
 70
     1
102
RTVSPost2010Prop34
280
     0
102
RTVSPost2010PropOp34
 70
     1
102
RTVSPost2010Prop35
280
     0
102
RTVSPost2010PropOp35
 70
     1
102
RTVSPost2010Prop36
280
     0
102
RTVSPost2010PropOp36
 70
     1
102
RTVSPost2010Prop37
 90
       50
102
RTVSPost2010PropOp37
 70
     1
102
RTVSPost2010Prop38
140
0.0
102
RTVSPost2010PropOp38
 70
     1
102
RTVSPost2010Prop39
140
1.0
102
RTVSPost2010PropOp39
 70
     1
102
RTVSPost2010Prop40
 90
        0
102
RTVSPost2010PropOp40
 70
     1
102
RTVSPost2010Prop41ColorIndex
 90
       18
102
RTVSPost2010Prop41ColorRGB
 90
        0
102
RTVSPost2010PropOp41
 70
     1
102
RTVSPost2010Prop42
 90
       50
102
RTVSPost2010PropOp42
 70
     1
102
RTVSPost2010Prop43
 90
        3
102
RTVSPost2010PropOp43
 70
     1
102
RTVSPost2010Prop44ColorIndex
 90
        5
102
RTVSPost2010Prop44ColorRGB
 90
      255
102
RTVSPost2010PropOp44
 70
     1
102
RTVSPost2010Prop45
280
     0
102
RTVSPost2010PropOp45
 70
     1
102
RTVSPost2010Prop46
 90
       50
102
RTVSPost2010PropOp46
 70
     1
102
RTVSPost2010Prop47
 90
       50
102
RTVSPost2010PropOp47
 70
     1
102
RTVSPost2010Prop48
 90
       50
102
RTVSPost2010PropOp48
 70
     1
102
RTVSPost2010Prop49
280
     0
102
RTVSPost2010PropOp49
 70
     1
102
RTVSPost2010Prop50
 90
       50
102
RTVSPost2010PropOp50
 70
     1
102
RTVSPost2010Prop51ColorIndex
 90
      256
102
RTVSPost2010Prop51ColorRGB
 90
-16777216
102
RTVSPost2010PropOp51
 70
     0
102
RTVSPost2010Prop52
140
1.0
102
RTVSPost2010PropOp52
 70
     0
102
RTVSPost2010Prop53
 90
        2
102
RTVSPost2010PropOp53
 70
     1
102
RTVSPost2010Prop54
  1
strokes_ogs.tif
102
RTVSPost2010PropOp54
 70
     1
102
RTVSPost2010Prop55
280
     0
102
RTVSPost2010PropOp55
 70
     1
102
RTVSPost2010Prop56
140
1.0
102
RTVSPost2010PropOp56
 70
     1
102
RTVSPost2010Prop57
140
1.0
102
RTVSPost2010PropOp57
 70
     1
102
RTVSPropertyOp0
 70
     1
102
RTVSPropertyOp1
 70
     1
102
RTVSPropertyOp2
 70
     1
102
RTVSPropertyOp3
 70
     1
102
RTVSPropertyOp4
 70
     1
102
RTVSPropertyOp5
 70
     1
102
RTVSPropertyOp6
 70
     1
102
RTVSPropertyOp7
 70
     1
102
RTVSPropertyOp8
 70
     1
102
RTVSPropertyOp9
 70
     1
102
RTVSPropertyOp10
 70
     1
102
RTVSPropertyOp11
 70
     1
102
RTVSPropertyOp12
 70
     1
102
RTVSPropertyOp13
 70
     1
102
RTVSPropertyOp14
 70
     1
102
RTVSPropertyOp15
 70
     1
102
RTVSPropertyOp16
 70
     1
102
RTVSPropertyOp17
 70
     1
102
RTVSPropertyOp18
 70
     1
102
RTVSPropertyOp19
 70
     1
102
RTVSPropertyOp20
 70
     1
102
RTVSPropertyOp21
 70
     1
102
RTVSPropertyOp22
 70
     1
102
RTVSPropertyOp23
 70
     1
102
RTVSPropertyOp24
 70
     1
102
RTVSPropertyOp25
 70
     1
102
RTVSPropertyOp26
 70
     1
102
RTVSPropertyOp27
 70
     1
102
RTVSPropertyOp28
 70
     1
102
RTVSPropertyOp29
 70
     1
102
RTVSPropertyOp30
 70
     1
102
RTVSPropertyOp31
 70
     1
102
RTVSPropertyOp32
 70
     1
102
RTVSPropertyOp33
 70
     1
102
RTVSPropertyOp34
 70
     1
102
RTVSPropertyOp35
 70
     1
102
RTVSPropertyOp36
 70
     1
102
RTVSPropertyOp37
 70
     1
102
RTVSPropertyOp38
 70
     1
102
RTVSPropertyOp39
 70
     1
102
RTVSPropertyOp40
 70
     1
102
RTVSPropertyOp41
 70
     1
102
RTVSPropertyOp42
 70
     1
102
RTVSPropertyOp43
 70
     1
102
RTVSPropertyOp44
 70
     1
102
RTVSPropertyOp45
 70
     1
102
RTVSPropertyOp46
 70
     1
102
RTVSPropertyOp47
 70
     1
102
RTVSPropertyOp48
 70
     1
102
RTVSPropertyOp49
 70
     1
102
RTVSPropertyOp50
 70
     1
102
RTVSPropertyOp51
 70
     0
102
RTVSPropertyOp52
 70
     0
102
RTVSPropertyOp53
 70
     1
102
RTVSPropertyOp54
 70
     1
102
RTVSPropertyOp55
 70
     1
102
RTVSPropertyOp56
 70
     1
102
RTVSPropertyOp57
 70
     1
102
RTVSPropertyOp58
 70
     1
102
RTVSPropertyOp59
 70
     1
102
RTVSPropertyOp60
 70
     1
102
RTVSPropertyOp61
 70
     1
102
RTVSPropertyOp62
 70
     1
  0
XRECORD
  5
49A
102
{ACAD_REACTORS
330
499
102
}
330
499
100
AcDbXrecord
280
     1
102
RTVSPost2010Prop28
280
     0
102
RTVSPost2010PropOp28
 70
     1
102
RTVSPost2010Prop29
280
     1
102
RTVSPost2010PropOp29
 70
     1
102
RTVSPost2010Prop30
280
     1
102
RTVSPost2010PropOp30
 70
     1
102
RTVSPost2010Prop31
280
     0
102
RTVSPost2010PropOp31
 70
     1
102
RTVSPost2010Prop32
280
     0
102
RTVSPost2010PropOp32
 70
     1
102
RTVSPost2010Prop33
280
     0
102
RTVSPost2010PropOp33
 70
     1
102
RTVSPost2010Prop34
280
     0
102
RTVSPost2010PropOp34
 70
     1
102
RTVSPost2010Prop35
280
     0
102
RTVSPost2010PropOp35
 70
     1
102
RTVSPost2010Prop36
280
     0
102
RTVSPost2010PropOp36
 70
     1
102
RTVSPost2010Prop37
 90
       50
102
RTVSPost2010PropOp37
 70
     1
102
RTVSPost2010Prop38
140
0.0
102
RTVSPost2010PropOp38
 70
     1
102
RTVSPost2010Prop39
140
1.0
102
RTVSPost2010PropOp39
 70
     1
102
RTVSPost2010Prop40
 90
        0
102
RTVSPost2010PropOp40
 70
     1
102
RTVSPost2010Prop41ColorIndex
 90
       18
102
RTVSPost2010Prop41ColorRGB
 90
        0
102
RTVSPost2010PropOp41
 70
     1
102
RTVSPost2010Prop42
 90
       50
102
RTVSPost2010PropOp42
 70
     1
102
RTVSPost2010Prop43
 90
        3
102
RTVSPost2010PropOp43
 70
     1
102
RTVSPost2010Prop44ColorIndex
 90
        5
102
RTVSPost2010Prop44ColorRGB
 90
      255
102
RTVSPost2010PropOp44
 70
     1
102
RTVSPost2010Prop45
280
     0
102
RTVSPost2010PropOp45
 70
     1
102
RTVSPost2010Prop46
 90
       50
102
RTVSPost2010PropOp46
 70
     1
102
RTVSPost2010Prop47
 90
       50
102
RTVSPost2010PropOp47
 70
     1
102
RTVSPost2010Prop48
 90
       50
102
RTVSPost2010PropOp48
 70
     1
102
RTVSPost2010Prop49
280
     0
102
RTVSPost2010PropOp49
 70
     1
102
RTVSPost2010Prop50
 90
       50
102
RTVSPost2010PropOp50
 70
     1
102
RTVSPost2010Prop51ColorIndex
 90
      256
102
RTVSPost2010Prop51ColorRGB
 90
-16777216
102
RTVSPost2010PropOp51
 70
     0
102
RTVSPost2010Prop52
140
1.0
102
RTVSPost2010PropOp52
 70
     0
102
RTVSPost2010Prop53
 90
        2
102
RTVSPost2010PropOp53
 70
     1
102
RTVSPost2010Prop54
  1
strokes_ogs.tif
102
RTVSPost2010PropOp54
 70
     1
102
RTVSPost2010Prop55
280
     0
102
RTVSPost2010PropOp55
 70
     1
102
RTVSPost2010Prop56
140
1.0
102
RTVSPost2010PropOp56
 70
     1
102
RTVSPost2010Prop57
140
1.0
102
RTVSPost2010PropOp57
 70
     1
102
RTVSPropertyOp0
 70
     1
102
RTVSPropertyOp1
 70
     1
102
RTVSPropertyOp2
 70
     1
102
RTVSPropertyOp3
 70
     1
102
RTVSPropertyOp4
 70
     1
102
RTVSPropertyOp5
 70
     1
102
RTVSPropertyOp6
 70
     1
102
RTVSPropertyOp7
 70
     1
102
RTVSPropertyOp8
 70
     1
102
RTVSPropertyOp9
 70
     1
102
RTVSPropertyOp10
 70
     1
102
RTVSPropertyOp11
 70
     1
102
RTVSPropertyOp12
 70
     1
102
RTVSPropertyOp13
 70
     1
102
RTVSPropertyOp14
 70
     1
102
RTVSPropertyOp15
 70
     1
102
RTVSPropertyOp16
 70
     1
102
RTVSPropertyOp17
 70
     1
102
RTVSPropertyOp18
 70
     1
102
RTVSPropertyOp19
 70
     1
102
RTVSPropertyOp20
 70
     1
102
RTVSPropertyOp21
 70
     1
102
RTVSPropertyOp22
 70
     1
102
RTVSPropertyOp23
 70
     1
102
RTVSPropertyOp24
 70
     1
102
RTVSPropertyOp25
 70
     1
102
RTVSPropertyOp26
 70
     1
102
RTVSPropertyOp27
 70
     1
102
RTVSPropertyOp28
 70
     1
102
RTVSPropertyOp29
 70
     1
102
RTVSPropertyOp30
 70
     1
102
RTVSPropertyOp31
 70
     1
102
RTVSPropertyOp32
 70
     1
102
RTVSPropertyOp33
 70
     1
102
RTVSPropertyOp34
 70
     1
102
RTVSPropertyOp35
 70
     1
102
RTVSPropertyOp36
 70
     1
102
RTVSPropertyOp37
 70
     1
102
RTVSPropertyOp38
 70
     1
102
RTVSPropertyOp39
 70
     1
102
RTVSPropertyOp40
 70
     1
102
RTVSPropertyOp41
 70
     1
102
RTVSPropertyOp42
 70
     1
102
RTVSPropertyOp43
 70
     1
102
RTVSPropertyOp44
 70
     1
102
RTVSPropertyOp45
 70
     1
102
RTVSPropertyOp46
 70
     1
102
RTVSPropertyOp47
 70
     1
102
RTVSPropertyOp48
 70
     1
102
RTVSPropertyOp49
 70
     1
102
RTVSPropertyOp50
 70
     1
102
RTVSPropertyOp51
 70
     0
102
RTVSPropertyOp52
 70
     0
102
RTVSPropertyOp53
 70
     1
102
RTVSPropertyOp54
 70
     1
102
RTVSPropertyOp55
 70
     1
102
RTVSPropertyOp56
 70
     1
102
RTVSPropertyOp57
 70
     1
102
RTVSPropertyOp58
 70
     1
102
RTVSPropertyOp59
 70
     1
102
RTVSPropertyOp60
 70
     1
102
RTVSPropertyOp61
 70
     1
102
RTVSPropertyOp62
 70
     1
  0
XRECORD
  5
4A2
102
{ACAD_REACTORS
330
4A1
102
}
330
4A1
100
AcDbXrecord
280
     1
102
RTVSPost2010Prop28
280
     0
102
RTVSPost2010PropOp28
 70
     1
102
RTVSPost2010Prop29
280
     1
102
RTVSPost2010PropOp29
 70
     1
102
RTVSPost2010Prop30
280
     1
102
RTVSPost2010PropOp30
 70
     1
102
RTVSPost2010Prop31
280
     0
102
RTVSPost2010PropOp31
 70
     1
102
RTVSPost2010Prop32
280
     0
102
RTVSPost2010PropOp32
 70
     1
102
RTVSPost2010Prop33
280
     0
102
RTVSPost2010PropOp33
 70
     1
102
RTVSPost2010Prop34
280
     0
102
RTVSPost2010PropOp34
 70
     1
102
RTVSPost2010Prop35
280
     0
102
RTVSPost2010PropOp35
 70
     1
102
RTVSPost2010Prop36
280
     0
102
RTVSPost2010PropOp36
 70
     1
102
RTVSPost2010Prop37
 90
       50
102
RTVSPost2010PropOp37
 70
     1
102
RTVSPost2010Prop38
140
0.0
102
RTVSPost2010PropOp38
 70
     1
102
RTVSPost2010Prop39
140
1.0
102
RTVSPost2010PropOp39
 70
     1
102
RTVSPost2010Prop40
 90
        0
102
RTVSPost2010PropOp40
 70
     1
102
RTVSPost2010Prop41ColorIndex
 90
       18
102
RTVSPost2010Prop41ColorRGB
 90
        0
102
RTVSPost2010PropOp41
 70
     1
102
RTVSPost2010Prop42
 90
       50
102
RTVSPost2010PropOp42
 70
     1
102
RTVSPost2010Prop43
 90
        3
102
RTVSPost2010PropOp43
 70
     1
102
RTVSPost2010Prop44ColorIndex
 90
        5
102
RTVSPost2010Prop44ColorRGB
 90
      255
102
RTVSPost2010PropOp44
 70
     1
102
RTVSPost2010Prop45
280
     0
102
RTVSPost2010PropOp45
 70
     1
102
RTVSPost2010Prop46
 90
       50
102
RTVSPost2010PropOp46
 70
     1
102
RTVSPost2010Prop47
 90
       50
102
RTVSPost2010PropOp47
 70
     1
102
RTVSPost2010Prop48
 90
       50
102
RTVSPost2010PropOp48
 70
     1
102
RTVSPost2010Prop49
280
     0
102
RTVSPost2010PropOp49
 70
     1
102
RTVSPost2010Prop50
 90
       50
102
RTVSPost2010PropOp50
 70
     1
102
RTVSPost2010Prop51ColorIndex
 90
      256
102
RTVSPost2010Prop51ColorRGB
 90
-16777216
102
RTVSPost2010PropOp51
 70
     0
102
RTVSPost2010Prop52
140
1.0
102
RTVSPost2010PropOp52
 70
     0
102
RTVSPost2010Prop53
 90
        2
102
RTVSPost2010PropOp53
 70
     1
102
RTVSPost2010Prop54
  1
strokes_ogs.tif
102
RTVSPost2010PropOp54
 70
     1
102
RTVSPost2010Prop55
280
     0
102
RTVSPost2010PropOp55
 70
     1
102
RTVSPost2010Prop56
140
1.0
102
RTVSPost2010PropOp56
 70
     1
102
RTVSPost2010Prop57
140
1.0
102
RTVSPost2010PropOp57
 70
     1
102
RTVSPropertyOp0
 70
     1
102
RTVSPropertyOp1
 70
     1
102
RTVSPropertyOp2
 70
     1
102
RTVSPropertyOp3
 70
     1
102
RTVSPropertyOp4
 70
     1
102
RTVSPropertyOp5
 70
     1
102
RTVSPropertyOp6
 70
     1
102
RTVSPropertyOp7
 70
     1
102
RTVSPropertyOp8
 70
     1
102
RTVSPropertyOp9
 70
     1
102
RTVSPropertyOp10
 70
     1
102
RTVSPropertyOp11
 70
     1
102
RTVSPropertyOp12
 70
     1
102
RTVSPropertyOp13
 70
     1
102
RTVSPropertyOp14
 70
     1
102
RTVSPropertyOp15
 70
     1
102
RTVSPropertyOp16
 70
     1
102
RTVSPropertyOp17
 70
     1
102
RTVSPropertyOp18
 70
     1
102
RTVSPropertyOp19
 70
     1
102
RTVSPropertyOp20
 70
     1
102
RTVSPropertyOp21
 70
     1
102
RTVSPropertyOp22
 70
     1
102
RTVSPropertyOp23
 70
     1
102
RTVSPropertyOp24
 70
     1
102
RTVSPropertyOp25
 70
     1
102
RTVSPropertyOp26
 70
     1
102
RTVSPropertyOp27
 70
     1
102
RTVSPropertyOp28
 70
     1
102
RTVSPropertyOp29
 70
     1
102
RTVSPropertyOp30
 70
     1
102
RTVSPropertyOp31
 70
     1
102
RTVSPropertyOp32
 70
     1
102
RTVSPropertyOp33
 70
     1
102
RTVSPropertyOp34
 70
     1
102
RTVSPropertyOp35
 70
     1
102
RTVSPropertyOp36
 70
     1
102
RTVSPropertyOp37
 70
     1
102
RTVSPropertyOp38
 70
     1
102
RTVSPropertyOp39
 70
     1
102
RTVSPropertyOp40
 70
     1
102
RTVSPropertyOp41
 70
     1
102
RTVSPropertyOp42
 70
     1
102
RTVSPropertyOp43
 70
     1
102
RTVSPropertyOp44
 70
     1
102
RTVSPropertyOp45
 70
     1
102
RTVSPropertyOp46
 70
     1
102
RTVSPropertyOp47
 70
     1
102
RTVSPropertyOp48
 70
     1
102
RTVSPropertyOp49
 70
     1
102
RTVSPropertyOp50
 70
     1
102
RTVSPropertyOp51
 70
     0
102
RTVSPropertyOp52
 70
     0
102
RTVSPropertyOp53
 70
     1
102
RTVSPropertyOp54
 70
     1
102
RTVSPropertyOp55
 70
     1
102
RTVSPropertyOp56
 70
     1
102
RTVSPropertyOp57
 70
     1
102
RTVSPropertyOp58
 70
     1
102
RTVSPropertyOp59
 70
     1
102
RTVSPropertyOp60
 70
     1
102
RTVSPropertyOp61
 70
     1
102
RTVSPropertyOp62
 70
     1
  0
XRECORD
  5
4BE
102
{ACAD_REACTORS
330
4BD
102
}
330
4BD
100
AcDbXrecord
280
     1
102
RTVSPost2010Prop28
280
     0
102
RTVSPost2010PropOp28
 70
     0
102
RTVSPost2010Prop29
280
     1
102
RTVSPost2010PropOp29
 70
     0
102
RTVSPost2010Prop30
280
     1
102
RTVSPost2010PropOp30
 70
     0
102
RTVSPost2010Prop31
280
     0
102
RTVSPost2010PropOp31
 70
     0
102
RTVSPost2010Prop32
280
     0
102
RTVSPost2010PropOp32
 70
     0
102
RTVSPost2010Prop33
280
     0
102
RTVSPost2010PropOp33
 70
     0
102
RTVSPost2010Prop34
280
     0
102
RTVSPost2010PropOp34
 70
     0
102
RTVSPost2010Prop35
280
     0
102
RTVSPost2010PropOp35
 70
     0
102
RTVSPost2010Prop36
280
     0
102
RTVSPost2010PropOp36
 70
     0
102
RTVSPost2010Prop37
 90
       50
102
RTVSPost2010PropOp37
 70
     0
102
RTVSPost2010Prop38
140
0.0
102
RTVSPost2010PropOp38
 70
     0
102
RTVSPost2010Prop39
140
1.0
102
RTVSPost2010PropOp39
 70
     0
102
RTVSPost2010Prop40
 90
        0
102
RTVSPost2010PropOp40
 70
     0
102
RTVSPost2010Prop41ColorIndex
 90
       18
102
RTVSPost2010Prop41ColorRGB
 90
        0
102
RTVSPost2010PropOp41
 70
     0
102
RTVSPost2010Prop42
 90
       50
102
RTVSPost2010PropOp42
 70
     0
102
RTVSPost2010Prop43
 90
        3
102
RTVSPost2010PropOp43
 70
     0
102
RTVSPost2010Prop44ColorIndex
 90
        5
102
RTVSPost2010Prop44ColorRGB
 90
      255
102
RTVSPost2010PropOp44
 70
     0
102
RTVSPost2010Prop45
280
     0
102
RTVSPost2010PropOp45
 70
     0
102
RTVSPost2010Prop46
 90
       50
102
RTVSPost2010PropOp46
 70
     0
102
RTVSPost2010Prop47
 90
       50
102
RTVSPost2010PropOp47
 70
     0
102
RTVSPost2010Prop48
 90
       50
102
RTVSPost2010PropOp48
 70
     0
102
RTVSPost2010Prop49
280
     0
102
RTVSPost2010PropOp49
 70
     0
102
RTVSPost2010Prop50
 90
       50
102
RTVSPost2010PropOp50
 70
     0
102
RTVSPost2010Prop51ColorIndex
 90
      256
102
RTVSPost2010Prop51ColorRGB
 90
-16777216
102
RTVSPost2010PropOp51
 70
     0
102
RTVSPost2010Prop52
140
1.0
102
RTVSPost2010PropOp52
 70
     0
102
RTVSPost2010Prop53
 90
        2
102
RTVSPost2010PropOp53
 70
     0
102
RTVSPost2010Prop54
  1
strokes_ogs.tif
102
RTVSPost2010PropOp54
 70
     0
102
RTVSPost2010Prop55
280
     0
102
RTVSPost2010PropOp55
 70
     0
102
RTVSPost2010Prop56
140
1.0
102
RTVSPost2010PropOp56
 70
     0
102
RTVSPost2010Prop57
140
1.0
102
RTVSPost2010PropOp57
 70
     0
102
RTVSPropertyOp0
 70
     0
102
RTVSPropertyOp1
 70
     0
102
RTVSPropertyOp2
 70
     0
102
RTVSPropertyOp3
 70
     0
102
RTVSPropertyOp4
 70
     0
102
RTVSPropertyOp5
 70
     0
102
RTVSPropertyOp6
 70
     0
102
RTVSPropertyOp7
 70
     0
102
RTVSPropertyOp8
 70
     0
102
RTVSPropertyOp9
 70
     0
102
RTVSPropertyOp10
 70
     0
102
RTVSPropertyOp11
 70
     0
102
RTVSPropertyOp12
 70
     0
102
RTVSPropertyOp13
 70
     0
102
RTVSPropertyOp14
 70
     2
102
RTVSPropertyOp15
 70
     0
102
RTVSPropertyOp16
 70
     0
102
RTVSPropertyOp17
 70
     0
102
RTVSPropertyOp18
 70
     0
102
RTVSPropertyOp19
 70
     0
102
RTVSPropertyOp20
 70
     0
102
RTVSPropertyOp21
 70
     0
102
RTVSPropertyOp22
 70
     0
102
RTVSPropertyOp23
 70
     0
102
RTVSPropertyOp24
 70
     0
102
RTVSPropertyOp25
 70
     0
102
RTVSPropertyOp26
 70
     0
102
RTVSPropertyOp27
 70
     0
102
RTVSPropertyOp28
 70
     0
102
RTVSPropertyOp29
 70
     0
102
RTVSPropertyOp30
 70
     0
102
RTVSPropertyOp31
 70
     0
102
RTVSPropertyOp32
 70
     0
102
RTVSPropertyOp33
 70
     0
102
RTVSPropertyOp34
 70
     0
102
RTVSPropertyOp35
 70
     0
102
RTVSPropertyOp36
 70
     0
102
RTVSPropertyOp37
 70
     0
102
RTVSPropertyOp38
 70
     0
102
RTVSPropertyOp39
 70
     0
102
RTVSPropertyOp40
 70
     0
102
RTVSPropertyOp41
 70
     0
102
RTVSPropertyOp42
 70
     0
102
RTVSPropertyOp43
 70
     0
102
RTVSPropertyOp44
 70
     0
102
RTVSPropertyOp45
 70
     0
102
RTVSPropertyOp46
 70
     0
102
RTVSPropertyOp47
 70
     0
102
RTVSPropertyOp48
 70
     0
102
RTVSPropertyOp49
 70
     0
102
RTVSPropertyOp50
 70
     0
102
RTVSPropertyOp51
 70
     0
102
RTVSPropertyOp52
 70
     0
102
RTVSPropertyOp53
 70
     0
102
RTVSPropertyOp54
 70
     0
102
RTVSPropertyOp55
 70
     0
102
RTVSPropertyOp56
 70
     0
102
RTVSPropertyOp57
 70
     0
102
RTVSPropertyOp58
 70
     0
102
RTVSPropertyOp59
 70
     0
102
RTVSPropertyOp60
 70
     0
102
RTVSPropertyOp61
 70
     0
102
RTVSPropertyOp62
 70
     0
  0
XRECORD
  5
4AE
102
{ACAD_REACTORS
330
4AD
102
}
330
4AD
100
AcDbXrecord
280
     1
102
RTVSPost2010Prop28
280
     0
102
RTVSPost2010PropOp28
 70
     1
102
RTVSPost2010Prop29
280
     1
102
RTVSPost2010PropOp29
 70
     1
102
RTVSPost2010Prop30
280
     1
102
RTVSPost2010PropOp30
 70
     1
102
RTVSPost2010Prop31
280
     0
102
RTVSPost2010PropOp31
 70
     1
102
RTVSPost2010Prop32
280
     0
102
RTVSPost2010PropOp32
 70
     1
102
RTVSPost2010Prop33
280
     0
102
RTVSPost2010PropOp33
 70
     1
102
RTVSPost2010Prop34
280
     0
102
RTVSPost2010PropOp34
 70
     1
102
RTVSPost2010Prop35
280
     0
102
RTVSPost2010PropOp35
 70
     1
102
RTVSPost2010Prop36
280
     0
102
RTVSPost2010PropOp36
 70
     1
102
RTVSPost2010Prop37
 90
       50
102
RTVSPost2010PropOp37
 70
     1
102
RTVSPost2010Prop38
140
0.0
102
RTVSPost2010PropOp38
 70
     1
102
RTVSPost2010Prop39
140
1.0
102
RTVSPost2010PropOp39
 70
     1
102
RTVSPost2010Prop40
 90
        0
102
RTVSPost2010PropOp40
 70
     1
102
RTVSPost2010Prop41ColorIndex
 90
       18
102
RTVSPost2010Prop41ColorRGB
 90
        0
102
RTVSPost2010PropOp41
 70
     1
102
RTVSPost2010Prop42
 90
       50
102
RTVSPost2010PropOp42
 70
     1
102
RTVSPost2010Prop43
 90
        3
102
RTVSPost2010PropOp43
 70
     1
102
RTVSPost2010Prop44ColorIndex
 90
        5
102
RTVSPost2010Prop44ColorRGB
 90
      255
102
RTVSPost2010PropOp44
 70
     1
102
RTVSPost2010Prop45
280
     0
102
RTVSPost2010PropOp45
 70
     1
102
RTVSPost2010Prop46
 90
       50
102
RTVSPost2010PropOp46
 70
     1
102
RTVSPost2010Prop47
 90
       50
102
RTVSPost2010PropOp47
 70
     1
102
RTVSPost2010Prop48
 90
       50
102
RTVSPost2010PropOp48
 70
     1
102
RTVSPost2010Prop49
280
     0
102
RTVSPost2010PropOp49
 70
     1
102
RTVSPost2010Prop50
 90
       50
102
RTVSPost2010PropOp50
 70
     1
102
RTVSPost2010Prop51ColorIndex
 90
      256
102
RTVSPost2010Prop51ColorRGB
 90
-16777216
102
RTVSPost2010PropOp51
 70
     0
102
RTVSPost2010Prop52
140
1.0
102
RTVSPost2010PropOp52
 70
     0
102
RTVSPost2010Prop53
 90
        2
102
RTVSPost2010PropOp53
 70
     1
102
RTVSPost2010Prop54
  1
strokes_ogs.tif
102
RTVSPost2010PropOp54
 70
     1
102
RTVSPost2010Prop55
280
     0
102
RTVSPost2010PropOp55
 70
     1
102
RTVSPost2010Prop56
140
1.0
102
RTVSPost2010PropOp56
 70
     1
102
RTVSPost2010Prop57
140
1.0
102
RTVSPost2010PropOp57
 70
     1
102
RTVSPropertyOp0
 70
     1
102
RTVSPropertyOp1
 70
     1
102
RTVSPropertyOp2
 70
     1
102
RTVSPropertyOp3
 70
     1
102
RTVSPropertyOp4
 70
     1
102
RTVSPropertyOp5
 70
     1
102
RTVSPropertyOp6
 70
     1
102
RTVSPropertyOp7
 70
     1
102
RTVSPropertyOp8
 70
     1
102
RTVSPropertyOp9
 70
     1
102
RTVSPropertyOp10
 70
     1
102
RTVSPropertyOp11
 70
     1
102
RTVSPropertyOp12
 70
     1
102
RTVSPropertyOp13
 70
     1
102
RTVSPropertyOp14
 70
     1
102
RTVSPropertyOp15
 70
     1
102
RTVSPropertyOp16
 70
     1
102
RTVSPropertyOp17
 70
     1
102
RTVSPropertyOp18
 70
     1
102
RTVSPropertyOp19
 70
     1
102
RTVSPropertyOp20
 70
     1
102
RTVSPropertyOp21
 70
     1
102
RTVSPropertyOp22
 70
     1
102
RTVSPropertyOp23
 70
     1
102
RTVSPropertyOp24
 70
     1
102
RTVSPropertyOp25
 70
     1
102
RTVSPropertyOp26
 70
     1
102
RTVSPropertyOp27
 70
     1
102
RTVSPropertyOp28
 70
     1
102
RTVSPropertyOp29
 70
     1
102
RTVSPropertyOp30
 70
     1
102
RTVSPropertyOp31
 70
     1
102
RTVSPropertyOp32
 70
     1
102
RTVSPropertyOp33
 70
     1
102
RTVSPropertyOp34
 70
     1
102
RTVSPropertyOp35
 70
     1
102
RTVSPropertyOp36
 70
     1
102
RTVSPropertyOp37
 70
     1
102
RTVSPropertyOp38
 70
     1
102
RTVSPropertyOp39
 70
     1
102
RTVSPropertyOp40
 70
     1
102
RTVSPropertyOp41
 70
     1
102
RTVSPropertyOp42
 70
     1
102
RTVSPropertyOp43
 70
     1
102
RTVSPropertyOp44
 70
     1
102
RTVSPropertyOp45
 70
     1
102
RTVSPropertyOp46
 70
     1
102
RTVSPropertyOp47
 70
     1
102
RTVSPropertyOp48
 70
     1
102
RTVSPropertyOp49
 70
     1
102
RTVSPropertyOp50
 70
     1
102
RTVSPropertyOp51
 70
     0
102
RTVSPropertyOp52
 70
     0
102
RTVSPropertyOp53
 70
     1
102
RTVSPropertyOp54
 70
     1
102
RTVSPropertyOp55
 70
     1
102
RTVSPropertyOp56
 70
     1
102
RTVSPropertyOp57
 70
     1
102
RTVSPropertyOp58
 70
     1
102
RTVSPropertyOp59
 70
     1
102
RTVSPropertyOp60
 70
     1
102
RTVSPropertyOp61
 70
     1
102
RTVSPropertyOp62
 70
     1
  0
XRECORD
  5
4C0
102
{ACAD_REACTORS
330
4BF
102
}
330
4BF
100
AcDbXrecord
280
     1
102
RTVSPost2010Prop28
280
     0
102
RTVSPost2010PropOp28
 70
     0
102
RTVSPost2010Prop29
280
     1
102
RTVSPost2010PropOp29
 70
     0
102
RTVSPost2010Prop30
280
     1
102
RTVSPost2010PropOp30
 70
     0
102
RTVSPost2010Prop31
280
     0
102
RTVSPost2010PropOp31
 70
     0
102
RTVSPost2010Prop32
280
     0
102
RTVSPost2010PropOp32
 70
     0
102
RTVSPost2010Prop33
280
     0
102
RTVSPost2010PropOp33
 70
     0
102
RTVSPost2010Prop34
280
     0
102
RTVSPost2010PropOp34
 70
     0
102
RTVSPost2010Prop35
280
     0
102
RTVSPost2010PropOp35
 70
     0
102
RTVSPost2010Prop36
280
     0
102
RTVSPost2010PropOp36
 70
     0
102
RTVSPost2010Prop37
 90
       50
102
RTVSPost2010PropOp37
 70
     0
102
RTVSPost2010Prop38
140
0.0
102
RTVSPost2010PropOp38
 70
     0
102
RTVSPost2010Prop39
140
1.0
102
RTVSPost2010PropOp39
 70
     0
102
RTVSPost2010Prop40
 90
        0
102
RTVSPost2010PropOp40
 70
     0
102
RTVSPost2010Prop41ColorIndex
 90
       18
102
RTVSPost2010Prop41ColorRGB
 90
        0
102
RTVSPost2010PropOp41
 70
     0
102
RTVSPost2010Prop42
 90
       50
102
RTVSPost2010PropOp42
 70
     0
102
RTVSPost2010Prop43
 90
        3
102
RTVSPost2010PropOp43
 70
     0
102
RTVSPost2010Prop44ColorIndex
 90
        5
102
RTVSPost2010Prop44ColorRGB
 90
      255
102
RTVSPost2010PropOp44
 70
     0
102
RTVSPost2010Prop45
280
     0
102
RTVSPost2010PropOp45
 70
     0
102
RTVSPost2010Prop46
 90
       50
102
RTVSPost2010PropOp46
 70
     0
102
RTVSPost2010Prop47
 90
       50
102
RTVSPost2010PropOp47
 70
     0
102
RTVSPost2010Prop48
 90
       50
102
RTVSPost2010PropOp48
 70
     0
102
RTVSPost2010Prop49
280
     0
102
RTVSPost2010PropOp49
 70
     0
102
RTVSPost2010Prop50
 90
       50
102
RTVSPost2010PropOp50
 70
     0
102
RTVSPost2010Prop51ColorIndex
 90
      256
102
RTVSPost2010Prop51ColorRGB
 90
-16777216
102
RTVSPost2010PropOp51
 70
     0
102
RTVSPost2010Prop52
140
1.0
102
RTVSPost2010PropOp52
 70
     0
102
RTVSPost2010Prop53
 90
        2
102
RTVSPost2010PropOp53
 70
     0
102
RTVSPost2010Prop54
  1
strokes_ogs.tif
102
RTVSPost2010PropOp54
 70
     0
102
RTVSPost2010Prop55
280
     0
102
RTVSPost2010PropOp55
 70
     0
102
RTVSPost2010Prop56
140
1.0
102
RTVSPost2010PropOp56
 70
     0
102
RTVSPost2010Prop57
140
1.0
102
RTVSPost2010PropOp57
 70
     0
102
RTVSPropertyOp0
 70
     0
102
RTVSPropertyOp1
 70
     0
102
RTVSPropertyOp2
 70
     0
102
RTVSPropertyOp3
 70
     0
102
RTVSPropertyOp4
 70
     0
102
RTVSPropertyOp5
 70
     0
102
RTVSPropertyOp6
 70
     0
102
RTVSPropertyOp7
 70
     0
102
RTVSPropertyOp8
 70
     0
102
RTVSPropertyOp9
 70
     0
102
RTVSPropertyOp10
 70
     0
102
RTVSPropertyOp11
 70
     0
102
RTVSPropertyOp12
 70
     0
102
RTVSPropertyOp13
 70
     0
102
RTVSPropertyOp14
 70
     2
102
RTVSPropertyOp15
 70
     0
102
RTVSPropertyOp16
 70
     0
102
RTVSPropertyOp17
 70
     0
102
RTVSPropertyOp18
 70
     0
102
RTVSPropertyOp19
 70
     0
102
RTVSPropertyOp20
 70
     0
102
RTVSPropertyOp21
 70
     0
102
RTVSPropertyOp22
 70
     0
102
RTVSPropertyOp23
 70
     0
102
RTVSPropertyOp24
 70
     0
102
RTVSPropertyOp25
 70
     0
102
RTVSPropertyOp26
 70
     0
102
RTVSPropertyOp27
 70
     0
102
RTVSPropertyOp28
 70
     0
102
RTVSPropertyOp29
 70
     0
102
RTVSPropertyOp30
 70
     0
102
RTVSPropertyOp31
 70
     0
102
RTVSPropertyOp32
 70
     0
102
RTVSPropertyOp33
 70
     0
102
RTVSPropertyOp34
 70
     0
102
RTVSPropertyOp35
 70
     0
102
RTVSPropertyOp36
 70
     0
102
RTVSPropertyOp37
 70
     0
102
RTVSPropertyOp38
 70
     0
102
RTVSPropertyOp39
 70
     0
102
RTVSPropertyOp40
 70
     0
102
RTVSPropertyOp41
 70
     0
102
RTVSPropertyOp42
 70
     0
102
RTVSPropertyOp43
 70
     0
102
RTVSPropertyOp44
 70
     0
102
RTVSPropertyOp45
 70
     0
102
RTVSPropertyOp46
 70
     0
102
RTVSPropertyOp47
 70
     0
102
RTVSPropertyOp48
 70
     0
102
RTVSPropertyOp49
 70
     0
102
RTVSPropertyOp50
 70
     0
102
RTVSPropertyOp51
 70
     0
102
RTVSPropertyOp52
 70
     0
102
RTVSPropertyOp53
 70
     0
102
RTVSPropertyOp54
 70
     0
102
RTVSPropertyOp55
 70
     0
102
RTVSPropertyOp56
 70
     0
102
RTVSPropertyOp57
 70
     0
102
RTVSPropertyOp58
 70
     0
102
RTVSPropertyOp59
 70
     0
102
RTVSPropertyOp60
 70
     0
102
RTVSPropertyOp61
 70
     0
102
RTVSPropertyOp62
 70
     0
  0
XRECORD
  5
4A6
102
{ACAD_REACTORS
330
4A5
102
}
330
4A5
100
AcDbXrecord
280
     1
102
RTVSPost2010Prop28
280
     0
102
RTVSPost2010PropOp28
 70
     1
102
RTVSPost2010Prop29
280
     1
102
RTVSPost2010PropOp29
 70
     1
102
RTVSPost2010Prop30
280
     1
102
RTVSPost2010PropOp30
 70
     1
102
RTVSPost2010Prop31
280
     0
102
RTVSPost2010PropOp31
 70
     1
102
RTVSPost2010Prop32
280
     0
102
RTVSPost2010PropOp32
 70
     1
102
RTVSPost2010Prop33
280
     0
102
RTVSPost2010PropOp33
 70
     1
102
RTVSPost2010Prop34
280
     0
102
RTVSPost2010PropOp34
 70
     1
102
RTVSPost2010Prop35
280
     0
102
RTVSPost2010PropOp35
 70
     1
102
RTVSPost2010Prop36
280
     0
102
RTVSPost2010PropOp36
 70
     1
102
RTVSPost2010Prop37
 90
       50
102
RTVSPost2010PropOp37
 70
     1
102
RTVSPost2010Prop38
140
0.0
102
RTVSPost2010PropOp38
 70
     1
102
RTVSPost2010Prop39
140
1.0
102
RTVSPost2010PropOp39
 70
     1
102
RTVSPost2010Prop40
 90
        0
102
RTVSPost2010PropOp40
 70
     1
102
RTVSPost2010Prop41ColorIndex
 90
       18
102
RTVSPost2010Prop41ColorRGB
 90
        0
102
RTVSPost2010PropOp41
 70
     1
102
RTVSPost2010Prop42
 90
       50
102
RTVSPost2010PropOp42
 70
     1
102
RTVSPost2010Prop43
 90
        3
102
RTVSPost2010PropOp43
 70
     1
102
RTVSPost2010Prop44ColorIndex
 90
        5
102
RTVSPost2010Prop44ColorRGB
 90
      255
102
RTVSPost2010PropOp44
 70
     1
102
RTVSPost2010Prop45
280
     0
102
RTVSPost2010PropOp45
 70
     1
102
RTVSPost2010Prop46
 90
       50
102
RTVSPost2010PropOp46
 70
     1
102
RTVSPost2010Prop47
 90
       50
102
RTVSPost2010PropOp47
 70
     1
102
RTVSPost2010Prop48
 90
       50
102
RTVSPost2010PropOp48
 70
     1
102
RTVSPost2010Prop49
280
     0
102
RTVSPost2010PropOp49
 70
     1
102
RTVSPost2010Prop50
 90
       50
102
RTVSPost2010PropOp50
 70
     1
102
RTVSPost2010Prop51ColorIndex
 90
      256
102
RTVSPost2010Prop51ColorRGB
 90
-16777216
102
RTVSPost2010PropOp51
 70
     0
102
RTVSPost2010Prop52
140
1.0
102
RTVSPost2010PropOp52
 70
     0
102
RTVSPost2010Prop53
 90
        2
102
RTVSPost2010PropOp53
 70
     1
102
RTVSPost2010Prop54
  1
strokes_ogs.tif
102
RTVSPost2010PropOp54
 70
     1
102
RTVSPost2010Prop55
280
     0
102
RTVSPost2010PropOp55
 70
     1
102
RTVSPost2010Prop56
140
1.0
102
RTVSPost2010PropOp56
 70
     1
102
RTVSPost2010Prop57
140
1.0
102
RTVSPost2010PropOp57
 70
     1
102
RTVSPropertyOp0
 70
     1
102
RTVSPropertyOp1
 70
     1
102
RTVSPropertyOp2
 70
     1
102
RTVSPropertyOp3
 70
     1
102
RTVSPropertyOp4
 70
     1
102
RTVSPropertyOp5
 70
     1
102
RTVSPropertyOp6
 70
     1
102
RTVSPropertyOp7
 70
     1
102
RTVSPropertyOp8
 70
     1
102
RTVSPropertyOp9
 70
     1
102
RTVSPropertyOp10
 70
     1
102
RTVSPropertyOp11
 70
     1
102
RTVSPropertyOp12
 70
     1
102
RTVSPropertyOp13
 70
     1
102
RTVSPropertyOp14
 70
     1
102
RTVSPropertyOp15
 70
     1
102
RTVSPropertyOp16
 70
     1
102
RTVSPropertyOp17
 70
     1
102
RTVSPropertyOp18
 70
     1
102
RTVSPropertyOp19
 70
     1
102
RTVSPropertyOp20
 70
     1
102
RTVSPropertyOp21
 70
     1
102
RTVSPropertyOp22
 70
     1
102
RTVSPropertyOp23
 70
     1
102
RTVSPropertyOp24
 70
     1
102
RTVSPropertyOp25
 70
     1
102
RTVSPropertyOp26
 70
     1
102
RTVSPropertyOp27
 70
     1
102
RTVSPropertyOp28
 70
     1
102
RTVSPropertyOp29
 70
     1
102
RTVSPropertyOp30
 70
     1
102
RTVSPropertyOp31
 70
     1
102
RTVSPropertyOp32
 70
     1
102
RTVSPropertyOp33
 70
     1
102
RTVSPropertyOp34
 70
     1
102
RTVSPropertyOp35
 70
     1
102
RTVSPropertyOp36
 70
     1
102
RTVSPropertyOp37
 70
     1
102
RTVSPropertyOp38
 70
     1
102
RTVSPropertyOp39
 70
     1
102
RTVSPropertyOp40
 70
     1
102
RTVSPropertyOp41
 70
     1
102
RTVSPropertyOp42
 70
     1
102
RTVSPropertyOp43
 70
     1
102
RTVSPropertyOp44
 70
     1
102
RTVSPropertyOp45
 70
     1
102
RTVSPropertyOp46
 70
     1
102
RTVSPropertyOp47
 70
     1
102
RTVSPropertyOp48
 70
     1
102
RTVSPropertyOp49
 70
     1
102
RTVSPropertyOp50
 70
     1
102
RTVSPropertyOp51
 70
     0
102
RTVSPropertyOp52
 70
     0
102
RTVSPropertyOp53
 70
     1
102
RTVSPropertyOp54
 70
     1
102
RTVSPropertyOp55
 70
     1
102
RTVSPropertyOp56
 70
     1
102
RTVSPropertyOp57
 70
     1
102
RTVSPropertyOp58
 70
     1
102
RTVSPropertyOp59
 70
     1
102
RTVSPropertyOp60
 70
     1
102
RTVSPropertyOp61
 70
     1
102
RTVSPropertyOp62
 70
     1
  0
XRECORD
  5
4BC
102
{ACAD_REACTORS
330
4BB
102
}
330
4BB
100
AcDbXrecord
280
     1
102
RTVSPost2010Prop28
280
     0
102
RTVSPost2010PropOp28
 70
     1
102
RTVSPost2010Prop29
280
     1
102
RTVSPost2010PropOp29
 70
     1
102
RTVSPost2010Prop30
280
     1
102
RTVSPost2010PropOp30
 70
     1
102
RTVSPost2010Prop31
280
     0
102
RTVSPost2010PropOp31
 70
     1
102
RTVSPost2010Prop32
280
     0
102
RTVSPost2010PropOp32
 70
     1
102
RTVSPost2010Prop33
280
     0
102
RTVSPost2010PropOp33
 70
     1
102
RTVSPost2010Prop34
280
     0
102
RTVSPost2010PropOp34
 70
     1
102
RTVSPost2010Prop35
280
     0
102
RTVSPost2010PropOp35
 70
     1
102
RTVSPost2010Prop36
280
     0
102
RTVSPost2010PropOp36
 70
     1
102
RTVSPost2010Prop37
 90
       50
102
RTVSPost2010PropOp37
 70
     1
102
RTVSPost2010Prop38
140
0.0
102
RTVSPost2010PropOp38
 70
     1
102
RTVSPost2010Prop39
140
1.0
102
RTVSPost2010PropOp39
 70
     1
102
RTVSPost2010Prop40
 90
        0
102
RTVSPost2010PropOp40
 70
     1
102
RTVSPost2010Prop41ColorIndex
 90
       18
102
RTVSPost2010Prop41ColorRGB
 90
        0
102
RTVSPost2010PropOp41
 70
     1
102
RTVSPost2010Prop42
 90
       50
102
RTVSPost2010PropOp42
 70
     1
102
RTVSPost2010Prop43
 90
        3
102
RTVSPost2010PropOp43
 70
     1
102
RTVSPost2010Prop44ColorIndex
 90
        5
102
RTVSPost2010Prop44ColorRGB
 90
      255
102
RTVSPost2010PropOp44
 70
     1
102
RTVSPost2010Prop45
280
     0
102
RTVSPost2010PropOp45
 70
     1
102
RTVSPost2010Prop46
 90
       50
102
RTVSPost2010PropOp46
 70
     1
102
RTVSPost2010Prop47
 90
       50
102
RTVSPost2010PropOp47
 70
     1
102
RTVSPost2010Prop48
 90
       50
102
RTVSPost2010PropOp48
 70
     1
102
RTVSPost2010Prop49
280
     0
102
RTVSPost2010PropOp49
 70
     1
102
RTVSPost2010Prop50
 90
       50
102
RTVSPost2010PropOp50
 70
     1
102
RTVSPost2010Prop51ColorIndex
 90
      256
102
RTVSPost2010Prop51ColorRGB
 90
-16777216
102
RTVSPost2010PropOp51
 70
     0
102
RTVSPost2010Prop52
140
1.0
102
RTVSPost2010PropOp52
 70
     0
102
RTVSPost2010Prop53
 90
        2
102
RTVSPost2010PropOp53
 70
     1
102
RTVSPost2010Prop54
  1
strokes_ogs.tif
102
RTVSPost2010PropOp54
 70
     1
102
RTVSPost2010Prop55
280
     0
102
RTVSPost2010PropOp55
 70
     1
102
RTVSPost2010Prop56
140
1.0
102
RTVSPost2010PropOp56
 70
     1
102
RTVSPost2010Prop57
140
1.0
102
RTVSPost2010PropOp57
 70
     1
102
RTVSPropertyOp0
 70
     1
102
RTVSPropertyOp1
 70
     1
102
RTVSPropertyOp2
 70
     1
102
RTVSPropertyOp3
 70
     1
102
RTVSPropertyOp4
 70
     1
102
RTVSPropertyOp5
 70
     1
102
RTVSPropertyOp6
 70
     1
102
RTVSPropertyOp7
 70
     1
102
RTVSPropertyOp8
 70
     1
102
RTVSPropertyOp9
 70
     1
102
RTVSPropertyOp10
 70
     1
102
RTVSPropertyOp11
 70
     1
102
RTVSPropertyOp12
 70
     1
102
RTVSPropertyOp13
 70
     1
102
RTVSPropertyOp14
 70
     1
102
RTVSPropertyOp15
 70
     1
102
RTVSPropertyOp16
 70
     1
102
RTVSPropertyOp17
 70
     1
102
RTVSPropertyOp18
 70
     1
102
RTVSPropertyOp19
 70
     1
102
RTVSPropertyOp20
 70
     1
102
RTVSPropertyOp21
 70
     1
102
RTVSPropertyOp22
 70
     1
102
RTVSPropertyOp23
 70
     1
102
RTVSPropertyOp24
 70
     1
102
RTVSPropertyOp25
 70
     1
102
RTVSPropertyOp26
 70
     1
102
RTVSPropertyOp27
 70
     1
102
RTVSPropertyOp28
 70
     1
102
RTVSPropertyOp29
 70
     1
102
RTVSPropertyOp30
 70
     1
102
RTVSPropertyOp31
 70
     1
102
RTVSPropertyOp32
 70
     1
102
RTVSPropertyOp33
 70
     1
102
RTVSPropertyOp34
 70
     1
102
RTVSPropertyOp35
 70
     1
102
RTVSPropertyOp36
 70
     1
102
RTVSPropertyOp37
 70
     1
102
RTVSPropertyOp38
 70
     1
102
RTVSPropertyOp39
 70
     1
102
RTVSPropertyOp40
 70
     1
102
RTVSPropertyOp41
 70
     1
102
RTVSPropertyOp42
 70
     1
102
RTVSPropertyOp43
 70
     1
102
RTVSPropertyOp44
 70
     1
102
RTVSPropertyOp45
 70
     1
102
RTVSPropertyOp46
 70
     1
102
RTVSPropertyOp47
 70
     1
102
RTVSPropertyOp48
 70
     1
102
RTVSPropertyOp49
 70
     1
102
RTVSPropertyOp50
 70
     1
102
RTVSPropertyOp51
 70
     0
102
RTVSPropertyOp52
 70
     0
102
RTVSPropertyOp53
 70
     1
102
RTVSPropertyOp54
 70
     1
102
RTVSPropertyOp55
 70
     1
102
RTVSPropertyOp56
 70
     1
102
RTVSPropertyOp57
 70
     1
102
RTVSPropertyOp58
 70
     1
102
RTVSPropertyOp59
 70
     1
102
RTVSPropertyOp60
 70
     1
102
RTVSPropertyOp61
 70
     1
102
RTVSPropertyOp62
 70
     1
  0
XRECORD
  5
4BA
102
{ACAD_REACTORS
330
4B9
102
}
330
4B9
100
AcDbXrecord
280
     1
102
RTVSPost2010Prop28
280
     0
102
RTVSPost2010PropOp28
 70
     1
102
RTVSPost2010Prop29
280
     1
102
RTVSPost2010PropOp29
 70
     1
102
RTVSPost2010Prop30
280
     1
102
RTVSPost2010PropOp30
 70
     1
102
RTVSPost2010Prop31
280
     0
102
RTVSPost2010PropOp31
 70
     1
102
RTVSPost2010Prop32
280
     0
102
RTVSPost2010PropOp32
 70
     1
102
RTVSPost2010Prop33
280
     0
102
RTVSPost2010PropOp33
 70
     1
102
RTVSPost2010Prop34
280
     0
102
RTVSPost2010PropOp34
 70
     1
102
RTVSPost2010Prop35
280
     0
102
RTVSPost2010PropOp35
 70
     1
102
RTVSPost2010Prop36
280
     0
102
RTVSPost2010PropOp36
 70
     1
102
RTVSPost2010Prop37
 90
       50
102
RTVSPost2010PropOp37
 70
     1
102
RTVSPost2010Prop38
140
0.0
102
RTVSPost2010PropOp38
 70
     1
102
RTVSPost2010Prop39
140
1.0
102
RTVSPost2010PropOp39
 70
     1
102
RTVSPost2010Prop40
 90
        0
102
RTVSPost2010PropOp40
 70
     1
102
RTVSPost2010Prop41ColorIndex
 90
       18
102
RTVSPost2010Prop41ColorRGB
 90
        0
102
RTVSPost2010PropOp41
 70
     1
102
RTVSPost2010Prop42
 90
       50
102
RTVSPost2010PropOp42
 70
     1
102
RTVSPost2010Prop43
 90
        3
102
RTVSPost2010PropOp43
 70
     1
102
RTVSPost2010Prop44ColorIndex
 90
        5
102
RTVSPost2010Prop44ColorRGB
 90
      255
102
RTVSPost2010PropOp44
 70
     1
102
RTVSPost2010Prop45
280
     0
102
RTVSPost2010PropOp45
 70
     1
102
RTVSPost2010Prop46
 90
       50
102
RTVSPost2010PropOp46
 70
     1
102
RTVSPost2010Prop47
 90
       50
102
RTVSPost2010PropOp47
 70
     1
102
RTVSPost2010Prop48
 90
       50
102
RTVSPost2010PropOp48
 70
     1
102
RTVSPost2010Prop49
280
     0
102
RTVSPost2010PropOp49
 70
     1
102
RTVSPost2010Prop50
 90
       50
102
RTVSPost2010PropOp50
 70
     1
102
RTVSPost2010Prop51ColorIndex
 90
      256
102
RTVSPost2010Prop51ColorRGB
 90
-16777216
102
RTVSPost2010PropOp51
 70
     0
102
RTVSPost2010Prop52
140
1.0
102
RTVSPost2010PropOp52
 70
     0
102
RTVSPost2010Prop53
 90
        2
102
RTVSPost2010PropOp53
 70
     1
102
RTVSPost2010Prop54
  1
strokes_ogs.tif
102
RTVSPost2010PropOp54
 70
     1
102
RTVSPost2010Prop55
280
     0
102
RTVSPost2010PropOp55
 70
     1
102
RTVSPost2010Prop56
140
1.0
102
RTVSPost2010PropOp56
 70
     1
102
RTVSPost2010Prop57
140
1.0
102
RTVSPost2010PropOp57
 70
     1
102
RTVSPropertyOp0
 70
     1
102
RTVSPropertyOp1
 70
     1
102
RTVSPropertyOp2
 70
     1
102
RTVSPropertyOp3
 70
     1
102
RTVSPropertyOp4
 70
     1
102
RTVSPropertyOp5
 70
     1
102
RTVSPropertyOp6
 70
     1
102
RTVSPropertyOp7
 70
     1
102
RTVSPropertyOp8
 70
     1
102
RTVSPropertyOp9
 70
     1
102
RTVSPropertyOp10
 70
     1
102
RTVSPropertyOp11
 70
     1
102
RTVSPropertyOp12
 70
     1
102
RTVSPropertyOp13
 70
     1
102
RTVSPropertyOp14
 70
     1
102
RTVSPropertyOp15
 70
     1
102
RTVSPropertyOp16
 70
     1
102
RTVSPropertyOp17
 70
     1
102
RTVSPropertyOp18
 70
     1
102
RTVSPropertyOp19
 70
     1
102
RTVSPropertyOp20
 70
     1
102
RTVSPropertyOp21
 70
     1
102
RTVSPropertyOp22
 70
     1
102
RTVSPropertyOp23
 70
     1
102
RTVSPropertyOp24
 70
     1
102
RTVSPropertyOp25
 70
     1
102
RTVSPropertyOp26
 70
     1
102
RTVSPropertyOp27
 70
     1
102
RTVSPropertyOp28
 70
     1
102
RTVSPropertyOp29
 70
     1
102
RTVSPropertyOp30
 70
     1
102
RTVSPropertyOp31
 70
     1
102
RTVSPropertyOp32
 70
     1
102
RTVSPropertyOp33
 70
     1
102
RTVSPropertyOp34
 70
     1
102
RTVSPropertyOp35
 70
     1
102
RTVSPropertyOp36
 70
     1
102
RTVSPropertyOp37
 70
     1
102
RTVSPropertyOp38
 70
     1
102
RTVSPropertyOp39
 70
     1
102
RTVSPropertyOp40
 70
     1
102
RTVSPropertyOp41
 70
     1
102
RTVSPropertyOp42
 70
     1
102
RTVSPropertyOp43
 70
     1
102
RTVSPropertyOp44
 70
     1
102
RTVSPropertyOp45
 70
     1
102
RTVSPropertyOp46
 70
     1
102
RTVSPropertyOp47
 70
     1
102
RTVSPropertyOp48
 70
     1
102
RTVSPropertyOp49
 70
     1
102
RTVSPropertyOp50
 70
     1
102
RTVSPropertyOp51
 70
     0
102
RTVSPropertyOp52
 70
     0
102
RTVSPropertyOp53
 70
     1
102
RTVSPropertyOp54
 70
     1
102
RTVSPropertyOp55
 70
     1
102
RTVSPropertyOp56
 70
     1
102
RTVSPropertyOp57
 70
     1
102
RTVSPropertyOp58
 70
     1
102
RTVSPropertyOp59
 70
     1
102
RTVSPropertyOp60
 70
     1
102
RTVSPropertyOp61
 70
     1
102
RTVSPropertyOp62
 70
     1
  0
XRECORD
  5
4B4
102
{ACAD_REACTORS
330
4B3
102
}
330
4B3
100
AcDbXrecord
280
     1
102
RTVSPost2010Prop28
280
     0
102
RTVSPost2010PropOp28
 70
     1
102
RTVSPost2010Prop29
280
     1
102
RTVSPost2010PropOp29
 70
     1
102
RTVSPost2010Prop30
280
     1
102
RTVSPost2010PropOp30
 70
     1
102
RTVSPost2010Prop31
280
     0
102
RTVSPost2010PropOp31
 70
     1
102
RTVSPost2010Prop32
280
     0
102
RTVSPost2010PropOp32
 70
     1
102
RTVSPost2010Prop33
280
     0
102
RTVSPost2010PropOp33
 70
     1
102
RTVSPost2010Prop34
280
     0
102
RTVSPost2010PropOp34
 70
     1
102
RTVSPost2010Prop35
280
     0
102
RTVSPost2010PropOp35
 70
     1
102
RTVSPost2010Prop36
280
     0
102
RTVSPost2010PropOp36
 70
     1
102
RTVSPost2010Prop37
 90
       50
102
RTVSPost2010PropOp37
 70
     1
102
RTVSPost2010Prop38
140
0.0
102
RTVSPost2010PropOp38
 70
     1
102
RTVSPost2010Prop39
140
1.0
102
RTVSPost2010PropOp39
 70
     1
102
RTVSPost2010Prop40
 90
        0
102
RTVSPost2010PropOp40
 70
     1
102
RTVSPost2010Prop41ColorIndex
 90
       18
102
RTVSPost2010Prop41ColorRGB
 90
        0
102
RTVSPost2010PropOp41
 70
     1
102
RTVSPost2010Prop42
 90
       50
102
RTVSPost2010PropOp42
 70
     1
102
RTVSPost2010Prop43
 90
        3
102
RTVSPost2010PropOp43
 70
     1
102
RTVSPost2010Prop44ColorIndex
 90
        5
102
RTVSPost2010Prop44ColorRGB
 90
      255
102
RTVSPost2010PropOp44
 70
     1
102
RTVSPost2010Prop45
280
     0
102
RTVSPost2010PropOp45
 70
     1
102
RTVSPost2010Prop46
 90
       50
102
RTVSPost2010PropOp46
 70
     1
102
RTVSPost2010Prop47
 90
       50
102
RTVSPost2010PropOp47
 70
     1
102
RTVSPost2010Prop48
 90
       50
102
RTVSPost2010PropOp48
 70
     1
102
RTVSPost2010Prop49
280
     0
102
RTVSPost2010PropOp49
 70
     1
102
RTVSPost2010Prop50
 90
       50
102
RTVSPost2010PropOp50
 70
     1
102
RTVSPost2010Prop51ColorIndex
 90
      256
102
RTVSPost2010Prop51ColorRGB
 90
-16777216
102
RTVSPost2010PropOp51
 70
     0
102
RTVSPost2010Prop52
140
1.0
102
RTVSPost2010PropOp52
 70
     0
102
RTVSPost2010Prop53
 90
        2
102
RTVSPost2010PropOp53
 70
     1
102
RTVSPost2010Prop54
  1
strokes_ogs.tif
102
RTVSPost2010PropOp54
 70
     1
102
RTVSPost2010Prop55
280
     0
102
RTVSPost2010PropOp55
 70
     1
102
RTVSPost2010Prop56
140
1.0
102
RTVSPost2010PropOp56
 70
     1
102
RTVSPost2010Prop57
140
1.0
102
RTVSPost2010PropOp57
 70
     1
102
RTVSPropertyOp0
 70
     1
102
RTVSPropertyOp1
 70
     1
102
RTVSPropertyOp2
 70
     1
102
RTVSPropertyOp3
 70
     1
102
RTVSPropertyOp4
 70
     1
102
RTVSPropertyOp5
 70
     1
102
RTVSPropertyOp6
 70
     1
102
RTVSPropertyOp7
 70
     1
102
RTVSPropertyOp8
 70
     1
102
RTVSPropertyOp9
 70
     1
102
RTVSPropertyOp10
 70
     1
102
RTVSPropertyOp11
 70
     1
102
RTVSPropertyOp12
 70
     1
102
RTVSPropertyOp13
 70
     1
102
RTVSPropertyOp14
 70
     1
102
RTVSPropertyOp15
 70
     1
102
RTVSPropertyOp16
 70
     1
102
RTVSPropertyOp17
 70
     1
102
RTVSPropertyOp18
 70
     1
102
RTVSPropertyOp19
 70
     1
102
RTVSPropertyOp20
 70
     1
102
RTVSPropertyOp21
 70
     1
102
RTVSPropertyOp22
 70
     1
102
RTVSPropertyOp23
 70
     1
102
RTVSPropertyOp24
 70
     1
102
RTVSPropertyOp25
 70
     1
102
RTVSPropertyOp26
 70
     1
102
RTVSPropertyOp27
 70
     1
102
RTVSPropertyOp28
 70
     1
102
RTVSPropertyOp29
 70
     1
102
RTVSPropertyOp30
 70
     1
102
RTVSPropertyOp31
 70
     1
102
RTVSPropertyOp32
 70
     1
102
RTVSPropertyOp33
 70
     1
102
RTVSPropertyOp34
 70
     1
102
RTVSPropertyOp35
 70
     1
102
RTVSPropertyOp36
 70
     1
102
RTVSPropertyOp37
 70
     1
102
RTVSPropertyOp38
 70
     1
102
RTVSPropertyOp39
 70
     1
102
RTVSPropertyOp40
 70
     1
102
RTVSPropertyOp41
 70
     1
102
RTVSPropertyOp42
 70
     1
102
RTVSPropertyOp43
 70
     1
102
RTVSPropertyOp44
 70
     1
102
RTVSPropertyOp45
 70
     1
102
RTVSPropertyOp46
 70
     1
102
RTVSPropertyOp47
 70
     1
102
RTVSPropertyOp48
 70
     1
102
RTVSPropertyOp49
 70
     1
102
RTVSPropertyOp50
 70
     1
102
RTVSPropertyOp51
 70
     0
102
RTVSPropertyOp52
 70
     0
102
RTVSPropertyOp53
 70
     1
102
RTVSPropertyOp54
 70
     1
102
RTVSPropertyOp55
 70
     1
102
RTVSPropertyOp56
 70
     1
102
RTVSPropertyOp57
 70
     1
102
RTVSPropertyOp58
 70
     1
102
RTVSPropertyOp59
 70
     1
102
RTVSPropertyOp60
 70
     1
102
RTVSPropertyOp61
 70
     1
102
RTVSPropertyOp62
 70
     1
  0
XRECORD
  5
4B6
102
{ACAD_REACTORS
330
4B5
102
}
330
4B5
100
AcDbXrecord
280
     1
102
RTVSPost2010Prop28
280
     0
102
RTVSPost2010PropOp28
 70
     1
102
RTVSPost2010Prop29
280
     1
102
RTVSPost2010PropOp29
 70
     1
102
RTVSPost2010Prop30
280
     1
102
RTVSPost2010PropOp30
 70
     1
102
RTVSPost2010Prop31
280
     0
102
RTVSPost2010PropOp31
 70
     1
102
RTVSPost2010Prop32
280
     0
102
RTVSPost2010PropOp32
 70
     1
102
RTVSPost2010Prop33
280
     0
102
RTVSPost2010PropOp33
 70
     1
102
RTVSPost2010Prop34
280
     0
102
RTVSPost2010PropOp34
 70
     1
102
RTVSPost2010Prop35
280
     0
102
RTVSPost2010PropOp35
 70
     1
102
RTVSPost2010Prop36
280
     0
102
RTVSPost2010PropOp36
 70
     1
102
RTVSPost2010Prop37
 90
       50
102
RTVSPost2010PropOp37
 70
     1
102
RTVSPost2010Prop38
140
0.0
102
RTVSPost2010PropOp38
 70
     1
102
RTVSPost2010Prop39
140
1.0
102
RTVSPost2010PropOp39
 70
     1
102
RTVSPost2010Prop40
 90
        0
102
RTVSPost2010PropOp40
 70
     1
102
RTVSPost2010Prop41ColorIndex
 90
       18
102
RTVSPost2010Prop41ColorRGB
 90
        0
102
RTVSPost2010PropOp41
 70
     1
102
RTVSPost2010Prop42
 90
       50
102
RTVSPost2010PropOp42
 70
     1
102
RTVSPost2010Prop43
 90
        3
102
RTVSPost2010PropOp43
 70
     1
102
RTVSPost2010Prop44ColorIndex
 90
        5
102
RTVSPost2010Prop44ColorRGB
 90
      255
102
RTVSPost2010PropOp44
 70
     1
102
RTVSPost2010Prop45
280
     0
102
RTVSPost2010PropOp45
 70
     1
102
RTVSPost2010Prop46
 90
       50
102
RTVSPost2010PropOp46
 70
     1
102
RTVSPost2010Prop47
 90
       50
102
RTVSPost2010PropOp47
 70
     1
102
RTVSPost2010Prop48
 90
       50
102
RTVSPost2010PropOp48
 70
     1
102
RTVSPost2010Prop49
280
     0
102
RTVSPost2010PropOp49
 70
     1
102
RTVSPost2010Prop50
 90
       50
102
RTVSPost2010PropOp50
 70
     1
102
RTVSPost2010Prop51ColorIndex
 90
      256
102
RTVSPost2010Prop51ColorRGB
 90
-16777216
102
RTVSPost2010PropOp51
 70
     0
102
RTVSPost2010Prop52
140
1.0
102
RTVSPost2010PropOp52
 70
     0
102
RTVSPost2010Prop53
 90
        2
102
RTVSPost2010PropOp53
 70
     1
102
RTVSPost2010Prop54
  1
strokes_ogs.tif
102
RTVSPost2010PropOp54
 70
     1
102
RTVSPost2010Prop55
280
     0
102
RTVSPost2010PropOp55
 70
     1
102
RTVSPost2010Prop56
140
1.0
102
RTVSPost2010PropOp56
 70
     1
102
RTVSPost2010Prop57
140
1.0
102
RTVSPost2010PropOp57
 70
     1
102
RTVSPropertyOp0
 70
     1
102
RTVSPropertyOp1
 70
     1
102
RTVSPropertyOp2
 70
     1
102
RTVSPropertyOp3
 70
     1
102
RTVSPropertyOp4
 70
     1
102
RTVSPropertyOp5
 70
     1
102
RTVSPropertyOp6
 70
     1
102
RTVSPropertyOp7
 70
     1
102
RTVSPropertyOp8
 70
     1
102
RTVSPropertyOp9
 70
     1
102
RTVSPropertyOp10
 70
     1
102
RTVSPropertyOp11
 70
     1
102
RTVSPropertyOp12
 70
     1
102
RTVSPropertyOp13
 70
     1
102
RTVSPropertyOp14
 70
     1
102
RTVSPropertyOp15
 70
     1
102
RTVSPropertyOp16
 70
     1
102
RTVSPropertyOp17
 70
     1
102
RTVSPropertyOp18
 70
     1
102
RTVSPropertyOp19
 70
     1
102
RTVSPropertyOp20
 70
     1
102
RTVSPropertyOp21
 70
     1
102
RTVSPropertyOp22
 70
     1
102
RTVSPropertyOp23
 70
     1
102
RTVSPropertyOp24
 70
     1
102
RTVSPropertyOp25
 70
     1
102
RTVSPropertyOp26
 70
     1
102
RTVSPropertyOp27
 70
     1
102
RTVSPropertyOp28
 70
     1
102
RTVSPropertyOp29
 70
     1
102
RTVSPropertyOp30
 70
     1
102
RTVSPropertyOp31
 70
     1
102
RTVSPropertyOp32
 70
     1
102
RTVSPropertyOp33
 70
     1
102
RTVSPropertyOp34
 70
     1
102
RTVSPropertyOp35
 70
     1
102
RTVSPropertyOp36
 70
     1
102
RTVSPropertyOp37
 70
     1
102
RTVSPropertyOp38
 70
     1
102
RTVSPropertyOp39
 70
     1
102
RTVSPropertyOp40
 70
     1
102
RTVSPropertyOp41
 70
     1
102
RTVSPropertyOp42
 70
     1
102
RTVSPropertyOp43
 70
     1
102
RTVSPropertyOp44
 70
     1
102
RTVSPropertyOp45
 70
     1
102
RTVSPropertyOp46
 70
     1
102
RTVSPropertyOp47
 70
     1
102
RTVSPropertyOp48
 70
     1
102
RTVSPropertyOp49
 70
     1
102
RTVSPropertyOp50
 70
     1
102
RTVSPropertyOp51
 70
     0
102
RTVSPropertyOp52
 70
     0
102
RTVSPropertyOp53
 70
     1
102
RTVSPropertyOp54
 70
     1
102
RTVSPropertyOp55
 70
     1
102
RTVSPropertyOp56
 70
     1
102
RTVSPropertyOp57
 70
     1
102
RTVSPropertyOp58
 70
     1
102
RTVSPropertyOp59
 70
     1
102
RTVSPropertyOp60
 70
     1
102
RTVSPropertyOp61
 70
     1
102
RTVSPropertyOp62
 70
     1
  0
XRECORD
  5
4AC
102
{ACAD_REACTORS
330
4AB
102
}
330
4AB
100
AcDbXrecord
280
     1
102
RTVSPost2010Prop28
280
     0
102
RTVSPost2010PropOp28
 70
     1
102
RTVSPost2010Prop29
280
     1
102
RTVSPost2010PropOp29
 70
     1
102
RTVSPost2010Prop30
280
     1
102
RTVSPost2010PropOp30
 70
     1
102
RTVSPost2010Prop31
280
     0
102
RTVSPost2010PropOp31
 70
     1
102
RTVSPost2010Prop32
280
     0
102
RTVSPost2010PropOp32
 70
     1
102
RTVSPost2010Prop33
280
     0
102
RTVSPost2010PropOp33
 70
     1
102
RTVSPost2010Prop34
280
     0
102
RTVSPost2010PropOp34
 70
     1
102
RTVSPost2010Prop35
280
     0
102
RTVSPost2010PropOp35
 70
     1
102
RTVSPost2010Prop36
280
     0
102
RTVSPost2010PropOp36
 70
     1
102
RTVSPost2010Prop37
 90
       50
102
RTVSPost2010PropOp37
 70
     1
102
RTVSPost2010Prop38
140
0.0
102
RTVSPost2010PropOp38
 70
     1
102
RTVSPost2010Prop39
140
1.0
102
RTVSPost2010PropOp39
 70
     1
102
RTVSPost2010Prop40
 90
        0
102
RTVSPost2010PropOp40
 70
     1
102
RTVSPost2010Prop41ColorIndex
 90
       18
102
RTVSPost2010Prop41ColorRGB
 90
        0
102
RTVSPost2010PropOp41
 70
     1
102
RTVSPost2010Prop42
 90
       50
102
RTVSPost2010PropOp42
 70
     1
102
RTVSPost2010Prop43
 90
        3
102
RTVSPost2010PropOp43
 70
     1
102
RTVSPost2010Prop44ColorIndex
 90
        5
102
RTVSPost2010Prop44ColorRGB
 90
      255
102
RTVSPost2010PropOp44
 70
     1
102
RTVSPost2010Prop45
280
     0
102
RTVSPost2010PropOp45
 70
     1
102
RTVSPost2010Prop46
 90
       50
102
RTVSPost2010PropOp46
 70
     1
102
RTVSPost2010Prop47
 90
       50
102
RTVSPost2010PropOp47
 70
     1
102
RTVSPost2010Prop48
 90
       50
102
RTVSPost2010PropOp48
 70
     1
102
RTVSPost2010Prop49
280
     0
102
RTVSPost2010PropOp49
 70
     1
102
RTVSPost2010Prop50
 90
       50
102
RTVSPost2010PropOp50
 70
     1
102
RTVSPost2010Prop51ColorIndex
 90
      256
102
RTVSPost2010Prop51ColorRGB
 90
-16777216
102
RTVSPost2010PropOp51
 70
     0
102
RTVSPost2010Prop52
140
1.0
102
RTVSPost2010PropOp52
 70
     0
102
RTVSPost2010Prop53
 90
        2
102
RTVSPost2010PropOp53
 70
     1
102
RTVSPost2010Prop54
  1
strokes_ogs.tif
102
RTVSPost2010PropOp54
 70
     1
102
RTVSPost2010Prop55
280
     0
102
RTVSPost2010PropOp55
 70
     1
102
RTVSPost2010Prop56
140
1.0
102
RTVSPost2010PropOp56
 70
     1
102
RTVSPost2010Prop57
140
1.0
102
RTVSPost2010PropOp57
 70
     1
102
RTVSPropertyOp0
 70
     1
102
RTVSPropertyOp1
 70
     1
102
RTVSPropertyOp2
 70
     1
102
RTVSPropertyOp3
 70
     1
102
RTVSPropertyOp4
 70
     1
102
RTVSPropertyOp5
 70
     1
102
RTVSPropertyOp6
 70
     1
102
RTVSPropertyOp7
 70
     1
102
RTVSPropertyOp8
 70
     1
102
RTVSPropertyOp9
 70
     1
102
RTVSPropertyOp10
 70
     1
102
RTVSPropertyOp11
 70
     1
102
RTVSPropertyOp12
 70
     1
102
RTVSPropertyOp13
 70
     1
102
RTVSPropertyOp14
 70
     1
102
RTVSPropertyOp15
 70
     1
102
RTVSPropertyOp16
 70
     1
102
RTVSPropertyOp17
 70
     1
102
RTVSPropertyOp18
 70
     1
102
RTVSPropertyOp19
 70
     1
102
RTVSPropertyOp20
 70
     1
102
RTVSPropertyOp21
 70
     1
102
RTVSPropertyOp22
 70
     1
102
RTVSPropertyOp23
 70
     1
102
RTVSPropertyOp24
 70
     1
102
RTVSPropertyOp25
 70
     1
102
RTVSPropertyOp26
 70
     1
102
RTVSPropertyOp27
 70
     1
102
RTVSPropertyOp28
 70
     1
102
RTVSPropertyOp29
 70
     1
102
RTVSPropertyOp30
 70
     1
102
RTVSPropertyOp31
 70
     1
102
RTVSPropertyOp32
 70
     1
102
RTVSPropertyOp33
 70
     1
102
RTVSPropertyOp34
 70
     1
102
RTVSPropertyOp35
 70
     1
102
RTVSPropertyOp36
 70
     1
102
RTVSPropertyOp37
 70
     1
102
RTVSPropertyOp38
 70
     1
102
RTVSPropertyOp39
 70
     1
102
RTVSPropertyOp40
 70
     1
102
RTVSPropertyOp41
 70
     1
102
RTVSPropertyOp42
 70
     1
102
RTVSPropertyOp43
 70
     1
102
RTVSPropertyOp44
 70
     1
102
RTVSPropertyOp45
 70
     1
102
RTVSPropertyOp46
 70
     1
102
RTVSPropertyOp47
 70
     1
102
RTVSPropertyOp48
 70
     1
102
RTVSPropertyOp49
 70
     1
102
RTVSPropertyOp50
 70
     1
102
RTVSPropertyOp51
 70
     0
102
RTVSPropertyOp52
 70
     0
102
RTVSPropertyOp53
 70
     1
102
RTVSPropertyOp54
 70
     1
102
RTVSPropertyOp55
 70
     1
102
RTVSPropertyOp56
 70
     1
102
RTVSPropertyOp57
 70
     1
102
RTVSPropertyOp58
 70
     1
102
RTVSPropertyOp59
 70
     1
102
RTVSPropertyOp60
 70
     1
102
RTVSPropertyOp61
 70
     1
102
RTVSPropertyOp62
 70
     1
  0
XRECORD
  5
4A0
102
{ACAD_REACTORS
330
49F
102
}
330
49F
100
AcDbXrecord
280
     1
102
RTVSPost2010Prop28
280
     0
102
RTVSPost2010PropOp28
 70
     1
102
RTVSPost2010Prop29
280
     1
102
RTVSPost2010PropOp29
 70
     1
102
RTVSPost2010Prop30
280
     1
102
RTVSPost2010PropOp30
 70
     1
102
RTVSPost2010Prop31
280
     0
102
RTVSPost2010PropOp31
 70
     1
102
RTVSPost2010Prop32
280
     0
102
RTVSPost2010PropOp32
 70
     1
102
RTVSPost2010Prop33
280
     0
102
RTVSPost2010PropOp33
 70
     1
102
RTVSPost2010Prop34
280
     0
102
RTVSPost2010PropOp34
 70
     1
102
RTVSPost2010Prop35
280
     0
102
RTVSPost2010PropOp35
 70
     1
102
RTVSPost2010Prop36
280
     0
102
RTVSPost2010PropOp36
 70
     1
102
RTVSPost2010Prop37
 90
       50
102
RTVSPost2010PropOp37
 70
     1
102
RTVSPost2010Prop38
140
0.0
102
RTVSPost2010PropOp38
 70
     1
102
RTVSPost2010Prop39
140
1.0
102
RTVSPost2010PropOp39
 70
     1
102
RTVSPost2010Prop40
 90
        0
102
RTVSPost2010PropOp40
 70
     1
102
RTVSPost2010Prop41ColorIndex
 90
       18
102
RTVSPost2010Prop41ColorRGB
 90
        0
102
RTVSPost2010PropOp41
 70
     1
102
RTVSPost2010Prop42
 90
       50
102
RTVSPost2010PropOp42
 70
     1
102
RTVSPost2010Prop43
 90
        3
102
RTVSPost2010PropOp43
 70
     1
102
RTVSPost2010Prop44ColorIndex
 90
        5
102
RTVSPost2010Prop44ColorRGB
 90
      255
102
RTVSPost2010PropOp44
 70
     1
102
RTVSPost2010Prop45
280
     0
102
RTVSPost2010PropOp45
 70
     1
102
RTVSPost2010Prop46
 90
       50
102
RTVSPost2010PropOp46
 70
     1
102
RTVSPost2010Prop47
 90
       50
102
RTVSPost2010PropOp47
 70
     1
102
RTVSPost2010Prop48
 90
       50
102
RTVSPost2010PropOp48
 70
     1
102
RTVSPost2010Prop49
280
     0
102
RTVSPost2010PropOp49
 70
     1
102
RTVSPost2010Prop50
 90
       50
102
RTVSPost2010PropOp50
 70
     1
102
RTVSPost2010Prop51ColorIndex
 90
      256
102
RTVSPost2010Prop51ColorRGB
 90
-16777216
102
RTVSPost2010PropOp51
 70
     0
102
RTVSPost2010Prop52
140
1.0
102
RTVSPost2010PropOp52
 70
     0
102
RTVSPost2010Prop53
 90
        2
102
RTVSPost2010PropOp53
 70
     1
102
RTVSPost2010Prop54
  1
strokes_ogs.tif
102
RTVSPost2010PropOp54
 70
     1
102
RTVSPost2010Prop55
280
     0
102
RTVSPost2010PropOp55
 70
     1
102
RTVSPost2010Prop56
140
1.0
102
RTVSPost2010PropOp56
 70
     1
102
RTVSPost2010Prop57
140
1.0
102
RTVSPost2010PropOp57
 70
     1
102
RTVSPropertyOp0
 70
     1
102
RTVSPropertyOp1
 70
     1
102
RTVSPropertyOp2
 70
     1
102
RTVSPropertyOp3
 70
     1
102
RTVSPropertyOp4
 70
     1
102
RTVSPropertyOp5
 70
     1
102
RTVSPropertyOp6
 70
     1
102
RTVSPropertyOp7
 70
     1
102
RTVSPropertyOp8
 70
     1
102
RTVSPropertyOp9
 70
     1
102
RTVSPropertyOp10
 70
     1
102
RTVSPropertyOp11
 70
     1
102
RTVSPropertyOp12
 70
     1
102
RTVSPropertyOp13
 70
     1
102
RTVSPropertyOp14
 70
     1
102
RTVSPropertyOp15
 70
     1
102
RTVSPropertyOp16
 70
     1
102
RTVSPropertyOp17
 70
     1
102
RTVSPropertyOp18
 70
     1
102
RTVSPropertyOp19
 70
     1
102
RTVSPropertyOp20
 70
     1
102
RTVSPropertyOp21
 70
     1
102
RTVSPropertyOp22
 70
     1
102
RTVSPropertyOp23
 70
     1
102
RTVSPropertyOp24
 70
     1
102
RTVSPropertyOp25
 70
     1
102
RTVSPropertyOp26
 70
     1
102
RTVSPropertyOp27
 70
     1
102
RTVSPropertyOp28
 70
     1
102
RTVSPropertyOp29
 70
     1
102
RTVSPropertyOp30
 70
     1
102
RTVSPropertyOp31
 70
     1
102
RTVSPropertyOp32
 70
     1
102
RTVSPropertyOp33
 70
     1
102
RTVSPropertyOp34
 70
     1
102
RTVSPropertyOp35
 70
     1
102
RTVSPropertyOp36
 70
     1
102
RTVSPropertyOp37
 70
     1
102
RTVSPropertyOp38
 70
     1
102
RTVSPropertyOp39
 70
     1
102
RTVSPropertyOp40
 70
     1
102
RTVSPropertyOp41
 70
     1
102
RTVSPropertyOp42
 70
     1
102
RTVSPropertyOp43
 70
     1
102
RTVSPropertyOp44
 70
     1
102
RTVSPropertyOp45
 70
     1
102
RTVSPropertyOp46
 70
     1
102
RTVSPropertyOp47
 70
     1
102
RTVSPropertyOp48
 70
     1
102
RTVSPropertyOp49
 70
     1
102
RTVSPropertyOp50
 70
     1
102
RTVSPropertyOp51
 70
     0
102
RTVSPropertyOp52
 70
     0
102
RTVSPropertyOp53
 70
     1
102
RTVSPropertyOp54
 70
     1
102
RTVSPropertyOp55
 70
     1
102
RTVSPropertyOp56
 70
     1
102
RTVSPropertyOp57
 70
     1
102
RTVSPropertyOp58
 70
     1
102
RTVSPropertyOp59
 70
     1
102
RTVSPropertyOp60
 70
     1
102
RTVSPropertyOp61
 70
     1
102
RTVSPropertyOp62
 70
     1
  0
XRECORD
  5
4B8
102
{ACAD_REACTORS
330
4B7
102
}
330
4B7
100
AcDbXrecord
280
     1
102
RTVSPost2010Prop28
280
     0
102
RTVSPost2010PropOp28
 70
     1
102
RTVSPost2010Prop29
280
     1
102
RTVSPost2010PropOp29
 70
     1
102
RTVSPost2010Prop30
280
     1
102
RTVSPost2010PropOp30
 70
     1
102
RTVSPost2010Prop31
280
     0
102
RTVSPost2010PropOp31
 70
     1
102
RTVSPost2010Prop32
280
     0
102
RTVSPost2010PropOp32
 70
     1
102
RTVSPost2010Prop33
280
     0
102
RTVSPost2010PropOp33
 70
     1
102
RTVSPost2010Prop34
280
     0
102
RTVSPost2010PropOp34
 70
     1
102
RTVSPost2010Prop35
280
     0
102
RTVSPost2010PropOp35
 70
     1
102
RTVSPost2010Prop36
280
     0
102
RTVSPost2010PropOp36
 70
     1
102
RTVSPost2010Prop37
 90
       50
102
RTVSPost2010PropOp37
 70
     1
102
RTVSPost2010Prop38
140
0.0
102
RTVSPost2010PropOp38
 70
     1
102
RTVSPost2010Prop39
140
1.0
102
RTVSPost2010PropOp39
 70
     1
102
RTVSPost2010Prop40
 90
        0
102
RTVSPost2010PropOp40
 70
     1
102
RTVSPost2010Prop41ColorIndex
 90
       18
102
RTVSPost2010Prop41ColorRGB
 90
        0
102
RTVSPost2010PropOp41
 70
     1
102
RTVSPost2010Prop42
 90
       50
102
RTVSPost2010PropOp42
 70
     1
102
RTVSPost2010Prop43
 90
        3
102
RTVSPost2010PropOp43
 70
     1
102
RTVSPost2010Prop44ColorIndex
 90
        5
102
RTVSPost2010Prop44ColorRGB
 90
      255
102
RTVSPost2010PropOp44
 70
     1
102
RTVSPost2010Prop45
280
     0
102
RTVSPost2010PropOp45
 70
     1
102
RTVSPost2010Prop46
 90
       50
102
RTVSPost2010PropOp46
 70
     1
102
RTVSPost2010Prop47
 90
       50
102
RTVSPost2010PropOp47
 70
     1
102
RTVSPost2010Prop48
 90
       50
102
RTVSPost2010PropOp48
 70
     1
102
RTVSPost2010Prop49
280
     0
102
RTVSPost2010PropOp49
 70
     1
102
RTVSPost2010Prop50
 90
       50
102
RTVSPost2010PropOp50
 70
     1
102
RTVSPost2010Prop51ColorIndex
 90
      256
102
RTVSPost2010Prop51ColorRGB
 90
-16777216
102
RTVSPost2010PropOp51
 70
     0
102
RTVSPost2010Prop52
140
1.0
102
RTVSPost2010PropOp52
 70
     0
102
RTVSPost2010Prop53
 90
        2
102
RTVSPost2010PropOp53
 70
     1
102
RTVSPost2010Prop54
  1
strokes_ogs.tif
102
RTVSPost2010PropOp54
 70
     1
102
RTVSPost2010Prop55
280
     0
102
RTVSPost2010PropOp55
 70
     1
102
RTVSPost2010Prop56
140
1.0
102
RTVSPost2010PropOp56
 70
     1
102
RTVSPost2010Prop57
140
1.0
102
RTVSPost2010PropOp57
 70
     1
102
RTVSPropertyOp0
 70
     1
102
RTVSPropertyOp1
 70
     1
102
RTVSPropertyOp2
 70
     1
102
RTVSPropertyOp3
 70
     1
102
RTVSPropertyOp4
 70
     1
102
RTVSPropertyOp5
 70
     1
102
RTVSPropertyOp6
 70
     1
102
RTVSPropertyOp7
 70
     1
102
RTVSPropertyOp8
 70
     1
102
RTVSPropertyOp9
 70
     1
102
RTVSPropertyOp10
 70
     1
102
RTVSPropertyOp11
 70
     1
102
RTVSPropertyOp12
 70
     1
102
RTVSPropertyOp13
 70
     1
102
RTVSPropertyOp14
 70
     1
102
RTVSPropertyOp15
 70
     1
102
RTVSPropertyOp16
 70
     1
102
RTVSPropertyOp17
 70
     1
102
RTVSPropertyOp18
 70
     1
102
RTVSPropertyOp19
 70
     1
102
RTVSPropertyOp20
 70
     1
102
RTVSPropertyOp21
 70
     1
102
RTVSPropertyOp22
 70
     1
102
RTVSPropertyOp23
 70
     1
102
RTVSPropertyOp24
 70
     1
102
RTVSPropertyOp25
 70
     1
102
RTVSPropertyOp26
 70
     1
102
RTVSPropertyOp27
 70
     1
102
RTVSPropertyOp28
 70
     1
102
RTVSPropertyOp29
 70
     1
102
RTVSPropertyOp30
 70
     1
102
RTVSPropertyOp31
 70
     1
102
RTVSPropertyOp32
 70
     1
102
RTVSPropertyOp33
 70
     1
102
RTVSPropertyOp34
 70
     1
102
RTVSPropertyOp35
 70
     1
102
RTVSPropertyOp36
 70
     1
102
RTVSPropertyOp37
 70
     1
102
RTVSPropertyOp38
 70
     1
102
RTVSPropertyOp39
 70
     1
102
RTVSPropertyOp40
 70
     1
102
RTVSPropertyOp41
 70
     1
102
RTVSPropertyOp42
 70
     1
102
RTVSPropertyOp43
 70
     1
102
RTVSPropertyOp44
 70
     1
102
RTVSPropertyOp45
 70
     1
102
RTVSPropertyOp46
 70
     1
102
RTVSPropertyOp47
 70
     1
102
RTVSPropertyOp48
 70
     1
102
RTVSPropertyOp49
 70
     1
102
RTVSPropertyOp50
 70
     1
102
RTVSPropertyOp51
 70
     0
102
RTVSPropertyOp52
 70
     0
102
RTVSPropertyOp53
 70
     1
102
RTVSPropertyOp54
 70
     1
102
RTVSPropertyOp55
 70
     1
102
RTVSPropertyOp56
 70
     1
102
RTVSPropertyOp57
 70
     1
102
RTVSPropertyOp58
 70
     1
102
RTVSPropertyOp59
 70
     1
102
RTVSPropertyOp60
 70
     1
102
RTVSPropertyOp61
 70
     1
102
RTVSPropertyOp62
 70
     1
  0
ENDSEC
  0
EOF
