  0
SECTION
  2
HEADER
  9
$ACADVER
  1
AC1015
  9
$ACADMAINTVER
 70
    20
  9
$DWGCODEPAGE
  3
ANSI_1252
  9
$INSBASE
 10
0.0
 20
0.0
 30
0.0
  9
$EXTMIN
 10
61.04936114964812
 20
-39.30030722171932
 30
0.0
  9
$EXTMAX
 10
1393.052462638341
 20
340.6015859394126
 30
0.0
  9
$LIMMIN
 10
0.0
 20
0.0
  9
$LIMMAX
 10
420.0
 20
297.0
  9
$ORTHOMODE
 70
     1
  9
$REGENMODE
 70
     1
  9
$FILLMODE
 70
     1
  9
$QTEXTMODE
 70
     0
  9
$MIRRTEXT
 70
     0
  9
$LTSCALE
 40
1.0
  9
$ATTMODE
 70
     1
  9
$TEXTSIZE
 40
2.5
  9
$TRACEWID
 40
1.0
  9
$TEXTSTYLE
  7
Compan
  9
$CLAYER
  8
0.20
  9
$CELTYPE
  6
Continuous
  9
$CECOLOR
 62
   256
  9
$CELTSCALE
 40
10.0
  9
$DISPSILH
 70
     0
  9
$DIMSCALE
 40
1.0
  9
$DIMASZ
 40
2.5
  9
$DIMEXO
 40
0.625
  9
$DIMDLI
 40
3.75
  9
$DIMRND
 40
0.0
  9
$DIMDLE
 40
0.0
  9
$DIMEXE
 40
1.25
  9
$DIMTP
 40
0.0
  9
$DIMTM
 40
0.0
  9
$DIMTXT
 40
2.5
  9
$DIMCEN
 40
2.5
  9
$DIMTSZ
 40
0.0
  9
$DIMTOL
 70
     0
  9
$DIMLIM
 70
     0
  9
$DIMTIH
 70
     0
  9
$DIMTOH
 70
     0
  9
$DIMSE1
 70
     0
  9
$DIMSE2
 70
     0
  9
$DIMTAD
 70
     1
  9
$DIMZIN
 70
     8
  9
$DIMBLK
  1

  9
$DIMASO
 70
     1
  9
$DIMSHO
 70
     1
  9
$DIMPOST
  1

  9
$DIMAPOST
  1

  9
$DIMALT
 70
     0
  9
$DIMALTD
 70
     3
  9
$DIMALTF
 40
0.03937007874016
  9
$DIMLFAC
 40
1.0
  9
$DIMTOFL
 70
     1
  9
$DIMTVP
 40
0.0
  9
$DIMTIX
 70
     0
  9
$DIMSOXD
 70
     0
  9
$DIMSAH
 70
     0
  9
$DIMBLK1
  1

  9
$DIMBLK2
  1

  9
$DIMSTYLE
  2
ISO-25
  9
$DIMCLRD
 70
     0
  9
$DIMCLRE
 70
     0
  9
$DIMCLRT
 70
     0
  9
$DIMTFAC
 40
1.0
  9
$DIMGAP
 40
0.625
  9
$DIMJUST
 70
     0
  9
$DIMSD1
 70
     0
  9
$DIMSD2
 70
     0
  9
$DIMTOLJ
 70
     0
  9
$DIMTZIN
 70
     8
  9
$DIMALTZ
 70
     0
  9
$DIMALTTZ
 70
     0
  9
$DIMUPT
 70
     0
  9
$DIMDEC
 70
     2
  9
$DIMTDEC
 70
     2
  9
$DIMALTU
 70
     2
  9
$DIMALTTD
 70
     3
  9
$DIMTXSTY
  7
Standard
  9
$DIMAUNIT
 70
     0
  9
$DIMADEC
 70
     0
  9
$DIMALTRND
 40
0.0
  9
$DIMAZIN
 70
     0
  9
$DIMDSEP
 70
    44
  9
$DIMATFIT
 70
     3
  9
$DIMFRAC
 70
     0
  9
$DIMLDRBLK
  1

  9
$DIMLUNIT
 70
     2
  9
$DIMLWD
 70
    -2
  9
$DIMLWE
 70
    -2
  9
$DIMTMOVE
 70
     0
  9
$LUNITS
 70
     2
  9
$LUPREC
 70
     4
  9
$SKETCHINC
 40
1.0
  9
$FILLETRAD
 40
3.0
  9
$AUNITS
 70
     0
  9
$AUPREC
 70
     0
  9
$MENU
  1
.
  9
$ELEVATION
 40
0.0
  9
$PELEVATION
 40
0.0
  9
$THICKNESS
 40
0.0
  9
$LIMCHECK
 70
     0
  9
$CHAMFERA
 40
0.0
  9
$CHAMFERB
 40
0.0
  9
$CHAMFERC
 40
0.0
  9
$CHAMFERD
 40
0.0
  9
$SKPOLY
 70
     0
  9
$TDCREATE
 40
2454141.579192164
  9
$TDUCREATE
 40
2454141.037525498
  9
$TDUPDATE
 40
2456330.467416806
  9
$TDUUPDATE
 40
2456329.925750139
  9
$TDINDWG
 40
0.2688158449
  9
$TDUSRTIMER
 40
0.2688158449
  9
$USRTIMER
 70
     1
  9
$ANGBASE
 50
0.0
  9
$ANGDIR
 70
     0
  9
$PDMODE
 70
     0
  9
$PDSIZE
 40
0.0
  9
$PLINEWID
 40
0.0
  9
$SPLFRAME
 70
     0
  9
$SPLINETYPE
 70
     6
  9
$SPLINESEGS
 70
     8
  9
$HANDSEED
  5
B1F
  9
$SURFTAB1
 70
     6
  9
$SURFTAB2
 70
     6
  9
$SURFTYPE
 70
     6
  9
$SURFU
 70
     6
  9
$SURFV
 70
     6
  9
$UCSBASE
  2

  9
$UCSNAME
  2

  9
$UCSORG
 10
0.0
 20
0.0
 30
0.0
  9
$UCSXDIR
 10
1.0
 20
0.0
 30
0.0
  9
$UCSYDIR
 10
0.0
 20
1.0
 30
0.0
  9
$UCSORTHOREF
  2

  9
$UCSORTHOVIEW
 70
     0
  9
$UCSORGTOP
 10
0.0
 20
0.0
 30
0.0
  9
$UCSORGBOTTOM
 10
0.0
 20
0.0
 30
0.0
  9
$UCSORGLEFT
 10
0.0
 20
0.0
 30
0.0
  9
$UCSORGRIGHT
 10
0.0
 20
0.0
 30
0.0
  9
$UCSORGFRONT
 10
0.0
 20
0.0
 30
0.0
  9
$UCSORGBACK
 10
0.0
 20
0.0
 30
0.0
  9
$PUCSBASE
  2

  9
$PUCSNAME
  2

  9
$PUCSORG
 10
0.0
 20
0.0
 30
0.0
  9
$PUCSXDIR
 10
1.0
 20
0.0
 30
0.0
  9
$PUCSYDIR
 10
0.0
 20
1.0
 30
0.0
  9
$PUCSORTHOREF
  2

  9
$PUCSORTHOVIEW
 70
     0
  9
$PUCSORGTOP
 10
0.0
 20
0.0
 30
0.0
  9
$PUCSORGBOTTOM
 10
0.0
 20
0.0
 30
0.0
  9
$PUCSORGLEFT
 10
0.0
 20
0.0
 30
0.0
  9
$PUCSORGRIGHT
 10
0.0
 20
0.0
 30
0.0
  9
$PUCSORGFRONT
 10
0.0
 20
0.0
 30
0.0
  9
$PUCSORGBACK
 10
0.0
 20
0.0
 30
0.0
  9
$USERI1
 70
     0
  9
$USERI2
 70
     0
  9
$USERI3
 70
     0
  9
$USERI4
 70
     0
  9
$USERI5
 70
     0
  9
$USERR1
 40
0.0
  9
$USERR2
 40
0.0
  9
$USERR3
 40
0.0
  9
$USERR4
 40
0.0
  9
$USERR5
 40
0.0
  9
$WORLDVIEW
 70
     1
  9
$SHADEDGE
 70
     3
  9
$SHADEDIF
 70
    70
  9
$TILEMODE
 70
     0
  9
$MAXACTVP
 70
    64
  9
$PINSBASE
 10
0.0
 20
0.0
 30
0.0
  9
$PLIMCHECK
 70
     0
  9
$PEXTMIN
 10
11.00000095487701
 20
17.95519208260799
 30
0.0
  9
$PEXTMAX
 10
192.7575512477068
 20
286.6158556508939
 30
0.0
  9
$PLIMMIN
 10
4.666573913577734
 20
14.71842191944168
  9
$PLIMMAX
 10
199.1608787134616
 20
289.9839813454111
  9
$UNITMODE
 70
     0
  9
$VISRETAIN
 70
     1
  9
$PLINEGEN
 70
     0
  9
$PSLTSCALE
 70
     1
  9
$TREEDEPTH
 70
  3020
  9
$CMLSTYLE
  2
Standard
  9
$CMLJUST
 70
     0
  9
$CMLSCALE
 40
20.0
  9
$PROXYGRAPHICS
 70
     1
  9
$MEASUREMENT
 70
     1
  9
$CELWEIGHT
370
    30
  9
$ENDCAPS
280
     0
  9
$JOINSTYLE
280
     0
  9
$LWDISPLAY
290
     0
  9
$INSUNITS
 70
     4
  9
$HYPERLINKBASE
  1

  9
$STYLESHEET
  1

  9
$XEDIT
290
     1
  9
$CEPSNTYPE
380
     0
  9
$PSTYLEMODE
290
     1
  9
$FINGERPRINTGUID
  2
{2EF69824-D93D-447C-BB75-696F74C8200A}
  9
$VERSIONGUID
  2
{DC5ECC4D-51DE-41D4-B000-CE5ACF384CC5}
  9
$EXTNAMES
290
     1
  9
$PSVPSCALE
 40
0.0
  9
$OLESTARTUP
290
     0
  0
ENDSEC
  0
SECTION
  2
CLASSES
  0
CLASS
  1
ACDBDICTIONARYWDFLT
  2
AcDbDictionaryWithDefault
  3
ObjectDBX Classes
 90
        0
280
     0
281
     0
  0
CLASS
  1
ACDBPLACEHOLDER
  2
AcDbPlaceHolder
  3
ObjectDBX Classes
 90
        0
280
     0
281
     0
  0
CLASS
  1
LAYOUT
  2
AcDbLayout
  3
ObjectDBX Classes
 90
        0
280
     0
281
     0
  0
CLASS
  1
DICTIONARYVAR
  2
AcDbDictionaryVar
  3
ObjectDBX Classes
 90
        0
280
     0
281
     0
  0
CLASS
  1
TABLESTYLE
  2
AcDbTableStyle
  3
ObjectDBX Classes
 90
     2047
280
     0
281
     0
  0
CLASS
  1
SORTENTSTABLE
  2
AcDbSortentsTable
  3
ObjectDBX Classes
 90
        0
280
     0
281
     0
  0
CLASS
  1
FIELD
  2
AcDbField
  3
ObjectDBX Classes
 90
    33920
280
     0
281
     0
  0
CLASS
  1
FIELDLIST
  2
AcDbFieldList
  3
ObjectDBX Classes
 90
     1152
280
     0
281
     0
  0
CLASS
  1
IMAGEDEF
  2
AcDbRasterImageDef
  3
ISM
 90
        0
280
     0
281
     0
  0
CLASS
  1
IMAGE
  2
AcDbRasterImage
  3
ISM
 90
      127
280
     0
281
     1
  0
CLASS
  1
IMAGEDEF_REACTOR
  2
AcDbRasterImageDefReactor
  3
ISM
 90
        1
280
     0
281
     0
  0
CLASS
  1
RASTERVARIABLES
  2
AcDbRasterVariables
  3
ISM
 90
        0
280
     0
281
     0
  0
CLASS
  1
DIMASSOC
  2
AcDbDimAssoc
  3
"AcDbDimAssoc|Product Desc:     AcDim ARX App For Dimension|Company:          Autodesk, Inc.|WEB Address:      www.autodesk.com"
 90
    32768
280
     0
281
     0
  0
ENDSEC
  0
SECTION
  2
TABLES
  0
TABLE
  2
VPORT
  5
8
330
0
100
AcDbSymbolTable
 70
     6
  0
VPORT
  5
AFC
330
8
100
AcDbSymbolTableRecord
100
AcDbViewportTableRecord
  2
*Active
 70
     0
 10
0.0
 20
0.0
 11
1.0
 21
1.0
 12
354.4223014689139
 22
225.5088484637107
 13
0.0
 23
0.0
 14
10.0
 24
10.0
 15
10.0
 25
10.0
 16
0.0
 26
0.0
 36
1.0
 17
0.0
 27
0.0
 37
0.0
 40
111.4193604356667
 41
2.526539278131634
 42
50.0
 43
0.0
 44
0.0
 50
0.0
 51
0.0
 71
     0
 72
  1000
 73
     1
 74
     3
 75
     0
 76
     0
 77
     0
 78
     0
281
     0
 65
     1
110
0.0
120
0.0
130
0.0
111
1.0
121
0.0
131
0.0
112
0.0
122
1.0
132
0.0
 79
     0
146
0.0
  0
ENDTAB
  0
TABLE
  2
LTYPE
  5
5
330
0
100
AcDbSymbolTable
 70
     4
  0
LTYPE
  5
14
330
5
100
AcDbSymbolTableRecord
100
AcDbLinetypeTableRecord
  2
ByBlock
 70
     0
  3

 72
    65
 73
     0
 40
0.0
  0
LTYPE
  5
15
330
5
100
AcDbSymbolTableRecord
100
AcDbLinetypeTableRecord
  2
ByLayer
 70
     0
  3

 72
    65
 73
     0
 40
0.0
  0
LTYPE
  5
16
330
5
100
AcDbSymbolTableRecord
100
AcDbLinetypeTableRecord
  2
Continuous
 70
     0
  3
Solid line
 72
    65
 73
     0
 40
0.0
  0
LTYPE
  5
114
330
5
100
AcDbSymbolTableRecord
100
AcDbLinetypeTableRecord
  2
DASHED
 70
     0
  3
Dashed __ __ __ __ __ __ __ __ __ __ __ __ __ _
 72
    65
 73
     2
 40
19.05
 49
12.7
 74
     0
 49
-6.349999999999999
 74
     0
  0
LTYPE
  5
1E8
330
5
100
AcDbSymbolTableRecord
100
AcDbLinetypeTableRecord
  2
DASHED2
 70
     0
  3
Dashed (.5x) _ _ _ _ _ _ _ _ _ _ _ _ _ _ _ _ _
 72
    65
 73
     2
 40
9.524999999999998
 49
6.349999999999999
 74
     0
 49
-3.174999999999999
 74
     0
  0
LTYPE
  5
967
330
5
100
AcDbSymbolTableRecord
100
AcDbLinetypeTableRecord
  2
HIDDEN
 70
     0
  3
Hidden __ __ __ __ __ __ __ __ __ __ __ __ __ _
 72
    65
 73
     2
 40
9.524999999999998
 49
6.349999999999999
 74
     0
 49
-3.174999999999999
 74
     0
  0
ENDTAB
  0
TABLE
  2
LAYER
  5
2
102
{ACAD_XDICTIONARY
360
10F
102
}
330
0
100
AcDbSymbolTable
 70
    15
  0
LAYER
  5
10
330
2
100
AcDbSymbolTableRecord
100
AcDbLayerTableRecord
  2
0
 70
     0
 62
     7
  6
Continuous
370
    -3
390
F
  0
LAYER
  5
103
330
2
100
AcDbSymbolTableRecord
100
AcDbLayerTableRecord
  2
0.05
 70
     0
 62
     7
  6
Continuous
370
     5
390
F
1001
AcAecLayerStandard
1000

1000

  0
LAYER
  5
105
330
2
100
AcDbSymbolTableRecord
100
AcDbLayerTableRecord
  2
0.09
 70
     0
 62
     9
  6
Continuous
370
     9
390
F
1001
AcAecLayerStandard
1000

1000

  0
LAYER
  5
106
330
2
100
AcDbSymbolTableRecord
100
AcDbLayerTableRecord
  2
0.13
 70
     0
 62
    30
  6
Continuous
370
    13
390
F
1001
AcAecLayerStandard
1000

1000

  0
LAYER
  5
107
330
2
100
AcDbSymbolTableRecord
100
AcDbLayerTableRecord
  2
0.15
 70
     0
 62
     3
  6
Continuous
370
    15
390
F
1001
AcAecLayerStandard
1000

1000

  0
LAYER
  5
108
330
2
100
AcDbSymbolTableRecord
100
AcDbLayerTableRecord
  2
0.18
 70
     0
 62
     7
  6
Continuous
370
    18
390
F
1001
AcAecLayerStandard
1000

1000

  0
LAYER
  5
109
330
2
100
AcDbSymbolTableRecord
100
AcDbLayerTableRecord
  2
0.20
 70
     0
 62
     7
  6
Continuous
370
    20
390
F
1001
AcAecLayerStandard
1000

1000

  0
LAYER
  5
10B
330
2
100
AcDbSymbolTableRecord
100
AcDbLayerTableRecord
  2
0.30
 70
     0
 62
     5
  6
Continuous
370
    30
390
F
1001
AcAecLayerStandard
1000

1000

  0
LAYER
  5
10C
330
2
100
AcDbSymbolTableRecord
100
AcDbLayerTableRecord
  2
0.40
 70
     0
 62
     7
  6
Continuous
370
    40
390
F
1001
AcAecLayerStandard
1000

1000

  0
LAYER
  5
10D
330
2
100
AcDbSymbolTableRecord
100
AcDbLayerTableRecord
  2
0.50
 70
     0
 62
     6
  6
Continuous
370
    50
390
F
1001
AcAecLayerStandard
1000

1000

  0
LAYER
  5
10E
330
2
100
AcDbSymbolTableRecord
100
AcDbLayerTableRecord
  2
0.09 - dashed
 70
     0
 62
     1
  6
DASHED
370
     9
390
F
1001
AcAecLayerStandard
1000

1000

  0
LAYER
  5
1E9
330
2
100
AcDbSymbolTableRecord
100
AcDbLayerTableRecord
  2
0.15 - dashed Underlay
 70
     0
 62
     3
  6
DASHED2
370
    15
390
F
1001
AcAecLayerStandard
1000

1000

  0
LAYER
  5
1EA
330
2
100
AcDbSymbolTableRecord
100
AcDbLayerTableRecord
  2
Defpoints
 70
     0
 62
     7
  6
Continuous
290
     0
370
    -3
390
F
  0
LAYER
  5
1EB
330
2
100
AcDbSymbolTableRecord
100
AcDbLayerTableRecord
  2
dim
 70
     0
 62
    12
  6
Continuous
370
    13
390
F
1001
AcAecLayerStandard
1000

1000

  0
LAYER
  5
1EC
330
2
100
AcDbSymbolTableRecord
100
AcDbLayerTableRecord
  2
light grey
 70
     0
 62
   253
  6
Continuous
370
    20
390
F
1001
AcAecLayerStandard
1000

1000

  0
ENDTAB
  0
TABLE
  2
STYLE
  5
3
330
0
100
AcDbSymbolTable
 70
     4
  0
STYLE
  5
11
330
3
100
AcDbSymbolTableRecord
100
AcDbTextStyleTableRecord
  2
Standard
 70
     0
 40
0.0
 41
1.0
 50
0.0
 71
     0
 42
2.5
  3
stylu.ttf
  4

1001
ACAD
1000
Stylus BT
1071
       34
  0
STYLE
  5
113
330
3
100
AcDbSymbolTableRecord
100
AcDbTextStyleTableRecord
  2

 70
     1
 40
0.0
 41
1.0
 50
0.0
 71
     0
 42
2.5
  3
ltypeshp.shx
  4

  0
STYLE
  5
17C
330
3
100
AcDbSymbolTableRecord
100
AcDbTextStyleTableRecord
  2
Compan
 70
     0
 40
0.0
 41
1.0
 50
0.0
 71
     0
 42
2.5
  3
TIMESBI.TTF
  4

1001
ACAD
1000
Times New Roman
1071
 50331666
  0
STYLE
  5
1ED
330
3
100
AcDbSymbolTableRecord
100
AcDbTextStyleTableRecord
  2
Rockcote
 70
     0
 40
0.0
 41
1.0
 50
0.0
 71
     0
 42
8.5
  3
stylu.ttf
  4

1001
ACAD
1000
Stylus BT
1071
       34
  0
ENDTAB
  0
TABLE
  2
VIEW
  5
6
330
0
100
AcDbSymbolTable
 70
     0
  0
ENDTAB
  0
TABLE
  2
UCS
  5
7
330
0
100
AcDbSymbolTable
 70
     0
  0
ENDTAB
  0
TABLE
  2
APPID
  5
9
330
0
100
AcDbSymbolTable
 70
     3
  0
APPID
  5
12
330
9
100
AcDbSymbolTableRecord
100
AcDbRegAppTableRecord
  2
ACAD
 70
     0
  0
APPID
  5
9E
330
9
100
AcDbSymbolTableRecord
100
AcDbRegAppTableRecord
  2
ACAD_PSEXT
 70
     0
  0
APPID
  5
104
330
9
100
AcDbSymbolTableRecord
100
AcDbRegAppTableRecord
  2
AcAecLayerStandard
 70
     0
  0
ENDTAB
  0
TABLE
  2
DIMSTYLE
  5
A
330
0
100
AcDbSymbolTable
 70
     2
100
AcDbDimStyleTable
 71
     1
340
27
  0
DIMSTYLE
105
27
102
{ACAD_REACTORS
330
873
330
874
102
}
330
A
100
AcDbSymbolTableRecord
100
AcDbDimStyleTableRecord
  2
ISO-25
 70
     0
 41
2.5
 42
0.625
 43
3.75
 44
1.25
 73
     0
 74
     0
 77
     1
 78
     8
140
2.5
141
2.5
143
0.03937007874016
147
0.625
171
     3
172
     1
271
     2
272
     2
274
     3
278
    44
283
     0
284
     8
340
11
  0
DIMSTYLE
105
1EE
330
A
100
AcDbSymbolTableRecord
100
AcDbDimStyleTableRecord
  2
Rockcote
 70
     0
 41
5.0
 42
0.625
 43
3.75
 44
1.25
 73
     0
 74
     0
 77
     1
 78
     8
140
2.5
141
2.5
143
0.03937007874016
147
0.625
171
     3
172
     1
271
     0
272
     0
274
     3
283
     0
284
     8
340
1ED
  0
ENDTAB
  0
TABLE
  2
BLOCK_RECORD
  5
1
330
0
100
AcDbSymbolTable
 70
     9
  0
BLOCK_RECORD
  5
1F
102
{ACAD_XDICTIONARY
360
2F8
102
}
330
1
100
AcDbSymbolTableRecord
100
AcDbBlockTableRecord
  2
*Model_Space
340
22
  0
BLOCK_RECORD
  5
3B9
330
1
100
AcDbSymbolTableRecord
100
AcDbBlockTableRecord
  2
*Paper_Space
340
3B6
  0
BLOCK_RECORD
  5
3F3
102
{ACAD_XDICTIONARY
360
3F4
102
}
330
1
100
AcDbSymbolTableRecord
100
AcDbBlockTableRecord
  2
shingle
340
0
310
2800000020000000200000000100080000000000000400000000000000000000000000000000000000000000000080000080000000808000800000008000800080800000C0C0C000C0DCC000F0CAA6000020400000206000002080000020A0000020C0000020E00000400000004020000040400000406000004080000040A0
310
000040C0000040E00000600000006020000060400000606000006080000060A0000060C0000060E00000800000008020000080400000806000008080000080A0000080C0000080E00000A0000000A0200000A0400000A0600000A0800000A0A00000A0C00000A0E00000C0000000C0200000C0400000C0600000C0800000C0
310
A00000C0C00000C0E00000E0000000E0200000E0400000E0600000E0800000E0A00000E0C00000E0E00040000000400020004000400040006000400080004000A0004000C0004000E00040200000402020004020400040206000402080004020A0004020C0004020E000404000004040200040404000404060004040800040
310
40A0004040C0004040E00040600000406020004060400040606000406080004060A0004060C0004060E00040800000408020004080400040806000408080004080A0004080C0004080E00040A0000040A0200040A0400040A0600040A0800040A0A00040A0C00040A0E00040C0000040C0200040C0400040C0600040C08000
310
40C0A00040C0C00040C0E00040E0000040E0200040E0400040E0600040E0800040E0A00040E0C00040E0E00080000000800020008000400080006000800080008000A0008000C0008000E00080200000802020008020400080206000802080008020A0008020C0008020E00080400000804020008040400080406000804080
310
008040A0008040C0008040E00080600000806020008060400080606000806080008060A0008060C0008060E00080800000808020008080400080806000808080008080A0008080C0008080E00080A0000080A0200080A0400080A0600080A0800080A0A00080A0C00080A0E00080C0000080C0200080C0400080C0600080C0
310
800080C0A00080C0C00080C0E00080E0000080E0200080E0400080E0600080E0800080E0A00080E0C00080E0E000C0000000C0002000C0004000C0006000C0008000C000A000C000C000C000E000C0200000C0202000C0204000C0206000C0208000C020A000C020C000C020E000C0400000C0402000C0404000C0406000C0
310
408000C040A000C040C000C040E000C0600000C0602000C0604000C0606000C0608000C060A000C060C000C060E000C0800000C0802000C0804000C0806000C0808000C080A000C080C000C080E000C0A00000C0A02000C0A04000C0A06000C0A08000C0A0A000C0A0C000C0A0E000C0C00000C0C02000C0C04000C0C06000
310
C0C08000C0C0A000F0FBFF00A4A0A000808080000000FF0000FF000000FFFF00FF000000FF00FF00FFFF0000FFFFFF0000000000000000000000000000000000000000000000000000000000000000000000000000000000000000000000000000000000000000000000000000000000000000000000000000000000000000
310
00000000000000000000000000000000000000000000000000000000000000000000000000000000000000000000000000000000000000000000000000000000000000000000000000000000000000000000000000000000000000000000000000000000000000000000000000000000000000000000000000000000000000
310
00000000000000000000000000000000000000000000000000000000000000000000000000000000000000000000000000000000000000000000000000000000000000000000000000000000000000000000000000000000000000000000000000000000000000000000000000000000000000000000000000000000000000
310
00000000000000000000000000000000000000000000000000000000000000000000000000000000000000000000000000000000000000000000000000000000000000000000000000000000000000000000000000000000000000000000000000000000000000000000000000000000000000000000000000000000000000
310
0000000000000000000000000000000000000000000000000000000000000000000000FFFFFFFFFFFFFFFFFFFFFFFFFFFFFFFF0000FFFFFFFFFFFFFFFFFFFFFFFFFFFFFFFF00000000000000000000000000000000000000000000000000000000000000000000000000000000000000000000000000000000000000000000
310
00000000000000000000000000000000000000000000000000000000000000000000000000000000000000000000000000000000000000000000000000000000000000000000000000000000000000000000000000000000000000000000000000000000000000000000000000000000000000000000000000000000000000
310
00000000000000000000000000000000000000000000000000000000000000000000000000000000000000000000000000000000000000000000000000000000000000000000000000000000000000000000000000000000000000000000000000000000000000000000000000000000000000000000000000000000000000
310
00000000000000000000000000000000000000000000000000000000000000000000000000000000000000000000000000000000000000000000000000000000000000000000000000000000000000000000000000000000000000000000000000000000000000000000000000000000000000000000000000000000000000
310
0000000000000000000000000000000000000000000000000000000000000000000000000000000000000000000000000000000000000000
1001
ACAD
1000
DesignCenter Data
1002
{
1070
     1
1070
     4
1002
}
  0
BLOCK_RECORD
  5
411
102
{ACAD_XDICTIONARY
360
412
102
}
330
1
100
AcDbSymbolTableRecord
100
AcDbBlockTableRecord
  2
cap shingle
340
0
310
2800000020000000200000000100080000000000000400000000000000000000000000000000000000000000000080000080000000808000800000008000800080800000C0C0C000C0DCC000F0CAA6000020400000206000002080000020A0000020C0000020E00000400000004020000040400000406000004080000040A0
310
000040C0000040E00000600000006020000060400000606000006080000060A0000060C0000060E00000800000008020000080400000806000008080000080A0000080C0000080E00000A0000000A0200000A0400000A0600000A0800000A0A00000A0C00000A0E00000C0000000C0200000C0400000C0600000C0800000C0
310
A00000C0C00000C0E00000E0000000E0200000E0400000E0600000E0800000E0A00000E0C00000E0E00040000000400020004000400040006000400080004000A0004000C0004000E00040200000402020004020400040206000402080004020A0004020C0004020E000404000004040200040404000404060004040800040
310
40A0004040C0004040E00040600000406020004060400040606000406080004060A0004060C0004060E00040800000408020004080400040806000408080004080A0004080C0004080E00040A0000040A0200040A0400040A0600040A0800040A0A00040A0C00040A0E00040C0000040C0200040C0400040C0600040C08000
310
40C0A00040C0C00040C0E00040E0000040E0200040E0400040E0600040E0800040E0A00040E0C00040E0E00080000000800020008000400080006000800080008000A0008000C0008000E00080200000802020008020400080206000802080008020A0008020C0008020E00080400000804020008040400080406000804080
310
008040A0008040C0008040E00080600000806020008060400080606000806080008060A0008060C0008060E00080800000808020008080400080806000808080008080A0008080C0008080E00080A0000080A0200080A0400080A0600080A0800080A0A00080A0C00080A0E00080C0000080C0200080C0400080C0600080C0
310
800080C0A00080C0C00080C0E00080E0000080E0200080E0400080E0600080E0800080E0A00080E0C00080E0E000C0000000C0002000C0004000C0006000C0008000C000A000C000C000C000E000C0200000C0202000C0204000C0206000C0208000C020A000C020C000C020E000C0400000C0402000C0404000C0406000C0
310
408000C040A000C040C000C040E000C0600000C0602000C0604000C0606000C0608000C060A000C060C000C060E000C0800000C0802000C0804000C0806000C0808000C080A000C080C000C080E000C0A00000C0A02000C0A04000C0A06000C0A08000C0A0A000C0A0C000C0A0E000C0C00000C0C02000C0C04000C0C06000
310
C0C08000C0C0A000F0FBFF00A4A0A000808080000000FF0000FF000000FFFF00FF000000FF00FF00FFFF0000FFFFFF0000000000000000000000000000000000000000000000000000000000000000000000000000000000000000000000000000000000000000000000000000000000000000000000000000000000000000
310
00000000000000000000000000000000000000000000000000000000000000000000000000000000000000000000000000000000000000000000000000000000000000000000000000000000000000000000000000000000000000000000000000000000000000000000000000000000000000000000000000000000000000
310
00000000000000000000000000000000000000000000000000000000000000000000000000000000000000000000000000000000000000000000000000000000000000000000000000000000000000000000000000000000000000000000000000000000000000000000000000000000000000000000000000000000000000
310
00000000000000000000000000000000000000000000000000000000000000000000000000000000000000000000000000000000000000000000000000000000000000000000000000000000000000000000000000000000000000000000000000000000000000000000000000000000000000000000000000000000000000
310
0000000000000000000000000000000000000000000000000000000000FFFFFFFFFFFFFFFFFFFFFFFFFFFFFFFFFFFFFFFFFFFF0000FFFFFFFFFFFFFFFFFFFFFFFFFFFFFFFF00000000000000000000000000000000000000000000000000000000000000000000000000000000000000000000000000000000000000000000
310
00000000000000000000000000000000000000000000000000000000000000000000000000000000000000000000000000000000000000000000000000000000000000000000000000000000000000000000000000000000000000000000000000000000000000000000000000000000000000000000000000000000000000
310
00000000000000000000000000000000000000000000000000000000000000000000000000000000000000000000000000000000000000000000000000000000000000000000000000000000000000000000000000000000000000000000000000000000000000000000000000000000000000000000000000000000000000
310
00000000000000000000000000000000000000000000000000000000000000000000000000000000000000000000000000000000000000000000000000000000000000000000000000000000000000000000000000000000000000000000000000000000000000000000000000000000000000000000000000000000000000
310
0000000000000000000000000000000000000000000000000000000000000000000000000000000000000000000000000000000000000000
1001
ACAD
1000
DesignCenter Data
1002
{
1070
     1
1070
     4
1002
}
  0
BLOCK_RECORD
  5
8A0
330
1
100
AcDbSymbolTableRecord
100
AcDbBlockTableRecord
  2
*D6
340
0
  0
BLOCK_RECORD
  5
8AC
330
1
100
AcDbSymbolTableRecord
100
AcDbBlockTableRecord
  2
*D7
340
0
  0
ENDTAB
  0
ENDSEC
  0
SECTION
  2
BLOCKS
  0
BLOCK
  5
20
330
1F
100
AcDbEntity
  8
0
100
AcDbBlockBegin
  2
*Model_Space
 70
     0
 10
0.0
 20
0.0
 30
0.0
  3
*Model_Space
  1

  0
ENDBLK
  5
21
330
1F
100
AcDbEntity
  8
0
100
AcDbBlockEnd
  0
BLOCK
  5
3E1
330
3B9
100
AcDbEntity
 67
     1
  8
0
100
AcDbBlockBegin
  2
*Paper_Space
 70
     0
 10
0.0
 20
0.0
 30
0.0
  3
*Paper_Space
  1

  0
ENDBLK
  5
3E2
330
3B9
100
AcDbEntity
 67
     1
  8
0
100
AcDbBlockEnd
  0
BLOCK
  5
3F6
330
3F3
100
AcDbEntity
  8
0
100
AcDbBlockBegin
  2
shingle
 70
     0
 10
0.0
 20
0.0
 30
0.0
  3
shingle
  1

  0
LINE
  5
3F7
330
3F3
100
AcDbEntity
  8
0.13
100
AcDbLine
 10
2207.062436730225
 20
929.8168642686144
 30
0.0
 11
2207.062436730226
 21
931.3168971615478
 31
0.0
  0
LINE
  5
3F8
330
3F3
100
AcDbEntity
  8
0.13
100
AcDbLine
 10
2207.062436730226
 20
931.3168971615478
 30
0.0
 11
2358.062436730225
 21
930.3168971615477
 31
0.0
  0
LINE
  5
3F9
102
{ACAD_REACTORS
330
401
102
}
330
3F3
100
AcDbEntity
  8
0.13
100
AcDbLine
 10
2358.062436730225
 20
930.3168971615477
 30
0.0
 11
2358.062436730226
 21
928.0668971615479
 31
0.0
  0
LINE
  5
3FA
102
{ACAD_REACTORS
330
401
102
}
330
3F3
100
AcDbEntity
  8
0.13
100
AcDbLine
 10
2507.062436730225
 20
928.0668971615476
 30
0.0
 11
2507.062436730226
 21
927.3168971615476
 31
0.0
  0
LINE
  5
3FB
102
{ACAD_REACTORS
330
401
102
}
330
3F3
100
AcDbEntity
  8
0.13
100
AcDbLine
 10
2507.062436730226
 20
927.3168971615476
 30
0.0
 11
2356.062436730225
 21
927.3168971615477
 31
0.0
  0
LINE
  5
3FC
102
{ACAD_REACTORS
330
401
102
}
330
3F3
100
AcDbEntity
  8
0.13
100
AcDbLine
 10
2356.062436730225
 20
927.3168971615477
 30
0.0
 11
2356.062436730224
 21
928.8301093017267
 31
0.0
  0
LINE
  5
3FD
102
{ACAD_REACTORS
330
401
102
}
330
3F3
100
AcDbEntity
  8
0.13
100
AcDbLine
 10
2207.062436730225
 20
929.8168642686144
 30
0.0
 11
2358.052503173219
 21
928.8169300537601
 31
0.0
  0
HATCH
  5
3FE
330
3F3
100
AcDbEntity
  8
light grey
100
AcDbHatch
 10
0.0
 20
0.0
 30
0.0
210
0.0
220
0.0
230
1.0
  2
SOLID
 70
     1
 71
     0
 91
        1
 92
        7
 72
     0
 73
     1
 93
        4
 10
2358.062436730225
 20
930.3168971615477
 10
2207.062436730226
 20
931.3168971615478
 10
2207.062436730224
 20
929.8168642686137
 10
2358.062436730226
 20
928.8168642686146
 97
        0
 75
     0
 76
     1
 47
0.1913470343855104
 98
        1
 10
2270.164505482017
 20
930.018756867742
  0
HATCH
  5
3FF
330
3F3
100
AcDbEntity
  8
0.05
100
AcDbHatch
 10
0.0
 20
0.0
 30
0.0
210
0.0
220
0.0
230
1.0
  2
AR-SAND
 70
     0
 71
     0
 91
        1
 92
        7
 72
     0
 73
     1
 93
        4
 10
2358.062436730225
 20
930.3168971615477
 10
2207.062436730226
 20
931.3168971615478
 10
2207.062436730224
 20
929.8168642686137
 10
2358.062436730226
 20
928.8168642686146
 97
        0
 75
     0
 76
     1
 52
0.0
 41
0.05
 77
     0
 78
     4
 53
37.50000000000003
 43
2083.441267449319
 44
495.184158424195
 45
-0.0800015647992022
 46
2.447066186646712
 79
     6
 49
0.0
 49
-1.930399999999999
 49
0.0
 49
-2.158999999999998
 49
0.0
 49
-2.063749999999998
 53
7.499999999999991
 43
2083.441267449319
 44
495.184158424195
 45
2.247616415690013
 46
3.584125502841771
 79
     6
 49
0.0
 49
-1.041399999999999
 49
0.0
 49
-1.7399
 49
0.0
 49
-0.66675
 53
327.4999999999999
 43
2081.879167449319
 44
495.1841584241951
 45
3.95496185120729
 46
0.0071859233927283
 79
     6
 49
0.0
 49
-0.6350000000000002
 49
0.0
 49
-2.286
 49
0.0
 49
-2.9845
 53
317.4999999999999
 43
2081.879167449319
 44
495.1841584241951
 45
3.817782262361486
 46
1.114646616286081
 79
     6
 49
0.0
 49
-0.3174999999999999
 49
0.0
 49
-1.498599999999999
 49
0.0
 49
-1.7145
 47
0.1913470343855104
 98
        1
 10
2272.84602847855
 20
930.0187568677419
  0
LINE
  5
400
102
{ACAD_REACTORS
330
401
102
}
330
3F3
100
AcDbEntity
  8
0.13
100
AcDbLine
 10
2507.062436730225
 20
928.0668971615476
 30
0.0
 11
2358.062436730226
 21
928.0668971615479
 31
0.0
  0
HATCH
  5
401
330
3F3
100
AcDbEntity
  8
0.05
100
AcDbHatch
 10
0.0
 20
0.0
 30
0.0
210
0.0
220
0.0
230
1.0
  2
SOLID
 70
     1
 71
     1
 91
        1
 92
        7
 72
     0
 73
     1
 93
        6
 10
2507.062436730225
 20
928.0668971615476
 10
2358.062436730226
 20
928.0668971615479
 10
2358.062436730225
 20
928.8168642686143
 10
2356.062436730224
 20
928.830109301727
 10
2356.062436730225
 20
927.3168971615477
 10
2507.062436730226
 20
927.3168971615476
 97
        6
330
400
330
3F9
330
3FD
330
3FC
330
3FB
330
3FA
 75
     0
 76
     1
 47
0.1818980469777868
 98
        1
 10
2415.50787006129
 20
927.4697748740235
  0
ENDBLK
  5
402
330
3F3
100
AcDbEntity
  8
0
100
AcDbBlockEnd
  0
BLOCK
  5
414
330
411
100
AcDbEntity
  8
0
100
AcDbBlockBegin
  2
cap shingle
 70
     0
 10
0.0
 20
0.0
 30
0.0
  3
cap shingle
  1

  0
LINE
  5
415
330
411
100
AcDbEntity
  8
0.13
100
AcDbLine
 10
88.17357366683699
 20
544.6129110027798
 30
0.0
 11
88.17357366683671
 21
546.1129438957132
 31
0.0
  0
LINE
  5
416
330
411
100
AcDbEntity
  8
0.13
100
AcDbLine
 10
88.17357366683671
 20
546.1129438957132
 30
0.0
 11
236.1735736668363
 21
545.1328114453819
 31
0.0
  0
LINE
  5
417
330
411
100
AcDbEntity
  8
0.13
100
AcDbLine
 10
236.1735736668366
 20
543.6327785524485
 30
0.0
 11
236.1735736668363
 21
545.1328114453819
 31
0.0
  0
LINE
  5
418
330
411
100
AcDbEntity
  8
0.13
100
AcDbLine
 10
88.17357366683699
 20
544.6129110027798
 30
0.0
 11
236.1735736668366
 21
543.6327785524485
 31
0.0
  0
HATCH
  5
419
330
411
100
AcDbEntity
  8
light grey
100
AcDbHatch
 10
0.0
 20
0.0
 30
0.0
210
0.0
220
0.0
230
1.0
  2
SOLID
 70
     1
 71
     0
 91
        2
 92
        7
 72
     0
 73
     1
 93
        4
 10
236.1735736668371
 20
543.6327785524485
 10
236.1735736668363
 20
545.1328114453819
 10
144.7699414067165
 20
545.7381335133297
 10
144.368720769638
 20
544.2407577107083
 97
        0
 92
        7
 72
     0
 73
     1
 93
        4
 10
144.3687207696381
 20
544.240757710708
 10
144.7699414067165
 20
545.73813351333
 10
88.17357366683671
 20
546.1129438957132
 10
88.17357366683699
 20
544.6129110027799
 97
        0
 75
     0
 76
     1
 47
0.233641508679934
 98
        2
 10
149.1019230416727
 20
544.681965647702
 10
139.4005508808573
 20
544.620722652913
  0
HATCH
  5
41A
330
411
100
AcDbEntity
  8
0.05
100
AcDbHatch
 10
0.0
 20
0.0
 30
0.0
210
0.0
220
0.0
230
1.0
  2
AR-SAND
 70
     0
 71
     0
 91
        2
 92
        7
 72
     0
 73
     1
 93
        4
 10
144.368720769638
 20
544.2407577107083
 10
144.7699414067165
 20
545.73813351333
 10
88.17357366683671
 20
546.1129438957132
 10
88.17357366683699
 20
544.6129110027799
 97
        0
 92
        7
 72
     0
 73
     1
 93
        4
 10
236.1735736668366
 20
543.6327785524485
 10
236.1735736668363
 20
545.1328114453819
 10
144.7699414067165
 20
545.7381335133297
 10
144.368720769638
 20
544.2407577107083
 97
        0
 75
     0
 76
     1
 52
-15.0
 41
0.05
 77
     0
 78
     4
 53
22.50000000000002
 43
-387.8258098942348
 44
328.9806443349104
 45
0.556071756147481
 46
2.384390356928803
 79
     6
 49
0.0
 49
-1.930400000000001
 49
0.0
 49
-2.159000000000001
 49
0.0
 49
-2.063750000000001
 53
352.5
 43
-387.8258098942348
 44
328.9806443349104
 45
3.098670683679351
 46
2.880273453390522
 79
     6
 49
0.0
 49
-1.0414
 49
0.0
 49
-1.7399
 49
0.0
 49
-0.6667500000000001
 53
312.5
 43
-389.334682627481
 44
329.3849455652651
 45
3.822059647899831
 46
-1.016678380755597
 79
     6
 49
0.0
 49
-0.6350000000000002
 49
0.0
 49
-2.286
 49
0.0
 49
-2.9845
 53
302.4999999999999
 43
-389.334682627481
 44
329.3849455652651
 45
3.976186259217188
 46
0.0885511943027053
 79
     6
 49
0.0
 49
-0.3175000000000001
 49
0.0
 49
-1.4986
 49
0.0
 49
-1.7145
 47
0.1838087553171885
 98
        2
 10
140.4321896067187
 20
544.8063759725463
 10
147.1757704260322
 20
545.0926610537638
  0
ENDBLK
  5
41B
330
411
100
AcDbEntity
  8
0
100
AcDbBlockEnd
  0
BLOCK
  5
8AA
330
8A0
100
AcDbEntity
  8
0
100
AcDbBlockBegin
  2
*D6
 70
     1
 10
0.0
 20
0.0
 30
0.0
  3
*D6
  1

  0
LINE
  5
8B8
330
8A0
100
AcDbEntity
  8
dim
 62
     0
370
    -2
100
AcDbLine
 10
1187.390810500564
 20
168.000358060349
 30
0.0
 11
1180.253813265986
 21
168.000358060349
 31
0.0
  0
LINE
  5
8B9
330
8A0
100
AcDbEntity
  8
dim
 62
     0
370
    -2
100
AcDbLine
 10
1187.390810500564
 20
220.2652542658388
 30
0.0
 11
1180.253813265986
 21
220.2652542658388
 31
0.0
  0
LINE
  5
8BA
330
8A0
100
AcDbEntity
  8
dim
 62
     0
370
    -2
100
AcDbLine
 10
1181.503813265986
 20
170.500358060349
 30
0.0
 11
1181.503813265986
 21
217.7652542658389
 31
0.0
  0
SOLID
  5
8BB
330
8A0
100
AcDbEntity
  8
dim
 62
     0
100
AcDbTrace
 10
1181.087146599319
 20
170.500358060349
 30
0.0
 11
1181.920479932653
 21
170.500358060349
 31
0.0
 12
1181.503813265986
 22
168.000358060349
 32
0.0
 13
1181.503813265986
 23
168.000358060349
 33
0.0
  0
SOLID
  5
8BC
330
8A0
100
AcDbEntity
  8
dim
 62
     0
100
AcDbTrace
 10
1181.087146599319
 20
217.7652542658389
 30
0.0
 11
1181.920479932653
 21
217.7652542658389
 31
0.0
 12
1181.503813265986
 22
220.2652542658388
 32
0.0
 13
1181.503813265986
 23
220.2652542658388
 33
0.0
  0
MTEXT
  5
8BD
330
8A0
100
AcDbEntity
  8
dim
 62
     0
100
AcDbMText
 10
1178.190672709617
 20
194.1328061630938
 30
0.0
 40
2.5
 41
0.0
 71
     5
 72
     1
  1
50mm
 11
0.0000000000000001
 21
1.0
 31
0.0
 73
     1
 44
1.0
1001
ACAD
1000
MTEXTBEGIN
1070
    73
1070
     1
1070
    44
1040
1.0
1070
    74
1070
     0
1000
MTEXTEND
  0
POINT
  5
8BE
330
8A0
100
AcDbEntity
  8
Defpoints
 62
     0
100
AcDbPoint
 10
1188.015810500564
 20
168.000358060349
 30
0.0
  0
POINT
  5
8BF
330
8A0
100
AcDbEntity
  8
Defpoints
 62
     0
100
AcDbPoint
 10
1188.015810500564
 20
220.2652542658388
 30
0.0
  0
POINT
  5
8C0
330
8A0
100
AcDbEntity
  8
Defpoints
 62
     0
100
AcDbPoint
 10
1181.503813265986
 20
220.2652542658388
 30
0.0
  0
ENDBLK
  5
8AB
330
8A0
100
AcDbEntity
  8
0
100
AcDbBlockEnd
  0
BLOCK
  5
8B6
330
8AC
100
AcDbEntity
  8
0
100
AcDbBlockBegin
  2
*D7
 70
     1
 10
0.0
 20
0.0
 30
0.0
  3
*D7
  1

  0
LINE
  5
8C1
330
8AC
100
AcDbEntity
  8
dim
 62
     0
370
    -2
100
AcDbLine
 10
1172.588597581658
 20
190.9273142586232
 30
0.0
 11
1163.795546614412
 21
190.9273142586232
 31
0.0
  0
LINE
  5
8C2
330
8AC
100
AcDbEntity
  8
dim
 62
     0
370
    -2
100
AcDbLine
 10
1172.588597581658
 20
288.184366663221
 30
0.0
 11
1163.795546614412
 21
288.184366663221
 31
0.0
  0
LINE
  5
8C3
330
8AC
100
AcDbEntity
  8
dim
 62
     0
370
    -2
100
AcDbLine
 10
1165.045546614412
 20
193.4273142586232
 30
0.0
 11
1165.045546614412
 21
285.684366663221
 31
0.0
  0
SOLID
  5
8C4
330
8AC
100
AcDbEntity
  8
dim
 62
     0
100
AcDbTrace
 10
1164.628879947746
 20
193.4273142586232
 30
0.0
 11
1165.462213281079
 21
193.4273142586232
 31
0.0
 12
1165.045546614412
 22
190.9273142586232
 32
0.0
 13
1165.045546614412
 23
190.9273142586232
 33
0.0
  0
SOLID
  5
8C5
330
8AC
100
AcDbEntity
  8
dim
 62
     0
100
AcDbTrace
 10
1164.628879947746
 20
285.684366663221
 30
0.0
 11
1165.462213281079
 21
285.684366663221
 31
0.0
 12
1165.045546614412
 22
288.184366663221
 32
0.0
 13
1165.045546614412
 23
288.184366663221
 33
0.0
  0
MTEXT
  5
8C6
330
8AC
100
AcDbEntity
  8
dim
 62
     0
100
AcDbMText
 10
1161.750707668585
 20
240.9273142586231
 30
0.0
 40
2.5
 41
0.0
 71
     5
 72
     1
  1
100mm
 11
0.0000000000000001
 21
1.0
 31
0.0
 73
     1
 44
1.0
1001
ACAD
1000
MTEXTBEGIN
1070
    73
1070
     1
1070
    44
1040
1.0
1070
    74
1070
     0
1000
MTEXTEND
  0
POINT
  5
8C7
330
8AC
100
AcDbEntity
  8
Defpoints
 62
     0
100
AcDbPoint
 10
1173.213597581657
 20
190.9273142586232
 30
0.0
  0
POINT
  5
8C8
330
8AC
100
AcDbEntity
  8
Defpoints
 62
     0
100
AcDbPoint
 10
1173.213597581657
 20
288.184366663221
 30
0.0
  0
POINT
  5
8C9
330
8AC
100
AcDbEntity
  8
Defpoints
 62
     0
100
AcDbPoint
 10
1165.045546614412
 20
288.184366663221
 30
0.0
  0
ENDBLK
  5
8B7
330
8AC
100
AcDbEntity
  8
0
100
AcDbBlockEnd
  0
ENDSEC
  0
SECTION
  2
ENTITIES
  0
LINE
  5
25D
330
1F
100
AcDbEntity
  8
0.20
100
AcDbLine
 10
350.4778841257602
 20
76.76800746881699
 30
0.0
 11
192.7326123462071
 21
134.1825909928059
 31
0.0
  0
LINE
  5
25E
330
1F
100
AcDbEntity
  8
0.20
100
AcDbLine
 10
153.4706386702263
 20
148.4727807494089
 30
0.0
 11
66.04936114964477
 21
180.2915236084256
 31
0.0
  0
LINE
  5
25F
330
1F
100
AcDbEntity
  8
0.20
100
AcDbLine
 10
350.477884125762
 20
92.73067405595529
 30
0.0
 11
192.7326123462125
 21
150.1452575799451
 31
0.0
  0
LINE
  5
262
102
{ACAD_REACTORS
330
9AE
102
}
330
1F
100
AcDbEntity
  8
0.13
100
AcDbLine
 10
350.4778841257617
 20
95.79728868169796
 30
0.0
 11
219.2633426524945
 21
144.1669870041555
 31
0.0
  0
LINE
  5
265
330
1F
100
AcDbEntity
  8
0.20
100
AcDbLine
 10
153.4706386702317
 20
164.4354473365453
 30
0.0
 11
66.04936114964658
 21
196.2541901955635
 31
0.0
  0
LINE
  5
266
330
1F
100
AcDbEntity
  8
0.15 - dashed Underlay
100
AcDbLine
 10
350.4778841257616
 20
93.79485182843062
 30
0.0
 11
191.7326123462084
 21
151.5734055866879
 31
0.0
  0
LINE
  5
267
102
{ACAD_REACTORS
330
957
102
}
330
1F
100
AcDbEntity
  8
0.13
100
AcDbLine
 10
137.0049125752696
 20
173.7602632283184
 30
0.0
 11
105.2836203054436
 21
185.3058694069925
 31
0.0
  0
LINE
  5
268
330
1F
100
AcDbEntity
  8
0.20
100
AcDbLine
 10
350.4778841257598
 20
-30.71394755124965
 30
0.0
 11
191.7326123462085
 21
27.06460620700665
 31
0.0
  0
LINE
  5
26A
330
1F
100
AcDbEntity
  8
0.20
100
AcDbLine
 10
154.4706386702296
 20
40.62685549507347
 30
0.0
 11
66.04936114964812
 21
72.80956858835526
 31
0.0
  0
LINE
  5
26E
330
1F
100
AcDbEntity
  8
0.20
100
AcDbLine
 10
191.7326123462085
 20
14.79812494464158
 30
0.0
 11
191.7326123462085
 21
221.0949864527047
 31
0.0
  0
LINE
  5
275
330
1F
100
AcDbEntity
  8
0.20
100
AcDbLine
 10
192.7326123462071
 20
134.1825909928059
 30
0.0
 11
192.7326123462125
 21
150.1452575799451
 31
0.0
  0
LINE
  5
276
102
{ACAD_REACTORS
330
95C
102
}
330
1F
100
AcDbEntity
  8
0.20
100
AcDbLine
 10
154.4706386702314
 20
16.83674819461294
 30
0.0
 11
154.4706386702314
 21
219.0563632027334
 31
0.0
  0
ARC
  5
27B
102
{ACAD_REACTORS
330
957
102
}
330
1F
100
AcDbEntity
  8
0.13
100
AcDbCircle
 10
138.0309730052464
 20
176.5793410906757
 30
0.0
 40
3.0
100
AcDbArc
 50
250.0000000000108
 51
328.8880044508201
  0
LINE
  5
27E
330
1F
100
AcDbEntity
  8
0.20
100
AcDbLine
 10
153.4706386702263
 20
148.4727807494089
 30
0.0
 11
153.4706386702317
 21
164.4354473365453
 31
0.0
  0
SPLINE
  5
27F
330
1F
100
AcDbEntity
  8
0
100
AcDbSpline
210
0.0
220
0.0
230
1.0
 70
     8
 71
     3
 72
    11
 73
     7
 74
     0
 42
0.0000000001
 43
0.0000000001
 40
0.0
 40
0.0
 40
0.0
 40
0.0
 40
11.18033988749895
 40
22.3606797749979
 40
33.54101966249685
 40
41.66244627705793
 40
41.66244627705793
 40
41.66244627705793
 40
41.66244627705793
 10
154.4706386702314
 20
16.83674819461294
 30
0.0
 10
157.8065091707399
 20
19.3333617239673
 30
0.0
 10
164.4782501717532
 20
24.32658878267785
 30
0.0
 10
174.4706283567216
 20
16.81643710587332
 30
0.0
 10
183.5517099095127
 20
9.991205055160662
 30
0.0
 10
189.3095657964409
 20
13.12051685633696
 30
0.0
 10
191.7326123462085
 20
14.79812494464158
 30
0.0
  0
SPLINE
  5
280
330
1F
100
AcDbEntity
  8
0
100
AcDbSpline
210
0.0
220
0.0
230
1.0
 70
     8
 71
     3
 72
     9
 73
     5
 74
     3
 42
0.0000000001
 43
0.0000000001
 44
0.0000000001
 40
0.0
 40
0.0
 40
0.0
 40
0.0
 40
11.18033988749867
 40
22.36067977499816
 40
22.36067977499816
 40
22.36067977499816
 40
22.36067977499816
 10
174.4706283567216
 20
16.81643710587332
 30
0.0
 10
171.1347578562143
 20
14.31982357651917
 30
0.0
 10
164.4630168551994
 20
9.326596517810685
 30
0.0
 10
157.8014313985542
 20
14.33336430234546
 30
0.0
 10
154.4706386702314
 20
16.83674819461294
 30
0.0
 11
174.4706283567216
 21
16.81643710587332
 31
0.0
 11
164.465555741292
 21
11.8265952286215
 31
0.0
 11
154.4706386702314
 21
16.83674819461294
 31
0.0
  0
SPLINE
  5
281
330
1F
100
AcDbEntity
  8
0
100
AcDbSpline
210
0.0
220
0.0
230
1.0
 70
     8
 71
     3
 72
    11
 73
     7
 74
     0
 42
0.0000000001
 43
0.0000000001
 40
0.0
 40
0.0
 40
0.0
 40
0.0
 40
11.18033988749895
 40
22.3606797749979
 40
33.54101966249685
 40
41.66244627705793
 40
41.66244627705793
 40
41.66244627705793
 40
41.66244627705793
 10
154.4706386702314
 20
219.0563632027334
 30
0.0
 10
157.8065091707399
 20
216.559749673379
 30
0.0
 10
164.4782501717532
 20
211.5665226146684
 30
0.0
 10
174.4706283567216
 20
219.076674291473
 30
0.0
 10
183.5517099095127
 20
225.9019063421856
 30
0.0
 10
189.3095657964409
 20
222.7725945410093
 30
0.0
 10
191.7326123462085
 20
221.0949864527047
 30
0.0
  0
SPLINE
  5
282
330
1F
100
AcDbEntity
  8
0
100
AcDbSpline
210
0.0
220
0.0
230
1.0
 70
     8
 71
     3
 72
     9
 73
     5
 74
     3
 42
0.0000000001
 43
0.0000000001
 44
0.0000000001
 40
0.0
 40
0.0
 40
0.0
 40
0.0
 40
11.18033988749867
 40
22.36067977499816
 40
22.36067977499816
 40
22.36067977499816
 40
22.36067977499816
 10
174.4706283567216
 20
219.076674291473
 30
0.0
 10
171.1347578562143
 20
221.5732878208271
 30
0.0
 10
164.4630168551994
 20
226.5665148795356
 30
0.0
 10
157.8014313985542
 20
221.5597470950008
 30
0.0
 10
154.4706386702314
 20
219.0563632027334
 30
0.0
 11
174.4706283567216
 21
219.076674291473
 31
0.0
 11
164.465555741292
 21
224.0665161687248
 31
0.0
 11
154.4706386702314
 21
219.0563632027334
 31
0.0
  0
ARC
  5
283
330
1F
100
AcDbEntity
  8
0.13
100
AcDbCircle
 10
188.5323387219585
 20
122.5489115337971
 30
0.0
 40
27.36867961903157
100
AcDbArc
 50
6.867422377979997
 51
70.06696328872724
  0
ARC
  5
284
330
1F
100
AcDbEntity
  8
0.13
100
AcDbCircle
 10
207.3261911376766
 20
115.7085086672844
 30
0.0
 40
27.36867961903157
100
AcDbArc
 50
6.867422377979997
 51
70.06696328872724
  0
ARC
  5
285
330
1F
100
AcDbEntity
  8
0.13
100
AcDbCircle
 10
226.1200435533946
 20
108.8681058007713
 30
0.0
 40
27.36867961903157
100
AcDbArc
 50
6.867422377979997
 51
70.06696328872724
  0
ARC
  5
286
330
1F
100
AcDbEntity
  8
0.13
100
AcDbCircle
 10
244.9138959691126
 20
102.0277029342572
 30
0.0
 40
27.36867961903157
100
AcDbArc
 50
6.867422377979997
 51
70.06696328872724
  0
ARC
  5
287
330
1F
100
AcDbEntity
  8
0.13
100
AcDbCircle
 10
263.7077483848305
 20
95.18730006774362
 30
0.0
 40
27.36867961903157
100
AcDbArc
 50
6.867422377979997
 51
70.06696328872724
  0
ARC
  5
288
330
1F
100
AcDbEntity
  8
0.13
100
AcDbCircle
 10
282.5016008005485
 20
88.34689720123092
 30
0.0
 40
27.36867961903157
100
AcDbArc
 50
6.867422377979997
 51
70.06696328872724
  0
ARC
  5
289
330
1F
100
AcDbEntity
  8
0.13
100
AcDbCircle
 10
301.2954532162684
 20
81.5064943347173
 30
0.0
 40
27.36867961903157
100
AcDbArc
 50
6.867422377979997
 51
70.06696328872724
  0
ARC
  5
28A
330
1F
100
AcDbEntity
  8
0.13
100
AcDbCircle
 10
320.0893056319864
 20
74.66609146820369
 30
0.0
 40
27.36867961903157
100
AcDbArc
 50
6.867422377979997
 51
70.06696328872724
  0
ARC
  5
28C
330
1F
100
AcDbEntity
  8
0.13
100
AcDbCircle
 10
169.7384863062406
 20
129.3893144003108
 30
0.0
 40
27.36867961903157
100
AcDbArc
 50
6.867422377979997
 51
32.84276408962048
  0
ARC
  5
28D
330
1F
100
AcDbEntity
  8
0.13
100
AcDbCircle
 10
51.12290626302712
 20
172.5618548562627
 30
0.0
 40
27.36867961903157
100
AcDbArc
 50
6.867422377979997
 51
56.94905397869037
  0
ARC
  5
28E
330
1F
100
AcDbEntity
  8
0.13
100
AcDbCircle
 10
69.91675867874511
 20
165.7214519897499
 30
0.0
 40
27.36867961903157
100
AcDbArc
 50
6.867422377979997
 51
70.06696328871808
  0
ARC
  5
28F
330
1F
100
AcDbEntity
  8
0.13
100
AcDbCircle
 10
88.7106110944631
 20
158.8810491232363
 30
0.0
 40
27.36867961903157
100
AcDbArc
 50
6.867422377979997
 51
70.06696328871808
  0
ARC
  5
290
330
1F
100
AcDbEntity
  8
0.13
100
AcDbCircle
 10
107.5044635101811
 20
152.0406462567223
 30
0.0
 40
27.36867961903157
100
AcDbArc
 50
6.867422377979997
 51
70.06696328871808
  0
ARC
  5
291
330
1F
100
AcDbEntity
  8
0.13
100
AcDbCircle
 10
126.2983159258991
 20
145.2002433902091
 30
0.0
 40
27.36867961903157
100
AcDbArc
 50
6.867422377979997
 51
70.06696328871808
  0
LINE
  5
292
330
1F
100
AcDbEntity
  8
dim
100
AcDbLine
 10
66.0493611496463
 20
64.54004428371854
 30
0.0
 11
66.04936114964812
 21
135.3697502496791
 31
0.0
  0
LINE
  5
293
102
{ACAD_REACTORS
330
929
102
}
330
1F
100
AcDbEntity
  8
dim
100
AcDbLine
 10
66.0493611496463
 20
141.1432529415751
 30
0.0
 11
66.0493611496463
 21
211.9729589075316
 31
0.0
  0
LINE
  5
294
330
1F
100
AcDbEntity
  8
dim
100
AcDbLine
 10
71.04936114964266
 20
138.256501595624
 30
0.0
 11
61.04936114964812
 21
138.2565015956259
 31
0.0
  0
LINE
  5
295
330
1F
100
AcDbEntity
  8
dim
100
AcDbLine
 10
66.04936114964812
 20
135.3697502496795
 30
0.0
 11
71.04936114964266
 21
138.256501595624
 31
0.0
  0
LINE
  5
296
330
1F
100
AcDbEntity
  8
dim
100
AcDbLine
 10
61.04936114964812
 20
138.2565015956259
 30
0.0
 11
66.04936114964812
 21
141.1432529415758
 31
0.0
  0
LINE
  5
297
330
1F
100
AcDbEntity
  8
dim
100
AcDbLine
 10
350.4778841257616
 20
-39.30030722171932
 30
0.0
 11
350.4778841257635
 21
31.52939874424124
 31
0.0
  0
LINE
  5
298
330
1F
100
AcDbEntity
  8
dim
100
AcDbLine
 10
350.4778841257616
 20
37.30290143613729
 30
0.0
 11
350.4778841257616
 21
108.1326074020937
 31
0.0
  0
LINE
  5
299
330
1F
100
AcDbEntity
  8
dim
100
AcDbLine
 10
355.477884125758
 20
34.41615009018619
 30
0.0
 11
345.4778841257635
 21
34.41615009018801
 31
0.0
  0
LINE
  5
29A
330
1F
100
AcDbEntity
  8
dim
100
AcDbLine
 10
350.4778841257635
 20
31.52939874424169
 30
0.0
 11
355.477884125758
 21
34.41615009018619
 31
0.0
  0
LINE
  5
29B
330
1F
100
AcDbEntity
  8
dim
100
AcDbLine
 10
345.4778841257635
 20
34.41615009018801
 30
0.0
 11
350.4778841257635
 21
37.30290143613797
 31
0.0
  0
LINE
  5
2A0
102
{ACAD_REACTORS
330
957
102
}
330
1F
100
AcDbEntity
  8
0.13
100
AcDbLine
 10
105.2836203054389
 20
185.3058694069942
 30
0.0
 11
104.770590090447
 21
183.8963304758168
 31
0.0
  0
LINE
  5
2A9
102
{ACAD_REACTORS
330
957
102
}
330
1F
100
AcDbEntity
  8
0.13
100
AcDbLine
 10
136.4918823602816
 20
172.3507242971389
 30
0.0
 11
104.7705900904518
 21
183.8963304758151
 31
0.0
  0
MTEXT
  5
2B3
330
1F
100
AcDbEntity
  8
0.20
100
AcDbMText
 10
316.0155909051432
 20
144.1081098028285
 30
0.0
 40
4.0
 41
79.0
 71
     1
 72
     5
  1
Pabco Asphalt Shingle over waterproof underlay on 15mm plywood on timber frame.
 73
     1
 44
1.0
1001
ACAD
1000
MTEXTBEGIN
1070
    73
1070
     1
1070
    44
1040
1.0
1070
    74
1070
     0
1000
MTEXTEND
  0
MTEXT
  5
2B4
330
1F
100
AcDbEntity
  8
0.20
100
AcDbMText
 10
316.0155909051432
 20
177.7989748406188
 30
0.0
 40
4.0
 41
79.0
 71
     1
 72
     5
  1
The pipe boot flashing is installed between the Pabco Asphalt Shingles.
 73
     1
 44
1.0
1001
ACAD
1000
MTEXTBEGIN
1070
    73
1070
     1
1070
    44
1040
1.0
1070
    74
1070
     0
1000
MTEXTEND
  0
MTEXT
  5
2B5
330
1F
100
AcDbEntity
  8
0.20
100
AcDbMText
 10
316.0155909051432
 20
230.8846438131452
 30
0.0
 40
4.0
 41
71.73354550242496
 71
     1
 72
     5
  1
Rubber flange seals around the pipe.\PPipe Diameter range: 25mm to 100mm.
 73
     1
 44
1.0
1001
ACAD
1000
MTEXTBEGIN
1070
    73
1070
     1
1070
    44
1040
1.0
1070
    74
1070
     0
1000
MTEXTEND
  0
LEADER
  5
2B8
330
1F
100
AcDbEntity
  8
dim
100
AcDbLeader
  3
ISO-25
 76
     3
 10
268.7906730302187
 20
125.9096962939237
 30
0.0
 10
295.0464211662516
 20
132.9327345351471
 30
0.0
 10
313.0484936032776
 20
132.9327345351471
 30
0.0
1001
ACAD
1000
DSTYLE
1002
{
1070
    41
1040
5.0
1002
}
  0
MTEXT
  5
2C3
330
1F
100
AcDbEntity
  8
0.20
100
AcDbMText
 10
171.1747602623222
 20
131.0450470090131
 30
0.0
 40
4.0
 41
79.0
 71
     1
 72
     5
  1
PIPE
 11
0.0000000000000001
 21
1.0
 31
0.0
 73
     1
 44
1.0
1001
ACAD
1000
MTEXTBEGIN
1070
    73
1070
     1
1070
    44
1040
1.0
1070
    74
1070
     0
1000
MTEXTEND
  0
MTEXT
  5
2C4
330
1F
100
AcDbEntity
  8
0.20
100
AcDbMText
 10
230.5625626058704
 20
72.30601321555605
 30
0.0
 40
4.0
 41
79.0
 71
     1
 72
     5
  1
ROOF FRAME
 11
0.9396926207859085
 21
-0.3420201433256686
 31
0.0
 73
     1
 44
1.0
1001
ACAD
1000
MTEXTBEGIN
1070
    73
1070
     1
1070
    44
1040
1.0
1070
    74
1070
     0
1000
MTEXTEND
  0
MTEXT
  5
498
102
{ACAD_XDICTIONARY
360
B19
102
}
330
1F
100
AcDbEntity
  8
0.20
100
AcDbMText
 10
111.8879267720117
 20
-10.79325467577905
 30
0.0
 40
4.0
 41
107.8814814814814
 71
     1
 72
     5
  1
All membranes including Underlay, Butynol flashing tape and etc MUST have radial cut for the pipe penetration to prevent weak-point.
 73
     1
 44
1.0
1001
ACAD
1000
MTEXTBEGIN
1070
    73
1070
     1
1070
    44
1040
1.0
1070
    74
1070
     0
1000
MTEXTEND
  0
ARC
  5
499
330
1F
100
AcDbEntity
  8
0
100
AcDbCircle
 10
90.94470532512014
 20
-21.83782249616979
 30
0.0
 40
11.10339015422855
100
AcDbArc
 50
105.6736175970287
 51
70.61330301493381
  0
ARC
  5
49A
330
1F
100
AcDbEntity
  8
0
100
AcDbCircle
 10
90.94470532512014
 20
-21.83782249616979
 30
0.0
 40
9.603390154228552
100
AcDbArc
 50
106.5933313325856
 51
69.05604189485019
  0
LINE
  5
49B
330
1F
100
AcDbEntity
  8
0
100
AcDbLine
 10
90.05574969091822
 20
-23.35297359082392
 30
0.0
 11
92.61561045124336
 21
-23.35297359082392
 31
0.0
  0
LINE
  5
49C
330
1F
100
AcDbEntity
  8
0
100
AcDbLine
 10
92.61561045124336
 20
-23.35297359082392
 30
0.0
 11
94.63038823834949
 21
-11.3639972933056
 31
0.0
  0
LINE
  5
49D
330
1F
100
AcDbEntity
  8
0
100
AcDbLine
 10
90.05574969091822
 20
-23.35297359082392
 30
0.0
 11
87.94504523606383
 21
-11.14729808119637
 31
0.0
  0
SPLINE
  5
49E
330
1F
100
AcDbEntity
  8
0
100
AcDbSpline
210
0.0
220
0.0
230
1.0
 70
     8
 71
     3
 72
    14
 73
    10
 74
     8
 42
0.0000000001
 43
0.0000000001
 44
0.0000000001
 40
0.0
 40
0.0
 40
0.0
 40
0.0
 40
1.153360054429817
 40
2.128448441361596
 40
2.891481907336642
 40
5.571474202971744
 40
6.397548371861869
 40
7.165475926971381
 40
8.492053936514782
 40
8.492053936514782
 40
8.492053936514782
 40
8.492053936514782
 10
87.94504523606383
 20
-11.14729808119637
 30
0.0
 10
88.08058096159241
 20
-10.78282505677277
 30
0.0
 10
88.33070303114229
 20
-10.11021459330718
 30
0.0
 10
89.14767965430156
 20
-9.46860961656378
 30
0.0
 10
90.63676722682762
 20
-9.372582637373557
 30
0.0
 10
92.0723497278055
 20
-9.136129449259176
 30
0.0
 10
93.45644778712799
 20
-9.609001690284838
 30
0.0
 10
94.16812656392711
 20
-10.311460570945
 30
0.0
 10
94.45113913243208
 20
-10.95585991816168
 30
0.0
 10
94.63038823834949
 20
-11.3639972933056
 30
0.0
 11
87.94504523606383
 21
-11.14729808119637
 31
0.0
 11
88.45479436280994
 21
-10.11269900767274
 31
0.0
 11
89.2374053364024
 21
-9.531048402634041
 31
0.0
 11
89.99054268846885
 21
-9.408556773857981
 31
0.0
 11
92.67030647419369
 21
-9.373560240013148
 31
0.0
 11
93.44095930444245
 21
-9.671037546268735
 31
0.0
 11
94.00143203845528
 21
-10.19599758696199
 31
0.0
 11
94.63038823834949
 21
-11.3639972933056
 31
0.0
  0
CIRCLE
  5
49F
330
1F
100
AcDbEntity
  8
0
100
AcDbCircle
 10
91.26491291280899
 20
-27.07951257114792
 30
0.0
 40
2.569476904230562
  0
HATCH
  5
4A0
330
1F
100
AcDbEntity
  8
0
100
AcDbHatch
 10
0.0
 20
0.0
 30
0.0
210
0.0
220
0.0
230
1.0
  2
SOLID
 70
     1
 71
     0
 91
        1
 92
        7
 72
     1
 73
     1
 93
        4
 10
94.63038823834949
 20
-11.3639972933056
 42
0.0
 10
94.37748158695786
 20
-12.86892347842558
 42
-6.050784953660254
 10
88.20219964496846
 20
-12.63435765684608
 42
0.0
 10
87.94504523606383
 20
-11.14729808119637
 42
6.48575145239653
 97
        0
 75
     0
 76
     1
 47
0.1251288764846155
 98
        1
 10
80.65300713499892
 20
-19.99759761738414
  0
LINE
  5
5AA
102
{ACAD_REACTORS
330
929
102
}
330
1F
100
AcDbEntity
  8
0.13
100
AcDbLine
 10
66.0493611496463
 20
202.5633803509545
 30
0.0
 11
137.0402284592943
 21
176.1911118643828
 31
0.0
  0
LINE
  5
5AF
102
{ACAD_REACTORS
330
929
102
}
330
1F
100
AcDbEntity
  8
0.13
100
AcDbLine
 10
66.0493611496463
 20
200.9632216675781
 30
0.0
 11
136.5178750038891
 21
174.785001318364
 31
0.0
  0
LINE
  5
5B5
102
{ACAD_REACTORS
330
929
102
}
330
1F
100
AcDbEntity
  8
0.13
100
AcDbLine
 10
66.04936114964629
 20
204.9266958967339
 30
0.0
 11
111.3728720052685
 21
188.0895470868043
 31
0.0
  0
LINE
  5
5BA
102
{ACAD_REACTORS
330
929
102
}
330
1F
100
AcDbEntity
  8
0.13
100
AcDbLine
 10
66.0493611496463
 20
203.3265372133574
 30
0.0
 11
110.8505185498632
 21
186.6834365407853
 31
0.0
  0
MTEXT
  5
67E
330
1F
100
AcDbEntity
  8
0.20
100
AcDbMText
 10
316.0155909051432
 20
67.41552123695488
 30
0.0
 40
4.0
 41
28.13333333333333
 71
     7
 72
     5
  1
Underlay
 73
     1
 44
1.0
1001
ACAD
1000
MTEXTBEGIN
1070
    73
1070
     1
1070
    44
1040
1.0
1070
    74
1070
     0
1000
MTEXTEND
  0
LEADER
  5
67F
330
1F
100
AcDbEntity
  8
dim
100
AcDbLeader
  3
ISO-25
 76
     3
 10
291.8922916902778
 20
114.0540858593243
 30
0.0
 10
304.0474573847646
 20
70.64382598565135
 30
0.0
 10
313.0484936032776
 20
70.64382598565135
 30
0.0
1001
ACAD
1000
DSTYLE
1002
{
1070
    41
1040
5.0
1002
}
  0
HATCH
  5
81D
330
1F
100
AcDbEntity
  8
light grey
100
AcDbHatch
 10
0.0
 20
0.0
 30
0.0
210
0.0
220
0.0
230
1.0
  2
SOLID
 70
     1
 71
     0
 91
        2
 92
        1
 93
        4
 72
     2
 10
1194.745325953491
 20
172.9138036873387
 40
5.000000000000002
 50
189.3667824208306
 51
212.3854468652975
 73
     1
 72
     1
 10
1190.523005961827
 20
170.2357420958153
 11
1244.287228827873
 21
150.262968496492
 72
     1
 10
1244.287228827873
 20
150.262968496492
 11
1244.800270292906
 21
151.6725383369177
 72
     1
 10
1244.800270292906
 20
151.6725383369177
 11
1189.811992528357
 21
172.1000338694844
 97
        0
 92
        1
 93
        4
 72
     2
 10
1146.483352277512
 20
188.3513700073832
 40
2.999999999999995
 50
306.3554795064481
 51
336.8398603093569
 73
     1
 72
     1
 10
1149.241579816576
 20
187.1714628742783
 11
1103.24870469756
 21
204.2572725998793
 72
     1
 10
1103.24870469756
 20
204.2572725998793
 11
1102.735663232524
 21
202.8477027594536
 72
     1
 10
1102.735663232524
 20
202.8477027594536
 11
1148.261732122132
 21
185.9353060330129
 97
        0
 75
     0
 76
     1
 98
        1
 10
1162.1012629306
 20
181.4552411464112
  0
LINE
  5
81E
330
1F
100
AcDbEntity
  8
0.20
100
AcDbLine
 10
1346.990597733042
 20
89.63610012629652
 30
0.0
 11
1189.245325953489
 21
147.0506836502855
 31
0.0
  0
LINE
  5
81F
330
1F
100
AcDbEntity
  8
0.20
100
AcDbLine
 10
1149.983352277509
 20
162.4050511793632
 30
0.0
 11
1062.562074756927
 21
194.2237940383799
 31
0.0
  0
LINE
  5
820
330
1F
100
AcDbEntity
  8
0.20
100
AcDbLine
 10
1346.990597733044
 20
105.5987667134348
 30
0.0
 11
1189.245325953495
 21
163.0133502374246
 31
0.0
  0
LINE
  5
821
330
1F
100
AcDbEntity
  8
0.15 - dashed Underlay
100
AcDbLine
 10
1346.990597733044
 20
107.1950333721491
 30
0.0
 11
1189.245325953495
 21
164.6096168961378
 31
0.0
  0
LINE
  5
822
102
{ACAD_REACTORS
330
89C
102
}
330
1F
100
AcDbEntity
  8
0.13
100
AcDbLine
 10
1236.729956992788
 20
152.3117588300067
 30
0.0
 11
1193.035225236864
 21
168.2153405834092
 31
0.0
  0
ARC
  5
823
102
{ACAD_REACTORS
330
89C
102
}
330
1F
100
AcDbEntity
  8
0.13
100
AcDbCircle
 10
1194.745325953491
 20
172.9138036873387
 30
0.0
 40
5.0
100
AcDbArc
 50
180.0
 51
250.0000000000104
  0
ARC
  5
824
102
{ACAD_REACTORS
330
89C
102
}
330
1F
100
AcDbEntity
  8
0.13
100
AcDbCircle
 10
1194.745325953491
 20
172.9138036873387
 30
0.0
 40
6.5
100
AcDbArc
 50
180.0
 51
250.0000000000099
  0
LINE
  5
825
330
1F
100
AcDbEntity
  8
0.20
100
AcDbLine
 10
1149.983352277514
 20
178.3677177664996
 30
0.0
 11
1062.562074756929
 21
210.1864606255178
 31
0.0
  0
LINE
  5
826
330
1F
100
AcDbEntity
  8
0.15 - dashed Underlay
100
AcDbLine
 10
1149.983352277514
 20
179.4318955389751
 30
0.0
 11
1062.562074756929
 21
211.2506383979939
 31
0.0
  0
LINE
  5
827
102
{ACAD_REACTORS
330
89C
102
}
330
1F
100
AcDbEntity
  8
0.13
100
AcDbLine
 10
1145.457291847536
 20
185.5322921450254
 30
0.0
 11
1102.498721238216
 21
201.1679331534395
 31
0.0
  0
LINE
  5
828
330
1F
100
AcDbEntity
  8
0.20
100
AcDbLine
 10
1346.990597733042
 20
-16.78167712129533
 30
0.0
 11
1188.245325953491
 21
40.99687663696096
 31
0.0
  0
LINE
  5
829
330
1F
100
AcDbEntity
  8
0.20
100
AcDbLine
 10
1150.983352277512
 20
54.55912592502778
 30
0.0
 11
1062.562074756931
 21
86.74183901830957
 31
0.0
  0
HATCH
  5
82A
330
1F
100
AcDbEntity
  8
0.13
100
AcDbHatch
 10
0.0
 20
0.0
 30
0.0
210
0.0
220
0.0
230
1.0
  2
SOLID
 70
     1
 71
     1
 91
        2
 92
        7
 72
     0
 73
     1
 93
        7
 10
1189.245325953491
 20
308.9956290260991
 10
1188.245325953491
 20
308.9956290260991
 10
1188.245325953491
 20
288.9956290260989
 10
1189.745325953491
 20
288.9956290260989
 10
1189.745325953492
 20
258.9956290260988
 10
1190.745325953489
 20
258.9956290260991
 10
1190.745325953491
 20
288.9956290260697
 97
        7
330
86E
330
82C
330
859
330
82D
330
86F
330
82E
330
86B
 92
        7
 72
     0
 73
     1
 93
        7
 10
1150.983352277514
 20
308.9956290260991
 10
1149.983352277514
 20
308.995629026099
 10
1148.483352277514
 20
288.995629026119
 10
1148.48335227751
 20
258.9956290260991
 10
1149.483352277511
 20
258.9956290260989
 10
1149.483352277512
 20
288.9956290260989
 10
1150.983352277514
 20
288.9956290260989
 97
        7
330
86D
330
86C
330
835
330
870
330
834
330
858
330
833
 75
     0
 76
     1
 47
0.1509478307847448
 98
        2
 10
1189.577592367236
 20
298.2771992443668
 10
1150.14753518769
 20
293.1449694703551
  0
HATCH
  5
82B
330
1F
100
AcDbEntity
  8
light grey
100
AcDbHatch
 10
0.0
 20
0.0
 30
0.0
210
0.0
220
0.0
230
1.0
  2
SOLID
 70
     1
 71
     1
 91
        2
 92
        7
 72
     1
 73
     1
 93
       10
 10
1189.745325953491
 20
288.9956290260989
 42
0.0
 10
1188.245325953491
 20
288.9956290260989
 42
0.0
 10
1188.245325953491
 20
220.2319044012983
 42
0.0
 10
1189.745325953491
 20
219.6859490499
 42
0.0
 10
1189.745325953491
 20
190.751302424951
 42
0.0
 10
1191.245325953491
 20
190.751302424951
 42
0.0
 10
1191.245325953489
 20
220.861816908711
 42
0.1288926776514929
 10
1190.602334959804
 20
223.3146667856645
 42
0.0
 10
1190.388316947176
 20
223.6948280084612
 42
-0.1288926776515076
 10
1189.745325953493
 20
226.1476778854154
 42
0.0
 97
       10
330
859
330
82C
330
85B
330
82F
330
85D
330
830
330
831
330
860
330
861
330
82D
 92
        7
 72
     1
 73
     1
 93
       10
 10
1150.983352277514
 20
288.9956290260989
 42
0.0
 10
1149.483352277512
 20
288.9956290260989
 42
0.0
 10
1149.48335227751
 20
241.0999125155415
 42
-0.128892677648712
 10
1148.840361283856
 20
238.6470626386348
 42
0.0
 10
1148.626343271201
 20
238.2669014157907
 42
0.1288926776515644
 10
1147.983352277512
 20
235.8140515388368
 42
0.0
 10
1147.983352277512
 20
190.7513024249508
 42
0.0
 10
1149.483352277512
 20
190.751302424951
 42
0.0
 10
1149.483352277514
 20
234.3401090407658
 42
0.0
 10
1150.983352277514
 20
233.794153689367
 42
0.0
 97
       10
330
858
330
834
330
864
330
863
330
862
330
837
330
85C
330
836
330
85A
330
833
 75
     0
 76
     1
 47
0.2790653448867451
 98
        2
 10
1188.803025691454
 20
261.387986301876
 10
1150.538665812906
 20
237.1093011567511
  0
LINE
  5
82C
102
{ACAD_REACTORS
330
82A
330
82B
330
89C
330
880
102
}
330
1F
100
AcDbEntity
  8
0.20
100
AcDbLine
 10
1188.245325953491
 20
28.7303953745959
 30
0.0
 11
1188.245325953491
 21
337.6151661683016
 31
0.0
  0
LINE
  5
82D
102
{ACAD_REACTORS
330
82A
330
82B
102
}
330
1F
100
AcDbEntity
  8
0.13
100
AcDbLine
 10
1189.745325953493
 20
226.1476778854155
 30
0.0
 11
1189.745325953491
 21
288.9956290260989
 31
0.0
  0
LINE
  5
82E
102
{ACAD_REACTORS
330
82A
102
}
330
1F
100
AcDbEntity
  8
0.13
100
AcDbLine
 10
1190.745325953489
 20
258.9956290260991
 30
0.0
 11
1190.745325953491
 21
288.9956290260695
 31
0.0
  0
LINE
  5
82F
102
{ACAD_REACTORS
330
82B
330
89C
102
}
330
1F
100
AcDbEntity
  8
0.13
100
AcDbLine
 10
1189.745325953491
 20
172.9138036873387
 30
0.0
 11
1189.745325953491
 21
219.6859490499
 31
0.0
  0
LINE
  5
830
102
{ACAD_REACTORS
330
82B
102
}
330
1F
100
AcDbEntity
  8
0.13
100
AcDbLine
 10
1191.245325953491
 20
190.751302424951
 30
0.0
 11
1191.245325953489
 21
220.861816908711
 31
0.0
  0
ARC
  5
831
102
{ACAD_REACTORS
330
82B
102
}
330
1F
100
AcDbEntity
  8
0.13
100
AcDbCircle
 10
1186.245325953487
 20
220.8618169087103
 30
0.0
 40
5.0
100
AcDbArc
 50
0.0
 51
29.37805128890643
  0
LINE
  5
832
330
1F
100
AcDbEntity
  8
0.20
100
AcDbLine
 10
1189.245325953489
 20
147.0506836502855
 30
0.0
 11
1189.245325953495
 21
163.0133502374246
 31
0.0
  0
LINE
  5
833
102
{ACAD_REACTORS
330
82A
330
82B
330
89C
330
880
102
}
330
1F
100
AcDbEntity
  8
0.20
100
AcDbLine
 10
1150.983352277514
 20
30.76901862456725
 30
0.0
 11
1150.983352277514
 21
335.5765429183303
 31
0.0
  0
LINE
  5
834
102
{ACAD_REACTORS
330
82A
330
82B
102
}
330
1F
100
AcDbEntity
  8
0.13
100
AcDbLine
 10
1149.48335227751
 20
241.0999125155415
 30
0.0
 11
1149.483352277512
 21
288.9956290260989
 31
0.0
  0
LINE
  5
835
102
{ACAD_REACTORS
330
82A
102
}
330
1F
100
AcDbEntity
  8
0.13
100
AcDbLine
 10
1148.48335227751
 20
258.9956290260991
 30
0.0
 11
1148.483352277514
 21
288.9956290261189
 31
0.0
  0
LINE
  5
836
102
{ACAD_REACTORS
330
82B
330
89C
102
}
330
1F
100
AcDbEntity
  8
0.13
100
AcDbLine
 10
1149.483352277512
 20
188.351370007383
 30
0.0
 11
1149.483352277514
 21
234.3401090407659
 31
0.0
  0
LINE
  5
837
102
{ACAD_REACTORS
330
82B
102
}
330
1F
100
AcDbEntity
  8
0.13
100
AcDbLine
 10
1147.983352277512
 20
190.7513024249508
 30
0.0
 11
1147.983352277512
 21
235.8140515388368
 31
0.0
  0
ARC
  5
838
102
{ACAD_REACTORS
330
89C
102
}
330
1F
100
AcDbEntity
  8
0.13
100
AcDbCircle
 10
1146.483352277512
 20
188.3513700073831
 30
0.0
 40
3.0
100
AcDbArc
 50
250.0000000000104
 51
359.999999999998
  0
ARC
  5
839
102
{ACAD_REACTORS
330
89C
102
}
330
1F
100
AcDbEntity
  8
0.13
100
AcDbCircle
 10
1146.483352277512
 20
188.3513700073831
 30
0.0
 40
4.5
100
AcDbArc
 50
250.0000000000104
 51
0.0
  0
LINE
  5
83A
330
1F
100
AcDbEntity
  8
0.20
100
AcDbLine
 10
1149.983352277509
 20
162.4050511793632
 30
0.0
 11
1149.983352277514
 21
178.3677177664996
 31
0.0
  0
SPLINE
  5
83B
330
1F
100
AcDbEntity
  8
0
100
AcDbSpline
210
0.0
220
0.0
230
1.0
 70
     8
 71
     3
 72
    11
 73
     7
 74
     0
 42
0.0000000001
 43
0.0000000001
 40
0.0
 40
0.0
 40
0.0
 40
0.0
 40
11.18033988749895
 40
22.3606797749979
 40
33.54101966249685
 40
41.66244627705793
 40
41.66244627705793
 40
41.66244627705793
 40
41.66244627705793
 10
1150.983352277514
 20
30.76901862456725
 30
0.0
 10
1154.319222778023
 20
33.26563215392162
 30
0.0
 10
1160.990963779036
 20
38.25885921263216
 30
0.0
 10
1170.983341964004
 20
30.74870753582763
 30
0.0
 10
1180.064423516795
 20
23.92347548511498
 30
0.0
 10
1185.822279403724
 20
27.05278728629128
 30
0.0
 10
1188.245325953491
 20
28.7303953745959
 30
0.0
  0
SPLINE
  5
83C
330
1F
100
AcDbEntity
  8
0
100
AcDbSpline
210
0.0
220
0.0
230
1.0
 70
     8
 71
     3
 72
     9
 73
     5
 74
     3
 42
0.0000000001
 43
0.0000000001
 44
0.0000000001
 40
0.0
 40
0.0
 40
0.0
 40
0.0
 40
11.18033988749867
 40
22.36067977499816
 40
22.36067977499816
 40
22.36067977499816
 40
22.36067977499816
 10
1170.983341964004
 20
30.74870753582763
 30
0.0
 10
1167.647471463497
 20
28.25209400647348
 30
0.0
 10
1160.975730462482
 20
23.258866947765
 30
0.0
 10
1154.314145005837
 20
28.26563473229977
 30
0.0
 10
1150.983352277514
 20
30.76901862456725
 30
0.0
 11
1170.983341964004
 21
30.74870753582763
 31
0.0
 11
1160.978269348575
 21
25.75886565857582
 31
0.0
 11
1150.983352277514
 21
30.76901862456725
 31
0.0
  0
SPLINE
  5
83D
330
1F
100
AcDbEntity
  8
0
100
AcDbSpline
210
0.0
220
0.0
230
1.0
 70
     8
 71
     3
 72
    11
 73
     7
 74
     0
 42
0.0000000001
 43
0.0000000001
 40
0.0
 40
0.0
 40
0.0
 40
0.0
 40
11.18033988749895
 40
22.3606797749979
 40
33.54101966249685
 40
41.66244627705793
 40
41.66244627705793
 40
41.66244627705793
 40
41.66244627705793
 10
1150.983352277514
 20
335.5765429183303
 30
0.0
 10
1154.319222778023
 20
333.0799293889759
 30
0.0
 10
1160.990963779036
 20
328.0867023302653
 30
0.0
 10
1170.983341964004
 20
335.5968540070699
 30
0.0
 10
1180.064423516795
 20
342.4220860577825
 30
0.0
 10
1185.822279403724
 20
339.2927742566062
 30
0.0
 10
1188.245325953491
 20
337.6151661683016
 30
0.0
  0
SPLINE
  5
83E
330
1F
100
AcDbEntity
  8
0
100
AcDbSpline
210
0.0
220
0.0
230
1.0
 70
     8
 71
     3
 72
     9
 73
     5
 74
     3
 42
0.0000000001
 43
0.0000000001
 44
0.0000000001
 40
0.0
 40
0.0
 40
0.0
 40
0.0
 40
11.18033988749867
 40
22.36067977499816
 40
22.36067977499816
 40
22.36067977499816
 40
22.36067977499816
 10
1170.983341964004
 20
335.5968540070699
 30
0.0
 10
1167.647471463497
 20
338.093467536424
 30
0.0
 10
1160.975730462482
 20
343.0866945951325
 30
0.0
 10
1154.314145005837
 20
338.0799268105977
 30
0.0
 10
1150.983352277514
 20
335.5765429183303
 30
0.0
 11
1170.983341964004
 21
335.5968540070699
 31
0.0
 11
1160.978269348575
 21
340.5866958843217
 31
0.0
 11
1150.983352277514
 21
335.5765429183303
 31
0.0
  0
ARC
  5
83F
330
1F
100
AcDbEntity
  8
0.13
100
AcDbCircle
 10
1185.045052329241
 20
135.4170041912767
 30
0.0
 40
27.36867961903157
100
AcDbArc
 50
6.867422377979462
 51
70.06696328873252
  0
ARC
  5
840
330
1F
100
AcDbEntity
  8
0.13
100
AcDbCircle
 10
1203.838904744959
 20
128.576601324764
 30
0.0
 40
27.36867961903157
100
AcDbArc
 50
6.867422377979462
 51
70.06696328873252
  0
ARC
  5
841
330
1F
100
AcDbEntity
  8
0.13
100
AcDbCircle
 10
1222.632757160677
 20
121.7361984582508
 30
0.0
 40
27.36867961903157
100
AcDbArc
 50
6.867422377979462
 51
70.06696328873252
  0
ARC
  5
842
330
1F
100
AcDbEntity
  8
0.13
100
AcDbCircle
 10
1241.426609576395
 20
114.8957955917367
 30
0.0
 40
27.36867961903157
100
AcDbArc
 50
6.867422377979462
 51
70.06696328873252
  0
ARC
  5
843
330
1F
100
AcDbEntity
  8
0.13
100
AcDbCircle
 10
1260.220461992113
 20
108.0553927252231
 30
0.0
 40
27.36867961903157
100
AcDbArc
 50
6.867422377979462
 51
70.06696328873252
  0
ARC
  5
844
330
1F
100
AcDbEntity
  8
0.13
100
AcDbCircle
 10
1279.014314407831
 20
101.2149898587104
 30
0.0
 40
27.36867961903157
100
AcDbArc
 50
6.867422377979462
 51
70.06696328873252
  0
ARC
  5
845
330
1F
100
AcDbEntity
  8
0.13
100
AcDbCircle
 10
1297.808166823551
 20
94.37458699219684
 30
0.0
 40
27.36867961903157
100
AcDbArc
 50
6.867422377979462
 51
70.06696328873252
  0
ARC
  5
846
330
1F
100
AcDbEntity
  8
0.13
100
AcDbCircle
 10
1316.602019239269
 20
87.53418412568322
 30
0.0
 40
27.36867961903157
100
AcDbArc
 50
6.867422377979462
 51
70.06696328873252
  0
ARC
  5
847
330
1F
100
AcDbEntity
  8
0.13
100
AcDbCircle
 10
1166.251199913523
 20
142.2574070577903
 30
0.0
 40
27.36867961903157
100
AcDbArc
 50
6.867422377979462
 51
32.84276408962202
  0
ARC
  5
848
330
1F
100
AcDbEntity
  8
0.13
100
AcDbCircle
 10
1047.63561987031
 20
186.494125286217
 30
0.0
 40
27.36867961903157
100
AcDbArc
 50
6.867422377979462
 51
56.94905397868549
  0
ARC
  5
849
330
1F
100
AcDbEntity
  8
0.13
100
AcDbCircle
 10
1066.429472286028
 20
179.6537224197042
 30
0.0
 40
27.36867961903157
100
AcDbArc
 50
6.867422377979462
 51
70.06696328871924
  0
ARC
  5
84A
330
1F
100
AcDbEntity
  8
0.13
100
AcDbCircle
 10
1085.223324701746
 20
172.8133195531906
 30
0.0
 40
27.36867961903157
100
AcDbArc
 50
6.867422377979462
 51
70.06696328871924
  0
ARC
  5
84B
330
1F
100
AcDbEntity
  8
0.13
100
AcDbCircle
 10
1104.017177117464
 20
165.9729166866766
 30
0.0
 40
27.36867961903157
100
AcDbArc
 50
6.867422377979462
 51
70.06696328871924
  0
ARC
  5
84C
330
1F
100
AcDbEntity
  8
0.13
100
AcDbCircle
 10
1122.811029533182
 20
159.1325138201634
 30
0.0
 40
27.36867961903157
100
AcDbArc
 50
6.867422377979462
 51
70.06696328871924
  0
LINE
  5
84D
330
1F
100
AcDbEntity
  8
dim
100
AcDbLine
 10
1062.562074756929
 20
78.47231471367286
 30
0.0
 11
1062.562074756931
 21
149.3020206796334
 31
0.0
  0
LINE
  5
84E
330
1F
100
AcDbEntity
  8
dim
100
AcDbLine
 10
1062.562074756929
 20
155.0755233715294
 30
0.0
 11
1062.562074756929
 21
225.905229337486
 31
0.0
  0
LINE
  5
84F
330
1F
100
AcDbEntity
  8
dim
100
AcDbLine
 10
1067.562074756925
 20
152.1887720255783
 30
0.0
 11
1057.562074756931
 21
152.1887720255802
 31
0.0
  0
LINE
  5
850
330
1F
100
AcDbEntity
  8
dim
100
AcDbLine
 10
1062.562074756931
 20
149.3020206796338
 30
0.0
 11
1067.562074756925
 21
152.1887720255783
 31
0.0
  0
LINE
  5
851
330
1F
100
AcDbEntity
  8
dim
100
AcDbLine
 10
1057.562074756931
 20
152.1887720255802
 30
0.0
 11
1062.562074756931
 21
155.0755233715301
 31
0.0
  0
LINE
  5
852
330
1F
100
AcDbEntity
  8
dim
100
AcDbLine
 10
1346.990597733044
 20
-25.36803679176501
 30
0.0
 11
1346.990597733046
 21
45.46166917419554
 31
0.0
  0
LINE
  5
853
330
1F
100
AcDbEntity
  8
dim
100
AcDbLine
 10
1346.990597733044
 20
51.2351718660916
 30
0.0
 11
1346.990597733044
 21
122.064877832048
 31
0.0
  0
LINE
  5
854
330
1F
100
AcDbEntity
  8
dim
100
AcDbLine
 10
1351.990597733041
 20
48.3484205201405
 30
0.0
 11
1341.990597733046
 21
48.34842052014233
 31
0.0
  0
LINE
  5
855
330
1F
100
AcDbEntity
  8
dim
100
AcDbLine
 10
1346.990597733046
 20
45.461669174196
 30
0.0
 11
1351.990597733041
 21
48.3484205201405
 31
0.0
  0
LINE
  5
856
330
1F
100
AcDbEntity
  8
dim
100
AcDbLine
 10
1341.990597733046
 20
48.34842052014233
 30
0.0
 11
1346.990597733046
 21
51.23517186609229
 31
0.0
  0
LINE
  5
857
102
{ACAD_REACTORS
330
89C
102
}
330
1F
100
AcDbEntity
  8
0.13
100
AcDbLine
 10
1102.498721238216
 20
201.1679331534395
 30
0.0
 11
1101.985691023224
 21
199.758394222262
 31
0.0
  0
LINE
  5
858
102
{ACAD_REACTORS
330
82A
330
82B
102
}
330
1F
100
AcDbEntity
  8
0.13
100
AcDbLine
 10
1149.483352277512
 20
288.9956290260989
 30
0.0
 11
1150.983352277512
 21
288.9956290260989
 31
0.0
  0
LINE
  5
859
102
{ACAD_REACTORS
330
82A
330
82B
102
}
330
1F
100
AcDbEntity
  8
0.13
100
AcDbLine
 10
1188.245325953489
 20
288.9956290260989
 30
0.0
 11
1189.745325953491
 21
288.9956290260989
 31
0.0
  0
LINE
  5
85A
102
{ACAD_REACTORS
330
82B
330
89C
102
}
330
1F
100
AcDbEntity
  8
0.13
100
AcDbLine
 10
1149.483352277514
 20
234.3401090407659
 30
0.0
 11
1150.983352277514
 21
233.794153689367
 31
0.0
  0
LINE
  5
85B
102
{ACAD_REACTORS
330
82B
330
89C
102
}
330
1F
100
AcDbEntity
  8
0.13
100
AcDbLine
 10
1188.245325953491
 20
220.2319044012984
 30
0.0
 11
1189.745325953491
 21
219.6859490499
 31
0.0
  0
LINE
  5
85C
102
{ACAD_REACTORS
330
82B
102
}
330
1F
100
AcDbEntity
  8
0.13
100
AcDbLine
 10
1147.983352277512
 20
190.7513024249508
 30
0.0
 11
1149.483352277514
 21
190.751302424951
 31
0.0
  0
LINE
  5
85D
102
{ACAD_REACTORS
330
82B
102
}
330
1F
100
AcDbEntity
  8
0.13
100
AcDbLine
 10
1189.745325953489
 20
190.751302424951
 30
0.0
 11
1191.245325953491
 21
190.751302424951
 31
0.0
  0
LINE
  5
85E
102
{ACAD_REACTORS
330
89C
102
}
330
1F
100
AcDbEntity
  8
0.13
100
AcDbLine
 10
1236.729956992788
 20
152.3117588300067
 30
0.0
 11
1236.216926777801
 21
150.902219898827
 31
0.0
  0
LINE
  5
85F
102
{ACAD_REACTORS
330
89C
102
}
330
1F
100
AcDbEntity
  8
0.13
100
AcDbLine
 10
1144.944261632546
 20
184.1227532138464
 30
0.0
 11
1101.985691023224
 21
199.758394222262
 31
0.0
  0
LINE
  5
860
102
{ACAD_REACTORS
330
82B
102
}
330
1F
100
AcDbEntity
  8
0.13
100
AcDbLine
 10
1190.388316947176
 20
223.6948280084612
 30
0.0
 11
1190.602334959804
 21
223.3146667856645
 31
0.0
  0
ARC
  5
861
102
{ACAD_REACTORS
330
82B
102
}
330
1F
100
AcDbEntity
  8
0.13
100
AcDbCircle
 10
1194.745325953493
 20
226.1476778854153
 30
0.0
 40
5.0
100
AcDbArc
 50
180.0
 51
209.3780512889064
  0
ARC
  5
862
102
{ACAD_REACTORS
330
82B
102
}
330
1F
100
AcDbEntity
  8
0.13
100
AcDbCircle
 10
1152.983352277518
 20
235.8140515388366
 30
0.0
 40
5.0
100
AcDbArc
 50
150.6219487110936
 51
180.0
  0
LINE
  5
863
102
{ACAD_REACTORS
330
82B
102
}
330
1F
100
AcDbEntity
  8
0.13
100
AcDbLine
 10
1148.840361283829
 20
238.6470626385874
 30
0.0
 11
1148.626343271201
 21
238.2669014157907
 31
0.0
  0
ARC
  5
864
102
{ACAD_REACTORS
330
82B
102
}
330
1F
100
AcDbEntity
  8
0.13
100
AcDbCircle
 10
1144.483352277512
 20
241.0999125155415
 30
0.0
 40
5.0
100
AcDbArc
 50
330.6219487110936
 51
0.0
  0
MTEXT
  5
865
330
1F
100
AcDbEntity
  8
0.20
100
AcDbMText
 10
1312.528304512426
 20
158.0403802327828
 30
0.0
 40
4.0
 41
79.0
 71
     1
 72
     5
  1
Pabco Asphalt Shingle over waterproof underlay on 15mm plywood on timber frame.
 73
     1
 44
1.0
1001
ACAD
1000
MTEXTBEGIN
1070
    73
1070
     1
1070
    44
1040
1.0
1070
    74
1070
     0
1000
MTEXTEND
  0
MTEXT
  5
866
330
1F
100
AcDbEntity
  8
0.20
100
AcDbMText
 10
1312.528304512426
 20
198.4051318796369
 30
0.0
 40
4.0
 41
79.0
 71
     1
 72
     5
  1
Butynol flashing tape (50mm upstand) around the perimetre of the pipe is installed between the Pabco. Asphalt Shingle overlaps.
 73
     1
 44
1.0
1001
ACAD
1000
MTEXTBEGIN
1070
    73
1070
     1
1070
    44
1040
1.0
1070
    74
1070
     0
1000
MTEXTEND
  0
MTEXT
  5
867
330
1F
100
AcDbEntity
  8
0.20
100
AcDbMText
 10
1312.528304512426
 20
244.8169142430995
 30
0.0
 40
4.0
 41
79.0
 71
     1
 72
     5
  1
100mm wide over flash waterproof tape.
 73
     1
 44
1.0
1001
ACAD
1000
MTEXTBEGIN
1070
    73
1070
     1
1070
    44
1040
1.0
1070
    74
1070
     0
1000
MTEXTEND
  0
LEADER
  5
868
330
1F
100
AcDbEntity
  8
dim
100
AcDbLeader
  3
Rockcote
 76
     2
 10
1189.745325953493
 20
238.9253922453856
 30
0.0
 10
1309.56120721056
 20
238.9253922453856
 30
0.0
211
-1.0
221
0.0000000000000001
231
0.0
  0
LEADER
  5
869
330
1F
100
AcDbEntity
  8
dim
100
AcDbLeader
  3
Rockcote
 76
     2
 10
1189.745325953491
 20
181.2527869592254
 30
0.0
 10
1309.56120721056
 20
181.2527869592254
 30
0.0
211
-1.0
221
0.0000000000000001
231
0.0
  0
LEADER
  5
86A
330
1F
100
AcDbEntity
  8
dim
100
AcDbLeader
  3
ISO-25
 76
     3
 10
1286.250130958499
 20
137.3482184340678
 30
0.0
 10
1291.559134773534
 20
146.8650049651014
 30
0.0
 10
1309.56120721056
 20
146.8650049651014
 30
0.0
1001
ACAD
1000
DSTYLE
1002
{
1070
    41
1040
5.0
1002
}
  0
LINE
  5
86B
102
{ACAD_REACTORS
330
82A
102
}
330
1F
100
AcDbEntity
  8
0.13
100
AcDbLine
 10
1189.245325953491
 20
308.9956290260991
 30
0.0
 11
1190.745325953491
 21
288.9956290260695
 31
0.0
  0
LINE
  5
86C
102
{ACAD_REACTORS
330
82A
102
}
330
1F
100
AcDbEntity
  8
0.13
100
AcDbLine
 10
1148.483352277514
 20
288.9956290261189
 30
0.0
 11
1149.983352277514
 21
308.9956290260991
 31
0.0
  0
LINE
  5
86D
102
{ACAD_REACTORS
330
82A
102
}
330
1F
100
AcDbEntity
  8
0.13
100
AcDbLine
 10
1149.983352277514
 20
308.9956290260991
 30
0.0
 11
1150.983352277512
 21
308.9956290260991
 31
0.0
  0
LINE
  5
86E
102
{ACAD_REACTORS
330
82A
102
}
330
1F
100
AcDbEntity
  8
0.13
100
AcDbLine
 10
1188.245325953493
 20
308.9956290260991
 30
0.0
 11
1189.245325953491
 21
308.9956290260991
 31
0.0
  0
LINE
  5
86F
102
{ACAD_REACTORS
330
82A
102
}
330
1F
100
AcDbEntity
  8
0.13
100
AcDbLine
 10
1190.745325953489
 20
258.9956290260991
 30
0.0
 11
1189.745325953491
 21
258.9956290260989
 31
0.0
  0
LINE
  5
870
102
{ACAD_REACTORS
330
82A
102
}
330
1F
100
AcDbEntity
  8
0.13
100
AcDbLine
 10
1149.48335227751
 20
258.9956290260989
 30
0.0
 11
1148.48335227751
 21
258.9956290260991
 31
0.0
  0
MTEXT
  5
871
330
1F
100
AcDbEntity
  8
0.20
100
AcDbMText
 10
1312.528304512426
 20
300.3056669213984
 30
0.0
 40
4.0
 41
79.0
 71
     1
 72
     5
  1
Pre-fabricated flashing supplied by the main contractor.
 73
     1
 44
1.0
1001
ACAD
1000
MTEXTBEGIN
1070
    73
1070
     1
1070
    44
1040
1.0
1070
    74
1070
     0
1000
MTEXTEND
  0
LEADER
  5
872
330
1F
100
AcDbEntity
  8
dim
100
AcDbLeader
  3
Rockcote
 76
     2
 10
1190.49452570127
 20
292.3396323890295
 30
0.0
 10
1309.56120721056
 20
292.3396323890295
 30
0.0
211
-1.0
221
0.0000000000000001
231
0.0
  0
DIMENSION
  5
873
330
1F
100
AcDbEntity
  8
dim
100
AcDbDimension
  2
*D6
 10
1181.503813265986
 20
220.2652542658388
 30
0.0
 11
1181.503813265986
 21
194.1328061630938
 31
0.0
 70
   161
  1
50mm
 71
     5
 42
52.26489620548978
  3
ISO-25
100
AcDbAlignedDimension
 13
1188.015810500564
 23
168.000358060349
 33
0.0
 14
1188.015810500564
 24
220.2652542658388
 34
0.0
1001
ACAD
1000
DSTYLE
1002
{
1070
   147
1040
2.0
1002
}
  0
DIMENSION
  5
874
330
1F
100
AcDbEntity
  8
dim
100
AcDbDimension
  2
*D7
 10
1165.045546614412
 20
288.184366663221
 30
0.0
 11
1165.045546614412
 21
240.9273142586231
 31
0.0
 70
   161
  1
100mm
 71
     5
 42
97.25705240459777
  3
ISO-25
100
AcDbAlignedDimension
 13
1173.213597581657
 23
190.9273142586232
 33
0.0
 14
1173.213597581657
 24
288.184366663221
 34
0.0
1001
ACAD
1000
DSTYLE
1002
{
1070
   147
1040
2.0
1002
}
  0
MTEXT
  5
875
330
1F
100
AcDbEntity
  8
0.20
100
AcDbMText
 10
1167.687473869605
 20
144.9773174389674
 30
0.0
 40
4.0
 41
79.0
 71
     1
 72
     5
  1
PIPE
 11
0.0000000000000001
 21
1.0
 31
0.0
 73
     1
 44
1.0
1001
ACAD
1000
MTEXTBEGIN
1070
    73
1070
     1
1070
    44
1040
1.0
1070
    74
1070
     0
1000
MTEXTEND
  0
MTEXT
  5
876
330
1F
100
AcDbEntity
  8
0.20
100
AcDbMText
 10
1227.075276213153
 20
86.23828364551036
 30
0.0
 40
4.0
 41
79.0
 71
     1
 72
     5
  1
ROOF FRAME
 11
0.9396926207859085
 21
-0.3420201433256686
 31
0.0
 73
     1
 44
1.0
1001
ACAD
1000
MTEXTBEGIN
1070
    73
1070
     1
1070
    44
1040
1.0
1070
    74
1070
     0
1000
MTEXTEND
  0
MTEXT
  5
877
102
{ACAD_XDICTIONARY
360
B1D
102
}
330
1F
100
AcDbEntity
  8
0.20
100
AcDbMText
 10
1108.400640379294
 20
3.139015754175261
 30
0.0
 40
4.0
 41
107.8814814814814
 71
     1
 72
     5
  1
All membranes including Underlay, Butynol flashing tape and etc MUST have radial cut for the pipe penetration to prevent weak-point.
 73
     1
 44
1.0
1001
ACAD
1000
MTEXTBEGIN
1070
    73
1070
     1
1070
    44
1040
1.0
1070
    74
1070
     0
1000
MTEXTEND
  0
ARC
  5
878
330
1F
100
AcDbEntity
  8
0
100
AcDbCircle
 10
1087.457418932403
 20
-7.905552066215477
 30
0.0
 40
11.10339015422855
100
AcDbArc
 50
105.6736175970287
 51
70.61330301493359
  0
ARC
  5
879
330
1F
100
AcDbEntity
  8
0
100
AcDbCircle
 10
1087.457418932403
 20
-7.905552066215477
 30
0.0
 40
9.603390154228552
100
AcDbArc
 50
106.5933313325856
 51
69.05604189485034
  0
LINE
  5
87A
330
1F
100
AcDbEntity
  8
0
100
AcDbLine
 10
1086.568463298201
 20
-9.420703160869607
 30
0.0
 11
1089.128324058526
 21
-9.420703160869607
 31
0.0
  0
LINE
  5
87B
330
1F
100
AcDbEntity
  8
0
100
AcDbLine
 10
1089.128324058526
 20
-9.420703160869607
 30
0.0
 11
1091.143101845632
 21
2.568273136648713
 31
0.0
  0
LINE
  5
87C
330
1F
100
AcDbEntity
  8
0
100
AcDbLine
 10
1086.568463298201
 20
-9.420703160869607
 30
0.0
 11
1084.457758843346
 21
2.784972348757946
 31
0.0
  0
SPLINE
  5
87D
330
1F
100
AcDbEntity
  8
0
100
AcDbSpline
210
0.0
220
0.0
230
1.0
 70
     8
 71
     3
 72
    14
 73
    10
 74
     8
 42
0.0000000001
 43
0.0000000001
 44
0.0000000001
 40
0.0
 40
0.0
 40
0.0
 40
0.0
 40
1.153360054429817
 40
2.128448441361596
 40
2.891481907336642
 40
5.571474202971744
 40
6.397548371861869
 40
7.165475926971381
 40
8.492053936514782
 40
8.492053936514782
 40
8.492053936514782
 40
8.492053936514782
 10
1084.457758843346
 20
2.784972348757946
 30
0.0
 10
1084.593294568875
 20
3.149445373181541
 30
0.0
 10
1084.843416638425
 20
3.822055836647141
 30
0.0
 10
1085.660393261584
 20
4.46366081339053
 30
0.0
 10
1087.149480834111
 20
4.559687792580764
 30
0.0
 10
1088.585063335089
 20
4.796140980695138
 30
0.0
 10
1089.969161394411
 20
4.323268739669476
 30
0.0
 10
1090.68084017121
 20
3.620809859009311
 30
0.0
 10
1090.963852739715
 20
2.976410511792631
 30
0.0
 10
1091.143101845632
 20
2.568273136648713
 30
0.0
 11
1084.457758843346
 21
2.784972348757946
 31
0.0
 11
1084.967507970093
 21
3.819571422281569
 31
0.0
 11
1085.750118943685
 21
4.401222027320272
 31
0.0
 11
1086.503256295752
 21
4.523713656096333
 31
0.0
 11
1089.183020081476
 21
4.558710189941166
 31
0.0
 11
1089.953672911725
 21
4.261232883685579
 31
0.0
 11
1090.514145645738
 21
3.73627284299232
 31
0.0
 11
1091.143101845632
 21
2.568273136648713
 31
0.0
  0
CIRCLE
  5
87E
330
1F
100
AcDbEntity
  8
0
100
AcDbCircle
 10
1087.777626520092
 20
-13.1472421411936
 30
0.0
 40
2.569476904230562
  0
HATCH
  5
87F
330
1F
100
AcDbEntity
  8
0
100
AcDbHatch
 10
0.0
 20
0.0
 30
0.0
210
0.0
220
0.0
230
1.0
  2
SOLID
 70
     1
 71
     0
 91
        1
 92
        7
 72
     1
 73
     1
 93
        4
 10
1091.143101845632
 20
2.568273136648713
 42
0.0
 10
1090.890195194241
 20
1.063346951528728
 42
-6.050784953660254
 10
1084.714913252251
 20
1.297912773108237
 42
0.0
 10
1084.457758843346
 20
2.784972348757946
 42
6.48575145239653
 97
        0
 75
     0
 76
     1
 47
0.1251288764846155
 98
        1
 10
1077.165720742282
 20
-6.065327187429829
  0
HATCH
  5
880
330
1F
100
AcDbEntity
  8
0.05
100
AcDbHatch
 10
0.0
 20
0.0
 30
0.0
210
0.0
220
0.0
230
1.0
  2
SOLID
 70
     1
 71
     1
 91
        2
 92
        5
 93
        4
 72
     1
 10
1188.245325953491
 20
167.3624546889758
 11
1188.245325953491
 21
166.5643213596188
 72
     1
 10
1188.245325953491
 20
166.5643213596188
 11
1240.015439379786
 21
147.7215410478623
 72
     1
 10
1240.015439379786
 20
147.7215410478623
 11
1240.27195448728
 21
148.426310513452
 72
     1
 10
1240.27195448728
 20
148.426310513452
 11
1188.245325953491
 21
167.3624546889758
 97
        8
330
88A
330
884
330
888
330
885
330
883
330
886
330
82C
330
833
 92
        5
 93
        6
 72
     1
 10
1150.983352277514
 20
180.1265706476852
 11
1150.983352277514
 21
180.9247039770424
 72
     1
 10
1150.983352277514
 20
180.9247039770424
 11
1100.25775399018
 21
199.3873118689767
 72
     1
 10
1100.25775399018
 20
199.3873118689767
 11
1100.514257847627
 21
200.0920504253195
 72
     1
 10
1100.514257847627
 20
200.0920504253195
 11
1098.639402674178
 21
200.788536971849
 72
     1
 10
1098.639402674178
 20
200.788536971849
 11
1098.121853641114
 21
199.3665826900384
 72
     1
 10
1098.121853641114
 20
199.3665826900384
 11
1150.983352277514
 21
180.1265706476852
 97
        8
330
88A
330
884
330
888
330
885
330
883
330
886
330
82C
330
833
 75
     0
 76
     1
 47
0.1818980469777868
 98
        2
 10
1167.809492564645
 20
174.4156902618322
 10
1167.809492564645
 20
174.4156902618322
  0
HATCH
  5
881
330
1F
100
AcDbEntity
  8
light grey
100
AcDbHatch
 10
0.0
 20
0.0
 30
0.0
210
0.0
220
0.0
230
1.0
  2
SOLID
 70
     1
 71
     0
 91
        1
 92
        1
 93
        4
 72
     1
 10
1062.562074756929
 20
215.7909967422344
 11
1062.562074756929
 21
214.1908380588578
 72
     1
 10
1062.562074756929
 20
214.1908380588578
 11
1100.514257847629
 21
200.0920504253193
 72
     1
 10
1100.514257847629
 20
200.0920504253193
 11
1101.027299312662
 21
201.501620265745
 72
     1
 10
1101.027299312662
 20
201.501620265745
 11
1062.562074756929
 21
215.7909967422344
 97
        0
 75
     0
 76
     1
 98
        1
 10
1018.328291950356
 20
231.2843230752386
  0
LINE
  5
882
330
1F
100
AcDbEntity
  8
0.13
100
AcDbLine
 10
1062.562074756929
 20
215.7909967422344
 30
0.0
 11
1101.027299312662
 21
201.501620265745
 31
0.0
  0
LINE
  5
883
102
{ACAD_REACTORS
330
880
102
}
330
1F
100
AcDbEntity
  8
0.13
100
AcDbLine
 10
1240.015439379786
 20
147.7215410478623
 30
0.0
 11
1188.245325953491
 21
166.5643213596188
 31
0.0
  0
LINE
  5
884
102
{ACAD_REACTORS
330
880
102
}
330
1F
100
AcDbEntity
  8
0.13
100
AcDbLine
 10
1101.027299312662
 20
201.501620265745
 30
0.0
 11
1100.25775399018
 21
199.3873118689767
 31
0.0
  0
LINE
  5
885
102
{ACAD_REACTORS
330
880
102
}
330
1F
100
AcDbEntity
  8
0.13
100
AcDbLine
 10
1098.121853641114
 20
199.3665826900384
 30
0.0
 11
1098.639402674179
 21
200.7885369718487
 31
0.0
  0
LINE
  5
886
102
{ACAD_REACTORS
330
880
102
}
330
1F
100
AcDbEntity
  8
0.13
100
AcDbLine
 10
1240.27195448728
 20
148.426310513452
 30
0.0
 11
1240.015439379786
 21
147.7215410478623
 31
0.0
  0
LINE
  5
887
330
1F
100
AcDbEntity
  8
0.13
100
AcDbLine
 10
1150.983352277514
 20
180.1265706476852
 30
0.0
 11
1098.121853641114
 21
199.3665826900384
 31
0.0
  0
LINE
  5
888
102
{ACAD_REACTORS
330
880
102
}
330
1F
100
AcDbEntity
  8
0.13
100
AcDbLine
 10
1062.562074756929
 20
214.1908380588579
 30
0.0
 11
1100.504945857256
 21
200.0955097197263
 31
0.0
  0
HATCH
  5
889
330
1F
100
AcDbEntity
  8
0.05
100
AcDbHatch
 10
0.0
 20
0.0
 30
0.0
210
0.0
220
0.0
230
1.0
  2
AR-SAND
 70
     0
 71
     0
 91
        1
 92
        1
 93
        4
 72
     1
 10
1062.562074756929
 20
215.7909967422344
 11
1062.562074756929
 21
214.1908380588578
 72
     1
 10
1062.562074756929
 20
214.1908380588578
 11
1100.514257847629
 21
200.0920504253193
 72
     1
 10
1100.514257847629
 20
200.0920504253193
 11
1101.027299312662
 21
201.501620265745
 72
     1
 10
1101.027299312662
 20
201.501620265745
 11
1062.562074756929
 21
215.7909967422344
 97
        0
 75
     0
 76
     1
 52
-19.99999999999999
 41
0.05
 77
     0
 78
     4
 53
17.50000000000004
 43
694.1436513591574
 44
-113.4634317103899
 45
0.7617690477911701
 46
2.326852184825529
 79
     6
 49
0.0
 49
-1.930399999999999
 49
0.0
 49
-2.158999999999998
 49
0.0
 49
-2.063749999999998
 53
347.5
 43
694.1436513591574
 44
-113.4634317103899
 45
3.337911678360305
 46
2.599246198355572
 79
     6
 49
0.0
 49
-1.041399999999999
 49
0.0
 49
-1.7399
 49
0.0
 49
-0.66675
 53
307.4999999999999
 43
692.6757575162273
 44
-112.9291620445005
 45
3.718906197617974
 46
-1.345924060011789
 79
     6
 49
0.0
 49
-0.635
 49
0.0
 49
-2.286
 49
0.0
 49
-2.9845
 53
297.5
 43
692.6757575162273
 44
-112.9291620445005
 45
3.968773415168057
 46
-0.258333236451058
 79
     6
 49
0.0
 49
-0.3174999999999999
 49
0.0
 49
-1.498599999999999
 49
0.0
 49
-1.7145
 98
        1
 10
1020.848099322666
 20
230.3671881956332
  0
LINE
  5
88A
102
{ACAD_REACTORS
330
880
102
}
330
1F
100
AcDbEntity
  8
0.13
100
AcDbLine
 10
1240.27195448728
 20
148.426310513452
 30
0.0
 11
1188.245325953491
 21
167.3624546889758
 31
0.0
  0
LINE
  5
88B
330
1F
100
AcDbEntity
  8
0.13
100
AcDbLine
 10
1150.983352277514
 20
180.9247039770424
 30
0.0
 11
1100.25775399018
 21
199.3873118689767
 31
0.0
  0
HATCH
  5
88C
330
1F
100
AcDbEntity
  8
0.05
100
AcDbHatch
 10
0.0
 20
0.0
 30
0.0
210
0.0
220
0.0
230
1.0
  2
SOLID
 70
     1
 71
     0
 91
        1
 92
        5
 93
        6
 72
     1
 10
1346.990597733044
 20
111.2857676013629
 11
1346.990597733044
 21
112.0839009307198
 72
     1
 10
1346.990597733044
 20
112.0839009307198
 11
1244.030724970424
 21
149.5582299401494
 72
     1
 10
1244.030724970424
 20
149.5582299401494
 11
1244.287228827871
 21
150.2629684964922
 72
     1
 10
1244.287228827871
 20
150.2629684964922
 11
1242.412373654422
 21
150.9594550430217
 72
     1
 10
1242.412373654422
 20
150.9594550430217
 11
1241.894824621357
 21
149.5375007612111
 72
     1
 10
1241.894824621357
 20
149.5375007612111
 11
1346.990597733044
 21
111.2857676013629
 97
        0
 75
     0
 76
     1
 47
0.1818980469777868
 98
        1
 10
1297.807546919112
 20
129.34962319156
  0
LINE
  5
88D
330
1F
100
AcDbEntity
  8
0.13
100
AcDbLine
 10
1102.735663232526
 20
202.8477027594539
 30
0.0
 11
1103.24870469756
 21
204.2572725998793
 31
0.0
  0
LINE
  5
88E
330
1F
100
AcDbEntity
  8
0.13
100
AcDbLine
 10
1103.24870469756
 20
204.2572725998793
 30
0.0
 11
1149.241579816576
 21
187.1714628742783
 31
0.0
  0
LINE
  5
88F
330
1F
100
AcDbEntity
  8
0.13
100
AcDbLine
 10
1189.811992528357
 20
172.1000338694844
 30
0.0
 11
1244.800270292906
 21
151.6725383369177
 31
0.0
  0
LINE
  5
890
330
1F
100
AcDbEntity
  8
0.13
100
AcDbLine
 10
1244.800270292906
 20
151.6725383369177
 30
0.0
 11
1244.030724970424
 21
149.5582299401494
 31
0.0
  0
LINE
  5
891
330
1F
100
AcDbEntity
  8
0.13
100
AcDbLine
 10
1346.990597733044
 20
111.2857676013629
 30
0.0
 11
1241.894824621357
 21
149.5375007612111
 31
0.0
  0
LINE
  5
892
330
1F
100
AcDbEntity
  8
0.13
100
AcDbLine
 10
1241.894824621357
 20
149.5375007612111
 30
0.0
 11
1242.412373654423
 21
150.9594550430214
 31
0.0
  0
LINE
  5
893
330
1F
100
AcDbEntity
  8
0.13
100
AcDbLine
 10
1102.735663232526
 20
202.8477027594539
 30
0.0
 11
1148.261732122133
 21
185.9353060330133
 31
0.0
  0
LINE
  5
894
330
1F
100
AcDbEntity
  8
0.13
100
AcDbLine
 10
1190.523005961827
 20
170.2357420958156
 30
0.0
 11
1244.2779168375
 21
150.266427790899
 31
0.0
  0
HATCH
  5
895
330
1F
100
AcDbEntity
  8
0.05
100
AcDbHatch
 10
0.0
 20
0.0
 30
0.0
210
0.0
220
0.0
230
1.0
  2
AR-SAND
 70
     0
 71
     0
 91
        2
 92
        1
 93
        4
 72
     2
 10
1194.745325953491
 20
172.9138036873387
 40
5.000000000000002
 50
189.3667824208306
 51
212.3854468652975
 73
     1
 72
     1
 10
1190.523005961827
 20
170.2357420958153
 11
1244.287228827873
 21
150.262968496492
 72
     1
 10
1244.287228827873
 20
150.262968496492
 11
1244.800270292906
 21
151.6725383369177
 72
     1
 10
1244.800270292906
 20
151.6725383369177
 11
1189.811992528357
 21
172.1000338694844
 97
        0
 92
        1
 93
        4
 72
     2
 10
1146.483352277512
 20
188.3513700073832
 40
2.999999999999995
 50
306.3554795064481
 51
336.8398603093569
 73
     1
 72
     1
 10
1149.241579816576
 20
187.1714628742783
 11
1103.24870469756
 21
204.2572725998793
 72
     1
 10
1103.24870469756
 20
204.2572725998793
 11
1102.735663232524
 21
202.8477027594536
 72
     1
 10
1102.735663232524
 20
202.8477027594536
 11
1148.261732122132
 21
185.9353060330129
 97
        0
 75
     0
 76
     1
 52
-19.99999999999999
 41
0.05
 77
     0
 78
     4
 53
17.50000000000004
 43
837.9166223394014
 44
-163.2925136392172
 45
0.7617690477911701
 46
2.326852184825529
 79
     6
 49
0.0
 49
-1.930399999999999
 49
0.0
 49
-2.158999999999998
 49
0.0
 49
-2.063749999999998
 53
347.5
 43
837.9166223394014
 44
-163.2925136392172
 45
3.337911678360305
 46
2.599246198355572
 79
     6
 49
0.0
 49
-1.041399999999999
 49
0.0
 49
-1.7399
 49
0.0
 49
-0.66675
 53
307.4999999999999
 43
836.4487284964711
 44
-162.7582439733278
 45
3.718906197617974
 46
-1.345924060011789
 79
     6
 49
0.0
 49
-0.635
 49
0.0
 49
-2.286
 49
0.0
 49
-2.9845
 53
297.5
 43
836.4487284964711
 44
-162.7582439733278
 45
3.968773415168057
 46
-0.258333236451058
 79
     6
 49
0.0
 49
-0.3174999999999999
 49
0.0
 49
-1.498599999999999
 49
0.0
 49
-1.7145
 98
        1
 10
1164.621070302909
 20
180.5381062668059
  0
LINE
  5
896
330
1F
100
AcDbEntity
  8
0.13
100
AcDbLine
 10
1346.990597733044
 20
112.0839009307199
 30
0.0
 11
1244.030724970424
 21
149.5582299401494
 31
0.0
  0
HATCH
  5
897
330
1F
100
AcDbEntity
  8
light grey
100
AcDbHatch
 10
0.0
 20
0.0
 30
0.0
210
0.0
220
0.0
230
1.0
  2
SOLID
 70
     1
 71
     0
 91
        1
 92
        1
 93
        4
 72
     1
 10
1346.990597733044
 20
113.1836939599341
 11
1346.990597733044
 21
114.7838526433107
 72
     1
 10
1346.990597733044
 20
114.7838526433107
 11
1246.081983057019
 21
152.2702108143776
 72
     1
 10
1246.081983057019
 20
152.2702108143776
 11
1245.568941591983
 21
150.8606409739519
 72
     1
 10
1245.568941591983
 20
150.8606409739519
 11
1346.990597733044
 21
113.1836939599341
 97
        0
 75
     0
 76
     1
 98
        1
 10
1304.934541290058
 20
129.4681793609095
  0
LINE
  5
898
330
1F
100
AcDbEntity
  8
0.13
100
AcDbLine
 10
1245.568941591984
 20
150.8606409739522
 30
0.0
 11
1246.081983057019
 21
152.2702108143776
 31
0.0
  0
LINE
  5
899
330
1F
100
AcDbEntity
  8
0.13
100
AcDbLine
 10
1246.081983057019
 20
152.2702108143776
 30
0.0
 11
1346.990597733044
 21
114.7838526433107
 31
0.0
  0
LINE
  5
89A
330
1F
100
AcDbEntity
  8
0.13
100
AcDbLine
 10
1245.568941591984
 20
150.8606409739522
 30
0.0
 11
1346.990597733044
 21
113.1836939599343
 31
0.0
  0
HATCH
  5
89B
330
1F
100
AcDbEntity
  8
0.05
100
AcDbHatch
 10
0.0
 20
0.0
 30
0.0
210
0.0
220
0.0
230
1.0
  2
AR-SAND
 70
     0
 71
     0
 91
        1
 92
        1
 93
        4
 72
     1
 10
1346.990597733044
 20
113.1836939599341
 11
1346.990597733044
 21
114.7838526433107
 72
     1
 10
1346.990597733044
 20
114.7838526433107
 11
1246.081983057019
 21
152.2702108143776
 72
     1
 10
1246.081983057019
 20
152.2702108143776
 11
1245.568941591983
 21
150.8606409739519
 72
     1
 10
1245.568941591983
 20
150.8606409739519
 11
1346.990597733044
 21
113.1836939599341
 97
        0
 75
     0
 76
     1
 52
-19.99999999999999
 41
0.05
 77
     0
 78
     4
 53
17.50000000000004
 43
980.7499006988596
 44
-215.2795754247189
 45
0.7617690477911701
 46
2.326852184825529
 79
     6
 49
0.0
 49
-1.930399999999999
 49
0.0
 49
-2.158999999999998
 49
0.0
 49
-2.063749999999998
 53
347.5
 43
980.7499006988596
 44
-215.2795754247189
 45
3.337911678360305
 46
2.599246198355572
 79
     6
 49
0.0
 49
-1.041399999999999
 49
0.0
 49
-1.7399
 49
0.0
 49
-0.66675
 53
307.4999999999999
 43
979.2820068559294
 44
-214.7453057588295
 45
3.718906197617974
 46
-1.345924060011789
 79
     6
 49
0.0
 49
-0.635
 49
0.0
 49
-2.286
 49
0.0
 49
-2.9845
 53
297.5
 43
979.2820068559294
 44
-214.7453057588295
 45
3.968773415168057
 46
-0.258333236451058
 79
     6
 49
0.0
 49
-0.3174999999999999
 49
0.0
 49
-1.498599999999999
 49
0.0
 49
-1.7145
 98
        1
 10
1307.454348662368
 20
128.5510444813042
  0
HATCH
  5
89C
330
1F
100
AcDbEntity
  8
0.13
100
AcDbHatch
 10
0.0
 20
0.0
 30
0.0
210
0.0
220
0.0
230
1.0
  2
SOLID
 70
     1
 71
     1
 91
        2
 92
        7
 72
     1
 73
     1
 93
        8
 10
1150.983352277514
 20
233.794153689367
 42
0.0
 10
1149.483352277514
 20
234.3401090407658
 42
0.0
 10
1149.483352277512
 20
188.351370007383
 42
-0.5205670505516983
 10
1145.457291847535
 20
185.5322921450255
 42
0.0
 10
1102.498721238216
 20
201.1679331534395
 42
0.0
 10
1101.985691023224
 20
199.758394222262
 42
0.0
 10
1144.944261632546
 20
184.1227532138464
 42
0.52056705055201
 10
1150.983352277514
 20
188.3513700073826
 42
0.0
 97
        8
330
85A
330
836
330
838
330
827
330
857
330
85F
330
839
330
833
 92
        7
 72
     1
 73
     1
 93
        8
 10
1189.745325953491
 20
219.6859490499
 42
0.0
 10
1188.245325953491
 20
220.2319044012984
 42
0.0
 10
1188.245325953491
 20
172.9138036873386
 42
0.3152987888790133
 10
1192.522195021875
 20
166.80580165223
 42
0.0
 10
1236.216926777801
 20
150.9022198988269
 42
0.0
 10
1236.729956992788
 20
152.3117588300067
 42
0.0
 10
1193.035225236864
 20
168.2153405834092
 42
-0.3152987888790341
 10
1189.745325953491
 20
172.913803687339
 42
0.0
 97
        8
330
85B
330
82C
330
824
330
89D
330
85E
330
822
330
823
330
82F
 75
     0
 76
     1
 47
0.1744158444821687
 98
        2
 10
1150.662147279541
 20
207.219666617724
 10
1189.066158622569
 20
204.4290133431148
  0
LINE
  5
89D
102
{ACAD_REACTORS
330
89C
102
}
330
1F
100
AcDbEntity
  8
0.13
100
AcDbLine
 10
1236.216926777799
 20
150.9022198988275
 30
0.0
 11
1192.522195021875
 21
166.80580165223
 31
0.0
  0
MTEXT
  5
89E
330
1F
100
AcDbEntity
  8
0.20
100
AcDbMText
 10
1312.528304512426
 20
81.34779166690918
 30
0.0
 40
4.0
 41
28.13333333333333
 71
     7
 72
     5
  1
Underlay
 73
     1
 44
1.0
1001
ACAD
1000
MTEXTBEGIN
1070
    73
1070
     1
1070
    44
1040
1.0
1070
    74
1070
     0
1000
MTEXTEND
  0
LEADER
  5
89F
330
1F
100
AcDbEntity
  8
dim
100
AcDbLeader
  3
ISO-25
 76
     3
 10
1288.40500529756
 20
127.9863562892786
 30
0.0
 10
1300.560170992047
 20
84.57609641560566
 30
0.0
 10
1309.56120721056
 20
84.57609641560566
 30
0.0
1001
ACAD
1000
DSTYLE
1002
{
1070
    41
1040
5.0
1002
}
  0
LINE
  5
8CB
102
{ACAD_REACTORS
330
957
330
95C
102
}
330
1F
100
AcDbEntity
  8
0.13
100
AcDbLine
 10
140.5590257070367
 20
174.9641167914001
 30
0.0
 11
149.033961652439
 21
188.6095576574564
 31
0.0
  0
ARC
  5
8CD
102
{ACAD_REACTORS
330
957
102
}
330
1F
100
AcDbEntity
  8
0.13
100
AcDbCircle
 10
138.0309730052464
 20
176.5793410906757
 30
0.0
 40
4.500000000000511
100
AcDbArc
 50
250.0000000000108
 51
328.8880044508201
  0
LINE
  5
8CE
102
{ACAD_REACTORS
330
957
102
}
330
1F
100
AcDbEntity
  8
0.13
100
AcDbLine
 10
141.8332619713952
 20
174.1727117480783
 30
0.0
 11
150.1404758005327
 21
187.5481042935143
 31
0.0
  0
LINE
  5
8D0
102
{ACAD_REACTORS
330
957
102
}
330
1F
100
AcDbEntity
  8
0.13
100
AcDbLine
 10
149.033961652439
 20
188.6095576574564
 30
0.0
 11
150.3081979167975
 21
187.8181526141346
 31
0.0
  0
LINE
  5
8D1
102
{ACAD_REACTORS
330
957
102
}
330
1F
100
AcDbEntity
  8
0.13
100
AcDbLine
 10
150.3081979167975
 20
187.8181526141346
 30
0.0
 11
150.1404758005327
 21
187.5481042935143
 31
0.0
  0
LINE
  5
8EE
102
{ACAD_REACTORS
330
9AE
102
}
330
1F
100
AcDbEntity
  8
0.13
100
AcDbLine
 10
350.4778841257616
 20
94.19861760595734
 30
0.0
 11
218.7445249188457
 21
142.7595680333963
 31
0.0
  0
LINE
  5
8F5
102
{ACAD_REACTORS
330
929
102
}
330
1F
100
AcDbEntity
  8
0.13
100
AcDbLine
 10
136.5178750038891
 20
174.785001318364
 30
0.0
 11
137.0402284592943
 21
176.1911118643828
 31
0.0
  0
LINE
  5
8F7
102
{ACAD_REACTORS
330
929
102
}
330
1F
100
AcDbEntity
  8
0.13
100
AcDbLine
 10
111.3728720052685
 20
188.0895470868043
 30
0.0
 11
110.8505185498632
 21
186.6834365407853
 31
0.0
  0
SPLINE
  5
8F9
102
{ACAD_REACTORS
330
95C
102
}
330
1F
100
AcDbEntity
  8
0.13
100
AcDbSpline
210
0.0
220
0.0
230
1.0
 70
     8
 71
     3
 72
    11
 73
     7
 74
     5
 42
0.0000000001
 43
0.0000000001
 44
0.0000000001
 40
0.0
 40
0.0
 40
0.0
 40
0.0
 40
3.949236089467553
 40
7.520094142725983
 40
9.707876693683731
 40
13.14788465320877
 40
13.14788465320877
 40
13.14788465320877
 40
13.14788465320877
 10
146.3131734444006
 20
184.228833739184
 30
0.0
 10
146.3800778609999
 20
185.5807409945645
 30
0.0
 10
146.5074765527956
 20
188.1550286801779
 30
0.0
 10
148.7901663410785
 20
190.7251561352963
 30
0.0
 10
151.459556691768
 20
192.2801852860902
 30
0.0
 10
153.3283386944482
 20
192.6038453856775
 30
0.0
 10
154.4706386702314
 20
192.8016838298569
 30
0.0
 11
146.3131734444006
 21
184.228833739184
 31
0.0
 11
146.9664207805438
 21
188.1236679600687
 31
0.0
 11
149.2372868204434
 21
190.8794246012385
 31
0.0
 11
151.1317783241525
 21
191.9736341024992
 31
0.0
 11
154.4706386702314
 21
192.8016838298569
 31
0.0
  0
SPLINE
  5
8FA
102
{ACAD_REACTORS
330
95C
102
}
330
1F
100
AcDbEntity
  8
0.13
100
AcDbSpline
210
0.0
220
0.0
230
1.0
 70
     8
 71
     3
 72
    20
 73
    16
 74
     0
 42
0.0000000001
 43
0.0000000001
 40
3.809585027395198
 40
3.809585027395198
 40
3.809585027395198
 40
3.809585027395198
 40
4.325428092698972
 40
4.325428092698972
 40
5.135260172875621
 40
5.135260172875621
 40
6.75492433322892
 40
6.75492433322892
 40
8.233305305685657
 40
8.233305305685657
 40
9.711686278142394
 40
9.711686278142394
 40
11.99516280942418
 40
11.99516280942418
 40
12.88910800205293
 40
12.88910800205293
 40
12.88910800205293
 40
12.88910800205293
 10
148.3027173320723
 20
187.432185793299
 30
0.0
 10
148.3489508967719
 20
187.5460437182814
 30
0.0
 10
148.399975942568
 20
187.6564372468353
 30
0.0
 10
148.5486878853352
 20
187.9425504130768
 30
0.0
 10
148.6550985898764
 20
188.1168634528883
 30
0.0
 10
149.0168037727292
 20
188.6323804473418
 30
0.0
 10
149.3150950686363
 20
188.965906193325
 30
0.0
 10
149.9562795310072
 20
189.5518791392793
 30
0.0
 10
150.2923368181766
 20
189.8092573439654
 30
0.0
 10
150.9815016401202
 20
190.2508299924353
 30
0.0
 10
151.3379147499004
 20
190.4371335716029
 30
0.0
 10
152.26888288399
 20
190.8184128974628
 30
0.0
 10
152.9119328276468
 20
190.9829732494424
 30
0.0
 10
153.8928979862738
 20
191.1771659106102
 30
0.0
 10
154.178009778108
 20
191.2281687371404
 30
0.0
 10
154.4706386702315
 20
191.279234441667
 30
0.0
  0
HATCH
  5
929
330
1F
100
AcDbEntity
  8
0.20
 62
   253
100
AcDbHatch
 10
0.0
 20
0.0
 30
0.0
210
0.0
220
0.0
230
1.0
  2
SOLID
 70
     1
 71
     1
 91
        2
 92
        7
 72
     0
 73
     1
 93
        4
 10
66.04936114964629
 20
204.9266958967339
 10
66.04936114964629
 20
203.3265372133575
 10
110.8505185498632
 20
186.6834365407853
 10
111.3728720052685
 20
188.0895470868043
 97
        4
330
293
330
5BA
330
8F7
330
5B5
 92
        7
 72
     0
 73
     1
 93
        4
 10
66.04936114964629
 20
202.5633803509545
 10
66.04936114964629
 20
200.9632216675781
 10
136.5178750038891
 20
174.785001318364
 10
137.0402284592943
 20
176.1911118643828
 97
        4
330
293
330
5AF
330
8F5
330
5AA
 75
     0
 76
     1
 47
0.1325914962061581
 98
        2
 10
106.2980306669192
 20
189.207521594669
 10
104.1745436307769
 20
187.6164235251434
  0
HATCH
  5
957
330
1F
100
AcDbEntity
  8
0.20
 62
    16
100
AcDbHatch
 10
0.0
 20
0.0
 30
0.0
210
0.0
220
0.0
230
1.0
  2
SOLID
 70
     1
 71
     1
 91
        1
 92
        7
 72
     1
 73
     1
 93
        9
 10
140.5994497756639
 20
175.0292033291121
 42
-0.3584851170283222
 10
137.0049125752696
 20
173.7602632283184
 42
0.0
 10
105.2836203054389
 20
185.3058694069942
 42
0.0
 10
104.770590090447
 20
183.8963304758168
 42
0.0
 10
136.4918823602816
 20
172.3507242971389
 42
0.351954170570394
 10
141.8287192521386
 20
174.16539754448
 42
0.0
 10
150.1404758005327
 20
187.5481042935143
 42
0.0
 10
150.3081979167975
 20
187.8181526141346
 42
0.0
 10
149.033961652439
 20
188.6095576574564
 42
0.0
 97
        9
330
8D1
330
8D0
330
8CB
330
27B
330
267
330
2A0
330
2A9
330
8CD
330
8CE
 75
     0
 76
     1
 47
0.1325914962061581
 98
        3
 10
145.5825307559316
 20
182.0475802818038
 10
149.6967875884311
 20
190.4008446964157
 10
145.8479674754176
 20
182.5779469055092
  0
HATCH
  5
95C
330
1F
100
AcDbEntity
  8
0.20
 62
   250
100
AcDbHatch
 10
0.0
 20
0.0
 30
0.0
210
0.0
220
0.0
230
1.0
  2
SOLID
 70
     1
 71
     1
 91
        1
 92
        5
 93
        6
 72
     4
 94
        3
 73
     0
 74
     0
 95
       20
 96
       16
 40
3.809585027395198
 40
3.809585027395198
 40
3.809585027395198
 40
3.809585027395198
 40
4.325428092698972
 40
4.325428092698972
 40
5.135260172875621
 40
5.135260172875621
 40
6.75492433322892
 40
6.75492433322892
 40
8.233305305685657
 40
8.233305305685657
 40
9.711686278142394
 40
9.711686278142394
 40
11.99516280942418
 40
11.99516280942418
 40
12.88910800205293
 40
12.88910800205293
 40
12.88910800205293
 40
12.88910800205293
 10
148.3027173320723
 20
187.432185793299
 10
148.3489508967719
 20
187.5460437182814
 10
148.399975942568
 20
187.6564372468353
 10
148.5486878853352
 20
187.9425504130768
 10
148.6550985898764
 20
188.1168634528883
 10
149.0168037727292
 20
188.6323804473418
 10
149.3150950686363
 20
188.965906193325
 10
149.9562795310072
 20
189.5518791392793
 10
150.2923368181766
 20
189.8092573439654
 10
150.9815016401202
 20
190.2508299924353
 10
151.3379147499004
 20
190.4371335716029
 10
152.26888288399
 20
190.8184128974628
 10
152.9119328276468
 20
190.9829732494424
 10
153.8928979862738
 20
191.1771659106102
 10
154.178009778108
 20
191.2281687371404
 10
154.4706386702315
 20
191.279234441667
 72
     1
 10
154.4706386702315
 20
191.279234441667
 11
154.4706386702314
 21
192.8016838298569
 72
     4
 94
        3
 73
     0
 74
     0
 95
       11
 96
        7
 40
0.0
 40
0.0
 40
0.0
 40
0.0
 40
3.440007959525038
 40
5.627790510482786
 40
9.198648563741215
 40
13.14788465320877
 40
13.14788465320877
 40
13.14788465320877
 40
13.14788465320877
 10
154.4706386702314
 20
192.8016838298569
 10
153.3283386944482
 20
192.6038453856775
 10
151.459556691768
 20
192.2801852860902
 10
148.7901663410785
 20
190.7251561352963
 10
146.5074765527956
 20
188.1550286801779
 10
146.3800778609999
 20
185.5807409945645
 10
146.3131734444006
 20
184.228833739184
 72
     1
 10
146.3131734444006
 20
184.2288337391839
 11
148.3027173323232
 21
187.4321857937561
 72
     4
 94
        3
 73
     0
 74
     0
 95
       20
 96
       16
 40
3.809585027395198
 40
3.809585027395198
 40
3.809585027395198
 40
3.809585027395198
 40
4.325428092698972
 40
4.325428092698972
 40
5.135260172875621
 40
5.135260172875621
 40
6.75492433322892
 40
6.75492433322892
 40
8.233305305685657
 40
8.233305305685657
 40
9.711686278142394
 40
9.711686278142394
 40
11.99516280942418
 40
11.99516280942418
 40
12.88910800205293
 40
12.88910800205293
 40
12.88910800205293
 40
12.88910800205293
 10
148.3027173320723
 20
187.432185793299
 10
148.3489508967719
 20
187.5460437182814
 10
148.399975942568
 20
187.6564372468353
 10
148.5486878853352
 20
187.9425504130768
 10
148.6550985898764
 20
188.1168634528883
 10
149.0168037727292
 20
188.6323804473418
 10
149.3150950686363
 20
188.965906193325
 10
149.9562795310072
 20
189.5518791392793
 10
150.2923368181766
 20
189.8092573439654
 10
150.9815016401202
 20
190.2508299924353
 10
151.3379147499004
 20
190.4371335716029
 10
152.26888288399
 20
190.8184128974628
 10
152.9119328276468
 20
190.9829732494424
 10
153.8928979862738
 20
191.1771659106102
 10
154.178009778108
 20
191.2281687371404
 10
154.4706386702315
 20
191.279234441667
 72
     1
 10
148.9912434673939
 20
188.540777377382
 11
149.1865681050402
 21
188.8552683434324
 97
        4
330
8F9
330
8CB
330
8FA
330
276
 75
     0
 76
     1
 47
0.0653622945523671
 98
        1
 10
152.948240127685
 20
191.6917356340003
  0
LINE
  5
95D
330
1F
100
AcDbEntity
  8
0.15 - dashed Underlay
 62
     7
 48
0.3
100
AcDbLine
 10
154.4706386702314
 20
192.8016838298569
 30
0.0
 11
191.7326123462085
 21
192.8016838298569
 31
0.0
  0
LINE
  5
95E
330
1F
100
AcDbEntity
  8
0.15 - dashed Underlay
 62
     7
 48
0.3
100
AcDbLine
 10
154.4706386702314
 20
191.279234441667
 30
0.0
 11
191.7326123462085
 21
191.279234441667
 31
0.0
  0
LINE
  5
96A
102
{ACAD_REACTORS
330
9D2
102
}
330
1F
100
AcDbEntity
  8
0.13
100
AcDbLine
 10
221.300621340867
 20
149.7558523751008
 30
0.0
 11
197.1692893640009
 21
188.6095576574564
 31
0.0
  0
LINE
  5
96B
330
1F
100
AcDbEntity
  8
0.13
100
AcDbLine
 10
204.3699890450447
 20
174.1727117480783
 30
0.0
 11
196.0627752159071
 21
187.5481042935143
 31
0.0
  0
LINE
  5
96C
102
{ACAD_REACTORS
330
9D2
102
}
330
1F
100
AcDbEntity
  8
0.13
100
AcDbLine
 10
197.1692893640009
 20
188.6095576574564
 30
0.0
 11
195.8950530996424
 21
187.8181526141346
 31
0.0
  0
LINE
  5
96D
330
1F
100
AcDbEntity
  8
0.13
100
AcDbLine
 10
195.8950530996424
 20
187.8181526141346
 30
0.0
 11
196.0627752159071
 21
187.5481042935143
 31
0.0
  0
SPLINE
  5
96E
330
1F
100
AcDbEntity
  8
0.13
100
AcDbSpline
210
0.0
220
0.0
230
1.0
 70
     8
 71
     3
 72
    11
 73
     7
 74
     5
 42
0.0000000001
 43
0.0000000001
 44
0.0000000001
 40
0.0
 40
0.0
 40
0.0
 40
0.0
 40
3.949236089467553
 40
7.520094142725983
 40
9.707876693683731
 40
13.14788465320877
 40
13.14788465320877
 40
13.14788465320877
 40
13.14788465320877
 10
199.8900775720392
 20
184.228833739184
 30
0.0
 10
199.82317315544
 20
185.5807409945645
 30
0.0
 10
199.6957744636443
 20
188.1550286801779
 30
0.0
 10
197.4130846753615
 20
190.7251561352963
 30
0.0
 10
194.7436943246718
 20
192.2801852860902
 30
0.0
 10
192.8749123219916
 20
192.6038453856775
 30
0.0
 10
191.7326123462085
 20
192.8016838298569
 30
0.0
 11
199.8900775720392
 21
184.228833739184
 31
0.0
 11
199.2368302358961
 21
188.1236679600687
 31
0.0
 11
196.9659641959965
 21
190.8794246012385
 31
0.0
 11
195.0714726922874
 21
191.9736341024992
 31
0.0
 11
191.7326123462085
 21
192.8016838298569
 31
0.0
  0
SPLINE
  5
96F
330
1F
100
AcDbEntity
  8
0.13
100
AcDbSpline
210
0.0
220
0.0
230
1.0
 70
     8
 71
     3
 72
    20
 73
    16
 74
     0
 42
0.0000000001
 43
0.0000000001
 40
3.809585027395198
 40
3.809585027395198
 40
3.809585027395198
 40
3.809585027395198
 40
4.325428092698972
 40
4.325428092698972
 40
5.135260172875621
 40
5.135260172875621
 40
6.75492433322892
 40
6.75492433322892
 40
8.233305305685657
 40
8.233305305685657
 40
9.711686278142394
 40
9.711686278142394
 40
11.99516280942418
 40
11.99516280942418
 40
12.88910800205293
 40
12.88910800205293
 40
12.88910800205293
 40
12.88910800205293
 10
197.9005336843676
 20
187.432185793299
 30
0.0
 10
197.854300119668
 20
187.5460437182814
 30
0.0
 10
197.8032750738719
 20
187.6564372468353
 30
0.0
 10
197.6545631311046
 20
187.9425504130768
 30
0.0
 10
197.5481524265635
 20
188.1168634528883
 30
0.0
 10
197.1864472437107
 20
188.6323804473418
 30
0.0
 10
196.8881559478036
 20
188.965906193325
 30
0.0
 10
196.2469714854327
 20
189.5518791392793
 30
0.0
 10
195.9109141982633
 20
189.8092573439654
 30
0.0
 10
195.2217493763196
 20
190.2508299924353
 30
0.0
 10
194.8653362665395
 20
190.4371335716029
 30
0.0
 10
193.9343681324499
 20
190.8184128974628
 30
0.0
 10
193.2913181887931
 20
190.9829732494424
 30
0.0
 10
192.3103530301661
 20
191.1771659106102
 30
0.0
 10
192.0252412383319
 20
191.2281687371404
 30
0.0
 10
191.7326123462084
 20
191.279234441667
 30
0.0
  0
HATCH
  5
971
330
1F
100
AcDbEntity
  8
0.20
 62
   250
100
AcDbHatch
 10
0.0
 20
0.0
 30
0.0
210
0.0
220
0.0
230
1.0
  2
SOLID
 70
     1
 71
     0
 91
        1
 92
        5
 93
        4
 72
     4
 94
        3
 73
     0
 74
     0
 95
       20
 96
       16
 40
3.809585027395198
 40
3.809585027395198
 40
3.809585027395198
 40
3.809585027395198
 40
4.325428092698972
 40
4.325428092698972
 40
5.135260172875621
 40
5.135260172875621
 40
6.75492433322892
 40
6.75492433322892
 40
8.233305305685657
 40
8.233305305685657
 40
9.711686278142394
 40
9.711686278142394
 40
11.99516280942418
 40
11.99516280942418
 40
12.88910800205293
 40
12.88910800205293
 40
12.88910800205293
 40
12.88910800205293
 10
197.9005336843676
 20
187.432185793299
 10
197.854300119668
 20
187.5460437182814
 10
197.8032750738719
 20
187.6564372468353
 10
197.6545631311046
 20
187.9425504130768
 10
197.5481524265635
 20
188.1168634528883
 10
197.1864472437107
 20
188.6323804473418
 10
196.8881559478036
 20
188.965906193325
 10
196.2469714854327
 20
189.5518791392793
 10
195.9109141982633
 20
189.8092573439654
 10
195.2217493763196
 20
190.2508299924353
 10
194.8653362665395
 20
190.4371335716029
 10
193.9343681324499
 20
190.8184128974628
 10
193.2913181887931
 20
190.9829732494424
 10
192.3103530301661
 20
191.1771659106102
 10
192.0252412383319
 20
191.2281687371404
 10
191.7326123462084
 20
191.279234441667
 72
     1
 10
191.7326123462084
 20
191.279234441667
 11
191.7326123462084
 21
192.8016838298569
 72
     4
 94
        3
 73
     0
 74
     0
 95
       11
 96
        7
 40
0.0
 40
0.0
 40
0.0
 40
0.0
 40
3.440007959525038
 40
5.627790510482786
 40
9.198648563741215
 40
13.14788465320877
 40
13.14788465320877
 40
13.14788465320877
 40
13.14788465320877
 10
191.7326123462085
 20
192.8016838298569
 10
192.8749123219916
 20
192.6038453856775
 10
194.7436943246719
 20
192.2801852860902
 10
197.4130846753613
 20
190.7251561352963
 10
199.6957744636443
 20
188.1550286801779
 10
199.82317315544
 20
185.5807409945645
 10
199.8900775720392
 20
184.228833739184
 72
     1
 10
199.8900775720392
 20
184.228833739184
 11
197.9005336842699
 21
187.4321857935093
 97
        0
 75
     0
 76
     1
 47
0.0653622945523671
 98
        1
 10
193.2550108887549
 20
191.6917356340003
  0
LINE
  5
973
102
{ACAD_REACTORS
330
A1B
102
}
330
1F
100
AcDbEntity
  8
0.13
100
AcDbLine
 10
299.7053788234625
 20
117.3459798213253
 30
0.0
 11
193.0404386809087
 21
156.6659432823069
 31
0.0
  0
LINE
  5
975
102
{ACAD_REACTORS
330
A1B
102
}
330
1F
100
AcDbEntity
  8
0.13
100
AcDbLine
 10
299.1865610898137
 20
115.9385608505661
 30
0.0
 11
192.5216209472599
 21
155.2585243115476
 31
0.0
  0
LINE
  5
977
102
{ACAD_REACTORS
330
9D2
102
}
330
1F
100
AcDbEntity
  8
0.13
100
AcDbLine
 10
220.0263850765086
 20
148.964447331779
 30
0.0
 11
195.8950530996424
 21
187.8181526141346
 31
0.0
  0
LINE
  5
979
102
{ACAD_REACTORS
330
9D2
102
}
330
1F
100
AcDbEntity
  8
0.13
100
AcDbLine
 10
264.9582239743966
 20
132.987236020958
 30
0.0
 11
222.8114584022859
 21
148.5238245202264
 31
0.0
  0
LINE
  5
97A
102
{ACAD_REACTORS
330
9D2
102
}
330
1F
100
AcDbEntity
  8
0.13
100
AcDbLine
 10
264.9582239743966
 20
132.987236020958
 30
0.0
 11
264.4451937594095
 21
131.5776970897782
 31
0.0
  0
LINE
  5
97B
102
{ACAD_REACTORS
330
9D2
102
}
330
1F
100
AcDbEntity
  8
0.13
100
AcDbLine
 10
264.4394062407478
 20
131.5798170501987
 30
0.0
 11
222.292640668637
 21
147.1164055494671
 31
0.0
  0
ARC
  5
97C
102
{ACAD_REACTORS
330
9D2
102
}
330
1F
100
AcDbEntity
  8
0.13
100
AcDbCircle
 10
223.8490938695832
 20
151.3386624617439
 30
0.0
 40
3.0
100
AcDbArc
 50
211.8436662322519
 51
249.7645687737961
  0
ARC
  5
97D
102
{ACAD_REACTORS
330
9D2
102
}
330
1F
100
AcDbEntity
  8
0.13
100
AcDbCircle
 10
223.8490938695832
 20
151.3386624617439
 30
0.0
 40
4.500000000000511
100
AcDbArc
 50
211.8436662322519
 51
249.7645687737961
  0
LINE
  5
97E
102
{ACAD_REACTORS
330
9AE
102
}
330
1F
100
AcDbEntity
  8
0.13
100
AcDbLine
 10
219.2633426524945
 20
144.1669870041555
 30
0.0
 11
218.7445249188457
 21
142.7595680333963
 31
0.0
  0
LINE
  5
999
102
{ACAD_REACTORS
330
9A5
102
}
330
1F
100
AcDbEntity
  8
0.13
100
AcDbLine
 10
266.0880670414555
 20
135.4031320857009
 30
0.0
 11
223.9413014693448
 21
150.9397205849692
 31
0.0
  0
LINE
  5
99A
102
{ACAD_REACTORS
330
9A5
102
}
330
1F
100
AcDbEntity
  8
0.13
100
AcDbLine
 10
266.0880670414555
 20
135.4031320857009
 30
0.0
 11
265.5750368264683
 21
133.9935931545211
 31
0.0
  0
LINE
  5
99B
102
{ACAD_REACTORS
330
9A5
102
}
330
1F
100
AcDbEntity
  8
0.13
100
AcDbLine
 10
265.5692493078067
 20
133.9957131149416
 30
0.0
 11
223.4224837356959
 21
149.53230161421
 31
0.0
  0
LINE
  5
99C
102
{ACAD_REACTORS
330
9A5
102
}
330
1F
100
AcDbEntity
  8
0.13
100
AcDbLine
 10
223.9413014693448
 20
150.9397205849692
 30
0.0
 11
223.4224837356959
 21
149.53230161421
 31
0.0
  0
HATCH
  5
9A5
330
1F
100
AcDbEntity
  8
0.20
 62
   253
100
AcDbHatch
 10
0.0
 20
0.0
 30
0.0
210
0.0
220
0.0
230
1.0
  2
SOLID
 70
     1
 71
     1
 91
        1
 92
        7
 72
     0
 73
     1
 93
        4
 10
223.9413014693448
 20
150.9397205849693
 10
223.4224837356959
 20
149.53230161421
 10
265.5750324953618
 20
133.9935812549035
 10
266.0880670414555
 20
135.4031320857008
 97
        4
330
99C
330
99B
330
99A
330
999
 75
     0
 76
     1
 47
0.3027783043968722
 98
        1
 10
228.9334013336479
 20
148.4882199629399
  0
LINE
  5
9A6
102
{ACAD_REACTORS
330
A1B
102
}
330
1F
100
AcDbEntity
  8
0.13
100
AcDbLine
 10
299.1865610898137
 20
115.9385608505661
 30
0.0
 11
299.7053788234625
 21
117.3459798213253
 31
0.0
  0
LINE
  5
9A7
330
1F
100
AcDbEntity
  8
0.20
  6
HIDDEN
 48
10.0
100
AcDbLine
 10
191.7326123462085
 20
155.5493770446226
 30
0.0
 11
191.7326123462085
 21
157.1480481203633
 31
0.0
  0
LINE
  5
9A9
102
{ACAD_REACTORS
330
9AE
102
}
330
1F
100
AcDbEntity
  8
0.20
  6
HIDDEN
 48
10.0
100
AcDbLine
 10
350.4778841257616
 20
94.19861760595733
 30
0.0
 11
350.4778841257616
 21
95.79728868169798
 31
0.0
  0
HATCH
  5
9AE
330
1F
100
AcDbEntity
  8
0.20
 62
   253
100
AcDbHatch
 10
0.0
 20
0.0
 30
0.0
210
0.0
220
0.0
230
1.0
  2
SOLID
 70
     1
 71
     1
 91
        1
 92
        7
 72
     0
 73
     1
 93
        4
 10
350.4778841257616
 20
94.19861760595731
 10
350.4778841257615
 20
95.79728868169798
 10
219.2633426524945
 20
144.1669870041555
 10
218.7445249188456
 20
142.7595680333963
 97
        4
330
97E
330
8EE
330
9A9
330
262
 75
     0
 76
     1
 47
0.1811870240545883
 98
        1
 10
299.3784672665711
 20
113.6603138334459
  0
HATCH
  5
9D2
330
1F
100
AcDbEntity
  8
0.20
 62
    16
100
AcDbHatch
 10
0.0
 20
0.0
 30
0.0
210
0.0
220
0.0
230
1.0
  2
SOLID
 70
     1
 71
     1
 91
        1
 92
        7
 72
     1
 73
     1
 93
        8
 10
220.0263850765086
 20
148.964447331779
 42
0.166987836984688
 10
222.292640668637
 20
147.1164055494671
 42
0.0
 10
264.4451894283029
 20
131.5776851901606
 42
0.0
 10
264.9582239743966
 20
132.9872360209579
 42
0.0
 10
222.8114584022859
 20
148.5238245202264
 42
-0.1669878369846954
 10
221.300621340867
 20
149.7558523751008
 42
0.0
 10
197.1692893640009
 20
188.6095576574564
 42
0.0
 10
195.8950530996424
 20
187.8181526141345
 42
0.0
 97
        8
330
96C
330
977
330
97D
330
97B
330
97A
330
979
330
97C
330
96A
 75
     0
 76
     1
 47
0.1345951702043289
 98
        1
 10
214.8951155158743
 20
158.6052315669453
  0
LINE
  5
A02
330
1F
100
AcDbEntity
  8
0.15 - dashed Underlay
100
AcDbLine
 10
154.4706386702314
 20
165.1356548747547
 30
0.0
 11
66.04936114964658
 21
197.3183679680396
 31
0.0
  0
LINE
  5
A1A
102
{ACAD_REACTORS
330
A1B
102
}
330
1F
100
AcDbEntity
  8
0.20
  6
HIDDEN
 48
10.0
100
AcDbLine
 10
192.5216209472599
 20
155.2585243115476
 30
0.0
 11
193.0404386809087
 21
156.6659432823069
 31
0.0
  0
HATCH
  5
A1B
330
1F
100
AcDbEntity
  8
0.20
 62
   253
100
AcDbHatch
 10
0.0
 20
0.0
 30
0.0
210
0.0
220
0.0
230
1.0
  2
SOLID
 70
     1
 71
     1
 91
        1
 92
        1
 93
        4
 72
     1
 10
299.7053788234625
 20
117.3459798213253
 11
193.0404386809087
 21
156.6659432823069
 72
     1
 10
193.0404386809087
 20
156.6659432823069
 11
192.5216209472599
 21
155.2585243115476
 72
     1
 10
192.5216209472599
 20
155.2585243115476
 11
299.1865610898137
 21
115.9385608505661
 72
     1
 10
299.1865610898137
 20
115.9385608505661
 11
299.7053788234625
 21
117.3459798213253
 97
        4
330
973
330
A1A
330
975
330
9A6
 75
     0
 76
     1
 98
        1
 10
0.0
 20
0.0
  0
LEADER
  5
A27
330
1F
100
AcDbEntity
  8
dim
100
AcDbLeader
  3
ISO-25
 76
     3
 10
195.8125473353771
 20
191.623819258619
 30
0.0
 10
295.2882535426336
 20
226.3969561190464
 30
0.0
 10
313.2903259796596
 20
226.3969561190464
 30
0.0
1001
ACAD
1000
DSTYLE
1002
{
1070
    41
1040
5.0
1002
}
  0
LEADER
  5
A31
330
1F
100
AcDbEntity
  8
dim
100
AcDbLeader
  3
ISO-25
 76
     3
 10
229.7154476500054
 20
148.8111934743881
 30
0.0
 10
295.36808424737
 20
167.672611349698
 30
0.0
 10
313.3701566843961
 20
167.672611349698
 30
0.0
1001
ACAD
1000
DSTYLE
1002
{
1070
    41
1040
5.0
1002
}
  0
VIEWPORT
  5
3BA
102
{ACAD_XDICTIONARY
360
B15
102
}
330
3B9
100
AcDbEntity
 67
     1
  8
0
100
AcDbViewport
 10
224.9320914145937
 20
182.3479315175641
 30
0.0
 40
871.7710183296198
 41
345.0455038934882
 68
     1
 69
     1
 12
224.9320914145937
 22
182.3479315175641
 13
0.0
 23
0.0
 14
10.0
 24
10.0
 15
10.0
 25
10.0
 16
0.0
 26
0.0
 36
1.0
 17
0.0
 27
0.0
 37
0.0
 42
50.0
 43
0.0
 44
0.0
 45
345.0455038934882
 50
0.0
 51
0.0
 72
  1000
 90
    32800
  1

281
     0
 71
     1
 74
     0
110
0.0
120
0.0
130
0.0
111
1.0
121
0.0
131
0.0
112
0.0
122
1.0
132
0.0
 79
     0
146
0.0
  0
LINE
  5
3BB
330
3B9
100
AcDbEntity
 67
     1
  8
0.20
100
AcDbLine
 10
11.00000095487701
 20
17.95519208260799
 30
0.0
 11
11.00000095487701
 21
286.6158556508939
 31
0.0
  0
LINE
  5
3BC
330
3B9
100
AcDbEntity
 67
     1
  8
0.20
100
AcDbLine
 10
192.6233248466163
 20
286.6158556508939
 30
0.0
 11
192.6233248466163
 21
17.95519208260799
 31
0.0
  0
LINE
  5
3BD
330
3B9
100
AcDbEntity
 67
     1
  8
0.20
100
AcDbLine
 10
11.00000095487701
 20
286.6158556508939
 30
0.0
 11
192.6233248466163
 21
286.6158556508939
 31
0.0
  0
LINE
  5
3BF
330
3B9
100
AcDbEntity
 67
     1
  8
0.20
100
AcDbLine
 10
192.6233248466163
 20
57.955192082608
 30
0.0
 11
11.00000095487701
 21
57.955192082608
 31
0.0
  0
MTEXT
  5
3C1
102
{ACAD_XDICTIONARY
360
3C2
102
}
330
3B9
100
AcDbEntity
 67
     1
  8
0.20
100
AcDbMText
 10
13.4221874154598
 20
53.82588719513218
 30
0.0
 40
1.5
 41
0.0
 71
     1
 72
     5
  1
2.81 - Penetation Detail - Pipe.dwg
 73
     1
 44
1.0
1001
ACAD
1000
MTEXTBEGIN
1070
    73
1070
     1
1070
    44
1040
1.0
1070
    74
1070
     0
1000
MTEXTEND
  0
MTEXT
  5
3C3
330
3B9
100
AcDbEntity
 67
     1
  8
0.20
100
AcDbMText
 10
12.22497190901595
 20
56.91812490051212
 30
0.0
 40
1.5
 41
15.8
 71
     1
 72
     5
  1
File Name:
 73
     1
 44
1.0
1001
ACAD
1000
MTEXTBEGIN
1070
    73
1070
     1
1070
    44
1040
1.0
1070
    74
1070
     0
1000
MTEXTEND
  0
LINE
  5
3C4
330
3B9
100
AcDbEntity
 67
     1
  8
0.20
100
AcDbLine
 10
91.00000095487699
 20
49.95519208260801
 30
0.0
 11
91.000000954877
 21
57.95519208260799
 31
0.0
  0
MTEXT
  5
3C5
330
3B9
100
AcDbEntity
 67
     1
  8
0.20
100
AcDbMText
 10
92.14797886362203
 20
56.91812490051212
 30
0.0
 40
1.5
 41
15.8
 71
     1
 72
     5
  1
Scale:
 73
     1
 44
1.0
1001
ACAD
1000
MTEXTBEGIN
1070
    73
1070
     1
1070
    44
1040
1.0
1070
    74
1070
     0
1000
MTEXTEND
  0
MTEXT
  5
3C6
102
{ACAD_XDICTIONARY
360
3C7
102
}
330
3B9
100
AcDbEntity
 67
     1
  8
0.20
100
AcDbMText
 10
93.84111818570659
 20
53.82588719513218
 30
0.0
 40
1.5
 41
0.0
 71
     1
 72
     5
  1
1:2 @ A4
 73
     1
 44
1.0
1001
ACAD
1000
MTEXTBEGIN
1070
    73
1070
     1
1070
    44
1040
1.0
1070
    74
1070
     0
1000
MTEXTEND
  0
LINE
  5
3C8
330
3B9
100
AcDbEntity
 67
     1
  8
0.20
100
AcDbLine
 10
152.6233248466164
 20
57.955192082608
 30
0.0
 11
152.6233248466164
 21
39.95519208260801
 31
0.0
  0
LINE
  5
3C9
330
3B9
100
AcDbEntity
 67
     1
  8
0.20
100
AcDbLine
 10
192.6233248466163
 20
49.955192082608
 30
0.0
 11
11.00000095487701
 21
49.95519208260801
 31
0.0
  0
LINE
  5
3CA
330
3B9
100
AcDbEntity
 67
     1
  8
0.20
100
AcDbLine
 10
192.6233248466163
 20
39.955192082608
 30
0.0
 11
11.00000095487701
 21
39.95519208260801
 31
0.0
  0
LINE
  5
3CB
330
3B9
100
AcDbEntity
 67
     1
  8
0.20
100
AcDbLine
 10
111.000000954877
 20
49.95519208260794
 30
0.0
 11
111.000000954877
 21
57.95519208260792
 31
0.0
  0
MTEXT
  5
3CC
330
3B9
100
AcDbEntity
 67
     1
  8
0.20
100
AcDbMText
 10
112.1243152509457
 20
56.91812490051212
 30
0.0
 40
1.5
 41
15.8
 71
     1
 72
     5
  1
Drawn By:
 73
     1
 44
1.0
1001
ACAD
1000
MTEXTBEGIN
1070
    73
1070
     1
1070
    44
1040
1.0
1070
    74
1070
     0
1000
MTEXTEND
  0
MTEXT
  5
3CD
330
3B9
100
AcDbEntity
 67
     1
  8
0.20
100
AcDbMText
 10
12.22497190901595
 20
48.79343587160793
 30
0.0
 40
1.5
 41
15.8
 71
     1
 72
     5
  1
Drawing Name:
 73
     1
 44
1.0
1001
ACAD
1000
MTEXTBEGIN
1070
    73
1070
     1
1070
    44
1040
1.0
1070
    74
1070
     0
1000
MTEXTEND
  0
MTEXT
  5
3CE
102
{ACAD_XDICTIONARY
360
3CF
102
}
330
3B9
100
AcDbEntity
 67
     1
  8
0.20
100
AcDbMText
 10
13.4221874154598
 20
45.09730536921853
 30
0.0
 40
2.5
 41
0.0
 71
     1
 72
     5
  1
Penetration Junction Detail - Pipe
 73
     1
 44
1.0
1001
ACAD
1000
MTEXTBEGIN
1070
    73
1070
     1
1070
    44
1040
1.0
1070
    74
1070
     0
1000
MTEXTEND
  0
MTEXT
  5
3D0
330
3B9
100
AcDbEntity
 67
     1
  8
0.20
100
AcDbMText
 10
153.7041567885121
 20
56.91009987516168
 30
0.0
 40
1.5
 41
15.8
 71
     1
 72
     5
  1
Date:
 73
     1
 44
1.0
1001
ACAD
1000
MTEXTBEGIN
1070
    73
1070
     1
1070
    44
1040
1.0
1070
    74
1070
     0
1000
MTEXTEND
  0
MTEXT
  5
3D6
330
3B9
100
AcDbEntity
 67
     1
  8
0.20
100
AcDbMText
 10
153.7041567885121
 20
49.23492042276372
 30
0.0
 40
1.5
 41
15.8
 71
     1
 72
     5
  1
Sheet:
 73
     1
 44
1.0
1001
ACAD
1000
MTEXTBEGIN
1070
    73
1070
     1
1070
    44
1040
1.0
1070
    74
1070
     0
1000
MTEXTEND
  0
MTEXT
  5
3D7
102
{ACAD_XDICTIONARY
360
3D8
102
}
330
3B9
100
AcDbEntity
 67
     1
  8
0.20
100
AcDbMText
 10
114.1297379034486
 20
53.82588719513218
 30
0.0
 40
1.5
 41
0.0
 71
     1
 72
     5
  1
Sae-woon Lim
 73
     1
 44
1.0
1001
ACAD
1000
MTEXTBEGIN
1070
    73
1070
     1
1070
    44
1040
1.0
1070
    74
1070
     0
1000
MTEXTEND
  0
MTEXT
  5
3D9
102
{ACAD_XDICTIONARY
360
3DA
102
}
330
3B9
100
AcDbEntity
 67
     1
  8
0.20
100
AcDbMText
 10
155.5890904233638
 20
53.82588719513218
 30
0.0
 40
1.5
 41
0.0
 71
     1
 72
     5
  1
28th January 2013
 73
     1
 44
1.0
1001
ACAD
1000
MTEXTBEGIN
1070
    73
1070
     1
1070
    44
1040
1.0
1070
    74
1070
     0
1000
MTEXTEND
  0
MTEXT
  5
3DB
102
{ACAD_XDICTIONARY
360
3DC
102
}
330
3B9
100
AcDbEntity
 67
     1
  8
0.20
100
AcDbMText
 10
155.3576492159322
 20
45.09730536921853
 30
0.0
 40
2.5
 41
0.0
 71
     1
 72
     5
  1
16
 73
     1
 44
1.0
1001
ACAD
1000
MTEXTBEGIN
1070
    73
1070
     1
1070
    44
1040
1.0
1070
    74
1070
     0
1000
MTEXTEND
  0
VIEWPORT
  5
3DD
102
{ACAD_XDICTIONARY
360
B17
102
}
330
3B9
100
AcDbEntity
 67
     1
  8
Defpoints
100
AcDbViewport
 10
101.8116629007467
 20
165.6782250225289
 30
0.0
 40
181.6233238917393
 41
215.4460658798419
 68
     2
 69
     2
 12
226.5824900108652
 22
166.8991026844029
 13
0.0
 23
0.0
 14
10.0
 24
10.0
 15
10.0
 25
10.0
 16
0.0
 26
0.0
 36
1.0
 17
0.0
 27
0.0
 37
0.0
 42
50.0
 43
0.0
 44
0.0
 45
430.8921317596838
 50
0.0
 51
0.0
 72
  1000
 90
    49248
  1

281
     0
 71
     1
 74
     0
110
0.0
120
0.0
130
0.0
111
1.0
121
0.0
131
0.0
112
0.0
122
1.0
132
0.0
 79
     0
146
0.0
  0
OLE2FRAME
  5
3E0
330
3B9
100
AcDbEntity
 67
     1
  8
0.20
100
AcDbOle2Frame
 70
     2
  1
OLE
1001
ACAD
1000
OLEBEGIN
1070
    70
1070
     1
1070
    71
1070
     1
1070
    40
1040
0.0
1070
    41
1040
0.1619238588059488
1070
    42
1040
0.1617867940552742
1070
    72
1070
     0
1070
     3
1000

1070
    90
1071
        0
1070
    43
1040
0.0
1070
     4
1000

1070
    91
1071
        0
1070
    44
1040
0.0
1000
OLEEND
  0
LINE
  5
74F
330
3B9
100
AcDbEntity
 67
     1
  8
0.05
 62
     7
100
AcDbLine
 10
100.9960333239987
 20
24.05947853002742
 30
0.0
 11
100.9960333239987
 21
17.95519208260799
 31
0.0
  0
MTEXT
  5
750
102
{ACAD_XDICTIONARY
360
B1B
102
}
330
3B9
100
AcDbEntity
 67
     1
  8
0.05
 62
     7
100
AcDbMText
 10
14.44294497094142
 20
22.62970172515305
 30
0.0
 40
1.0
 41
101.1024152163841
 71
     1
 72
     5
  1
{\C256;Ph: 09 636 7051     Fax: 09 636 7053   Free Ph: 0800 26 111 6 e-mail:  info@asphaltshingle.co.nz   www.asphaltshingle.co.nz\PPO Box 24 580, Royal Oak, Auckland, New Zealand}
  7
Compan
 73
     1
 44
1.0
1001
ACAD
1000
MTEXTBEGIN
1070
    73
1070
     1
1070
    44
1040
1.0
1070
    74
1070
     0
1000
MTEXTEND
  0
MTEXT
  5
751
102
{ACAD_XDICTIONARY
360
752
102
}
330
3B9
100
AcDbEntity
 67
     1
  8
0.20
100
AcDbMText
 10
103.8041134731827
 20
38.79712753385031
 30
0.0
 40
1.363599999999999
 41
0.0
 71
     1
 72
     5
  3
*  All constructions are to comply with New Zealand Building Standards and \P   Territorial Authority Regulations.\P*  The contractor shall verify all dimensions and levels on site before commencing work.\P*  These drawings are not to be used for con
  3
struction without Territorial Authority Consent.\P*  Do not attempt to reproduce these drawings in any unlawful manner without the consent of \P    Asphalt Shingle Roofing NZ.\P*  These drawings may be utilised in order to create working drawings for
  1
 submition to a Territorial \P    Authority or certifier for consent purposes.
 73
     1
 44
1.0
1001
ACAD
1000
MTEXTBEGIN
1070
    73
1070
     1
1070
    44
1040
1.0
1070
    74
1070
     0
1000
MTEXTEND
  0
IMAGE
  5
753
330
3B9
100
AcDbEntity
 67
     1
  8
0.05
 62
     7
 92
      140
310
8C00000001000000840000000600000005000000C0540A20000026402C4825FC390F38400000000000000000C0540A20000026408C19F2BB43FA4340000000000000000040138E02BF3F59408C19F2BB43FA4340000000000000000040138E02BF3F59402C4825FC390F38400000000000000000C0540A20000026402C4825
310
FC390F38400000000000000000
100
AcDbRasterImage
 90
        0
 10
11.00000095487701
 20
24.05947853002742
 30
0.0
 11
0.1195166432524857
 21
0.0
 31
0.0
 12
0.0
 22
0.1195166432524857
 32
0.0
 13
753.0
 23
133.0
340
74C
 70
     7
280
     0
281
    50
282
    50
283
     0
360
754
 71
     1
 91
        2
 14
-0.5
 24
-0.5
 14
752.5
 24
132.5
  0
LINE
  5
755
330
3B9
100
AcDbEntity
 67
     1
  8
0.20
100
AcDbLine
 10
192.6233248466163
 20
17.95519208260799
 30
0.0
 11
11.00000095487701
 21
17.95519208260799
 31
0.0
  0
IMAGE
  5
AA3
330
3B9
100
AcDbEntity
 67
     1
  8
0.20
 48
10.0
 92
      140
310
8C000000010000008400000006000000050000004027B752D1B84440BC2336CE7D1A694000000000000000004127B752D1B84440CFD3D502D9CA71400000000000000000F0C19AF245086540CFD3D502D9CA71400000000000000000F0C19AF245086540BC2336CE7D1A694000000000000000004027B752D1B84440BC2336
310
CE7D1A69400000000000000000
100
AcDbRasterImage
 90
        0
 10
41.44388803427728
 20
200.8278571183599
 30
0.0
 11
0.0577480193534317
 21
0.0
 31
0.0
 12
0.0
 22
0.0577480193534317
 32
0.0
 13
2196.0
 23
1452.0
340
AA1
 70
     7
280
     0
281
    50
282
    50
283
     0
360
AA2
 71
     1
 91
        2
 14
-0.5
 24
-0.5
 14
2195.5
 24
1451.5
  0
ENDSEC
  0
SECTION
  2
OBJECTS
  0
DICTIONARY
  5
C
330
0
100
AcDbDictionary
281
     1
  3
ACAD_COLOR
350
6B
  3
ACAD_FIELDLIST
350
14E
  3
ACAD_GROUP
350
D
  3
ACAD_IMAGE_DICT
350
3E3
  3
ACAD_IMAGE_VARS
350
74E
  3
ACAD_LAYOUT
350
1A
  3
ACAD_MATERIAL
350
6A
  3
ACAD_MLINESTYLE
350
17
  3
ACAD_PLOTSETTINGS
350
19
  3
ACAD_PLOTSTYLENAME
350
E
  3
ACAD_TABLESTYLE
350
7E
  3
ACDBHEADERROUNDTRIPXREC
350
B0F
  3
AcDbVariableDictionary
350
5E
  3
DWGPROPS
350
B0E
  0
DICTIONARY
  5
10F
330
2
100
AcDbDictionary
280
     1
281
     1
  3
ACAD_LAYERFILTERS
360
2F6
  3
ACAD_LAYERSTATES
360
132
  3
ACLYDICTIONARY
360
2F5
  0
DICTIONARY
  5
2F8
330
1F
100
AcDbDictionary
280
     1
281
     1
  3
ACAD_SORTENTS
360
2F9
  0
DICTIONARY
  5
3F4
330
3F3
100
AcDbDictionary
280
     1
281
     1
  3
ACAD_SORTENTS
360
59D
  0
DICTIONARY
  5
412
330
411
100
AcDbDictionary
280
     1
281
     1
  3
ACAD_SORTENTS
360
4FA
  0
DICTIONARY
  5
B19
330
498
100
AcDbDictionary
280
     1
281
     1
  3
ACAD_MTEXT_RT
360
B1A
  0
DICTIONARY
  5
B1D
330
877
100
AcDbDictionary
280
     1
281
     1
  3
ACAD_MTEXT_RT
360
B1E
  0
DICTIONARY
  5
B15
330
3BA
100
AcDbDictionary
280
     1
281
     1
  3
ACAD_XREC_ROUNDTRIP
360
B16
  0
DICTIONARY
  5
3C2
330
3C1
100
AcDbDictionary
280
     1
281
     1
  0
DICTIONARY
  5
3C7
330
3C6
100
AcDbDictionary
280
     1
281
     1
  0
DICTIONARY
  5
3CF
330
3CE
100
AcDbDictionary
280
     1
281
     1
  0
DICTIONARY
  5
3D8
330
3D7
100
AcDbDictionary
280
     1
281
     1
  0
DICTIONARY
  5
3DA
330
3D9
100
AcDbDictionary
280
     1
281
     1
  0
DICTIONARY
  5
3DC
330
3DB
100
AcDbDictionary
280
     1
281
     1
  0
DICTIONARY
  5
B17
330
3DD
100
AcDbDictionary
280
     1
281
     1
  3
ACAD_XREC_ROUNDTRIP
360
B18
  0
DICTIONARY
  5
B1B
330
750
100
AcDbDictionary
280
     1
281
     1
  3
ACAD_MTEXT_RT
360
B1C
  0
DICTIONARY
  5
752
330
751
100
AcDbDictionary
280
     1
281
     1
  0
IMAGEDEF_REACTOR
  5
754
330
753
100
AcDbRasterImageDefReactor
 90
        2
330
753
  0
IMAGEDEF_REACTOR
  5
AA2
330
AA3
100
AcDbRasterImageDefReactor
 90
        2
330
AA3
  0
DICTIONARY
  5
6B
102
{ACAD_REACTORS
330
C
102
}
330
C
100
AcDbDictionary
281
     1
  0
ACAD_PROXY_OBJECT
  5
14E
102
{ACAD_REACTORS
330
C
102
}
330
C
100
AcDbProxyObject
 90
      499
 91
      507
 95
  4980761
 70
     0
 93
        3
310
9A
 94
        0
1001
ACAD
1000
AcRTDxfName
1000
FIELDLIST
1000
AcRTDxfName
1000
FIELDLIST
  0
DICTIONARY
  5
D
102
{ACAD_REACTORS
330
C
102
}
330
C
100
AcDbDictionary
281
     1
  0
DICTIONARY
  5
3E3
102
{ACAD_REACTORS
330
C
102
}
330
C
100
AcDbDictionary
281
     1
  3
25mm-75mm boot flang 03
350
AA1
  3
asphalt logo
350
74C
  0
RASTERVARIABLES
  5
74E
102
{ACAD_REACTORS
330
C
102
}
330
C
100
AcDbRasterVariables
 90
        0
 70
     1
 71
     1
 72
     1
  0
DICTIONARY
  5
1A
102
{ACAD_REACTORS
330
C
102
}
330
C
100
AcDbDictionary
281
     1
  3
ASCL A4
350
3B6
  3
Model
350
22
  0
DICTIONARY
  5
6A
102
{ACAD_REACTORS
330
C
102
}
330
C
100
AcDbDictionary
281
     1
  0
DICTIONARY
  5
17
102
{ACAD_REACTORS
330
C
102
}
330
C
100
AcDbDictionary
281
     1
  3
Standard
350
18
  0
DICTIONARY
  5
19
102
{ACAD_REACTORS
330
C
102
}
330
C
100
AcDbDictionary
281
     1
  0
ACDBDICTIONARYWDFLT
  5
E
102
{ACAD_REACTORS
330
C
102
}
330
C
100
AcDbDictionary
281
     1
  3
Normal
350
F
100
AcDbDictionaryWithDefault
340
F
  0
DICTIONARY
  5
7E
102
{ACAD_REACTORS
330
C
102
}
330
C
100
AcDbDictionary
281
     1
  3
Standard
350
7F
  0
DICTIONARY
  5
B0F
102
{ACAD_REACTORS
330
C
102
}
330
C
100
AcDbDictionary
281
     1
  3
COLORDICT
350
B11
  3
MATERIALDICT
350
B10
  0
DICTIONARY
  5
5E
102
{ACAD_REACTORS
330
C
102
}
330
C
100
AcDbDictionary
281
     1
  3
CTABLESTYLE
350
84
  3
DIMASSOC
350
5F
  3
HIDETEXT
350
63
  3
PROJECTNAME
350
A5F
  0
XRECORD
  5
B0E
102
{ACAD_REACTORS
330
C
102
}
330
C
100
AcDbXrecord
280
     1
  1
DWGPROPS COOKIE
  2

  3

  4

  6

  7

  8
Autodesk
  9

300
=
301
=
302
=
303
=
304
=
305
=
306
=
307
=
308
=
309
=
 40
0.2688154861111111
 41
2454141.579192164
 42
2456330.467416806
  1

 90
        0
  0
DICTIONARY
  5
2F6
102
{ACAD_REACTORS
330
10F
102
}
330
10F
100
AcDbDictionary
281
     1
  0
DICTIONARY
  5
132
102
{ACAD_REACTORS
330
10F
102
}
330
10F
100
AcDbDictionary
281
     1
  0
DICTIONARY
  5
2F5
102
{ACAD_REACTORS
330
10F
102
}
330
10F
100
AcDbDictionary
281
     1
1001
ACAD
1000
<All
  0
SORTENTSTABLE
  5
2F9
102
{ACAD_REACTORS
330
2F8
102
}
330
2F8
100
AcDbSortentsTable
330
1F
331
498
  5
4CC
331
4A0
  5
5A8
331
2B3
  5
2FC
331
284
  5
294
331
67F
  5
6F7
331
28C
  5
29B
331
2C3
  5
4CA
331
294
  5
2AA
331
25D
  5
263
331
265
  5
273
331
499
  5
4CD
331
275
  5
285
331
2B4
  5
317
331
285
  5
295
331
2C4
  5
4CB
331
28D
  5
29C
331
295
  5
2AB
331
25E
  5
267
331
266
  5
276
331
49A
  5
4CE
331
26E
  5
27E
331
276
  5
286
331
2B5
  5
318
331
27E
  5
28D
331
5AA
  5
5AC
331
286
  5
296
331
28E
  5
29E
331
5BA
  5
5C4
331
296
  5
2AC
331
25F
  5
26E
331
49B
  5
4E0
331
267
  5
277
331
27F
  5
28F
331
287
  5
297
331
28F
  5
2A0
331
297
  5
2AD
331
49C
  5
4FC
331
268
  5
279
331
280
  5
290
331
288
  5
298
331
290
  5
2A2
331
298
  5
2AF
331
2A0
  5
2B4
331
49D
  5
4FD
331
2B8
  5
327
331
281
  5
291
331
289
  5
299
331
5B5
  5
5B9
331
291
  5
2A3
331
299
  5
2B0
331
262
  5
270
331
49E
  5
569
331
26A
  5
27A
331
2A9
  5
2C2
331
282
  5
292
331
28A
  5
29A
331
292
  5
2A4
331
29A
  5
2B1
331
49F
  5
5A7
331
27B
  5
28B
331
283
  5
293
331
67E
  5
67F
331
5AF
  5
5B1
331
293
  5
2A9
331
29B
  5
2B3
  0
SORTENTSTABLE
  5
59D
102
{ACAD_REACTORS
330
3F4
102
}
330
3F4
100
AcDbSortentsTable
330
3F3
331
3F8
  5
3FA
331
401
  5
3F7
331
3FF
  5
400
331
3FD
  5
3FF
331
3FB
  5
3FD
331
3F9
  5
3FB
331
3F7
  5
3F9
331
400
  5
401
331
3FE
  5
3F8
331
3FC
  5
3FE
331
3FA
  5
3FC
  0
SORTENTSTABLE
  5
4FA
102
{ACAD_REACTORS
330
412
102
}
330
412
100
AcDbSortentsTable
330
411
331
418
  5
419
331
416
  5
417
331
419
  5
415
331
417
  5
418
331
415
  5
416
  0
XRECORD
  5
B1A
102
{ACAD_REACTORS
330
B19
102
}
330
B19
100
AcDbXrecord
280
     1
 40
823429.0
  1
\pt88;All membranes including Underlay, Butynol flashing tape and etc MUST have radial cut for the pipe penetration to prevent weak-point.
  0
XRECORD
  5
B1E
102
{ACAD_REACTORS
330
B1D
102
}
330
B1D
100
AcDbXrecord
280
     1
 40
823429.0
  1
\pt88;All membranes including Underlay, Butynol flashing tape and etc MUST have radial cut for the pipe penetration to prevent weak-point.
  0
XRECORD
  5
B16
102
{ACAD_REACTORS
330
B15
102
}
330
B15
100
AcDbXrecord
280
     1
102
SHADEPLOT
 70
     0
  0
XRECORD
  5
B18
102
{ACAD_REACTORS
330
B17
102
}
330
B17
100
AcDbXrecord
280
     1
102
SHADEPLOT
 70
     0
  0
XRECORD
  5
B1C
102
{ACAD_REACTORS
330
B1B
102
}
330
B1B
100
AcDbXrecord
280
     1
 40
1334854.0
  1
{\C256;Ph: 09 636 7051^IFax: 09 636 7053^IFree Ph: 0800 26 111 6 e-mail:  info@asphaltshingle.co.nz^I  www.asphaltshingle.co.nz\PPO Box 24 580, Royal Oak, Auckland, New Zealand}
  0
IMAGEDEF
  5
AA1
102
{ACAD_REACTORS
330
3E3
330
AA2
102
}
330
3E3
100
AcDbRasterImageDef
 90
        0
  1
C:\Ashalt Net3.5\Main2\App_Images\25mm-75mm boot flang 03.JPG
 10
2196.0
 20
1452.0
 11
0.0004553734061931
 21
0.0004553734061931
280
     1
281
     0
  0
IMAGEDEF
  5
74C
102
{ACAD_REACTORS
330
3E3
330
754
102
}
330
3E3
100
AcDbRasterImageDef
 90
        0
  1
C:\Ashalt Net3.5\Main2\App_Images\asphalt logo.jpg
 10
753.0
 20
133.0
 11
0.2645833333333333
 21
0.2645833333333333
280
     1
281
     5
  0
LAYOUT
  5
3B6
102
{ACAD_XDICTIONARY
360
3B7
102
}
102
{ACAD_REACTORS
330
1A
102
}
330
1A
100
AcDbPlotSettings
  1

  2
Bullzip PDF Printer
  4
A4
  6

 40
3.174999952316284
 41
3.174999952316284
 42
3.175003051757812
 43
3.17498779296875
 44
209.8886566162109
 45
297.0530090332031
 46
3.39
 47
0.0
 48
10.75006180817036
 49
17.66055046712483
140
193.0738095885781
141
287.0418640652441
142
1.0
143
0.9266546746045635
 70
   756
 72
     1
 73
     0
 74
     4
  7
Eboss.ctb
 75
     0
147
1.079150656016207
148
-10.75006180817036
149
-17.66055046712483
100
AcDbLayout
  1
ASCL A4
 70
     1
 71
     1
 10
4.666573913577734
 20
14.71842191944168
 11
199.1608787134616
 21
289.9839813454111
 12
0.0
 22
0.0
 32
0.0
 14
11.00000095487701
 24
17.95519208260799
 34
0.0
 15
192.7575512477068
 25
286.6158556508939
 35
0.0
146
0.0
 13
0.0
 23
0.0
 33
0.0
 16
1.0
 26
0.0
 36
0.0
 17
0.0
 27
1.0
 37
0.0
 76
     0
330
3B9
331
3BA
1001
ACAD_PSEXT
1000
Adobe PDF.pc3
1000
Adobe PDF Converter
1000
My Documents
1000

1070
     0
  0
LAYOUT
  5
22
102
{ACAD_XDICTIONARY
360
B12
102
}
102
{ACAD_REACTORS
330
1A
102
}
330
1A
100
AcDbPlotSettings
  1

  2
none_device
  4
ISO_A4_(210.00_x_297.00_MM)
  6

 40
7.5
 41
20.0
 42
7.5
 43
20.0
 44
210.0
 45
297.0
 46
11.54999923706054
 47
-13.65000009536743
 48
0.0
 49
0.0
140
0.0
141
0.0
142
1.0
143
8.704084754739808
 70
 11952
 72
     1
 73
     0
 74
     0
  7
C:\Documents and Settings\Sae-woon Lim\Application Data\Autodesk\AutoCAD 2005\R16.1\enu\Plot Styles\Eboss.ctb
 75
     0
147
0.1148885871608098
148
0.0
149
0.0
100
AcDbLayout
  1
Model
 70
     1
 71
     0
 10
0.0
 20
0.0
 11
12.0
 21
9.0
 12
0.0
 22
0.0
 32
0.0
 14
0.0
 24
0.0
 34
0.0
 15
0.0
 25
0.0
 35
0.0
146
0.0
 13
0.0
 23
0.0
 33
0.0
 16
1.0
 26
0.0
 36
0.0
 17
0.0
 27
1.0
 37
0.0
 76
     0
330
1F
1001
ACAD_PSEXT
1000
None
1000
None
1000
Not applicable
1000
The layout will not be plotted unless a new plotter configuration name is selected.
1070
     0
  0
MLINESTYLE
  5
18
102
{ACAD_REACTORS
330
17
102
}
330
17
100
AcDbMlineStyle
  2
STANDARD
 70
     0
  3

 62
   256
 51
90.0
 52
90.0
 71
     2
 49
0.5
 62
   256
  6
BYLAYER
 49
-0.5
 62
   256
  6
BYLAYER
  0
ACDBPLACEHOLDER
  5
F
102
{ACAD_REACTORS
330
E
102
}
330
E
  0
ACAD_PROXY_OBJECT
  5
7F
102
{ACAD_REACTORS
330
7E
102
}
330
7E
100
AcDbProxyObject
 90
      499
 91
      504
 95
  4980761
 70
     0
 93
     1841
310
4214DD185B99185C9928000000000000F83F0000000000003E0FC00000000000004901028000000C1008070000C3001FDFF8000000C1003FBFF000000182007F7FE00000030400FEFFC00000060801FDFF8000000C1003FBFF000000182000000000000000C2020B0000001820100E000186003FBFF000000182007F7FE000
310
00030400FEFFC00000060801FDFF8000000C1003FBFF000000182007F7FE0000003040000000000000012404160000003040201C00030C007F7FE00000030400FEFFC00000060801FDFF8000000C1003FBFF000000182007F7FE00000030400FEFFC000000608000
340
11
340
11
340
11
 94
        0
1001
ACAD
1000
AcRTDxfName
1000
TABLESTYLE
1000
AcRTDxfName
1000
TABLESTYLE
  0
XRECORD
  5
B11
102
{ACAD_REACTORS
330
B0F
102
}
330
B0F
100
AcDbXrecord
280
     1
340
6B
  0
XRECORD
  5
B10
102
{ACAD_REACTORS
330
B0F
102
}
330
B0F
100
AcDbXrecord
280
     1
340
6A
  0
DICTIONARYVAR
  5
84
102
{ACAD_REACTORS
330
5E
102
}
330
5E
100
DictionaryVariables
280
     0
  1
STANDARD
  0
DICTIONARYVAR
  5
5F
102
{ACAD_REACTORS
330
5E
102
}
330
5E
100
DictionaryVariables
280
     0
  1
2
  0
DICTIONARYVAR
  5
63
102
{ACAD_REACTORS
330
5E
102
}
330
5E
100
DictionaryVariables
280
     0
  1
1
  0
DICTIONARYVAR
  5
A5F
102
{ACAD_REACTORS
330
5E
102
}
330
5E
100
DictionaryVariables
280
     0
  1

  0
DICTIONARY
  5
3B7
330
3B6
100
AcDbDictionary
280
     1
281
     1
  3
ACAD_XREC_ROUNDTRIP
360
B14
  3
ADSK_XREC_LAYOUTTHUMBNAIL
360
3B8
  0
DICTIONARY
  5
B12
330
22
100
AcDbDictionary
280
     1
281
     1
  3
ACAD_XREC_ROUNDTRIP
360
B13
  0
XRECORD
  5
B14
102
{ACAD_REACTORS
330
3B7
102
}
330
3B7
100
AcDbXrecord
280
     1
102
SHADEPLOT
 70
     1
102
SHADEPLOTRESLEVEL
 70
     2
102
SHADEPLOTCUSTOMDPI
 70
   300
  0
XRECORD
  5
3B8
102
{ACAD_REACTORS
330
3B7
102
}
330
3B7
100
AcDbXrecord
280
     1
310
28000000620000008C0000000100080000000000B036000000000000000000000001000000000000FFFFFF0000000000FFFFFF000000000000000000000000000000000000000000000000000000000000000000330000006600000099000000CC000000FF00000000330000333300006633000099330000CC330000FF3300
310
0000660000336600006666000099660000CC660000FF66000000990000339900006699000099990000CC990000FF99000000CC000033CC000066CC000099CC0000CCCC0000FFCC000000FF000033FF000066FF000099FF0000CCFF0000FFFF000000003300330033006600330099003300CC003300FF003300003333003333
310
33006633330099333300CC333300FF33330000663300336633006666330099663300CC663300FF66330000993300339933006699330099993300CC993300FF99330000CC330033CC330066CC330099CC3300CCCC3300FFCC330000FF330033FF330066FF330099FF3300CCFF3300FFFF330000006600330066006600660099
310
006600CC006600FF00660000336600333366006633660099336600CC336600FF33660000666600336666006666660099666600CC666600FF66660000996600339966006699660099996600CC996600FF99660000CC660033CC660066CC660099CC6600CCCC6600FFCC660000FF660033FF660066FF660099FF6600CCFF6600
310
FFFF660000009900330099006600990099009900CC009900FF00990000339900333399006633990099339900CC339900FF33990000669900336699006666990099669900CC669900FF66990000999900339999006699990099999900CC999900FF99990000CC990033CC990066CC990099CC9900CCCC9900FFCC990000FF99
310
0033FF990066FF990099FF9900CCFF9900FFFF99000000CC003300CC006600CC009900CC00CC00CC00FF00CC000033CC003333CC006633CC009933CC00CC33CC00FF33CC000066CC003366CC006666CC009966CC00CC66CC00FF66CC000099CC003399CC006699CC009999CC00CC99CC00FF99CC0000CCCC0033CCCC0066CC
310
CC0099CCCC00CCCCCC00FFCCCC0000FFCC0033FFCC0066FFCC0099FFCC00CCFFCC00FFFFCC000000FF003300FF006600FF009900FF00CC00FF00FF00FF000033FF003333FF006633FF009933FF00CC33FF00FF33FF000066FF003366FF006666FF009966FF00CC66FF00FF66FF000099FF003399FF006699FF009999FF00CC
310
99FF00FF99FF0000CCFF0033CCFF0066CCFF0099CCFF00CCCCFF00FFCCFF0000FFFF0033FFFF0066FFFF0099FFFF00CCFFFF00FFFFFF00000000000D0D0D001A1A1A00282828003535350043434300505050005D5D5D006B6B6B00787878008686860093939300A1A1A100AEAEAE00BBBBBB00C9C9C900D6D6D600E4E4E400
310
F1F1F100FFFFFF0000000000000000000000000000000000000000000000000000000000000000000000000000000000E2E2E2E2E2E2E2E2E2E2E2E2E2E2E2E2E2E2E2E2E2E2E2E2E2E2E2E2E2E2E2E2E2E2E2E2E2E2E2E2E2E2E2E2E2E2E2E2E2E2E2E2E2E2E2E2E2E2E2E2E2E2E2E2E2E2E2E2E2E2E2E2E2E2E2E2E2E2E2
310
E2E2E2E2E2E2E2E2E2E2E2E2E2E2E2E2E2E2E2F5F5E2F5F5F5F5F5F5F5F5F5F5F5F5F5F5F5F5F5F5F5F5F5F5F5F5F5F5F5F5F5F5F5F5F5F5F5F5F5F5F5F5F5F5F5F5F5F5F5F5F5F5F5F5F5F5F5F5F5F5F5F5F5F5F5F5F5F5F5F5F5F5F5F5F5F5F5F5F5F5F5F5F5F5F5F5F5F5F5F5F5F5F5F5F5F5F5F5E2EFEFE2E2E2E2E2E2
310
E2E2E2F5F5F5F5F5F5F5F5F5E2E2E2E2E2E2E2E2E2E2E2E2E2E2E2F5F5F5F5F5F5F5F5E2E2E2E2E2E2E2E2E2E2E2E2E2E2E2E2F5F5F5F5F5F5F5F5E2E2E2E2E2E2E2E2E2E2E2E2E2E2E2F5F5F5F5F5F5F5F5F5E2E2E2E2E2E2E2E2E2E2E2E2E2F5F5F5F5F5F5F5F5F5F5F5F5F5F5F5F5F5F5F5F5F5F5F5F5F5F5F5F5F5F5F5
310
F5F5F5F5F5F5F5F5F5F5F5F5F5F5F5F5F5F5F5F5F5F5F5F5F5F5F5F5F5F5F5F5F5F5F5F5F5F5F5F5F5F5F5F5F5F5F5F5F5F5F5F5F5F5F5F5F5F5F5F5F5F5F5E2E2EFEFE2E2F5F5F5F5F5F5F5F5F5F5F5F5F5F5F5F5F5F5F5F5F5F5F5F5F5F5F5F5F5F5F5F5F5F5F5F5F5F5F5F5F5F5F5F5F5F5F5F5F5F5F5F5F5F5F5F5F5F5
310
F5F5F5F5F5F5F5F5F5F5F5F5F5F5F5F5F5F5F5F5F5F5F5F5F5F5F5F5F5F5F5F5F5F5F5F5E2E2EFEFE2E2F5F5F5F5F5F5F5F5F5F5F5F5F5F5F5F5F5F5F5F5F5F5F5F5F5F5F5F5F5F5F5F5F5F5F5F5F5F5F5F5F5F5F5F5F5F5F5F5F5F5F5F5F5F5F5F5F5F5F5F5F5F5F5F5F5F5F5F5F5F5F5F5F5F5F5F5F5F5F5F5F5F5F5F5F5
310
F5F5F5F5F5F5F5F5F5E2E2F5F5E2E2F5F5F5F5F5F5F5F5F5F5F5F5F5F5F5F5F5F5F5F5F5F5F5F5F5F5F5F5F5F5F5F5F5F5F5F5F5F5F5F5F5F5F5F5F5F5F5F5F5F5F5F5F5F5F5F5F5F5F5F5F5F5F5F5F5F5F5F5F5F5F5F5F5F5F5F5F5F5F5F5F5F5F5F5F5F5F5F5F5F5F5F5F5F5E2E2EFEFE2E2F5F5F5F5E2E2E2E2E2E2E2E2
310
E2E2E2E2E2E2E2E2E2E2E2E2E2E2E2E2E2E2E2E2E2E2E2E2E2E2E2E2E2E2E2E2E2E2E2E2E2E2E2E2E2E2E2E2E2E2E2E2E2E2E2E2E2E2E2E2E2E2E2E2E2E2E2E2E2E2E2E2E2E2E2E2E2E2E2E2E2E2F5F5F5F5E2E2F5F5E2E2F5F5F5F5E2E2E2E2E2E2E2E2E2E2E2E2E2E2E2E2E2E2E2E2E2E2E2E2E2E2E2E2E2E2E2E2E2E2E2
310
E2E2E2E2E2E2E2E2E2F5F5F5F5F5F5F5F5F5F5F5E2E2E2E2E2E2E2E2E2E2E2E2E2E2E2F5F5E2E2E2E2E2E2E2E2E2E2E2F5F5E2F5F5F5F5E2E2EFEFE2E2F5F5F5F5E2E2E2E2E2E2E2E2E2E2E2E2E2E2E2E2E2E2E2E2E2E2E2E2E2E2E2E2E2F5F5F5F5F5F5F5F5F5F5F5F5F5F5F5F5F5F5F5F5F5F5F5F5F5F5E2E2E2E2E2E2E2
310
E2F5E2E2E2E2E2E2E2F5E2E2E2E2E2E2E2E2E2E2F5F5F5E2F5F5F5F5E2E2E2CAE2E2F5F5F5F5E2E2E2E2E2E2E2E2E2E2E2E2E2E2E2E2E2E2E2E2E2E2E2E2E2E2E2F5F5F5F5F5F5F5F5F5F5F5F5F5F5F5F5F5F5F5F5F5F5F5F5F5F5F5F5E2E2E2E2E2E2E2E2F5E2E2E2E2E2E2E2F5E2E2E2E2E2E2E2E2E2E2F5F5F5E2F5F5F5
310
F5E2E2EFEFE2F5F5F5F5F5E2E2E2E2E2E2E2E2E2E2E2E2E2E2E2E2E2E2E2E2E2E2E2E2E2E2E2E2E2E2E2E2E2E2F5F5F5F5F5F5F5F5F5F5F5F5F5F5F5F5F5F5F5F5F5E2E2E2E2E2E2E2E2E2E2E2E2E2E2E2E2E2E2E2E2E2E2E2F5F5F5F5F5F5F5E2F5F5F5F5F5E2E2E2E2F5F5F5F5F5E2F5F5F5F5F5F5F5F5F5F5F5F5F5F5F5
310
F5F5F5F5F5F5F5F5F5F5F5F5F5F5F5F5F5F5F5F5F5F5F5F5F5F5F5F5F5F5F5F5F5F5F5F5F5F5F5E2E2E2E2E2E2E2E2E2E2E2E2E2E2E2E2E2E2E2E2E2E2E2F5F5F5F5F5F5F5E2F5F5F5F5F5E2EFEFE2F5F5F5F5F5E2E2E2E2E2E2E2E2E2E2E2E2E2E2E2E2E2E2E2E2E2E2E2E2E2E2E2E2E2E2E2E2E2E2E2E2E2E2E2E2E2E2E2
310
E2E2E2E2E2E2E2E2E2E2E2E2E2E2E2E2E2E2E2E2E2E2E2E2E2E2E2E2E2E2E2E2E2E2E2E2E2E2E2E2E2E2E2F5F5F5F5F5E2EFEFE2F5F5F5F5F5E2F5F5F5F5F5F5F5F5F5F5F5F5F5E2E2E2E2E2E2E2E2E2E2E2E2E2E2E2E2E2E2E2E2E2E2E2E2E2E2E2F5F5F5F5F5F5F5F5F5F5F5F5F5F5F5F5F5F5F5F5F5F5F5F5F5E2E2E2F5
310
F5F5F5F5F5F5F5F5F5F5F5F5F5F5F5E2F5F5F5F5F5E2F5F5E2F5F5F5F5F5E2E2E2E2E2E2E2E2E2E2E2E2E2E2E2F5F5F5F5F5F5F5F5F5F5F5F5F5F5F5F5F5F5F5F5F5F5F5F5F5F5F5F5F5F5F5F5F5F5F5F5F5F5F5F5F5F5F5F5F5F5F5F5F5F5F5E2F5F5F5F5F5F5F5F5F5F5F5F5F5F5F5F5F5F5E2F5F5F5F5F5E2EFEFE2F5F5
310
F5F5F5E200000000000000000000000000E2E2E2E2E2E2E2F5F5F5F5F5F5F5F5F5F5F5F5F5F5F5F5F5F5F5F5F5F5F5F5F5F5F5F5F5F5F5F5F5F5F5F5F5F5F5F5F5F5F5F5F5E2E2E2E2F5F5F5F5F5F5F5F5F5F5F5F5F5F5F5E2F5F5F5F5F5E2F5F5E2F5F5F5F5F5E200000000000000000000000000E2E2E2E2E2E2E2E2E2E2
310
E2E2E2E2E2E2E2E2E2E2E2E2E2E2E2E2E2E2E2E2E2E2E2E2E2E2E2E2E2E2E2E2E2E2E2E2E2E2E2E2E2E2E2E2E2E2E2E2E2E2E2E2E2E2E2E2E2E2E2E2E2E2F5F5F5F5F5E2EFEFE2F5F5F5F5F5E200000000000000000000000000E2E2E2E2E2E2E2E2E2E2E2E2E2E2E2E2E2E2F5F5F5F5F5E2E2E2E2E2E2F5F5F5F5E2E2E2E2
310
E2E2E2F5F5F5F5F5F5F5F5F5F5F5F5E2E2E2E2E2E2E2E2E2E2E2F5F5F5F5F5F5F5F5E2F5F5F5F5F5E2CAF5E2F5F5F5F5F5E2E2E2E2E2E2E2E2E2E2E2E2E2E2E2E2E2E2E2F5F5F5F5F5F5F5F5F5F5F5F5F5F5F5F5F5F5E2E2E2E2F5F5F5F5F5F5E2E2E2E2E2F5F5F5F5F5F5F5F5F5F5F5F5F5F5E2E2E2F5F5F5F5F5F5F5F5F5
310
F5F5F5F5F5F5F5E2F5F5F5F5F5E2EFEFE2F5F5F5F5F5E2F5F5F5F5F5F5F5F5F5F5F5F5F5E2E2E2E2E2F5F5F5F5F5F5F5F5F5F5F5F5F5F5F5F5F5F5E2E2E2E2F5F5F5F5F5F5E2E2E2E2E2F5F5F5F5F5F5F5F5F5F5F5F5F5F5E2E2E2F5F5F5F5F5F5F5F5F5F5F5F5F5F5F5F5E2F5F5F5F5F5E2E2E2E2E2F5F5F5F5E2E2E2E2E2
310
E2E2E2E2E2E2E2E2E2E2E2E2E2E2E2E2E2E2E2E2E2E2E2E2E2E2E2E2E2E2E2E2E2E2E2E2E2E2E2E2E2E2E2E2E2E2E2E2E2E2E2E2E2E2E2E2E2E2E2E2E2E2E2E2E2E2E2E2E2E2E2E2E2E2E2E2E2E2E2E2E2F5F5F5F5E2E2EFEFE2E2F5F5F5F5E2F5F5F5F5F5F5F5F5F5F5F5F5F5F5F5F5F5F5F5F5F5F5F5F5F5F5F5F5F5F5F5
310
F5F5F5F5F5F5F5F5F5F5F5F5F5F5F5F5F5F5F5F5F5F5F5F5F5F5F5F5F5F5F5F5F5F5F5F5F5F5F5F5F5F5F5F5F5F5F5F5F5F5F5F5F5E2F5F5F5F5E2E2EFEFE2E2F5F5F5F5E2F5F5F5F5F5F5F5F5F5F5F5F5F5F5F5F5F5F5F5F5F5F5F5F5F5F5F5F5F5F5F5F5F5F5F5F5F5F5F5F5F5F5F5F5F5F5F5F5F5F5F5F5F5F5F5F5F5F5
310
F5F5F5F5F5F5F5F5F5F5F5F5F5F5F5F5F5F5F5F5F5F5F5F5F5F5E2F5F5F5F5E2E2F5F5E2E2F5F5F5F5E2F5F5F5F5F5F5F5F5F5F5F5F5F5F5F5F5F5F5F5F5F5F5F5F5F5F5F5F5F5F5F5F5F5F5F5F5F5F5F5F5F5F5F5F5F5F5F5F5F5F5F5F5F5F5F5F5F5F5F5F5F5F5F5F5F5F5F5F5F5F5F5F5F5F5F5F5F5F5F5F5F5F5F5F5E2
310
F5F5F5F5E2E2EFEFE2E2F5F5F5F5E2F5F5F5F5F5F5F5F5F5F5F5F5F5F5F5F5F5F5F5F5F5F5F5F5F5F5F5F5F5F5F5F5F5F5F5F5F5F5F5F5F5F5F5F5F5F5F5F5F5F5F5F5F5F5F5F5F5F5F5F5F5F5F5F5F5F5F5F5F5F5F5F5F5F5F5F5F5F5F5F5F5F5F5F5E2F5F5F5F5E2E2F5CAE2E2F5F5F5F5E2F5F5F5F5F5F5F5F5F5F5F5F5
310
F5F5F5F5F5F5F5F5F5F5F5F5F5F5F5F5F5F5F5F5F5F5F5F5F5F5F5F5F5F5F5F5F5F5F5F5F5F5F5F5F5F5F5F5F5F5F5F5F5F5F5F5F5F5F5F5F5F5F5F5F5F5F5F5F5F5F5F5F5F5F5F5E2F5F5F5F5E2E2EFEFE2E2F5F5F5F5E2F5F5F5F5F5F5F5F5F5F5F5F5F5F5F5F5F5F5F5F5F5F5F5F5F5F5F5F5F5F5F5F5F5F5F5F5F5F5F5
310
F5F5F5F5F5F5F5F5F5F5F5F5F5F5F5F5F5F5F5F5F5F5F5F5F5F5F5F5F5F5F5F5F5F5F5F5F5F5F5F5F5F5F5F5F5E2F5F5F5F5E2E2E2E2E2E2F5F5F5F5E2F5F5F5F5F5F5F5F5F5F5F5F5F5F5F5F5F5F5F5F5F5F5F5F5F5F5F5F5F5F5F5F5F5F5F5F5F5F5F5F5F5F5F5F5F5F5F5F5F5F5F5F5F5F5F5F5F5F5F5F5F5F5F5F5F5F5
310
F5F5F5F5F5F5F5F5F5F5F5F5F5F5F5F5F5F5E2F5F5F5F5E2E2EFEFE2E2F5F5F5F5E2F5F5F5F5F5F5F5F5F5F5F5F5F5F5F5F5F5F5F5F5F5F5F5F5F5F5F5F5F5F5F5F5F5F5F5F5F5F5F5F5F5F5F5F5F5F5F5F5F5F5F5F5F5F5F5F5F5F5F5F5F5F5F5F5F5F5F5F5F5F5F5F5F5F5F5F5F5F5F5F5F5F5F5F5E2F5F5F5F5E2E2E2E2
310
E2E2F5F5F5F5E2F5F5F5F5F5F5F5F5F5F5F5F5F5F5F5F5F5F5F5F5F5F5F5F5F5F5F5F5F5F5F5F5F5F5F5F5F5F5F5F5F5F5F5F5F5F5F5F5F5F5F5F5F5F5F5F5F5F5F5F5F5F5F5F5F5F5F5F5F5F5F5F5F5F5F5F5F5F5F5F5F5F5F5F5E2F5F5F5F5E2E2EFEFE2E2F5F5F5F5E2F5F5F5F5F5F5F5F5F5F5F5F5F5F5F5F5F5F5F5F5
310
F5F5F5F5F5F5F5F5F5F5F5F5F5F5F5F5F5F5F5F5F5F5F5F5F5F5F5F5F5F5F5F5F5F5F5F5F5F5F5F5F5F5F5F5F5F5F5F5F5F5F5F5F5F5F5F5F5F5F5F5F5F5F5F5E2F5F5F5F5E2E2EFEFE2E2F5F5F5F5E2F5F5F5F5F5F5F5F5F5F5F5F5F5F5F5F5F5F5F5F5F5F5F5F5F5F5F5F5F5F5F5F5F5F5F5F5F5F5F5F5F5F5F5F5F5F5F5
310
F5F5F5F5F5F5F5F5F5F5F5F5F5F5F5F5F5F5F5F5F5F5F5F5F5F5F5F5F5F5F5F5F5F5F5F5F5E2F5F5F5F5E2E2F5F5E2E2F5F5F5F5E2F5F5F5F5F5F5F5F5F5F5F5F5F5F5F5F5F5F5F5F5F5F5F5F5F5F5F5F5F5F5F5F5F5F5F5F5F5F5F5F5F5F5F5F5F5F5F5F5F5F5F5F5F5F5F5F5F5F5F5F5F5F5F5F5F5F5F5F5F5F5F576F5F5
310
F5F5F5F5F5F5F5F5F5F5E2F5F5F5F5E2E2EFEFE2E2F5F5F5F5E2F5F5F5F5F5F5F5F5F5F5F5F5F5F5E2E2E2E2E2E2E2E2E2E2E2E2E2F5F5F5F5F5F5F5F5F5F5F5F5F5F5F5F5F5F5F5F5F5F5F5F5F5F5F5F5F5F5F5F5F5F5F5F5F5F5F5F5F5F5F5F576F5F5F5F5F5F5F5F5F5F5F5F5E2F5F5F5F5E2E2F5F5E2E2F5F5F5F5E2F5
310
F5F5F5F5F5F5F5E2E2E2E2F5F5E2E2E2E2E2E2E2E2E2E2E2E2E2F5F5F5F5F5F5F5F5F5F5F5F5F5F5F5F5F5F5F5F5F5F5F5F5F5F5F5F5F5F5F5F5F5F5F5F5F5F5F5F5F5F5F5E276F5F5F5F5F5F5F5F5F5F5F5F5E2F5F5F5F5E2E2EFEFE2E2F5F5F5F5E2F5F5F5F5F5F5F5E2E2E2E2E2E2F5E2E2E2E2E2E2E2E2E2E2E2E2E2E2
310
E2E2E2E2E2E2E2E2E2E2F5F5F5F5F5F5F5F5F5F5F5F5F5F5F5F5F5F5F5F5F5F5F5F5F5F5F5F5F5E2E2E2F576F5F5F5F5F5F5F5F5F5F5F5F5E2F5F5F5F5E2E2E2E2E2E2F5F5F5F5E2F5F5F5F5F5F5F5E2F5E2E2F5E2F5E2E2E2E2E2E2E2E2E2E2E2E2E2E2E2E2E2E2E2E2E2E2E2E2E2E2F5F5F5F5F5F5F5F5F5F5F5F5F5F5F5
310
F5F5F5F5F5F5F5F5F5F5E2E2F5F5F5F576F5F5F5F5F5F5F5F5F5F5F5F5E2F5F5F5F5E2E2EFEFE2F5F5F5F5F5E2F5F5F5F5F5F5F5E2F5E2E2F5E2F5E2E2E2E2E2E2E2E2E2E2E2E2E2E2E2E2E2E2E2E2E2E2E2E2E2E2F5F5F5F5F5F5F5F5F5F5F5F5F5F5F5F5F5F5F5F5F5F5E2E2E2F5F5F5F5F5F576F5F5F5F5F5F5F5F5F5F5
310
F5F5E2F5F5F5F5F5E2E2E2E2F5F5F5F5F5E2F5F5F5F5F5F5F5E2E2E2E2E2E2F5E2E2E2E2E2E2E2E2E2E2E2E2E2E2E2E2E2E2E2E2E2E2F5F5F5F5F5F5F5F5F5F5F5F5F5F5F5F5F5F5F5F5F5F5F5E2E2E2F5F5F5F5F5F5F5F5F576F5F5F5F5F5F5F5F5F5F5F5F5E2F5F5F5F5F5E2EFEFE2F5F5F5F5F5E2F5F5F5F5F5F5F5F5E2
310
E2E2E2F5F5F5F5F5F5F5F5F5F5F5F5F5F5F5F5F5F5F5F5F5F5F5F5F5F5F5F5F5F5F5F5F5F5F5F5F5F5F5F5F5F5F5F5F5E2E2F5F5F5F5F5F5F5F5F5F5F5F576F5F5F5F5F5F5F5F5F5F5F5F5E2F5F5F5F5F5E2EFEFE2F5F5F5F5F5E2F5F5F5F5F5F5F5F5F5F5F5F5F5F5F5F5F5F5F5F5F5F5F5F5F5F5F5F5F5F5F5F5F5F5F5F5
310
F5F5F5F5F5F5F5F5F5F5F5F5F5F5F5F5F5F5E2E2E2F5F5F5F5F5F5F5F5F5F5F5F5F5F576F5F5F5F5F5F5F5F5F5F5F5F5E2F5F5F5F5F5E2CACAE2F5F5F5F5F5E2F5F5F5F5F5F5F5F5F5F5F5F5F5F5F5F5F5F5F5F5F5F5F5F5F5F5F5F5F5F5F5F5F5F5F5F5F5F5F5F5F5F5F5F5F5F5F5F5F5F5F5E2E2E2F5F5F5F5F5F5F5F5F5
310
F5F5F5F5F5F5F5F576F5F5F5F5F5F5F5F5F5F5F5F5E2F5F5F5F5F5E2EFEFE2F5F5F5F5F5E2F5F5F5F5F5F5F5F5F5F5F5F5F5F5F5F5F5F5F5F5F5F5F5F5F5F5F5F5F5F5F5F5F5F5F5F5F5F5F5F5F5F5F5F5F5F5F5F5E2E2E2F5F5F5F5F5F5F5F5F5F5F5F5F5F5F5F5F5F5F5F576F5F5F5F5F5F5F5F5F5F5F5F5E2F5F5F5F5F5
310
E2F5F5E2F5F5F5F5F5E2F5F5F5F5F5F5F5F5F5F5F5F5F5F5F5F5F5F5F5F5F5F5F5F5F5F5F5F5F5F5F5F5F5F5F5F5F5F5F5F5F5F5F5F5F5F5E2E2F5F5F5F5F5F5F5F5F5F5F5F5F5F5F5F5F5F5F5F5F5F5F576F5F5F5F5F5F5F5F5F5F5F5F5E2F5F5F5F5F5E2EFEFE2F5F5F5F5F5E2F5F5F5F5F5F5F5F5F5F5F5F5F5F5F5F5F5
310
F5F5F5F5F5F5F5F5F5E2E2E2F5F5E2E2F5F5F5F5F5F5F5F5F5F5E2E2E2F5F5F5F5F5F5F5F5F5F5F5F5F5F5F5F5F5F5F5F5F5F5F5F5F576F5F5F5F5F5F5F5F5F5F5F5F5E2F5F5F5F5F5E2F5F5E2F5F5F5F5F5E2F5F5F5F5F5F5F5F5F5F5F5F5F5F5F5F5F5F5F5F5F5F5F5F5E2E2E2F5E2E2E2F5F5E2F5F5F5F5F5F5E2E2E2F5
310
F5F5F5F5F5F5F5F5F5F5F5F5F5F5F5F5F5F5F5F5F5F5F5F5F5F5F576F5F5F5F5F5F5F5F5F5F5F5F5E2F5F5F5F5F5E2EFEFE2F5F5F5F5F5E2F5F5F5F5F5F5F5F5F5F5F5F5F5F5F5F5F5F5F5F5F5F5F5F5E2E2E2E2E2E2F5F5F5E2F5F5F5F5E2E2F5F5F5F5F5F5F5F5F5F5F5F5F5F5F5F5F5F5F5F5F5F5F5F5F5F5F5F5F5F5F5
310
76F5F5F5F5F5F5F5F5F5F5F5F5E2F5F5F5F5F5E2E2E2E2E2F5F5F5F5E2F5F5F5F5F5F5F5F5F5F5F5F5F5F5F5F5F5F5F5F5F5F5F5F5E2F5F5F5F5F5F5F5F5E2F5E2E2E2F5F5F5F5F5F5F5F5F5F5F5F5F5F5F5F5F5F5F5F5F5F5F5F5F5F5F5F5F5F5F5F5F576F5F5F5F5F5F5F5F5F5F5F5F5E2F5F5F5F5E2E2EFEFE2E2F5F5F5
310
F5E2F5F5F5F5F5F5F5F5F5F5F5F5F5F5F5F5F5F5F5F5F5F5F5F5E2F5F5F5F5F5F5F5F5E2E2F5F5F5F5F5F5F5F5F5F5F5F5F5F5F5F5F5F5F5F5F5F5F5F5F5F5F5F5F5F5F5F5F5F5F5F576F5F5F5F5F5F5F5F5F5F5F5F5E2F5F5F5F5E2E2EFEFE2E2F5F5F5F5E2F5F5F5F5F5F5F5F5F5F5F5F5F5F5F5F5F5F5F5F5F5F5F5F5E2
310
F5F5F5F5F5F5F5F5E2F5F5F5F5F5F5F5F5F5F5F5F5F5F5F5F5F5F5F5F5F5F5F5F5F5F5F5F5F5F5F5F5F5F5F5F5767676F5F5F5F5F5F5F5F5F5F5F5E2F5F5F5F5E2E2F5F5E2E2F5F5F5F5E2F5F5F5F5F5F5F5F5F5F5F5F5F5F5F5F5F5F5F5F5F5F5F5F5E2F5F5F5F5F5F5F5F5E2F5F5F5F5F5F5F5F5F5F5F5F5F5F5F5F5F5F5
310
F5F5F5F5F5F5F5F5F5F5F5F5F5F5F5F5F5F5F576F5F5F5F5F5F5F5F5F5F5F5F5E2F5F5F5F5E2E2EFEFE2E2F5F5F5F5E2F5F5F5F5F5F5F5F5F5F5F5F5F5F5F5F5F5F5F5F5F5F5F5E2E2F5F5F5F5F5F5F5F5E2F5F5F5F5F5F5F5F5F5F5F5F5F5F5F5F5F5F5F5F5F5F5F5F5F5F5F5F5F5F5F5F5F5F5F5F5F576F5F5F5F5F5F5F5
310
F5F5F5F5F5E2F5F5F5F5E2E2F5F5E2E2F5F5F5F5E2F5F5F5F5F5F5F5F5F5F5F5F5F5F5F5F5F5F5F5F5E2E2E2F5E2F5F5F5F5F5F5F5F5E2F5F5F5F5F5F5F5F5F5F5F5F5F5F5F5F5F5F5F5F5F5F5F5F5F5F5F5F5F5F5F5F5F5F5F5F5F576F5F5F5F5F5F5F5F5F5F5F5F5E2F5F5F5F5E2E2EFEFE2E2F5F5F5F5E2F5F5F5F5F5F5
310
F5F5F5F5F5F5F5F5F5F5F5E2E2E2F5F5F5F5E2F5F5F5F5F5F5F5F5E2F5F5F5F5F5F5F5F5F5F5F5F5F5F5F5F5F5F5F5F5F5F5F5F5F5F5F5F5F5F5F5F5F5F5F5F5F576F5F5F5F5F5F5F5F5F5F5F5F5E2F5F5F5F5E2E2E2E2E2E2F5F5F5F5E2F5F5F5F5F5F5F5F5F5F5F5F5F5F5F5E2E2F5F5F5F5F5F5F5E2F5F5F5F5F5F5F5F5
310
E2F5F5F5F5F5F5F5F5F5F5F5F5F5F5F5F5F5F5F5F5F5F5F5F5F5F5F5F5F5F5F5F5F5F5F5F5F576F5F5F5F5F5F5F5F5F5F5F5F5E2F5F5F5F5E2E2EFEFE2E2F5F5F5F5E2F5F5F5F5F5F5F5F5F5F5F5F5E2E2E2F5F5F5F5F5F5F5F5F5E2F5F5F5F5F5F5F5F5E2F5F5F5F5F5F5F5F5F5F5F5F5F5E2E2E2E2F5F5F5F5F5F5F5F5F5
310
F5F5F5F5F5F5F5F5F5F5F576F5F5F5F5F5F5F5F5F5F5F5F5E2F5F5F5F5E2E2E2E2E2E2F5F5F5F5E2F5F5F5F576F5F5F5F5E2E2E2F5F5F5F5F5F5F5F5F5F5F5F5E2F5F5F5F5F5F5F5F5E2F5F5F5F5F5F5F5F5F5F5F5E2E2E2E2E2E2F5F5F5F5F5F5F5F5F5F5F5F5F5F5F5F5F5F5F5F576F5F5F5F5F5F5F5F5F5F5F5F5E2F5F5
310
F5F5E2E2EFEFE2E2F5F5F5F5E2F5F5F5F576F5E2E2E2F5F5F5F5F5F5F5F5F5F5F5F5F5F5F5E2F5F5F5F5F5F5F5F5E2F5F5F5F5F5F5F5F5E2E2E2E2E2F5F5F5F5F5F5F5F5F5F5F5F5F5F5F5F5E2E2E2E2E2F5F5F576F5F5F5F5F5F5F5F5F5F5F5F5E2F5F5F5F5E2E2EFEFE2E2F5F5F5F5E2F5F5F5F576E2F5F5F5F5F5F5F5F5
310
F5F5F5F5F5F5F5F5F5F5E2F5F5F5F5F5F5F5F5E2F5F5F5F5F5F5F5F5F5F5F5F5F5F5F5F5F5F5F5F5F5F5F5F5F5F5767676E2E2E2E2E2F5F5F576F5F5F5F5F5F5F5F5F5F5F5F5E2F5F5F5F5E2E2F5F5E2E2F5F5F5F5E2F5F5F5F576F5F5F5F5F5F5F5F5F5F5F5F5F5F5F5F5F5F5F5E2F5F5F5F5F5F5F5F5E2F5F5F5F5F5F5F5
310
F5F5F5F5F5F5F5F5F5F5F5F5F5F5F5F5F5F5F576F5F5F5F5F5F5F5F5F5CA76F5F5F5F5F5F5F5F5F5F5F5F5E2F5F5F5F5E2E2EFEFE2E2F5F5F5F5E2F5F5F5F576F5F5F5F5F5F5F5F5F5F5F5F5F5F5F5F5F5F5F5E2F5F5F5F5F5F5F5F5E2F5F5F5F5F5F5F5F5F5F5F5F5F5F5F5F5F5F5F5F5F5F5F5F5F576F5F5F5F5F5F5F5E2
310
E2E2CA76F5F5F5F5F5F5F5F5F5F5F5F5E2F5F5F5F5E2E2F5F5E2E2F5F5F5F5E2F5F5F5F576F5F5F5F5F5F5F5F5F5F5F5F5F5F5F5F5F5F5F5E2F5F5F5F5F5F5F5F5E2F5F5F5F5F5F5F5F5F5F5F5F5F5F5F5F5F5F5F5F5F5F5F5F5F576F5F5F5F5E2E2CAF5F5F5CA76F5F5F5F5F5F5F5F5F5F5F5F5E2F5F5F5F5E2E2EFEFE2E2
310
F5F5F5F5E2F5F5F5F576F5F5F5F5F5F5F5F5F5F5F5F5F5F5F5F5F5F5F5E2F5F5F5F5F5F5F5F5E2F5F5F5F5F5F5F5F5F5F5F5F5F5F5F5F5F5F5F5F5F5F5F5F5F576F5CAE2E2F5CAF5F5F5CAF576F5F5F5F5F5F5F5F5F5F5F5F5E2F5F5F5F5E2E2F5F5E2E2F5F5F5F5E2F5F5F5F576F5F5F5F5F5F5F5F5F5F5F5F5F5F5F5F5F5
310
F5F5E2F5F5F5F5F5F5F5F5E2F5F5F5F5F5F5F5F5F5F5F5F5F5F5F5F5F5F5F5F5F5F5F5F576E2E2CAF5F5F5CAF5CACAF52876F5F5F5F5F5F5F5F5F5F5F5F5E2F5F5F5F5E2E2EFEFE2F5F5F5F5F5E2F5F5F5F576F5F5F5F5F5F5F5F5F5F5F5F5F5F5F5F5F5F5F5E2F5F5F5F5F5F5F5F5E2F5F5F5F5F5F5F5F5F5F5F5F5F5F5F5
310
F5F5F5F5F5F5F5E2CA76F5F5CAF5F5CAF5CACA28E2CACAF5F5F5F5F5F5F5F5F5F5F5F5E2F5F5F5F5F5E2E2E2E2F5F5F5F5F5E2F5F5F5F576F5F5F5F5F5F5F5F5F5F5F5F5F5F5F5F5F5F5F5E2F5F5F5F5F5F5F5F5E2F5F5F5F5F5F5F5F5F5F5F5F5F5F5F5F5F5F5CAE2E2E2F5CA76F5CAF5F5CACA28E2CAE2E2E2E2F5F5F5F5
310
F5F5F5F5F5F5F5F5E2F5F5F5F5F5E2EFEFE2F5F5F5F5F5E2F5F5F5F576F5F5F5F5F5F5F5F5F5F5F5F5F5F5F5F5F5F5F5E2F5F5F5F5F5F5F5F5E2F5F5F5F5F5F5F5F5F5F5F5F5F5F5F5F5E2E2CAF5F5F5CA76F5CAF5CACA28E2E2E2E2E2CAF576F5F5F5F5F5F5F5F5F5F5F5F5E2F5F5F5F5F5E2EFEFE2F5F5F5F5F5E2F5F5F5
310
F576F5F5F5F5F5F5F5F5F5F5F5F5F5F5F5F5F5F5F5E2F5F5F5F5F5F5F5F5E2F5F5F5F5F5F5F5F5F5F5F5F5F5E2CAE2F5F5CAF5F5CAF576CA2828E2E2E2E2E2CAF5F5F5F5F5F5F5F5F5F5F5F5F5F5F5F5F5E2F5F5F5F5F5E2F5F5E2F5F5F5F5F5E2F5F5F5F576F5F5F5F5F5F5F5F5F5F5F5F5F5F5F5F5F5F5F5E2F5F5F5F5F5
310
F5F5F5E2F5F5F5F5F5F5F5F5F5F5E2E2E2F5CAF5F5CAF5F5CACAE276E2E2E2E2E2CAF5F5F5F5F5F5F5F5F5F5F5F5F5F5F5F5F5F5F5F5E2F5F5F5F5F5E2EFEFE2F5F5F5F5F5E2F5F5F5F576F5F5F5F5F5F5F5F5F5F5F5F5F5F5F5F5F5F5F5E2F5F5F5F5F5F5F5F5E2F5F5F5F5F5F5F5F5E2CAF5F5F5CAF5F5CACACACA2828CA
310
E2E2E2CAF5F5F5F5F5F5F5F5F5F5F5F5F5F5F5F5F5F5F5F5F5F5F5E2F5F5F5F5F5E2F5F5E2F5F5F5F5F5E2F5F5F5F576F5F5F5F5F5F5F5F5F5F5F5F5F5F5F5F5F5F5F5E2F5F5F5F5F5F5F5F5E2F5F5F5F5F5CAE2E2F5CAF5F5CAF5F5CACA2828CAE2E2E2CAECF5F5F5F5E2E2E2E2E2E2E2E2E2E2E2E2E2E2E2F5F5F5F5F5F5
310
E2F5F5F5F5F5E2EFEFE2F5F5F5F5F5E2F5F5F5F576F5F5F5F5F5F5F5F5F5F5F5F5F5F5F5F5F5F5F5E2F5F5F5F5F5F5F5F5E2F5F5E2E2E2CAF5F5F5CAF5CACAE2CA28E2CAE2E2E2ECF576F5F5F5F5F5E2E2E2E2E2E2E2E2E2E2E2E2E2E2E2F5F5F5F5F5F5E2F5F5F5F5F5E2E2E2E2F5F5F5F5F5E2F5F5F5F576F5F5F5F5F5F5
310
F5F5F5F5F5F5F5F5F5F5F5F5F5E2F5F5F5E2E2F5F5F5E2CAE2F5F5CAF5F5CACAF5CACACA28E2E2E2E2ECF5F5F5F5F57676767676E2E2E2E2E2E2E2E2E2E2E2E2E2E2E2E2E2E2E2F5F5E2F5F5F5F5F5E2EFEFE2E2F5F5F5F5E2F5F576767676F5F5F5F5F5F5F5F5F5F5F5F5F5F5F5F5F5F5E2F5F5F5E2E2F5F5F5E2CAF5F5F5
310
CAF5CACACACACACACAE2E2E2F5F5F5F5F5F5F5F5F5F5F5F5F5E2E2E2E2E2E2E2E2E2E2E2E2E2E2E2E2E2F5F5F5F5E2F5F5F5F5E2E2E2E2E2E2F5F5F5F5E2F5F5F57676F5F5F5F5F5F5F5F5F5F5F5F5F5F5F5F5F5F5F5E2F5F5F5F5F5F5F5F5E2CAF5F5CAF5E2CACACACAE2E2F5F5F5F5F5F5F5F5F5F5F5F5F5F5F5F5F5E2E2
310
E2E2E2E2E2E2E2E2E2E2E2E2E2E2E2F5F5F5F5E2F5F5F5F5E2E2EFEFE2E2F5F5F5F5E2F5F5F5F576F5F5F5F5F5F5F5F5F5F5F5F5F5F5F5F5F5F5F5E2F5F5F5F5F5F5F5F5E2E2CACACACACACACAE2E2F5F5F5F5F5F5F5F5F5F5F5F5F5F5F5F5F5F5F5F5F5F5F5F5F5F5F5F5F5F5F5F5F5F5F5F5F5F5F5F5E2F5F5F5F5E2E2EF
310
EFE2E2F5F5F5F5E2F5F5F5F576F5F5F5F5F5F5F5F5F5F5F5F5F5F5F5F5F5F5E2CAF5F5F5F5F5F5F5F5E2E2CACACACAE2CAF5F5F5F5F5F5F5F5F5F5F5F5F5F5F5F5F5F5F5F5F5F5E2E2E2E2E2E2E2E2E2E2E2E2E2E2E2F5F5F5F5F5F5E2F5F5F5F5E2E2F5F5E2E2F5F5F5F5E2F5F5F5F576F5F5F5F5F5F5F5F5F5F5F5F5F5F5
310
F5CAE2E2F5CAF5F5F5F5F5F57676CACACACAE2F5F5F5F5F5F5F5F5F5F5F5F5F5F5F5F5F5F5F5F5F5F5F5F5F5E2E2E2E2E2E2E2E2E2E2E2E2E2E2E2F5F5F5F5F5F5E2F5F5F5F5E2E2EFEFE2E2F5F5F5F5E2F5F5F5F576F5F5F5F5F5F5F5F5F5F5F5F5E2E2E2CAF5F5CAE2F5F5F5F5F5F5F576CACACAF5F5F5F5F5F5F5F5F5F5
310
F5F5F5F5F5F5F5F5F5F5F5F5F5F5F5F5F5E2E2E2E2E2E2E2E2E2E2E2E2E2E2E2E2E2E2F5F5F5E2F5F5F5F5E2E2F5F5E2E2F5F5F5F5E2F5F5F5F576F5F5F5F5F5F5F5F5F5F5CAE2F5F5CAF5F5CACAE2F5F5F5F5F5F5F576CACAF5F5F5F5F5F5F5F5F5F5F5F5F5F5F5F5F5F5F5F5F5F5F5F5F5F5F5F5E2E2E2E2E2E2E2E2E2E2
310
E2E2E2E2E2E2E2E2F5F5F5E2F5F5F5F5E2E2EFEFE2E2F5F5F5F5E2F5F5F5F576F5F5F5F5F5F5CAE2E2E2CAF5F5CACAF5CACACACAF5F5F5F5F5F5F576CACA76767676767676767676767676767676767676767676767676767676E2E2E2E2E2E2E2E2E2E2E2E2E2E2E2F5F5F5F5F5F5E2F5F5F5F5E2E2F5F5E2E2F5F5F5F5E2
310
F5F5F5F576F5F5F5F5E2E2CAF5F5F5CAF5F5CA28CACACACACAF5F5F5F5F5F5F576CACAF5F5F5F5F5F5F5F5F5F5F5F5F5F5F5F5F5F5F5F5F5F5F5F5F5F5F5F5E2E2E2E2E2E2E2E2E2E2E2E2F5F5F5F5F5F5F5F5F5E2F5F5F5F5E2E2EFEFE2E2F5F5F5F5E2F5F5F5F576F5CAE2E2F5CAF5F5F5CAF5CACACACACACAE2E2CAF5F5
310
76767676F576CACAF5F5F5F5F5F5F5F5F5F5F5F5F5F5F5F5F5F5F5F5F5F5F5F5F5F5F5F5E2E2E2E2E2E2E2E2E2E2E2E2F5F5F5F5F5F5F5F5F5E2F5F5F5F5E2E2E2E2E2E2F5F5F5F5E2F5F5F5F576E2CAF5F5F5CAF5F5CACACACACACACAE2F5F5F5CAF5F5F576F576F576CACAF5F5F5F5F5F5F5F5F5F5F5F5F5F5F5F5F5F5F5
310
F5F5F5F5F5F5F5F5F5E2E2E2E2E2E2E2E2E2E2E2E2E2E2E2E2E2E2F5F5F5E2F5F5F5F5E2E2EFEFE2E2F5F5F5F5E2F5F5F5F576F5CAF5F5CA28CACACACACAE2E2E2F5F5F5F5F5CAF5F5F576F5F5F576CACAF5F5F5F5F5F5F5F5F5F5F5F5F5F5F5F5F5F5F5F5F5F5F5F5F5F5F5F5F5F5F5F5F5F5F5F5F5F5F5F5F5F5F5F5F5F5
310
F5F5F5E2F5F5F5F5E2E2EFEFE2E2F5F5F5F5E2F5F5F5F576CAF5CACA28E2E2E2CAE2E2F5F5F5F5F5F5F5F5CAF5F5F576F5F5F576CACAF5F5F5F5F5F5F5F5F5F5F5F5F5F5F5F5F5F5F5F5F5F5F5F5F5F5F5F5F5F5F5F5F5F5F5F5F5F5F5F5F5F5F5F5F5F5F5F5F5E2F5F5F5F5E2E2F5F5E2E2F5F5F5F5E2F5F5F5F576F528E2
310
E2E2CACAF5F5F5F5F5F5F5F5F5F5F5F5CAF5F5F576F5F5F576CACAF5F5F5F5F5F5F5F5F5F5F5F5F5F5F5F5F5F5F5F5F5F5F5F5F5F5F5F5F5F5F5F5F5F5F5F5F5F5F5F5F5F5F5F5F5F5F5F5F5E2F5F5F5F5E2E2EFEFE2E2F5F5F5F5E2F5F5F5F5E2E2E2E2CAF5F5F5F5F5F5F5F5F5F5F5F5F5F5F5CAF5F5F576F5F5F576CACA
310
F5F5F5F5F5F5F5F5F5F5F5F5F5F5F5F5F5F5F5F5F5F5F5F5F5F5F5F5F5F5F5F5F5F5F5F5F5F5F5F5F5F5F5F5F5F5F5F5F5E2F5F5F5F5E2E2F5F5E2E2F5F5F5F5E2F5F5F5F5E2CAECF5F5F5F5F5F5F5F5F5F5F5F5F5F5F5F5F5CAF5F5F576F5F5F576CACAF5F5F5F5F5F5F5F5F5F5F5F5F5F5F5F5F5F5F5F5F5F5F5F5F5F5F5
310
F5F5F5F5F5F5F5F5F5F5F5F5F5F5F5F5F5F5F5F5F5F5E2F5F5F5F5E2E2EFEFE2E2F5F5F5F5E2F5F5F5F576F5F5F5F5F5F5F5F5F5F5F5F5F5F5F5F5F5F5F5CAF5F5F576F5F57676CACAF5F5F5F5F5F5F5F5F5F5F5F5F5F5F5F5F5F5F5F5F5F5F5F5F5F5F5F5F5F5F5F5F5F5F5F5F5F5F5F5F5F5F5F5F5F5F5F5F5E2F5F5F5F5
310
E2E2F5F5E2F5F5F5F5F5E2F5F5F5F576F5F5F5F5F5F5F5F5F5F5F5F5F5F5F5F5F5F5F5CAF5F5F576F5F5F5F5E2CAF5F5F5F5F5F5F5F5F5F5F5F5F5F5F5F5F5F5F5F5F5F5F5F5F5F5F5F5F5F5F5F5F5F5F5F5F5F5F5F5F5F5F5F5F5F5F5F5F5E2F5F5F5F5F5E2EFEFE2F5F5F5F5F5E2F5F5F5F5F5F5F5F5F5F5F5F5F5F5F5F5
310
F5F5F5F5F5F5F5F5CAF5F5F576F5F5F5F5E2CAF5F5F5F5F5F5F5F5F5F5F5F5F5F5F5F5F5F5F5F5F5F5F5F5F5F5F5F5F5F5F5F5F5F5F5F5F5F5F5F5F5F5F5F5F5F5F5F5F5E2F5F5F5F5F5E2E2E2E2F5F5F5F5F5E2F5F5F5F5F5F5F5F5F5F5F5F5F5F5F5F5F5F5F5F5F5F5F5F5CAF5767676F5F5F5F5E2CAF5F5F5F5F5F5F5F5
310
F5F5F5F5F5F5F5F5F5F5F5F5F5F5F5F5F5F5F5F5E2E2E2E2E2E2E2E2E2E2F5F5F5F5F5F5F5F5F5F5F5E2F5F5F5F5F5E2EFEFE2F5F5F5F5F5E2F5F5F5F5F5F5F5F5F5F5F5F5F5F5F5F5F5F5F5F5F5F5F5F5CAF5767676F5F5F5F5E27676767676767676767676767676767676767676767676767676767676E2E2E2E2E2E2E2
310
E2E2E2E2E2E2E2F5F5F5F5F5F5F5E2F5F5F5F5F5E2EFEFE2F5F5F5F5F5E2F5F5F5F5F5F5F5F5F5F5F5F5F5F5F5F5F5F5F5F5F5F5F5F5CAF5767676F5F5F5F5E2CAF5F5F5F5F5F5F5F5F5F5F5F5F5F5F5F5F5F5F5F5F5F5F5F5F5F5F5E2E2E2E2E2E2E2E2E2E2E2E2E2E2E2F5F5F5F5F5F5F5E2F5F5F5F5F5E2F5F5E2F5F5F5
310
F5F5E2F5F5F5F5F5F5F5F5F5F5F5F5F5F5F5F5F5F5F5F5F5F5F5F5CAF5F5F576F5F5F5F5E2CAF5F5F5F5F5F5F5F5F5F5F5F5F5F5F5F5F5F5F5F5F5F5F5F5F5F5F5F5F5F5F5F5F5F5F5F5F5F5F5F5F5F5F5F5F5F5F5F5F5E2F5F5F5F5F5E2EFEFE2F5F5F5F5F5E2F5F5F5F5F5F5F5F5F5F5F5F5F5F5F5F5F5F5F5F5F5F5F5F5
310
CAF5F5F576F5F5F5F5E2CAF5F5F5F5F5F5F5F5F5F5F5F5F5F5F5F5F5F5F5F5F5F5F5F5F5F5F5F5F5F5F5F5F5F5F5F5F5F5F5F5F5F5F5F5F5F5F5F5F5E2F5F5F5F5F5E2F5F5E2F5F5F5F5F5E2F5F5F5F5F5F5F5F5F5F5F5F5F5F5F5F5F5F5F5F5F5F5F5F5CAF5F5F576F5F5F5F5E2CAF5F5F5F5F5F5F5F5F5F5F5F5F5F5F5F5
310
F5F5F5F5F5F5F5F5F5F5F5F5F5F5F5F5F5F5F5F5F5F5F5F5F5F5F5F5F5F5F5F5F5E2F5F5F5F5F5E2EFEFE2F5F5F5F5F5E2F5F5F5F5F5F5F5F5F5F5F5F5F5F5F5F5F5F5F5F5F5F5F5F5CAF5F5F576F5F5F5F5E2CAF5F5F5F5F5F5F5F5F5F5F5F5F5F5F5F5F5F5F5F5F5F5F5F5F5F5F5F5F5F5F5F5F5F5F5F5F5F5F5F5F5F5F5
310
F5F5F5F5F5F5E2F5F5F5F5F5E2F5F5E2F5F5F5F5F5E2F5F5F5F5F5F5F5F5F5F5F5F5F5F5F5F5F5F5F5F5F5F5F5F5CAF5F5F576F5F5F5F5E2CAF5F5F5F5F5F5F5F5F5F5F5F5F5F5F5F5F5F5F5F5F5F5F5F5F5F5F5F5F5F5F5F5F5F5F5F5F5F5F5F5F5F5F5F5F5F5F5F5F5E2F5F5F5F5F5E2EFEFE2E2F5F5F5F5E2F5F5F5F5F5
310
F5F5F5F5F5F5F5F5F5F5F5F5F5F5F5F5F5F5F5CAF5F5F576F5F5F5F5E2CAF5F5F5F5F5F5F5F5F5F5F5F5F5F5F5F5F5F5F5F5F5F5F5F5F5F5F5F5F5F5F5F5F5F5F5F5F5F5F5F5F5F5F5F5F5F5F5F5F5E2F5F5F5F5E2E2E2E2E2E2F5F5F5F5E2F5F5F5F5F5F5F5F5F5F5F5F5F5F5F5F5F5F5F5F5F5F5F5F5CAF5F5F576F5F5F5
310
F5E2CAF5F5F5F5F5F5F5F5F5F5F5F5F5F5F5F5F5F5F5F5F5F5F5F5F5F5F5F5F5F5F5F5F5F5F5F5F5F5F5F5F5F5F5F5F5F5F5F5F5E2F5F5F5F5E2E2EFEFE2E2F5F5F5F5E2F5F5F5F5F5F5F5F5F5F5F5F5F5F5F5F5F5F5F5F5F5F5F5F5CAF5F5F576F5F5F5F5E2CAF5F5F5F5F5F5F5F5F5F5F5F5F5F5F5F5F5F5F5F5F5F5F5F5
310
F5F5F5F5F5F5F5F5F5F5F5F5F5F5F5F5F5F5F5F5F5F5F5F5F5E2F5F5F5F5E2E2EFEFE2E2F5F5F5F5E2F5F5F5F5F5F5F5F5F5F5F5F5F5F5F5F5F5F5F5F5F5F5F5F5CAF5F5F576F5F5F5F5E2CAF5F5F5F5F5F5F5F5F5F5F5F5F5F5F5F5F5F5F5F5F5F5F5F5F5F5F5F5E2E2E2E2E2E2E2F5F5F5F5F5F5F5F5F5F5F5F5F5F5E2F5
310
F5F5F5E2E2E2E2E2E2F5F5F5F5E2F5F5F5F5F5F5F5F5F5F5F5F5F5F5F5F5F5F5F5F5F5F5F5F5CAF5F5F576F5F5F5F5E2CAF5F5F5F5F5F5F5F5F5F5F5F5F5F5F5F5F5F5F5F5F5F5F5F5F5F5F5F5E2E2E2E2E2E2E2E2E2E2E2E2E2F5F5F5F5F5F5F5F5E2F5F5F5F5E2E2EFEFE2E2F5F5F5F5E2F5F5F5F5F5F5F5F5F5F5F5F5F5
310
F5F5F5F5F5F5F5F5F5F5F5CAF5F576767676F5F5CA7676767676767676767676767676767676767676767676767676767676E2E2E2E2E2E2E2E2E2E2E2E2E2F5F5F5F5F5F5F5F5E2F5F5F5F5E2E2F5F5E2E2F5F5F5F5E2F5F5F5F5F5F5F5F5F5F5F5F5F5F5F5F5F5F5F5F5F5F5F5F5CAF5F5F5F5F5F5F5F5E2CA76F5F5F5F5
310
F5F5F5F5F5F5F5F5F5F5F5F5F5F5F5F5F5F5F5F5F5F5F5E2E2E2E2E2E2E2E2E2E2E2E2E2E2F5F5F5F5F5F5F5E2F5F5F5F5E2E2EFEFE2E2F5F5F5F5E2F5F5F5F5F5F5F5F5F5F5F5F5F5F5F5F5F5F5F5F5F5F5F5F5CAF5F5F5F5F5F5F5F5E2CAF5F5F5F5F5F5F5F5F5F5F5F5F5F5F5F5F5F5F5F5F5F5F5F5F5F5F5F5E2E2E2E2
310
E2E2E2E2E2E2E2E2E2E2F5F5F5F5F5F5F5E2F5F5F5F5E2E2F5F5E2E2F5F5F5F5E2F5F5F5F5F5F5F5F5F5F5F5F5F5F5F5F5F5F5F5F5F5F5F5F5CAF5F5F5F5F5F5F5F5E2CAF5F5F5F5F5F5F5F5F5F5F5F5F5F5F5F5F5F5F5F5F5F5F5F5F5F5F5F5F5F5F5F5F5F5F5F5F5F5F5F5F5F5F5F5F5F5F5F5F5E2F5F5F5F5E2E2EFEFE2
310
E2F5F5F5F5E2F5F5F5F5F5F5F5F5F5F5F5F5F5F5F5F5F5F5F5F5F5F5F5F5CAF5F5F5F5F5F5F5F5CACAF5F5F5F5F5F5F5F5F5F5F5F5F5F5F5F5F5F5F5F5F5F5F5F5F5F5F5F5F5F5F5F5F5F5F5F5F5F5F5F5F5F5F5F5F5F5F5F5F5E2F5F5F5F5E2E2E2E2E2E2F5F5F5F5E2F5F5F5F5F5F5F5F5F5F5F5F5F5F5F5F5F5F5F5F5F5
310
F5F5F5E2F5F5F5F5F5F5F5F5E2F5F5F5F5F5F5F5F5F5F5F5F5F5F5F5F5F5F5F5F5F5F5F5F5F5F5F5F5F5F5F5F5F5F5F5F5F5F5F5F5F5F5F5F5F5F5F5F5F5F5E2F5F5F5F5E2E2EFEFE2E2F5F5F5F5E2F5F5F5F5F5F5F5F5F5F5F5F5F5F5F5F5F5F5F5F5F5F5F5F5E2F5F5F5F5F5F5F5F5E2F5F5F5F5F5F5F5F5F5F5F5F5F5F5
310
F5F5F5F5F5F5F5F5F5F5F5F5F5F5F5F5F5F5F5F5F5F5F5F5F5F5F5F5F5F5F5F5F5F5F5F5E2F5F5F5F5E2E2EFEFE2E2F5F5F5F5E2F5F5F5F5F5F5F5F5F5F5F5F5F5F5F5F5F5F5F5F5F5F5F5F5E2F5F5F5F5F5F5F5F5E2F5F5F5F5F5F5F5F5F5F5F5F5F5F5F5F5F5F5F5F5F5F5F5F5F5F5F5F5F5F5F5F5F5F5F5F5F5F5F5F5F5
310
F5F5F5F5F5F5F5F5F5E2F5F5F5F5E2E2E2E2E2E2F5F5F5F5E2F5F5F5F5F5F5F5F5F5F5F5F5F5F5F5F5F5F5F5F5F5F5F5F5E2F5F5F5F5F5F5F5F5E2F5F5F5F5F5F5F5F5F5F5F5F5F5F5F5F5F5F5F5F5F5F5F5F5F5F5F5F5F5F5F5F5F5F5F5F5F5F5F5F5F5F5F5F5F5F5F5F5F5F5E2F5F5F5F5E2E2EFEFE2E2F5F5F5F5E2F5F5
310
F5F5F5F5F5F5F5F5F5F5F5F5F5F5F5F5F5F5F5F5F5F5E2F5E2E2F5F5F5F5F5E2F5F5F5F5F5F5F5F5F5F5F5F5F5F5F5F5F5F5F5F5F5F5F5F5F5F5F5F5F5F5F5F5F5F5F5F5F5F5F5F5F5F5F5F5F5F5F5F5F5F5E2F5F5F5F5E2E2EFEFE2E2F5F5F5F5E2F5F5F5F5F5F5F5F5F5F5F5F5F5F5F5F5F5F5F5F5F5F5F5F5E2E2E2F5E2
310
E2F5F5F5E2F5F5F5F5F5F5F5F5F5F5F5F5F5F5F5F5F5F5F5F5F5F5F5F5F5F5F5F5F5F5F5F5F5F5F5F5F5F5F5F5F5F5F5F5F5F5F5F5F5F5E2F5F5F5F5E2E2EFEFE2E2F5F5F5F5E2F5F5F5F5F5F5F5F5F5F5F5F5F5F5F5F5F5F5F5F5F5F5F5F5F5E2E2E2E2E2E2E2E2E2F5F5F5F5F5F5F5F5F5F5F5F5F5F5F5F5F5F5F5F5F5F5
310
F5F5F5F5F5F5F5F5F5F5F5F5F5F5F5F5F5F5F5F5F5F5F5F5F5F5F5F5E2F5F5F5F5E2E2EFEFE2F5F5F5F5F5E2F5F5F5F5F5F5F5F5F5F5F5F5F5F5F5F5F5F5F5F5F5F5F5F5F5F5F5E2F5F5F5E2E2F5F5F5F5F5F5F5F5F5F5F5F5F5F5F5F5F5F5F5F5F5F5F5F5F5F5F5F5F5F5F5F5F5F5F5F5F5F5F5F5F5F5F5F5F5F5F5F5F5F5
310
F5E2F5F5F5F5F5E2EFEFE2F5F5F5F5F5E2F5F5F5F5F5F5F5F5F5F5F5F5F5F5F5F5F5F5F5F5F5F5F5F5F5F5F5F5F5F5F5F5F5F5F5F5F5F5F5F5F5F5F5F5F5F5F5F5F5F5F5F5F5F5F5F5F5F5F5F5F5F5F5F5F5F5F5F5F5F5F5F5F5F5F5F5F5F5F5F5F5F5F5F5E2F5F5F5F5F5E2EFEFE2F5F5F5F5F5E2F5F5F5F5F5F5F5F5F5F5
310
F5F5F5F5F5F5F5F5F5F5F5F5F5F5F5F5F5F5F5F5F5F5F5F5F5F5F5F5F5F5F5F5F5F5F5F5F5F5F5F5F5F5F5F5F5F5F5F5F5F5F5F5F5F5F5F5F5F5F5F5F5F5F5F5F5F5F5F5F5F5F5F5F5F5E2F5F5F5F5F5E2EFEFE2F5F5F5F5F5E2F5F5F5F5F5F5F5F5F5F5F5F5F5F5F5F5F5F5F5F5F5F5F5F5F5F5F5F5F5F5F5F5F5F5F5F5F5
310
F5F5F5F5F5F5F5F5F5F5F5F5F5F5F5F5F5F5F5F5F5F5F5F5F5F5F5F5F5F5F5F5F5F5F5F5F5F5F5F5F5F5F5F5F5F5F5E2F5F5F5F5F5E2EFEFE2F5F5F5F5F5E2F5F5F5F5F5F5F5F5F5F5F5F5F5F5F5F5F5F5F5F5F5F5F5F5F5F5F5F5F5F5F5F5F5F5F5F5F5F5F5F5F5F5F5F5F5F5F5F5F5F5F5F5F5F5F5F5F5F5F5F5F5F5F5F5
310
F5F5F5F5F5F5F5F5F5F5F5F5F5F5F5F5F5F5F5F5E2F5F5F5F5F5E2EFEFE2F5F5F5F5F5E2F5F5F5F5F5F5F5F5F5F5F5F5F5F5F5F5F5F5F5F5F5F5F5F5F5F5F5F5F5F5F5F5F5F5F5F5F5F5F5F5F5F5F5F5F5F5F5F5F5F5F5F5F5F5F5F5F5F5F5F5F5F5F5F5F5F5F5F5F5F5F5F5F5F5F5F5F5F5F5F5F5F5F5F5E2F5F5F5F5F5E2
310
EFEFE2F5F5F5F5F5E2F5F5F5F5F5F5F5F5F5F5F5F5F5F5F5F5F5F5F5F5F5F5F5F5F5F5F5F5F5F5F5F5F5F5F5F5F5F5F5F5F5F5F5F5F5F5F5F5F5F5F5F5F5F5F5F5F5F5F5F5F5F5F5F5F5F5F5F5F5F5F5F5F5F5F5F5F5F5F5F5F5F5F5F5E2F5F5F5F5F5E2EFEFE2F5F5F5F5F5E2F5F5F5F5F5F5F5F5F5F5F5F5F5F5F5F5F5F5
310
F5F5F5F5F5F5F5F5F5F5F5F5F5F5F5F5F5F5F5F5F5F5F5F5F5F5F5F5F5F5F5F5F5F5F5F5F5F5F5F5F5F5F5F5F5F5F5F5F5F5F5F5F5F5F5F5F5F5F5F5F5F5F5F5F5F5E2F5F5F5F5F5E2EFEFE2F5F5F5F5F5E2F5F5F5F5F5F5F5F5F5F5F5F5F5F5F5F5F5F5F5F5F5F5F5F5F5F5F5F5F5F5F5F5F5F5F5F5F5F5F5F5F5F5F5F5F5
310
F5F5F5F5F5F5F5F5F5F5F5F5F5F5F5F5F5F5F5F5F5F5F5F5F5F5F5F5F5F5F5F5F5F5F5F5F5F5F5E2F5F5F5F5F5E2EFEFE2F5F5F5F5F5E2F5F5F5F5F5F5F5F5F5F5F5F5F5F5F5F5F5F5F5F5F5F5F5F5F5F5F5F5F5F5F5F5F5F5F5F5F5F5F5F5F5F5F5F5F5F5F5F5F5F5F5F5F5F5F5F5F5F5F5F5F5F5F5F5F5F5F5F5F5F5F5F5
310
F5F5F5F5F5F5F5F5F5F5F5F5E2F5F5F5F5F5E2EFEFE2E2F5F5F5F5E2F5F5F5F5F5F5F5F5F5F5F5F5F5F5F5F5F5F5F5F5F5F5F5F5F5F5F5F5F5F5F5F5F5F5F5F5F5F5F5F5F5F5F5F5F5F5F5F5F5F5F5F5F5F5F5F5F5F5F5F5F5F5F5F5F5F5F5F5F5F5F5F5F5F5F5F5F5F5F5F5F5F5F5F5E2F5F5F5F5E2E2EFEFE2E2F5F5F5F5
310
E2F5F5F5F5F5F5F5F5F5F5F5F5F5F5F5F5F5F5F5F5F5F5F5F5F5F5F5F5F5F5F5F5F5F5F5F5F5F5F5F5F5F5F5F5F5F5F5F5F5F5F5F5F5F5F5F5F5F5F5F5F5F5F5F5F5F5F5F5F5F5F5F5F5F5F5F5F5F5F5F5F5F5F5F5E2F5F5F5F5E2E2EFEFE2E2F5F5F5F5E2F5F5F5F5F5F5F5F5F5F5F5F5F5F5F5F5F5F5F5F5F5F5F5F5F5F5
310
F5F5F5F5F5F5F5F5F5F5F5F5F5F5F5F5F5F5F5F5F5F5F5F5F5F5F5F5F5F5F5F5F5F5F5F5F5F5F5F5F5F5F5F5F5F5F5F5F5F5F5F5F5F5F5F5F5F5E2F5F5F5F5E2E2EFEFE2E2F5F5F5F5E2E2E2E2E2E2E2E2E2E2E2E2E2E2E2E2E2E2E2E2E2E2E2E2E2E2E2E2E2E2E2E2E2E2E2E2E2E2E2E2E2E2E2E2E2E2E2E2E2E2E2E2E2E2
310
E2E2E2E2E2E2E2E2E2E2E2E2E2E2E2E2E2E2E2E2E2E2E2E2E2E2E2E2E2E2E2E2F5F5F5F5E2E2EFEFE2E2F5F5F5F5F5F5F5F5F5F5F5F5F5F5F5F5F5F5F5F5F5F5F5F5F5F5F5F5F5F5F5F5F5F5F5F5F5F5F5F5F5F5F5F5F5F5F5F5F5F5F5F5F5F5F5F5F5F5F5F5F5F5F5F5F5F5F5F5F5F5F5F5F5F5F5F5F5F5F5F5F5F5F5F5F5
310
F5F5F5F5F5F5F5F5F5E2E2EFEFE2E2F5F5F5F5F5F5F5F5F5F5F5F5F5F5F5F5F5F5F5F5F5F5F5F5F5F5F5F5F5F5F5F5F5F5F5F5F5F5F5F5F5F5F5F5F5F5F5F5F5F5F5F5F5F5F5F5F5F5F5F5F5F5F5F5F5F5F5F5F5F5F5F5F5F5F5F5F5F5F5F5F5F5F5F5F5F5F5F5F5F5F5F5F5F5E2E2EFEFE2E2F5F5F5F5F5F5F5F5F5F5F5F5
310
F5F5F5F5F5F5F5F5F5F5F5F5F5F5F5F5F5F5F5F5F5F5F5F5F5F5F5F5F5F5F5F5F5F5F5F5F5F5F5F5F5F5F5F5F5F5F5F5F5F5F5F5F5F5F5F5F5F5F5F5F5F5F5F5F5F5F5F5F5F5F5F5F5F5F5F5F5F5F5F5F5F5E2E2EFEFE2E2F5F5F5F5F5F5F5F5F5F5F5F5F5F5F5F5F5F5F5F5F5F5F5F5F5F5F5F5F5F5F5F5F5F5F5F5F5F5F5
310
F5F5F5F5F5F5F5F5F5F5F5F5F5F5F5F5F5F5F5F5F5F5F5F5F5F5F5F5F5F5F5F5F5F5F5F5F5F5F5F5F5F5F5F5F5F5F5F5F5F5F5F5F5F5F5E2E2EFEFE2E2E2E2E2E2E2E2E2F5F5F5F5F5F5F5F5F5E2E2E2E2E2E2E2E2E2E2E2E2E2E2E2F5F5F5F5F5F5F5F5E2E2E2E2E2E2E2E2E2E2E2E2E2E2E2E2F5F5F5F5F5F5F5F5E2E2E2
310
E2E2E2E2E2E2E2E2E2E2E2E2F5F5F5F5F5F5F5F5F5E2E2E2E2E2E2E2E2E2EFEFE2F5F5F5F5F5F5F5F5F5F5F5F5F5F5F5F5F5F5F5F5F5F5F5F5F5F5F5F5F5F5F5F5F5F5F5F5F5F5F5F5F5F5F5F5F5F5F5F5F5F5F5F5F5F5F5F5F5F5F5F5F5F5F5F5F5F5F5F5F5F5F5F5F5F5F5F5F5F5F5F5F5F5F5F5F5F5F5F5F5F5F5F5F5F5
310
F5F5E2EFEFE2E2E2E2E2E2E2E2E2E2E2E2E2E2E2E2E2E2E2E2E2E2E2E2E2E2E2E2E2E2E2E2E2E2E2E2E2E2E2E2E2E2E2E2E2E2E2E2E2E2E2E2E2E2E2E2E2E2E2E2E2E2E2E2E2E2E2E2E2E2E2E2E2E2E2E2E2E2E2E2E2E2E2E2E2E2E2E2E2E2E2E2E2E2E2E2E2E2EFEFEFEFEFEFEFEFEFEFEFEFEFEFEFEFEFEFEFEFEFEFEFEF
310
EFEFEFEFEFEFEFEFEFEFEFEFEFEFEFEFEFEFEFEFEFEFEFEFEFEFEFEFEFEFEFEFEFEFEFEFEFEFEFEFEFEFEFEFEFEFEFEFEFEFEFEFEFEFEFEFEFEFEFEFEFEFEFEFEFEFEFEFEFEFEFEFEFEFEFEFEFEF
  0
XRECORD
  5
B13
102
{ACAD_REACTORS
330
B12
102
}
330
B12
100
AcDbXrecord
280
     1
102
SHADEPLOT
 70
     0
102
SHADEPLOTRESLEVEL
 70
     2
102
SHADEPLOTCUSTOMDPI
 70
   300
  0
ENDSEC
  0
EOF
