  0
SECTION
  2
HEADER
  9
$ACADVER
  1
AC1015
  9
$ACADMAINTVER
 70
    20
  9
$DWGCODEPAGE
  3
ANSI_1252
  9
$INSBASE
 10
0.0
 20
0.0
 30
0.0
  9
$EXTMIN
 10
700.0279088850808
 20
34.54221557850567
 30
0.0
  9
$EXTMAX
 10
1058.606833373626
 20
370.7613830107848
 30
0.0
  9
$LIMMIN
 10
0.0
 20
0.0
  9
$LIMMAX
 10
420.0
 20
297.0
  9
$ORTHOMODE
 70
     0
  9
$REGENMODE
 70
     1
  9
$FILLMODE
 70
     1
  9
$QTEXTMODE
 70
     0
  9
$MIRRTEXT
 70
     0
  9
$LTSCALE
 40
1.0
  9
$ATTMODE
 70
     1
  9
$TEXTSIZE
 40
2.5
  9
$TRACEWID
 40
1.0
  9
$TEXTSTYLE
  7
Compan
  9
$CLAYER
  8
0.20
  9
$CELTYPE
  6
ByLayer
  9
$CECOLOR
 62
   256
  9
$CELTSCALE
 40
1.0
  9
$DISPSILH
 70
     0
  9
$DIMSCALE
 40
1.0
  9
$DIMASZ
 40
2.5
  9
$DIMEXO
 40
0.625
  9
$DIMDLI
 40
3.75
  9
$DIMRND
 40
0.0
  9
$DIMDLE
 40
0.0
  9
$DIMEXE
 40
1.25
  9
$DIMTP
 40
0.0
  9
$DIMTM
 40
0.0
  9
$DIMTXT
 40
2.5
  9
$DIMCEN
 40
2.5
  9
$DIMTSZ
 40
0.0
  9
$DIMTOL
 70
     0
  9
$DIMLIM
 70
     0
  9
$DIMTIH
 70
     0
  9
$DIMTOH
 70
     0
  9
$DIMSE1
 70
     0
  9
$DIMSE2
 70
     0
  9
$DIMTAD
 70
     1
  9
$DIMZIN
 70
     8
  9
$DIMBLK
  1

  9
$DIMASO
 70
     1
  9
$DIMSHO
 70
     1
  9
$DIMPOST
  1

  9
$DIMAPOST
  1

  9
$DIMALT
 70
     0
  9
$DIMALTD
 70
     3
  9
$DIMALTF
 40
0.03937007874016
  9
$DIMLFAC
 40
1.0
  9
$DIMTOFL
 70
     1
  9
$DIMTVP
 40
0.0
  9
$DIMTIX
 70
     0
  9
$DIMSOXD
 70
     0
  9
$DIMSAH
 70
     0
  9
$DIMBLK1
  1

  9
$DIMBLK2
  1

  9
$DIMSTYLE
  2
ISO-25
  9
$DIMCLRD
 70
     0
  9
$DIMCLRE
 70
     0
  9
$DIMCLRT
 70
     0
  9
$DIMTFAC
 40
1.0
  9
$DIMGAP
 40
0.625
  9
$DIMJUST
 70
     0
  9
$DIMSD1
 70
     0
  9
$DIMSD2
 70
     0
  9
$DIMTOLJ
 70
     0
  9
$DIMTZIN
 70
     8
  9
$DIMALTZ
 70
     0
  9
$DIMALTTZ
 70
     0
  9
$DIMUPT
 70
     0
  9
$DIMDEC
 70
     2
  9
$DIMTDEC
 70
     2
  9
$DIMALTU
 70
     2
  9
$DIMALTTD
 70
     3
  9
$DIMTXSTY
  7
Standard
  9
$DIMAUNIT
 70
     0
  9
$DIMADEC
 70
     0
  9
$DIMALTRND
 40
0.0
  9
$DIMAZIN
 70
     0
  9
$DIMDSEP
 70
    44
  9
$DIMATFIT
 70
     3
  9
$DIMFRAC
 70
     0
  9
$DIMLDRBLK
  1

  9
$DIMLUNIT
 70
     2
  9
$DIMLWD
 70
    -2
  9
$DIMLWE
 70
    -2
  9
$DIMTMOVE
 70
     0
  9
$LUNITS
 70
     2
  9
$LUPREC
 70
     4
  9
$SKETCHINC
 40
1.0
  9
$FILLETRAD
 40
0.0
  9
$AUNITS
 70
     0
  9
$AUPREC
 70
     0
  9
$MENU
  1
.
  9
$ELEVATION
 40
0.0
  9
$PELEVATION
 40
0.0
  9
$THICKNESS
 40
0.0
  9
$LIMCHECK
 70
     0
  9
$CHAMFERA
 40
0.0
  9
$CHAMFERB
 40
0.0
  9
$CHAMFERC
 40
0.0
  9
$CHAMFERD
 40
0.0
  9
$SKPOLY
 70
     0
  9
$TDCREATE
 40
2454141.559514792
  9
$TDUCREATE
 40
2454141.017848125
  9
$TDUPDATE
 40
2456348.406694873
  9
$TDUUPDATE
 40
2456347.865028206
  9
$TDINDWG
 40
0.0693344792
  9
$TDUSRTIMER
 40
0.0693344792
  9
$USRTIMER
 70
     1
  9
$ANGBASE
 50
0.0
  9
$ANGDIR
 70
     0
  9
$PDMODE
 70
     0
  9
$PDSIZE
 40
0.0
  9
$PLINEWID
 40
0.0
  9
$SPLFRAME
 70
     0
  9
$SPLINETYPE
 70
     6
  9
$SPLINESEGS
 70
     8
  9
$HANDSEED
  5
93B
  9
$SURFTAB1
 70
     6
  9
$SURFTAB2
 70
     6
  9
$SURFTYPE
 70
     6
  9
$SURFU
 70
     6
  9
$SURFV
 70
     6
  9
$UCSBASE
  2

  9
$UCSNAME
  2

  9
$UCSORG
 10
0.0
 20
0.0
 30
0.0
  9
$UCSXDIR
 10
1.0
 20
0.0
 30
0.0
  9
$UCSYDIR
 10
0.0
 20
1.0
 30
0.0
  9
$UCSORTHOREF
  2

  9
$UCSORTHOVIEW
 70
     0
  9
$UCSORGTOP
 10
0.0
 20
0.0
 30
0.0
  9
$UCSORGBOTTOM
 10
0.0
 20
0.0
 30
0.0
  9
$UCSORGLEFT
 10
0.0
 20
0.0
 30
0.0
  9
$UCSORGRIGHT
 10
0.0
 20
0.0
 30
0.0
  9
$UCSORGFRONT
 10
0.0
 20
0.0
 30
0.0
  9
$UCSORGBACK
 10
0.0
 20
0.0
 30
0.0
  9
$PUCSBASE
  2

  9
$PUCSNAME
  2

  9
$PUCSORG
 10
0.0
 20
0.0
 30
0.0
  9
$PUCSXDIR
 10
1.0
 20
0.0
 30
0.0
  9
$PUCSYDIR
 10
0.0
 20
1.0
 30
0.0
  9
$PUCSORTHOREF
  2

  9
$PUCSORTHOVIEW
 70
     0
  9
$PUCSORGTOP
 10
0.0
 20
0.0
 30
0.0
  9
$PUCSORGBOTTOM
 10
0.0
 20
0.0
 30
0.0
  9
$PUCSORGLEFT
 10
0.0
 20
0.0
 30
0.0
  9
$PUCSORGRIGHT
 10
0.0
 20
0.0
 30
0.0
  9
$PUCSORGFRONT
 10
0.0
 20
0.0
 30
0.0
  9
$PUCSORGBACK
 10
0.0
 20
0.0
 30
0.0
  9
$USERI1
 70
     0
  9
$USERI2
 70
     0
  9
$USERI3
 70
     0
  9
$USERI4
 70
     0
  9
$USERI5
 70
     0
  9
$USERR1
 40
0.0
  9
$USERR2
 40
0.0
  9
$USERR3
 40
0.0
  9
$USERR4
 40
0.0
  9
$USERR5
 40
0.0
  9
$WORLDVIEW
 70
     1
  9
$SHADEDGE
 70
     3
  9
$SHADEDIF
 70
    70
  9
$TILEMODE
 70
     0
  9
$MAXACTVP
 70
    64
  9
$PINSBASE
 10
0.0
 20
0.0
 30
0.0
  9
$PLIMCHECK
 70
     0
  9
$PEXTMIN
 10
10.52700123832403
 20
17.3374929761523
 30
0.0
  9
$PEXTMAX
 10
192.3005380287185
 20
285.9981565444382
 30
0.0
  9
$PLIMMIN
 10
1.719077722092039
 20
12.48989912916784
  9
$PLIMMAX
 10
199.2465548467074
 20
292.0482725666407
  9
$UNITMODE
 70
     0
  9
$VISRETAIN
 70
     1
  9
$PLINEGEN
 70
     0
  9
$PSLTSCALE
 70
     1
  9
$TREEDEPTH
 70
  3020
  9
$CMLSTYLE
  2
Standard
  9
$CMLJUST
 70
     0
  9
$CMLSCALE
 40
20.0
  9
$PROXYGRAPHICS
 70
     1
  9
$MEASUREMENT
 70
     1
  9
$CELWEIGHT
370
    -1
  9
$ENDCAPS
280
     0
  9
$JOINSTYLE
280
     0
  9
$LWDISPLAY
290
     0
  9
$INSUNITS
 70
     4
  9
$HYPERLINKBASE
  1

  9
$STYLESHEET
  1

  9
$XEDIT
290
     1
  9
$CEPSNTYPE
380
     0
  9
$PSTYLEMODE
290
     1
  9
$FINGERPRINTGUID
  2
{D4BF5141-F754-467D-BBDA-CB7EF104C964}
  9
$VERSIONGUID
  2
{72AF70A4-4818-4A0E-9ECF-6A802E84E5A0}
  9
$EXTNAMES
290
     1
  9
$PSVPSCALE
 40
0.0
  9
$OLESTARTUP
290
     0
  0
ENDSEC
  0
SECTION
  2
CLASSES
  0
CLASS
  1
ACDBDICTIONARYWDFLT
  2
AcDbDictionaryWithDefault
  3
ObjectDBX Classes
 90
        0
280
     0
281
     0
  0
CLASS
  1
ACDBPLACEHOLDER
  2
AcDbPlaceHolder
  3
ObjectDBX Classes
 90
        0
280
     0
281
     0
  0
CLASS
  1
LAYOUT
  2
AcDbLayout
  3
ObjectDBX Classes
 90
        0
280
     0
281
     0
  0
CLASS
  1
DICTIONARYVAR
  2
AcDbDictionaryVar
  3
ObjectDBX Classes
 90
        0
280
     0
281
     0
  0
CLASS
  1
TABLESTYLE
  2
AcDbTableStyle
  3
ObjectDBX Classes
 90
     2047
280
     0
281
     0
  0
CLASS
  1
SORTENTSTABLE
  2
AcDbSortentsTable
  3
ObjectDBX Classes
 90
        0
280
     0
281
     0
  0
CLASS
  1
FIELD
  2
AcDbField
  3
ObjectDBX Classes
 90
    33920
280
     0
281
     0
  0
CLASS
  1
FIELDLIST
  2
AcDbFieldList
  3
ObjectDBX Classes
 90
     1152
280
     0
281
     0
  0
CLASS
  1
DIMASSOC
  2
AcDbDimAssoc
  3
"AcDbDimAssoc|Product Desc:     AcDim ARX App For Dimension|Company:          Autodesk, Inc.|WEB Address:      www.autodesk.com"
 90
    32768
280
     0
281
     0
  0
CLASS
  1
IMAGEDEF
  2
AcDbRasterImageDef
  3
ISM
 90
        0
280
     0
281
     0
  0
CLASS
  1
IMAGE
  2
AcDbRasterImage
  3
ISM
 90
      127
280
     0
281
     1
  0
CLASS
  1
IMAGEDEF_REACTOR
  2
AcDbRasterImageDefReactor
  3
ISM
 90
        1
280
     0
281
     0
  0
CLASS
  1
RASTERVARIABLES
  2
AcDbRasterVariables
  3
ISM
 90
        0
280
     0
281
     0
  0
ENDSEC
  0
SECTION
  2
TABLES
  0
TABLE
  2
VPORT
  5
8
330
0
100
AcDbSymbolTable
 70
     1
  0
VPORT
  5
84B
330
8
100
AcDbSymbolTableRecord
100
AcDbViewportTableRecord
  2
*Active
 70
     0
 10
0.0
 20
0.0
 11
1.0
 21
1.0
 12
874.3279965739912
 22
218.8459675100977
 13
0.0
 23
0.0
 14
10.0
 24
10.0
 15
10.0
 25
10.0
 16
0.0
 26
0.0
 36
1.0
 17
0.0
 27
0.0
 37
0.0
 40
475.3325513901918
 41
1.929752066115702
 42
50.0
 43
0.0
 44
0.0
 50
0.0
 51
0.0
 71
     0
 72
  1000
 73
     1
 74
     3
 75
     0
 76
     0
 77
     0
 78
     0
281
     0
 65
     1
110
0.0
120
0.0
130
0.0
111
1.0
121
0.0
131
0.0
112
0.0
122
1.0
132
0.0
 79
     0
146
0.0
  0
ENDTAB
  0
TABLE
  2
LTYPE
  5
5
330
0
100
AcDbSymbolTable
 70
     3
  0
LTYPE
  5
14
330
5
100
AcDbSymbolTableRecord
100
AcDbLinetypeTableRecord
  2
ByBlock
 70
     0
  3

 72
    65
 73
     0
 40
0.0
  0
LTYPE
  5
15
330
5
100
AcDbSymbolTableRecord
100
AcDbLinetypeTableRecord
  2
ByLayer
 70
     0
  3

 72
    65
 73
     0
 40
0.0
  0
LTYPE
  5
16
330
5
100
AcDbSymbolTableRecord
100
AcDbLinetypeTableRecord
  2
Continuous
 70
     0
  3
Solid line
 72
    65
 73
     0
 40
0.0
  0
LTYPE
  5
114
330
5
100
AcDbSymbolTableRecord
100
AcDbLinetypeTableRecord
  2
DASHED
 70
     0
  3
Dashed __ __ __ __ __ __ __ __ __ __ __ __ __ _
 72
    65
 73
     2
 40
19.05
 49
12.7
 74
     0
 49
-6.349999999999999
 74
     0
  0
LTYPE
  5
1FA
330
5
100
AcDbSymbolTableRecord
100
AcDbLinetypeTableRecord
  2
DASHED2
 70
     0
  3
Dashed (.5x) _ _ _ _ _ _ _ _ _ _ _ _ _ _ _ _ _
 72
    65
 73
     2
 40
9.524999999999998
 49
6.349999999999999
 74
     0
 49
-3.174999999999999
 74
     0
  0
ENDTAB
  0
TABLE
  2
LAYER
  5
2
102
{ACAD_XDICTIONARY
360
10F
102
}
330
0
100
AcDbSymbolTable
 70
    15
  0
LAYER
  5
10
330
2
100
AcDbSymbolTableRecord
100
AcDbLayerTableRecord
  2
0
 70
     0
 62
     7
  6
Continuous
370
    -3
390
F
  0
LAYER
  5
103
330
2
100
AcDbSymbolTableRecord
100
AcDbLayerTableRecord
  2
0.05
 70
     0
 62
     7
  6
Continuous
370
     5
390
F
1001
AcAecLayerStandard
1000

1000

  0
LAYER
  5
105
330
2
100
AcDbSymbolTableRecord
100
AcDbLayerTableRecord
  2
0.09
 70
     0
 62
     9
  6
Continuous
370
     9
390
F
1001
AcAecLayerStandard
1000

1000

  0
LAYER
  5
106
330
2
100
AcDbSymbolTableRecord
100
AcDbLayerTableRecord
  2
0.13
 70
     0
 62
    30
  6
Continuous
370
    13
390
F
1001
AcAecLayerStandard
1000

1000

  0
LAYER
  5
107
330
2
100
AcDbSymbolTableRecord
100
AcDbLayerTableRecord
  2
0.15
 70
     0
 62
     3
  6
Continuous
370
    15
390
F
1001
AcAecLayerStandard
1000

1000

  0
LAYER
  5
108
330
2
100
AcDbSymbolTableRecord
100
AcDbLayerTableRecord
  2
0.18
 70
     0
 62
     7
  6
Continuous
370
    18
390
F
1001
AcAecLayerStandard
1000

1000

  0
LAYER
  5
109
330
2
100
AcDbSymbolTableRecord
100
AcDbLayerTableRecord
  2
0.20
 70
     0
 62
     7
  6
Continuous
370
    20
390
F
1001
AcAecLayerStandard
1000

1000

  0
LAYER
  5
10B
330
2
100
AcDbSymbolTableRecord
100
AcDbLayerTableRecord
  2
0.30
 70
     0
 62
     5
  6
Continuous
370
    30
390
F
1001
AcAecLayerStandard
1000

1000

  0
LAYER
  5
10C
330
2
100
AcDbSymbolTableRecord
100
AcDbLayerTableRecord
  2
0.40
 70
     0
 62
     7
  6
Continuous
370
    40
390
F
1001
AcAecLayerStandard
1000

1000

  0
LAYER
  5
10D
330
2
100
AcDbSymbolTableRecord
100
AcDbLayerTableRecord
  2
0.50
 70
     0
 62
     6
  6
Continuous
370
    50
390
F
1001
AcAecLayerStandard
1000

1000

  0
LAYER
  5
10E
330
2
100
AcDbSymbolTableRecord
100
AcDbLayerTableRecord
  2
0.09 - dashed
 70
     0
 62
     1
  6
DASHED
370
     9
390
F
1001
AcAecLayerStandard
1000

1000

  0
LAYER
  5
1FB
330
2
100
AcDbSymbolTableRecord
100
AcDbLayerTableRecord
  2
0.15 - dashed Underlay
 70
     0
 62
     3
  6
DASHED2
370
    15
390
F
1001
AcAecLayerStandard
1000

1000

  0
LAYER
  5
1FC
330
2
100
AcDbSymbolTableRecord
100
AcDbLayerTableRecord
  2
Defpoints
 70
     0
 62
     7
  6
Continuous
290
     0
370
    -3
390
F
  0
LAYER
  5
1FD
330
2
100
AcDbSymbolTableRecord
100
AcDbLayerTableRecord
  2
dim
 70
     0
 62
    12
  6
Continuous
370
    13
390
F
1001
AcAecLayerStandard
1000

1000

  0
LAYER
  5
663
330
2
100
AcDbSymbolTableRecord
100
AcDbLayerTableRecord
  2
light grey
 70
     0
 62
   253
  6
Continuous
370
    20
390
F
1001
AcAecLayerStandard
1000

1000

  0
ENDTAB
  0
TABLE
  2
STYLE
  5
3
330
0
100
AcDbSymbolTable
 70
     3
  0
STYLE
  5
11
330
3
100
AcDbSymbolTableRecord
100
AcDbTextStyleTableRecord
  2
Standard
 70
     0
 40
0.0
 41
1.0
 50
0.0
 71
     0
 42
2.5
  3
stylu.ttf
  4

1001
ACAD
1000
Stylus BT
1071
       34
  0
STYLE
  5
113
330
3
100
AcDbSymbolTableRecord
100
AcDbTextStyleTableRecord
  2

 70
     1
 40
0.0
 41
1.0
 50
0.0
 71
     0
 42
2.5
  3
ltypeshp.shx
  4

  0
STYLE
  5
17C
330
3
100
AcDbSymbolTableRecord
100
AcDbTextStyleTableRecord
  2
Compan
 70
     0
 40
0.0
 41
1.0
 50
0.0
 71
     0
 42
2.5
  3
TIMESBI.TTF
  4

1001
ACAD
1000
Times New Roman
1071
 50331666
  0
ENDTAB
  0
TABLE
  2
VIEW
  5
6
330
0
100
AcDbSymbolTable
 70
     0
  0
ENDTAB
  0
TABLE
  2
UCS
  5
7
330
0
100
AcDbSymbolTable
 70
     0
  0
ENDTAB
  0
TABLE
  2
APPID
  5
9
330
0
100
AcDbSymbolTable
 70
     3
  0
APPID
  5
12
330
9
100
AcDbSymbolTableRecord
100
AcDbRegAppTableRecord
  2
ACAD
 70
     0
  0
APPID
  5
9E
330
9
100
AcDbSymbolTableRecord
100
AcDbRegAppTableRecord
  2
ACAD_PSEXT
 70
     0
  0
APPID
  5
104
330
9
100
AcDbSymbolTableRecord
100
AcDbRegAppTableRecord
  2
AcAecLayerStandard
 70
     0
  0
ENDTAB
  0
TABLE
  2
DIMSTYLE
  5
A
330
0
100
AcDbSymbolTable
 70
     1
100
AcDbDimStyleTable
 71
     1
340
27
  0
DIMSTYLE
105
27
102
{ACAD_REACTORS
330
49B
330
505
102
}
330
A
100
AcDbSymbolTableRecord
100
AcDbDimStyleTableRecord
  2
ISO-25
 70
     0
 41
2.5
 42
0.625
 43
3.75
 44
1.25
 73
     0
 74
     0
 77
     1
 78
     8
140
2.5
141
2.5
143
0.03937007874016
147
0.625
171
     3
172
     1
271
     2
272
     2
274
     3
278
    44
283
     0
284
     8
340
11
  0
ENDTAB
  0
TABLE
  2
BLOCK_RECORD
  5
1
330
0
100
AcDbSymbolTable
 70
     5
  0
BLOCK_RECORD
  5
1F
102
{ACAD_XDICTIONARY
360
46D
102
}
330
1
100
AcDbSymbolTableRecord
100
AcDbBlockTableRecord
  2
*Model_Space
340
22
  0
BLOCK_RECORD
  5
61E
330
1
100
AcDbSymbolTableRecord
100
AcDbBlockTableRecord
  2
*Paper_Space
340
61B
  0
BLOCK_RECORD
  5
49C
330
1
100
AcDbSymbolTableRecord
100
AcDbBlockTableRecord
  2
*D0
340
0
  0
BLOCK_RECORD
  5
4F2
330
1
100
AcDbSymbolTableRecord
100
AcDbBlockTableRecord
  2
*D1
340
0
  0
BLOCK_RECORD
  5
4FE
102
{ACAD_XDICTIONARY
360
500
102
}
330
1
100
AcDbSymbolTableRecord
100
AcDbBlockTableRecord
  2
A$C2E480B53
340
0
  0
BLOCK_RECORD
  5
508
330
1
100
AcDbSymbolTableRecord
100
AcDbBlockTableRecord
  2
*D3
340
0
  0
BLOCK_RECORD
  5
653
102
{ACAD_XDICTIONARY
360
654
102
}
330
1
100
AcDbSymbolTableRecord
100
AcDbBlockTableRecord
  2
shingle
340
0
310
2800000020000000200000000100080000000000000400000000000000000000000000000000000000000000000080000080000000808000800000008000800080800000C0C0C000C0DCC000F0CAA6000020400000206000002080000020A0000020C0000020E00000400000004020000040400000406000004080000040A0
310
000040C0000040E00000600000006020000060400000606000006080000060A0000060C0000060E00000800000008020000080400000806000008080000080A0000080C0000080E00000A0000000A0200000A0400000A0600000A0800000A0A00000A0C00000A0E00000C0000000C0200000C0400000C0600000C0800000C0
310
A00000C0C00000C0E00000E0000000E0200000E0400000E0600000E0800000E0A00000E0C00000E0E00040000000400020004000400040006000400080004000A0004000C0004000E00040200000402020004020400040206000402080004020A0004020C0004020E000404000004040200040404000404060004040800040
310
40A0004040C0004040E00040600000406020004060400040606000406080004060A0004060C0004060E00040800000408020004080400040806000408080004080A0004080C0004080E00040A0000040A0200040A0400040A0600040A0800040A0A00040A0C00040A0E00040C0000040C0200040C0400040C0600040C08000
310
40C0A00040C0C00040C0E00040E0000040E0200040E0400040E0600040E0800040E0A00040E0C00040E0E00080000000800020008000400080006000800080008000A0008000C0008000E00080200000802020008020400080206000802080008020A0008020C0008020E00080400000804020008040400080406000804080
310
008040A0008040C0008040E00080600000806020008060400080606000806080008060A0008060C0008060E00080800000808020008080400080806000808080008080A0008080C0008080E00080A0000080A0200080A0400080A0600080A0800080A0A00080A0C00080A0E00080C0000080C0200080C0400080C0600080C0
310
800080C0A00080C0C00080C0E00080E0000080E0200080E0400080E0600080E0800080E0A00080E0C00080E0E000C0000000C0002000C0004000C0006000C0008000C000A000C000C000C000E000C0200000C0202000C0204000C0206000C0208000C020A000C020C000C020E000C0400000C0402000C0404000C0406000C0
310
408000C040A000C040C000C040E000C0600000C0602000C0604000C0606000C0608000C060A000C060C000C060E000C0800000C0802000C0804000C0806000C0808000C080A000C080C000C080E000C0A00000C0A02000C0A04000C0A06000C0A08000C0A0A000C0A0C000C0A0E000C0C00000C0C02000C0C04000C0C06000
310
C0C08000C0C0A000F0FBFF00A4A0A000808080000000FF0000FF000000FFFF00FF000000FF00FF00FFFF0000FFFFFF0000000000000000000000000000000000000000000000000000000000000000000000000000000000000000000000000000000000000000000000000000000000000000000000000000000000000000
310
00000000000000000000000000000000000000000000000000000000000000000000000000000000000000000000000000000000000000000000000000000000000000000000000000000000000000000000000000000000000000000000000000000000000000000000000000000000000000000000000000000000000000
310
00000000000000000000000000000000000000000000000000000000000000000000000000000000000000000000000000000000000000000000000000000000000000000000000000000000000000000000000000000000000000000000000000000000000000000000000000000000000000000000000000000000000000
310
00000000000000000000000000000000000000000000000000000000000000000000000000000000000000000000000000000000000000000000000000000000000000000000000000000000000000000000000000000000000000000000000000000000000000000000000000000000000000000000000000000000000000
310
0000000000000000000000000000000000000000000000000000000000000000000000FFFFFFFFFFFFFFFFFFFFFFFFFFFFFFFF0000FFFFFFFFFFFFFFFFFFFFFFFFFFFFFFFF00000000000000000000000000000000000000000000000000000000000000000000000000000000000000000000000000000000000000000000
310
00000000000000000000000000000000000000000000000000000000000000000000000000000000000000000000000000000000000000000000000000000000000000000000000000000000000000000000000000000000000000000000000000000000000000000000000000000000000000000000000000000000000000
310
00000000000000000000000000000000000000000000000000000000000000000000000000000000000000000000000000000000000000000000000000000000000000000000000000000000000000000000000000000000000000000000000000000000000000000000000000000000000000000000000000000000000000
310
00000000000000000000000000000000000000000000000000000000000000000000000000000000000000000000000000000000000000000000000000000000000000000000000000000000000000000000000000000000000000000000000000000000000000000000000000000000000000000000000000000000000000
310
0000000000000000000000000000000000000000000000000000000000000000000000000000000000000000000000000000000000000000
102
{BLKREFS
331
66E
102
}
1001
ACAD
1000
DesignCenter Data
1002
{
1070
     1
1070
     4
1002
}
  0
ENDTAB
  0
ENDSEC
  0
SECTION
  2
BLOCKS
  0
BLOCK
  5
20
330
1F
100
AcDbEntity
  8
0
100
AcDbBlockBegin
  2
*Model_Space
 70
     0
 10
0.0
 20
0.0
 30
0.0
  3
*Model_Space
  1

  0
ENDBLK
  5
21
330
1F
100
AcDbEntity
  8
0
100
AcDbBlockEnd
  0
BLOCK
  5
646
330
61E
100
AcDbEntity
 67
     1
  8
0
100
AcDbBlockBegin
  2
*Paper_Space
 70
     0
 10
0.0
 20
0.0
 30
0.0
  3
*Paper_Space
  1

  0
ENDBLK
  5
647
330
61E
100
AcDbEntity
 67
     1
  8
0
100
AcDbBlockEnd
  0
BLOCK
  5
4A6
330
49C
100
AcDbEntity
  8
0
100
AcDbBlockBegin
  2
*D0
 70
     1
 10
0.0
 20
0.0
 30
0.0
  3
*D0
  1

  0
LINE
  5
81F
330
49C
100
AcDbEntity
  8
dim
 62
     0
370
    -2
100
AcDbLine
 10
773.4710444795417
 20
197.8566083129493
 30
0.0
 11
760.2469666420188
 21
220.7613830107843
 31
0.0
  0
LINE
  5
820
330
49C
100
AcDbEntity
  8
dim
 62
     0
370
    -2
100
AcDbLine
 10
1033.278665614873
 20
347.85660831295
 30
0.0
 11
1020.05458777735
 21
370.7613830107848
 31
0.0
  0
LINE
  5
821
330
49C
100
AcDbEntity
  8
dim
 62
     0
370
    -2
100
AcDbLine
 10
765.202093660941
 20
222.1788512560537
 30
0.0
 11
1016.349460758428
 21
367.1788512560543
 31
0.0
  0
SOLID
  5
822
330
49C
100
AcDbEntity
  8
dim
 62
     0
100
AcDbTrace
 10
764.7854269942743
 20
222.9005390925407
 30
0.0
 11
765.6187603276077
 21
221.4571634195667
 31
0.0
 12
760.8719666420188
 22
219.6788512560537
 32
0.0
 13
760.8719666420188
 23
219.6788512560537
 33
0.0
  0
SOLID
  5
823
330
49C
100
AcDbEntity
  8
dim
 62
     0
100
AcDbTrace
 10
1015.932794091761
 20
367.9005390925413
 30
0.0
 11
1016.766127425094
 21
366.4571634195672
 31
0.0
 12
1020.67958777735
 22
369.6788512560543
 32
0.0
 13
1020.67958777735
 23
369.6788512560543
 33
0.0
  0
MTEXT
  5
824
330
49C
100
AcDbEntity
  8
dim
 62
     0
100
AcDbMText
 10
889.619115423447
 20
296.68224823699
 30
0.0
 40
2.5
 41
0.0
 71
     5
 72
     1
  1
300mm of Butynol Roof/Deck membrane
 11
0.8660254037844376
 21
0.5000000000000023
 31
0.0
 73
     1
 44
1.0
1001
ACAD
1000
MTEXTBEGIN
1070
    73
1070
     1
1070
    44
1040
1.0
1070
    74
1070
     0
1000
MTEXTEND
  0
POINT
  5
825
330
49C
100
AcDbEntity
  8
Defpoints
 62
     0
100
AcDbPoint
 10
773.7835444795416
 20
197.3153424355841
 30
0.0
  0
POINT
  5
826
330
49C
100
AcDbEntity
  8
Defpoints
 62
     0
100
AcDbPoint
 10
1033.591165614873
 20
347.3153424355847
 30
0.0
  0
POINT
  5
827
330
49C
100
AcDbEntity
  8
Defpoints
 62
     0
100
AcDbPoint
 10
1020.67958777735
 20
369.6788512560543
 30
0.0
  0
ENDBLK
  5
4A7
330
49C
100
AcDbEntity
  8
0
100
AcDbBlockEnd
  0
BLOCK
  5
4F3
330
4F2
100
AcDbEntity
  8
0
100
AcDbBlockBegin
  2
*D1
 70
     1
 10
0.0
 20
0.0
 30
0.0
  3
*D1
  1

  0
LINE
  5
4F4
330
4F2
100
AcDbEntity
  8
dim
 62
     0
370
    -2
100
AcDbLine
 10
776.4809782543707
 20
192.6432500875285
 30
0.0
 11
767.6477736043916
 21
207.9428093349459
 31
0.0
  0
LINE
  5
4F5
330
4F2
100
AcDbEntity
  8
dim
 62
     0
370
    -2
100
AcDbLine
 10
1036.288599389701
 20
342.6432500875291
 30
0.0
 11
1027.455394739722
 21
357.9428093349465
 31
0.0
  0
LINE
  5
4F6
330
4F2
100
AcDbEntity
  8
dim
 62
     0
370
    -2
100
AcDbLine
 10
772.6029006233136
 20
209.3602775802154
 30
0.0
 11
1023.7502677208
 21
354.3602775802159
 31
0.0
  0
SOLID
  5
4F7
330
4F2
100
AcDbEntity
  8
dim
 62
     0
100
AcDbTrace
 10
772.186233956647
 20
210.0819654167024
 30
0.0
 11
773.0195672899804
 21
208.6385897437284
 31
0.0
 12
768.2727736043916
 22
206.8602775802154
 32
0.0
 13
768.2727736043916
 23
206.8602775802154
 33
0.0
  0
SOLID
  5
4F8
330
4F2
100
AcDbEntity
  8
dim
 62
     0
100
AcDbTrace
 10
1023.333601054134
 20
355.0819654167029
 30
0.0
 11
1024.166934387467
 21
353.6385897437289
 31
0.0
 12
1028.080394739722
 22
356.8602775802159
 32
0.0
 13
1028.080394739722
 23
356.8602775802159
 33
0.0
  0
MTEXT
  5
4F9
330
4F2
100
AcDbEntity
  8
dim
 62
     0
100
AcDbMText
 10
897.0199223858198
 20
283.8636745611518
 30
0.0
 40
2.5
 41
0.0
 71
     5
 72
     1
  1
300mm of Butynol Roof/Deck membrane
 11
0.8660254037844376
 21
0.5000000000000023
 31
0.0
 73
     1
 44
1.0
1001
ACAD
1000
MTEXTBEGIN
1070
    73
1070
     1
1070
    44
1040
1.0
1070
    74
1070
     0
1000
MTEXTEND
  0
POINT
  5
4FA
330
4F2
100
AcDbEntity
  8
Defpoints
 62
     0
100
AcDbPoint
 10
776.7934782543707
 20
192.1019842101632
 30
0.0
  0
POINT
  5
4FB
330
4F2
100
AcDbEntity
  8
Defpoints
 62
     0
100
AcDbPoint
 10
1036.601099389701
 20
342.1019842101638
 30
0.0
  0
POINT
  5
4FC
330
4F2
100
AcDbEntity
  8
Defpoints
 62
     0
100
AcDbPoint
 10
1028.080394739722
 20
356.8602775802159
 30
0.0
  0
ENDBLK
  5
4FD
330
4F2
100
AcDbEntity
  8
0
100
AcDbBlockEnd
  0
BLOCK
  5
502
330
4FE
100
AcDbEntity
  8
0
100
AcDbBlockBegin
  2
A$C2E480B53
 70
     0
 10
0.0
 20
0.0
 30
0.0
  3
A$C2E480B53
  1

  0
DIMENSION
  5
4FF
330
4FE
100
AcDbEntity
  8
dim
100
AcDbDimension
  2
*D1
 10
260.4326212751195
 20
164.7582929444019
 30
0.0
 11
129.3721489212167
 21
91.7616899253378
 31
0.0
 12
-767.6477734646031
 22
-192.101984635814
 32
0.0
 70
    33
  1
<>mm of Butynol Roof/Deck membrane
 71
     5
 42
299.9999999999998
  3
ISO-25
100
AcDbAlignedDimension
 13
9.145704789767592
 23
-0.0000004256507964
 33
0.0
 14
268.9533259250987
 24
149.9999995743498
 34
0.0
1001
ACAD
1000
DSTYLE
1002
{
1070
    41
1040
5.0
1002
}
  0
ENDBLK
  5
503
330
4FE
100
AcDbEntity
  8
0
100
AcDbBlockEnd
  0
BLOCK
  5
512
330
508
100
AcDbEntity
  8
0
100
AcDbBlockBegin
  2
*D3
 70
     1
 10
0.0
 20
0.0
 30
0.0
  3
*D3
  1

  0
LINE
  5
699
330
508
100
AcDbEntity
  8
dim
 62
     0
370
    -2
100
AcDbLine
 10
773.9809782543716
 20
196.9733771064486
 30
0.0
 11
766.5708998990271
 21
209.8080093059716
 31
0.0
  0
LINE
  5
69A
330
508
100
AcDbEntity
  8
dim
 62
     0
370
    -2
100
AcDbLine
 10
860.5835186328155
 20
246.9733771064488
 30
0.0
 11
853.1734402774711
 21
259.8080093059718
 31
0.0
  0
LINE
  5
69B
330
508
100
AcDbEntity
  8
dim
 62
     0
370
    -2
100
AcDbLine
 10
771.5260269179493
 20
211.225477551241
 30
0.0
 11
849.4683132585489
 21
256.2254775512413
 31
0.0
  0
SOLID
  5
69C
330
508
100
AcDbEntity
  8
dim
 62
     0
100
AcDbTrace
 10
771.1093602512826
 20
211.9471653877281
 30
0.0
 11
771.942693584616
 21
210.503789714754
 31
0.0
 12
767.1958998990271
 22
208.725477551241
 32
0.0
 13
767.1958998990271
 23
208.725477551241
 33
0.0
  0
SOLID
  5
69D
330
508
100
AcDbEntity
  8
dim
 62
     0
100
AcDbTrace
 10
849.0516465918821
 20
256.9471653877283
 30
0.0
 11
849.8849799252154
 21
255.5037897147543
 31
0.0
 12
853.7984402774711
 22
258.7254775512413
 32
0.0
 13
853.7984402774711
 23
258.7254775512413
 33
0.0
  0
MTEXT
  5
69E
330
508
100
AcDbEntity
  8
dim
 62
     0
100
AcDbMText
 10
809.2226951017414
 20
235.7390467036063
 30
0.0
 40
2.5
 41
0.0
 71
     5
 72
     1
  1
100mm of Butynol exposure for adhesion
 11
0.8660254037844371
 21
0.5000000000000026
 31
0.0
 73
     1
 44
1.0
1001
ACAD
1000
MTEXTBEGIN
1070
    73
1070
     1
1070
    44
1040
1.0
1070
    74
1070
     0
1000
MTEXTEND
  0
POINT
  5
69F
330
508
100
AcDbEntity
  8
Defpoints
 62
     0
100
AcDbPoint
 10
774.2934782543716
 20
196.4321112290833
 30
0.0
  0
POINT
  5
6A0
330
508
100
AcDbEntity
  8
Defpoints
 62
     0
100
AcDbPoint
 10
860.8960186328156
 20
246.4321112290836
 30
0.0
  0
POINT
  5
6A1
330
508
100
AcDbEntity
  8
Defpoints
 62
     0
100
AcDbPoint
 10
853.7984402774711
 20
258.7254775512413
 30
0.0
  0
ENDBLK
  5
513
330
508
100
AcDbEntity
  8
0
100
AcDbBlockEnd
  0
BLOCK
  5
656
330
653
100
AcDbEntity
  8
0
100
AcDbBlockBegin
  2
shingle
 70
     0
 10
0.0
 20
0.0
 30
0.0
  3
shingle
  1

  0
LINE
  5
657
330
653
100
AcDbEntity
  8
0.13
100
AcDbLine
 10
2207.062436730225
 20
929.8168642686144
 30
0.0
 11
2207.062436730226
 21
931.3168971615478
 31
0.0
  0
LINE
  5
658
330
653
100
AcDbEntity
  8
0.13
100
AcDbLine
 10
2207.062436730226
 20
931.3168971615478
 30
0.0
 11
2358.062436730225
 21
930.3168971615479
 31
0.0
  0
LINE
  5
659
102
{ACAD_REACTORS
330
661
102
}
330
653
100
AcDbEntity
  8
0.13
100
AcDbLine
 10
2358.062436730225
 20
930.3168971615479
 30
0.0
 11
2358.062436730225
 21
928.0668971615479
 31
0.0
  0
LINE
  5
65A
102
{ACAD_REACTORS
330
661
102
}
330
653
100
AcDbEntity
  8
0.13
100
AcDbLine
 10
2507.062436730225
 20
928.0668971615478
 30
0.0
 11
2507.062436730226
 21
927.3168971615477
 31
0.0
  0
LINE
  5
65B
102
{ACAD_REACTORS
330
661
102
}
330
653
100
AcDbEntity
  8
0.13
100
AcDbLine
 10
2507.062436730226
 20
927.3168971615477
 30
0.0
 11
2356.062436730225
 21
927.3168971615479
 31
0.0
  0
LINE
  5
65C
102
{ACAD_REACTORS
330
661
102
}
330
653
100
AcDbEntity
  8
0.13
100
AcDbLine
 10
2356.062436730225
 20
927.3168971615479
 30
0.0
 11
2356.062436730225
 21
928.8301093017269
 31
0.0
  0
LINE
  5
65D
102
{ACAD_REACTORS
330
661
102
}
330
653
100
AcDbEntity
  8
0.13
100
AcDbLine
 10
2207.062436730225
 20
929.8168642686144
 30
0.0
 11
2358.05250317322
 21
928.8169300537601
 31
0.0
  0
HATCH
  5
65E
330
653
100
AcDbEntity
  8
light grey
100
AcDbHatch
 10
0.0
 20
0.0
 30
0.0
210
0.0
220
0.0
230
1.0
  2
SOLID
 70
     1
 71
     0
 91
        1
 92
        7
 72
     0
 73
     1
 93
        4
 10
2358.062436730225
 20
930.3168971615479
 10
2207.062436730226
 20
931.3168971615478
 10
2207.062436730225
 20
929.8168642686141
 10
2358.062436730225
 20
928.8168642686143
 97
        0
 75
     0
 76
     1
 47
0.1913470343855104
 98
        1
 10
2270.164505482017
 20
930.0187568677419
  0
HATCH
  5
65F
330
653
100
AcDbEntity
  8
0.05
100
AcDbHatch
 10
0.0
 20
0.0
 30
0.0
210
0.0
220
0.0
230
1.0
  2
AR-SAND
 70
     0
 71
     0
 91
        1
 92
        7
 72
     0
 73
     1
 93
        4
 10
2358.062436730225
 20
930.3168971615479
 10
2207.062436730226
 20
931.3168971615478
 10
2207.062436730225
 20
929.8168642686141
 10
2358.062436730225
 20
928.8168642686143
 97
        0
 75
     0
 76
     1
 52
0.0
 41
0.05
 77
     0
 78
     4
 53
37.5
 43
2083.441267449319
 44
495.184158424195
 45
-0.0800015647992023
 46
2.447066186646711
 79
     6
 49
0.0
 49
-1.9304
 49
0.0
 49
-2.159
 49
0.0
 49
-2.06375
 53
7.499999999999999
 43
2083.441267449319
 44
495.184158424195
 45
2.247616415690013
 46
3.584125502841771
 79
     6
 49
0.0
 49
-1.0414
 49
0.0
 49
-1.7399
 49
0.0
 49
-0.6667500000000001
 53
327.5
 43
2081.879167449319
 44
495.184158424195
 45
3.95496185120729
 46
0.0071859233927285
 79
     6
 49
0.0
 49
-0.635
 49
0.0
 49
-2.286
 49
0.0
 49
-2.9845
 53
317.5
 43
2081.879167449319
 44
495.184158424195
 45
3.817782262361486
 46
1.114646616286081
 79
     6
 49
0.0
 49
-0.3175
 49
0.0
 49
-1.498599999999999
 49
0.0
 49
-1.7145
 47
0.1913470343855104
 98
        1
 10
2272.846028478551
 20
930.0187568677419
  0
LINE
  5
660
102
{ACAD_REACTORS
330
661
102
}
330
653
100
AcDbEntity
  8
0.13
100
AcDbLine
 10
2507.062436730225
 20
928.0668971615478
 30
0.0
 11
2358.062436730225
 21
928.0668971615479
 31
0.0
  0
HATCH
  5
661
330
653
100
AcDbEntity
  8
0.05
100
AcDbHatch
 10
0.0
 20
0.0
 30
0.0
210
0.0
220
0.0
230
1.0
  2
SOLID
 70
     1
 71
     1
 91
        1
 92
        7
 72
     0
 73
     1
 93
        6
 10
2507.062436730225
 20
928.0668971615478
 10
2358.062436730225
 20
928.0668971615479
 10
2358.062436730225
 20
928.8168642686143
 10
2356.062436730225
 20
928.830109301727
 10
2356.062436730225
 20
927.3168971615479
 10
2507.062436730226
 20
927.3168971615477
 97
        6
330
660
330
659
330
65D
330
65C
330
65B
330
65A
 75
     0
 76
     1
 47
0.1818980469777868
 98
        1
 10
2415.507870061291
 20
927.4697748740234
  0
ENDBLK
  5
662
330
653
100
AcDbEntity
  8
0
100
AcDbBlockEnd
  0
ENDSEC
  0
SECTION
  2
ENTITIES
  0
LINE
  5
2C5
330
1F
100
AcDbEntity
  8
0.20
100
AcDbLine
 10
776.1524621029942
 20
172.1019842101632
 30
0.0
 11
1053.606833373629
 21
332.2903401511035
 31
0.0
  0
LINE
  5
2C6
330
1F
100
AcDbEntity
  8
0.20
100
AcDbLine
 10
802.947381346102
 20
72.10198421016324
 30
0.0
 11
1053.606833373629
 21
216.8202863131811
 31
0.0
  0
LINE
  5
2C7
330
1F
100
AcDbEntity
  8
0.20
100
AcDbLine
 10
776.15246210299
 20
189.4224922858518
 30
0.0
 11
1053.60683337363
 21
349.6108482267942
 31
0.0
  0
ARC
  5
2D0
330
1F
100
AcDbEntity
  8
0.15 - dashed Underlay
100
AcDbCircle
 10
1041.240200748942
 20
348.0487232817339
 30
0.0
 40
3.330760600000946
100
AcDbArc
 50
263.2913559702974
 51
299.2515528261406
  0
LINE
  5
2D1
330
1F
100
AcDbEntity
  8
0.30
100
AcDbLine
 10
776.7934782543707
 20
192.1019842101632
 30
0.0
 11
1036.601099389702
 21
342.1019842101638
 31
0.0
  0
ARC
  5
2DC
330
1F
100
AcDbEntity
  8
0.15 - dashed Underlay
100
AcDbCircle
 10
1040.851099389702
 20
334.7407682779959
 30
0.0
 40
10.0
100
AcDbArc
 50
90.0
 51
120.0000000000008
  0
MTEXT
  5
2DD
330
1F
100
AcDbEntity
  8
0.20
100
AcDbMText
 10
926.3861986953633
 20
205.9120076928807
 30
0.0
 40
4.0
 41
240.6666666666667
 71
     1
 72
     5
  1
ROOF FRAME
 11
0.8660254037844387
 21
0.5
 31
0.0
 73
     1
 44
1.0
1001
ACAD
1000
MTEXTBEGIN
1070
    73
1070
     1
1070
    44
1040
1.0
1070
    74
1070
     0
1000
MTEXTEND
  0
ARC
  5
2FB
330
1F
100
AcDbEntity
  8
0.13
100
AcDbCircle
 10
1066.379647886675
 20
325.3826286168635
 30
0.0
 40
27.36867961903157
100
AcDbArc
 50
119.9330367111893
 51
183.1325776220245
  0
ARC
  5
2FC
330
1F
100
AcDbEntity
  8
0.13
100
AcDbCircle
 10
1049.059139810986
 20
315.3826286168644
 30
0.0
 40
27.36867961903157
100
AcDbArc
 50
119.9330367111893
 51
183.1325776220245
  0
ARC
  5
2FD
330
1F
100
AcDbEntity
  8
0.13
100
AcDbCircle
 10
1031.738631735297
 20
305.3826286168644
 30
0.0
 40
27.36867961903157
100
AcDbArc
 50
119.9330367111893
 51
183.1325776220245
  0
ARC
  5
2FE
330
1F
100
AcDbEntity
  8
0.13
100
AcDbCircle
 10
1014.418123659608
 20
295.3826286168644
 30
0.0
 40
27.36867961903157
100
AcDbArc
 50
119.9330367111893
 51
183.1325776220245
  0
ARC
  5
2FF
330
1F
100
AcDbEntity
  8
0.13
100
AcDbCircle
 10
997.0976155839197
 20
285.3826286168626
 30
0.0
 40
27.36867961903157
100
AcDbArc
 50
119.9330367111893
 51
183.1325776220245
  0
ARC
  5
300
330
1F
100
AcDbEntity
  8
0.13
100
AcDbCircle
 10
979.7771075082309
 20
275.3826286168626
 30
0.0
 40
27.36867961903157
100
AcDbArc
 50
119.9330367111893
 51
183.1325776220245
  0
ARC
  5
301
330
1F
100
AcDbEntity
  8
0.13
100
AcDbCircle
 10
962.456599432542
 20
265.3826286168635
 30
0.0
 40
27.36867961903157
100
AcDbArc
 50
119.9330367111893
 51
183.1325776220245
  0
ARC
  5
302
330
1F
100
AcDbEntity
  8
0.13
100
AcDbCircle
 10
945.1360913568533
 20
255.3826286168626
 30
0.0
 40
27.36867961903157
100
AcDbArc
 50
119.9330367111893
 51
183.1325776220245
  0
ARC
  5
303
330
1F
100
AcDbEntity
  8
0.13
100
AcDbCircle
 10
927.8155832811645
 20
245.3826286168626
 30
0.0
 40
27.36867961903157
100
AcDbArc
 50
119.9330367111893
 51
183.1325776220245
  0
ARC
  5
304
330
1F
100
AcDbEntity
  8
0.13
100
AcDbCircle
 10
910.4950752054756
 20
235.3826286168626
 30
0.0
 40
27.36867961903157
100
AcDbArc
 50
119.9330367111893
 51
183.1325776220245
  0
ARC
  5
305
330
1F
100
AcDbEntity
  8
0.13
100
AcDbCircle
 10
893.1745671297868
 20
225.3826286168626
 30
0.0
 40
27.36867961903157
100
AcDbArc
 50
119.9330367111893
 51
183.1325776220245
  0
ARC
  5
306
330
1F
100
AcDbEntity
  8
0.13
100
AcDbCircle
 10
875.8540590540979
 20
215.3826286168626
 30
0.0
 40
27.36867961903157
100
AcDbArc
 50
119.9330367111893
 51
183.1325776220245
  0
ARC
  5
307
330
1F
100
AcDbEntity
  8
0.13
100
AcDbCircle
 10
858.5335509784091
 20
205.3826286168626
 30
0.0
 40
27.36867961903157
100
AcDbArc
 50
119.9330367111893
 51
183.1325776220245
  0
ARC
  5
308
330
1F
100
AcDbEntity
  8
0.13
100
AcDbCircle
 10
841.2130429027202
 20
195.3826286168625
 30
0.0
 40
27.36867961903157
100
AcDbArc
 50
119.9330367111893
 51
183.1325776220245
  0
ARC
  5
309
330
1F
100
AcDbEntity
  8
0.13
100
AcDbCircle
 10
823.8925348270313
 20
185.3826286168626
 30
0.0
 40
27.36867961903157
100
AcDbArc
 50
119.9330367111893
 51
183.1325776220245
  0
ARC
  5
30A
330
1F
100
AcDbEntity
  8
0.13
100
AcDbCircle
 10
806.5720267513425
 20
175.3826286168625
 30
0.0
 40
27.36867961903157
100
AcDbArc
 50
119.9330367111893
 51
164.9159944503322
  0
LINE
  5
319
330
1F
100
AcDbEntity
  8
0.20
100
AcDbLine
 10
776.1524621029898
 20
190.1019842101631
 30
0.0
 11
706.5257072722165
 21
190.1019842101632
 31
0.0
  0
LINE
  5
31A
330
1F
100
AcDbEntity
  8
0.30
100
AcDbLine
 10
776.7934782543707
 20
192.1019842101632
 30
0.0
 11
706.5257072722165
 21
192.1019842101632
 31
0.0
  0
LINE
  5
31F
330
1F
100
AcDbEntity
  8
0.20
100
AcDbLine
 10
776.1524621029942
 20
172.1019842101632
 30
0.0
 11
802.947381346102
 21
72.10198421016324
 31
0.0
  0
LINE
  5
320
330
1F
100
AcDbEntity
  8
0.20
100
AcDbLine
 10
776.1524621029942
 20
172.1019842101632
 30
0.0
 11
776.1524621029898
 21
190.1019842101631
 31
0.0
  0
LINE
  5
321
330
1F
100
AcDbEntity
  8
0.20
100
AcDbLine
 10
783.6524621029937
 20
176.4321112290834
 30
0.0
 11
776.15246210299
 21
189.4224922858518
 31
0.0
  0
ARC
  5
322
330
1F
100
AcDbEntity
  8
0.13
100
AcDbCircle
 10
781.3166279397155
 20
162.7333232829732
 30
0.0
 40
27.36867961903157
100
AcDbArc
 50
100.8762793286924
 51
159.9821290745696
  0
ARC
  5
323
330
1F
100
AcDbEntity
  8
0.13
100
AcDbCircle
 10
761.3166279397155
 20
162.733323282973
 30
0.0
 40
27.36867961903157
100
AcDbArc
 50
89.93303671133173
 51
159.9821290745693
  0
ARC
  5
324
330
1F
100
AcDbEntity
  8
0.13
100
AcDbCircle
 10
741.3166279397155
 20
162.7333232829735
 30
0.0
 40
27.36867961903157
100
AcDbArc
 50
89.93303671133173
 51
159.9821290745703
  0
ARC
  5
325
330
1F
100
AcDbEntity
  8
0.13
100
AcDbCircle
 10
721.3166279397155
 20
162.7333232829732
 30
0.0
 40
27.36867961903157
100
AcDbArc
 50
89.93303671133173
 51
122.7130776860651
  0
ARC
  5
334
330
1F
100
AcDbEntity
  8
0.13
100
AcDbCircle
 10
801.3166279397156
 20
162.7333232829729
 30
0.0
 40
27.36867961903157
100
AcDbArc
 50
156.8459852995295
 51
159.982129074569
  0
MTEXT
  5
356
330
1F
100
AcDbEntity
  8
0.20
100
AcDbMText
 10
921.1602138299193
 20
342.8737486292406
 30
0.0
 40
4.0
 41
79.0
 71
     3
 72
     5
  1
Pabco Asphalt shingle over waterproof underlay on 15mm plywood on roof frame.
 73
     1
 44
1.0
1001
ACAD
1000
MTEXTBEGIN
1070
    73
1070
     1
1070
    44
1040
1.0
1070
    74
1070
     0
1000
MTEXTEND
  0
LEADER
  5
357
330
1F
100
AcDbEntity
  8
dim
100
AcDbLeader
  3
ISO-25
 76
     3
 10
948.6431852590078
 20
299.0178385881788
 30
0.0
 10
948.6293894872968
 20
332.8568180935393
 30
0.0
 10
923.2119901229733
 20
332.8568180935393
 30
0.0
211
-1.0
221
0.0
231
0.0
1001
ACAD
1000
DSTYLE
1002
{
1070
    41
1040
5.0
1002
}
  0
LWPOLYLINE
  5
358
330
1F
100
AcDbEntity
  8
0.20
100
AcDbPolyline
 90
        4
 70
     1
 43
0.0
 10
821.1691226013899
 20
146.1308410398637
 10
798.6691226013899
 20
185.1019842101636
 10
876.6114089419861
 20
230.1019842101637
 10
899.1114089419861
 20
191.1308410398637
  0
LINE
  5
359
330
1F
100
AcDbEntity
  8
0.13
100
AcDbLine
 10
876.6114089419861
 20
230.1019842101637
 30
0.0
 11
821.1691226013899
 21
146.1308410398637
 31
0.0
  0
LWPOLYLINE
  5
35A
330
1F
100
AcDbEntity
  8
0.20
100
AcDbPolyline
 90
        4
 70
     0
 43
0.0
 10
706.5257072722165
 20
172.1019842101621
 10
761.3486145257011
 20
172.1019842101632
 10
761.3486145257011
 20
127.1019842101632
 10
706.5257072722183
 20
127.1019842101616
  0
LINE
  5
35B
330
1F
100
AcDbEntity
  8
0.13
100
AcDbLine
 10
761.3486145257011
 20
172.1019842101632
 30
0.0
 11
706.5257072722164
 21
144.6905305834192
 31
0.0
  0
MTEXT
  5
35C
102
{ACAD_XDICTIONARY
360
932
102
}
330
1F
100
AcDbEntity
  8
0.20
100
AcDbMText
 10
945.4107002002128
 20
120.2936978521129
 30
0.0
 40
4.0
 41
107.8814814814814
 71
     1
 72
     5
  3
Roofing Underlay MUST have 100mm of Butynol membrane exposure for water-tight adhesion of Asphalt Shingles directly onto Butynol membrane.\P\PAll carpentry works and materials shall be provided by the main contractor.\P\PFor roofing underlay & plywoo
  1
d installations, refer to Installation Guide bulletin.
 73
     1
 44
1.0
1001
ACAD
1000
MTEXTBEGIN
1070
    73
1070
     1
1070
    44
1040
1.0
1070
    74
1070
     0
1000
MTEXTEND
  0
ARC
  5
35D
330
1F
100
AcDbEntity
  8
0
100
AcDbCircle
 10
924.4674787533185
 20
111.2307662601597
 30
0.0
 40
11.10339015422855
100
AcDbArc
 50
105.6736175970558
 51
70.61330301493353
  0
ARC
  5
35E
330
1F
100
AcDbEntity
  8
0
100
AcDbCircle
 10
924.4674787533185
 20
111.2307662601597
 30
0.0
 40
9.603390154228552
100
AcDbArc
 50
106.5933313325584
 51
69.05604189493231
  0
LINE
  5
35F
330
1F
100
AcDbEntity
  8
0
100
AcDbLine
 10
923.5785231191185
 20
109.7156151655056
 30
0.0
 11
926.1383838794428
 21
109.7156151655056
 31
0.0
  0
LINE
  5
360
330
1F
100
AcDbEntity
  8
0
100
AcDbLine
 10
926.1383838794428
 20
109.7156151655056
 30
0.0
 11
928.1531616665487
 21
121.7045914630239
 31
0.0
  0
LINE
  5
361
330
1F
100
AcDbEntity
  8
0
100
AcDbLine
 10
923.5785231191185
 20
109.7156151655056
 30
0.0
 11
921.4678186642631
 21
121.9212906751331
 31
0.0
  0
SPLINE
  5
362
330
1F
100
AcDbEntity
  8
0
100
AcDbSpline
210
0.0
220
0.0
230
1.0
 70
     8
 71
     3
 72
    14
 73
    10
 74
     8
 42
0.0000000001
 43
0.0000000001
 44
0.0000000001
 40
0.0
 40
0.0
 40
0.0
 40
0.0
 40
1.153360054430621
 40
2.12844844136094
 40
2.89148190733823
 40
5.571474202971968
 40
6.397548371861244
 40
7.165475926971751
 40
8.492053936514505
 40
8.492053936514505
 40
8.492053936514505
 40
8.492053936514505
 10
921.4678186642631
 20
121.9212906751331
 30
0.0
 10
921.6033543897925
 20
122.2857636995565
 30
0.0
 10
921.8534764593437
 20
122.9583741630212
 30
0.0
 10
922.6704530825015
 20
123.5999791397666
 30
0.0
 10
924.1595406550286
 20
123.6960061189549
 30
0.0
 10
925.5951231560064
 20
123.932459307071
 30
0.0
 10
926.9792212153273
 20
123.459587066044
 30
0.0
 10
927.6908999921284
 20
122.7571281853855
 30
0.0
 10
927.9739125606322
 20
122.112728838168
 30
0.0
 10
928.1531616665487
 20
121.7045914630239
 30
0.0
 11
921.4678186642631
 21
121.9212906751331
 31
0.0
 11
921.977567791011
 21
122.9558897486567
 31
0.0
 11
922.7601787646017
 21
123.5375403536955
 31
0.0
 11
923.5133161166704
 21
123.6600319824715
 31
0.0
 11
926.1930799023939
 21
123.6950285163163
 31
0.0
 11
926.9637327326417
 21
123.3975512100608
 31
0.0
 11
927.5242054666559
 21
122.8725911693675
 31
0.0
 11
928.1531616665487
 21
121.7045914630239
 31
0.0
  0
CIRCLE
  5
363
330
1F
100
AcDbEntity
  8
0
100
AcDbCircle
 10
924.7876863410093
 20
105.9890761851816
 30
0.0
 40
2.569476904230562
  0
HATCH
  5
364
330
1F
100
AcDbEntity
  8
0
100
AcDbHatch
 10
0.0
 20
0.0
 30
0.0
210
0.0
220
0.0
230
1.0
  2
SOLID
 70
     1
 71
     0
 91
        1
 92
        7
 72
     1
 73
     1
 93
        4
 10
928.1531616665487
 20
121.7045914630239
 42
0.0
 10
927.9002550151599
 20
120.1996652779039
 42
-6.050784953660254
 10
921.7249730731673
 20
120.4342310994834
 42
0.0
 10
921.4678186642631
 20
121.9212906751331
 42
6.48575145239653
 97
        0
 75
     0
 76
     1
 47
0.1251288764846155
 98
        1
 10
914.1757805632005
 20
113.0709911389454
  0
MTEXT
  5
365
330
1F
100
AcDbEntity
  8
0.20
100
AcDbMText
 10
772.4790532931547
 20
60.23182026371796
 30
0.0
 40
4.0
 41
67.7090909090909
 71
     3
 72
     5
  1
Nogs must be provided by the main contractor as per this drawing, to allow for fixing of plywood.
 73
     1
 44
1.0
1001
ACAD
1000
MTEXTBEGIN
1070
    73
1070
     1
1070
    44
1040
1.0
1070
    74
1070
     0
1000
MTEXTEND
  0
LEADER
  5
366
330
1F
100
AcDbEntity
  8
dim
100
AcDbLeader
  3
ISO-25
 76
     3
 10
821.1977249637747
 20
146.1473546214861
 30
0.0
 10
787.4767405663042
 20
46.7325413448109
 30
0.0
 10
775.0004874254773
 20
46.7325413448109
 30
0.0
211
-1.0
221
0.0
231
0.0
1001
ACAD
1000
DSTYLE
1002
{
1070
    41
1040
5.0
1002
}
  0
LEADER
  5
367
330
1F
100
AcDbEntity
  8
dim
100
AcDbLeader
  3
ISO-25
 76
     3
 10
761.3486145257011
 20
127.1019842101632
 30
0.0
 10
787.4767405663042
 20
46.7325413448109
 30
0.0
 10
775.0004874254773
 20
46.7325413448109
 30
0.0
211
-1.0
221
0.0
231
0.0
1001
ACAD
1000
DSTYLE
1002
{
1070
    41
1040
5.0
1002
}
  0
LINE
  5
3FE
330
1F
100
AcDbEntity
  8
dim
100
AcDbLine
 10
706.5257072722165
 20
58.60193446644007
 30
0.0
 11
706.5257072722183
 21
129.4316404324006
 31
0.0
  0
LINE
  5
3FF
330
1F
100
AcDbEntity
  8
dim
100
AcDbLine
 10
706.5257072722165
 20
135.2051431242967
 30
0.0
 11
706.5257072722165
 21
206.0348490902531
 31
0.0
  0
LINE
  5
400
330
1F
100
AcDbEntity
  8
dim
100
AcDbLine
 10
711.5257072722129
 20
132.3183917783456
 30
0.0
 11
701.5257072722183
 21
132.3183917783474
 31
0.0
  0
LINE
  5
401
330
1F
100
AcDbEntity
  8
dim
100
AcDbLine
 10
706.5257072722183
 20
129.431640432401
 30
0.0
 11
711.5257072722129
 21
132.3183917783456
 31
0.0
  0
LINE
  5
402
330
1F
100
AcDbEntity
  8
dim
100
AcDbLine
 10
701.5257072722183
 20
132.3183917783474
 30
0.0
 11
706.5257072722183
 21
135.2051431242973
 31
0.0
  0
LINE
  5
413
330
1F
100
AcDbEntity
  8
dim
100
AcDbLine
 10
1053.606833373629
 20
205.6481646222376
 30
0.0
 11
1053.606833373631
 21
282.6462518635894
 31
0.0
  0
LINE
  5
414
102
{ACAD_REACTORS
330
6C1
102
}
330
1F
100
AcDbEntity
  8
dim
100
AcDbLine
 10
1053.606833373629
 20
288.4197545554855
 30
0.0
 11
1053.606833373629
 21
366.5374721709448
 31
0.0
  0
LINE
  5
415
330
1F
100
AcDbEntity
  8
dim
100
AcDbLine
 10
1058.606833373626
 20
285.5330032095344
 30
0.0
 11
1048.606833373631
 21
285.5330032095362
 31
0.0
  0
LINE
  5
416
330
1F
100
AcDbEntity
  8
dim
100
AcDbLine
 10
1053.606833373631
 20
282.6462518635899
 30
0.0
 11
1058.606833373626
 21
285.5330032095344
 31
0.0
  0
LINE
  5
417
330
1F
100
AcDbEntity
  8
dim
100
AcDbLine
 10
1048.606833373631
 20
285.5330032095362
 30
0.0
 11
1053.606833373631
 21
288.4197545554862
 31
0.0
  0
LINE
  5
470
330
1F
100
AcDbEntity
  8
0.15 - dashed Underlay
  6
DASHED2
100
AcDbLine
 10
862.6460186328143
 20
243.4010223158399
 30
0.0
 11
1035.851099389702
 21
343.4010223158403
 31
0.0
  0
LINE
  5
479
330
1F
100
AcDbEntity
  8
0.15 - dashed Underlay
100
AcDbLine
 10
1042.867759888112
 20
345.1426920666536
 30
0.0
 11
1053.606833373629
 21
351.3428990343641
 31
0.0
  0
DIMENSION
  5
49B
330
1F
100
AcDbEntity
  8
dim
100
AcDbDimension
  2
*D0
 10
1020.67958777735
 20
369.6788512560543
 30
0.0
 11
890.7757772096843
 21
294.6788512560539
 31
0.0
 70
   161
  1
<>mm of Butynol Roof/Deck membrane
 71
     5
 42
299.9999999999999
  3
ISO-25
100
AcDbAlignedDimension
 13
773.7835444795416
 23
197.3153424355841
 33
0.0
 14
1033.591165614873
 24
347.3153424355847
 34
0.0
1001
ACAD
1000
DSTYLE
1002
{
1070
    41
1040
5.0
1002
}
  0
DIMENSION
  5
505
330
1F
100
AcDbEntity
  8
dim
100
AcDbDimension
  2
*D3
 10
853.7984402774711
 20
258.7254775512413
 30
0.0
 11
810.4132148674807
 21
233.6770059819307
 31
0.0
 70
   161
  1
<>mm of Butynol exposure for adhesion
 71
     5
 42
100.0000000000001
  3
ISO-25
100
AcDbAlignedDimension
 13
774.2934782543717
 23
196.4321112290833
 33
0.0
 14
860.8960186328156
 24
246.4321112290836
 34
0.0
1001
ACAD
1000
DSTYLE
1002
{
1070
    41
1040
5.0
1002
}
  0
MTEXT
  5
580
330
1F
100
AcDbEntity
  8
0.20
100
AcDbMText
 10
749.608403011114
 20
231.9582200883786
 30
0.0
 40
4.0
 41
60.43636363636363
 71
     3
 72
     5
  1
Butynol or Nuroply membrane over H3 18mm Plywood on roof frame.
 73
     1
 44
1.0
1001
ACAD
1000
MTEXTBEGIN
1070
    73
1070
     1
1070
    44
1040
1.0
1070
    74
1070
     0
1000
MTEXTEND
  0
MTEXT
  5
581
102
{ACAD_XDICTIONARY
360
934
102
}
330
1F
100
AcDbEntity
  8
0.20
100
AcDbMText
 10
769.7175135702931
 20
260.894302237029
 30
0.0
 40
4.000000000000003
 41
70.40000000000006
 71
     3
 72
     5
  1
Refer to Specifications for conditions of roofs/decks with pitch less than 10.5\U+00B0.
 73
     1
 44
1.0
1001
ACAD
1000
MTEXTBEGIN
1070
    73
1070
     1
1070
    44
1040
1.0
1070
    74
1070
     0
1000
MTEXTEND
  0
ARC
  5
582
330
1F
100
AcDbEntity
  8
0
100
AcDbCircle
 10
785.2324187178878
 20
250.2846192156867
 30
0.0
 40
11.10339015422855
100
AcDbArc
 50
105.6736175970558
 51
70.61330301493359
  0
ARC
  5
583
330
1F
100
AcDbEntity
  8
0
100
AcDbCircle
 10
785.2324187178878
 20
250.2846192156867
 30
0.0
 40
9.603390154228552
100
AcDbArc
 50
106.5933313325584
 51
69.05604189493414
  0
LINE
  5
584
330
1F
100
AcDbEntity
  8
0
100
AcDbLine
 10
784.3434630836876
 20
248.7694681210326
 30
0.0
 11
786.903323844012
 21
248.7694681210326
 31
0.0
  0
LINE
  5
585
330
1F
100
AcDbEntity
  8
0
100
AcDbLine
 10
786.903323844012
 20
248.7694681210326
 30
0.0
 11
788.9181016311181
 21
260.7584444185509
 31
0.0
  0
LINE
  5
586
330
1F
100
AcDbEntity
  8
0
100
AcDbLine
 10
784.3434630836876
 20
248.7694681210326
 30
0.0
 11
782.2327586288324
 21
260.9751436306601
 31
0.0
  0
SPLINE
  5
587
330
1F
100
AcDbEntity
  8
0
100
AcDbSpline
210
0.0
220
0.0
230
1.0
 70
     8
 71
     3
 72
    14
 73
    10
 74
     8
 42
0.0000000001
 43
0.0000000001
 44
0.0000000001
 40
0.0
 40
0.0
 40
0.0
 40
0.0
 40
1.153360054430621
 40
2.12844844136094
 40
2.89148190733823
 40
5.571474202972082
 40
6.397548371861358
 40
7.165475926971865
 40
8.492053936514619
 40
8.492053936514619
 40
8.492053936514619
 40
8.492053936514619
 10
782.2327586288324
 20
260.9751436306601
 30
0.0
 10
782.3682943543615
 20
261.3396166550835
 30
0.0
 10
782.6184164239125
 20
262.0122271185481
 30
0.0
 10
783.4353930470711
 20
262.6538320952936
 30
0.0
 10
784.9244806195973
 20
262.7498590744818
 30
0.0
 10
786.3600631205756
 20
262.986312262598
 30
0.0
 10
787.7441611798968
 20
262.5134400215709
 30
0.0
 10
788.4558399566976
 20
261.8109811409124
 30
0.0
 10
788.7388525252014
 20
261.166581793695
 30
0.0
 10
788.9181016311181
 20
260.7584444185509
 30
0.0
 11
782.2327586288324
 21
260.9751436306601
 31
0.0
 11
782.7425077555802
 21
262.0097427041837
 31
0.0
 11
783.5251187291709
 21
262.5913933092224
 31
0.0
 11
784.2782560812396
 21
262.7138849379985
 31
0.0
 11
786.9580198669632
 21
262.7488814718433
 31
0.0
 11
787.728672697211
 21
262.4514041655877
 31
0.0
 11
788.2891454312252
 21
261.9264441248945
 31
0.0
 11
788.9181016311181
 21
260.7584444185509
 31
0.0
  0
CIRCLE
  5
588
330
1F
100
AcDbEntity
  8
0
100
AcDbCircle
 10
785.5526263055785
 20
245.0429291407086
 30
0.0
 40
2.569476904230562
  0
HATCH
  5
589
330
1F
100
AcDbEntity
  8
0
100
AcDbHatch
 10
0.0
 20
0.0
 30
0.0
210
0.0
220
0.0
230
1.0
  2
SOLID
 70
     1
 71
     0
 91
        1
 92
        7
 72
     1
 73
     1
 93
        4
 10
788.9181016311181
 20
260.7584444185509
 42
0.0
 10
788.6651949797292
 20
259.2535182334309
 42
-6.050784953660254
 10
782.4899130377365
 20
259.4880840550104
 42
0.0
 10
782.2327586288324
 20
260.9751436306601
 42
6.48575145239653
 97
        0
 75
     0
 76
     1
 47
0.1251288764846155
 98
        1
 10
774.9407205277697
 20
252.1248440944723
  0
LEADER
  5
5AA
330
1F
100
AcDbEntity
  8
dim
100
AcDbLeader
  3
ISO-25
 76
     3
 10
757.0643130194318
 20
192.1019842101632
 30
0.0
 10
757.0556069983788
 20
219.9348528117863
 30
0.0
 10
751.6117847020231
 20
219.9348528117863
 30
0.0
211
-1.0
221
0.0
231
0.0
1001
ACAD
1000
DSTYLE
1002
{
1070
    41
1040
5.0
1002
}
  0
LINE
  5
5B1
330
1F
100
AcDbEntity
  8
0.20
100
AcDbLine
 10
776.1524621029942
 20
172.1019842101632
 30
0.0
 11
706.5257072722165
 21
172.1019842101632
 31
0.0
  0
LINE
  5
5B2
330
1F
100
AcDbEntity
  8
0.20
100
AcDbLine
 10
802.947381346102
 20
72.10198421016324
 30
0.0
 11
706.5257072722165
 21
72.10198421016324
 31
0.0
  0
INSERT
  5
66E
330
1F
100
AcDbEntity
  8
0.05
100
AcDbBlockReference
  2
shingle
 10
-672.4202111116105
 20
-1711.911148244067
 30
0.0
 50
30.0
  0
MTEXT
  5
6BF
330
1F
100
AcDbEntity
  8
0.20
100
AcDbMText
 10
934.1815154648676
 20
240.6690060766911
 30
0.0
 40
4.0
 41
79.0
 71
     7
 72
     5
  1
Underlay
 73
     1
 44
1.0
1001
ACAD
1000
MTEXTBEGIN
1070
    73
1070
     1
1070
    44
1040
1.0
1070
    74
1070
     0
1000
MTEXTEND
  0
LEADER
  5
6C0
330
1F
100
AcDbEntity
  8
dim
100
AcDbLeader
  3
ISO-25
 76
     3
 10
906.7021740228808
 20
268.836855489755
 30
0.0
 10
906.7123398074901
 20
243.9016953368672
 30
0.0
 10
932.1297391718136
 20
243.9016953368672
 30
0.0
1001
ACAD
1000
DSTYLE
1002
{
1070
    41
1040
5.0
1002
}
  0
HATCH
  5
6C1
330
1F
100
AcDbEntity
  8
light grey
100
AcDbHatch
 10
0.0
 20
0.0
 30
0.0
210
0.0
220
0.0
230
1.0
  2
SOLID
 70
     1
 71
     0
 91
        1
 92
        1
 93
        4
 72
     1
 10
1053.606833373629
 20
358.1277568923914
 11
1053.606833373629
 21
359.8532482450448
 72
     1
 10
1053.606833373629
 20
359.8532482450448
 11
1036.565201004846
 21
350.1641620366452
 72
     1
 10
1036.565201004846
 20
350.1641620366452
 11
1037.315217451312
 21
348.865095444852
 72
     1
 10
1037.315217451312
 20
348.865095444852
 11
1053.606833373629
 21
358.1277568923914
 97
        0
 75
     0
 76
     1
 98
        1
 10
1091.862265722152
 20
380.590973940429
  0
LINE
  5
6C3
330
1F
100
AcDbEntity
  8
0.13
100
AcDbLine
 10
1037.315217451312
 20
348.8650954448524
 30
0.0
 11
1036.565201004846
 21
350.1641620366452
 31
0.0
  0
LINE
  5
6C4
330
1F
100
AcDbEntity
  8
0.13
100
AcDbLine
 10
1036.565201004846
 20
350.1641620366452
 30
0.0
 11
1053.606833373629
 21
359.8532482450449
 31
0.0
  0
LINE
  5
6C6
330
1F
100
AcDbEntity
  8
0.13
100
AcDbLine
 10
1037.315217451312
 20
348.8650954448524
 30
0.0
 11
1053.60683337363
 21
358.1277568923916
 31
0.0
  0
HATCH
  5
6CC
330
1F
100
AcDbEntity
  8
light grey
100
AcDbHatch
 10
0.0
 20
0.0
 30
0.0
210
0.0
220
0.0
230
1.0
  2
SOLID
 70
     1
 71
     0
 91
        1
 92
        7
 72
     0
 73
     1
 93
        4
 10
1036.19917560106
 20
348.7981366328607
 10
904.9293396296111
 20
274.1641620366451
 10
905.6793560760773
 20
272.8650954448519
 10
1036.949192047528
 20
347.4990700410679
 97
        0
 75
     0
 76
     1
 47
0.1913470343855104
 98
        1
 10
960.2264043469178
 20
304.590973940429
  0
HATCH
  5
6CD
330
1F
100
AcDbEntity
  8
0.05
100
AcDbHatch
 10
0.0
 20
0.0
 30
0.0
210
0.0
220
0.0
230
1.0
  2
AR-SAND
 70
     0
 71
     0
 91
        1
 92
        7
 72
     0
 73
     1
 93
        4
 10
1036.19917560106
 20
348.7981366328607
 10
904.9293396296111
 20
274.1641620366451
 10
905.6793560760773
 20
272.8650954448519
 10
1036.949192047528
 20
347.4990700410679
 97
        0
 75
     0
 76
     1
 52
30.0
 41
0.05
 77
     0
 78
     4
 53
67.5
 43
1015.936635955486
 44
-165.3484537724368
 45
-1.292816480781971
 46
2.079220699978364
 79
     6
 49
0.0
 49
-1.9304
 49
0.0
 49
-2.159
 49
0.0
 49
-2.06375
 53
37.5
 43
1015.936635955486
 44
-165.3484537724368
 45
0.1544301625295912
 46
4.227751943657656
 79
     6
 49
0.0
 49
-1.041399999999999
 49
0.0
 49
-1.7399
 49
0.0
 49
-0.66675
 53
357.4999999999999
 43
1014.583817672234
 44
-166.1295037724369
 45
3.42150447244748
 46
1.983704117811396
 79
     6
 49
0.0
 49
-0.6349999999999999
 49
0.0
 49
-2.285999999999999
 49
0.0
 49
-2.984499999999999
 53
347.5
 43
1014.583817672234
 44
-166.1295037724369
 45
2.748973117179633
 46
2.874203417126854
 79
     6
 49
0.0
 49
-0.3175
 49
0.0
 49
-1.498599999999999
 49
0.0
 49
-1.7145
 47
0.1913470343855104
 98
        1
 10
962.5486713827482
 20
305.9317354386958
  0
LINE
  5
6CE
330
1F
100
AcDbEntity
  8
0.13
100
AcDbLine
 10
905.6793560760777
 20
272.8650954448524
 30
0.0
 11
904.9293396296111
 21
274.1641620366451
 31
0.0
  0
LINE
  5
6CF
330
1F
100
AcDbEntity
  8
0.13
100
AcDbLine
 10
904.9293396296111
 20
274.1641620366451
 30
0.0
 11
1036.19917560106
 21
348.7981366328607
 31
0.0
  0
HATCH
  5
6D0
330
1F
100
AcDbEntity
  8
0.05
100
AcDbHatch
 10
0.0
 20
0.0
 30
0.0
210
0.0
220
0.0
230
1.0
  2
SOLID
 70
     1
 71
     0
 91
        1
 92
        5
 93
        6
 72
     1
 10
1053.606833373629
 20
355.3843509186764
 11
1053.606833373629
 21
356.2503763224608
 72
     1
 10
1053.606833373629
 20
356.2503763224608
 11
1037.324175601061
 21
346.8495794743458
 72
     1
 10
1037.324175601061
 20
346.8495794743458
 11
1036.949192047527
 21
347.4990700410679
 72
     1
 10
1036.949192047527
 20
347.4990700410679
 11
1035.210518723402
 21
346.5105405762172
 72
     1
 10
1035.210518723402
 20
346.5105405762172
 11
1035.967124793492
 21
345.2000604215075
 72
     1
 10
1035.967124793492
 20
345.2000604215075
 11
1053.606833373629
 21
355.3843509186764
 97
        0
 75
     0
 76
     1
 47
0.1818980469777868
 98
        1
 10
1043.940735363982
 20
350.3156661959475
  0
LINE
  5
6D1
330
1F
100
AcDbEntity
  8
0.13
100
AcDbLine
 10
905.6793560760777
 20
272.8650954448524
 30
0.0
 11
1036.940556442238
 21
347.4941602341726
 31
0.0
  0
LINE
  5
6D2
330
1F
100
AcDbEntity
  8
0.13
100
AcDbLine
 10
1036.19917560106
 20
348.7981366328607
 30
0.0
 11
1037.324175601061
 21
346.8495794743458
 31
0.0
  0
LINE
  5
6D4
330
1F
100
AcDbEntity
  8
0.13
100
AcDbLine
 10
1053.606833373629
 20
355.3843509186764
 30
0.0
 11
1035.967124793492
 21
345.2000604215075
 31
0.0
  0
LINE
  5
6D5
330
1F
100
AcDbEntity
  8
0.13
100
AcDbLine
 10
1035.967124793492
 20
345.2000604215075
 30
0.0
 11
1035.210518723402
 21
346.5105405762172
 31
0.0
  0
LINE
  5
6D6
330
1F
100
AcDbEntity
  8
0.13
100
AcDbLine
 10
1053.606833373629
 20
356.2503763224608
 30
0.0
 11
1037.324175601061
 21
346.8495794743458
 31
0.0
  0
LINE
  5
6D7
330
1F
100
AcDbEntity
  8
0.05
100
AcDbLine
 10
1038.974112157158
 20
350.5198823978533
 30
0.0
 11
1038.974112157158
 21
350.5198823978533
 31
0.0
  0
LINE
  5
6D8
330
1F
100
AcDbEntity
  8
0.05
100
AcDbLine
 10
1041.831874266253
 20
352.2187746581266
 30
0.0
 11
1041.831874266253
 21
352.2187746581266
 31
0.0
  0
LINE
  5
6D9
330
1F
100
AcDbEntity
  8
0.05
100
AcDbLine
 10
1044.653185778416
 20
353.8296673929282
 30
0.0
 11
1044.653185778416
 21
353.8296673929282
 31
0.0
  0
LINE
  5
6DA
330
1F
100
AcDbEntity
  8
0.05
100
AcDbLine
 10
1047.561978723218
 20
355.6517589888618
 30
0.0
 11
1047.561978723218
 21
355.6517589888618
 31
0.0
  0
LINE
  5
6DB
330
1F
100
AcDbEntity
  8
0.05
100
AcDbLine
 10
1050.419740832314
 20
357.3506512491353
 30
0.0
 11
1050.419740832314
 21
357.3506512491353
 31
0.0
  0
LINE
  5
6DC
330
1F
100
AcDbEntity
  8
0.05
100
AcDbLine
 10
1053.241052344477
 20
358.9615439839367
 30
0.0
 11
1053.241052344477
 21
358.9615439839367
 31
0.0
  0
LINE
  5
70D
330
1F
100
AcDbEntity
  8
0.05
100
AcDbLine
 10
1042.177314830963
 20
351.6541743407533
 30
0.0
 11
1042.177314830963
 21
351.6541743407533
 31
0.0
  0
LINE
  5
70E
330
1F
100
AcDbEntity
  8
0.05
100
AcDbLine
 10
1043.557670307736
 20
352.7133583510856
 30
0.0
 11
1043.557670307736
 21
352.7133583510856
 31
0.0
  0
LINE
  5
70F
330
1F
100
AcDbEntity
  8
0.05
100
AcDbLine
 10
1044.086638647375
 20
353.1192500338772
 30
0.0
 11
1044.086638647375
 21
353.1192500338772
 31
0.0
  0
LINE
  5
710
330
1F
100
AcDbEntity
  8
0.05
100
AcDbLine
 10
1044.912836815955
 20
353.7532141860468
 30
0.0
 11
1044.912836815955
 21
353.7532141860468
 31
0.0
  0
LINE
  5
711
330
1F
100
AcDbEntity
  8
0.05
100
AcDbLine
 10
1046.293192292727
 20
354.8123981963791
 30
0.0
 11
1046.293192292727
 21
354.8123981963791
 31
0.0
  0
LINE
  5
712
330
1F
100
AcDbEntity
  8
0.05
100
AcDbLine
 10
1046.822160632367
 20
355.2182898791707
 30
0.0
 11
1046.822160632367
 21
355.2182898791707
 31
0.0
  0
LINE
  5
713
330
1F
100
AcDbEntity
  8
0.05
100
AcDbLine
 10
1047.648358800946
 20
355.8522540313403
 30
0.0
 11
1047.648358800946
 21
355.8522540313403
 31
0.0
  0
LINE
  5
714
330
1F
100
AcDbEntity
  8
0.05
100
AcDbLine
 10
1049.028714277719
 20
356.9114380416726
 30
0.0
 11
1049.028714277719
 21
356.9114380416726
 31
0.0
  0
LINE
  5
715
330
1F
100
AcDbEntity
  8
0.05
100
AcDbLine
 10
1049.557682617358
 20
357.3173297244641
 30
0.0
 11
1049.557682617358
 21
357.3173297244641
 31
0.0
  0
LINE
  5
716
330
1F
100
AcDbEntity
  8
0.05
100
AcDbLine
 10
1050.383880785938
 20
357.9512938766338
 30
0.0
 11
1050.383880785938
 21
357.9512938766338
 31
0.0
  0
LINE
  5
76E
330
1F
100
AcDbEntity
  8
0.05
100
AcDbLine
 10
1050.243544597672
 20
357.7436724371382
 30
0.0
 11
1050.243544597672
 21
357.7436724371382
 31
0.0
  0
LINE
  5
76F
330
1F
100
AcDbEntity
  8
0.05
100
AcDbLine
 10
1052.527368832208
 20
357.6439585176211
 30
0.0
 11
1052.527368832208
 21
357.6439585176211
 31
0.0
  0
LINE
  5
770
330
1F
100
AcDbEntity
  8
0.05
100
AcDbLine
 10
1046.822040125225
 20
355.7599683193269
 30
0.0
 11
1046.822040125225
 21
355.7599683193269
 31
0.0
  0
LINE
  5
771
330
1F
100
AcDbEntity
  8
0.05
100
AcDbLine
 10
1049.105864359761
 20
355.6602543998097
 30
0.0
 11
1049.105864359761
 21
355.6602543998097
 31
0.0
  0
LINE
  5
772
330
1F
100
AcDbEntity
  8
0.05
100
AcDbLine
 10
1043.400535652777
 20
353.7762642015155
 30
0.0
 11
1043.400535652777
 21
353.7762642015155
 31
0.0
  0
LINE
  5
773
330
1F
100
AcDbEntity
  8
0.05
100
AcDbLine
 10
1045.684359887313
 20
353.6765502819983
 30
0.0
 11
1045.684359887313
 21
353.6765502819983
 31
0.0
  0
LINE
  5
774
330
1F
100
AcDbEntity
  8
0.05
100
AcDbLine
 10
1039.97903118033
 20
351.7925600837041
 30
0.0
 11
1039.97903118033
 21
351.7925600837041
 31
0.0
  0
LINE
  5
775
330
1F
100
AcDbEntity
  8
0.05
100
AcDbLine
 10
1042.262855414866
 20
351.6928461641869
 30
0.0
 11
1042.262855414866
 21
351.6928461641869
 31
0.0
  0
LINE
  5
7A7
330
1F
100
AcDbEntity
  8
0.05
100
AcDbLine
 10
1053.47953711836
 20
358.9177291553998
 30
0.0
 11
1053.47953711836
 21
358.9177291553998
 31
0.0
  0
LINE
  5
7A9
330
1F
100
AcDbEntity
  8
0.05
100
AcDbLine
 10
1049.056704496972
 20
356.4146114563699
 30
0.0
 11
1049.056704496972
 21
356.4146114563699
 31
0.0
  0
LINE
  5
7AA
330
1F
100
AcDbEntity
  8
0.05
100
AcDbLine
 10
1044.534680201262
 20
353.9334840221159
 30
0.0
 11
1044.534680201262
 21
353.9334840221159
 31
0.0
  0
LINE
  5
7AB
330
1F
100
AcDbEntity
  8
0.05
100
AcDbLine
 10
1044.844654183523
 20
353.8647644446906
 30
0.0
 11
1044.844654183523
 21
353.8647644446906
 31
0.0
  0
LINE
  5
7AC
330
1F
100
AcDbEntity
  8
0.05
100
AcDbLine
 10
1040.111847579876
 20
351.430366323086
 30
0.0
 11
1040.111847579876
 21
351.430366323086
 31
0.0
  0
VIEWPORT
  5
61F
102
{ACAD_XDICTIONARY
360
937
102
}
330
61E
100
AcDbEntity
 67
     1
  8
0
100
AcDbViewport
 10
97.89722842761687
 20
27.46908487938612
 30
0.0
 40
153.0898278438082
 41
86.40180424585151
 68
     1
 69
     1
 12
97.89722842761687
 22
27.46908487938612
 13
0.0
 23
0.0
 14
10.0
 24
10.0
 15
10.0
 25
10.0
 16
0.0
 26
0.0
 36
1.0
 17
0.0
 27
0.0
 37
0.0
 42
50.0
 43
0.0
 44
0.0
 45
86.40180424585151
 50
0.0
 51
0.0
 72
  1000
 90
    32800
  1

281
     0
 71
     1
 74
     0
110
0.0
120
0.0
130
0.0
111
1.0
121
0.0
131
0.0
112
0.0
122
1.0
132
0.0
 79
     0
146
0.0
  0
LINE
  5
620
330
61E
100
AcDbEntity
 67
     1
  8
0.20
100
AcDbLine
 10
10.52700123832403
 20
17.3374929761523
 30
0.0
 11
10.52700123832403
 21
285.9981565444382
 31
0.0
  0
LINE
  5
621
330
61E
100
AcDbEntity
 67
     1
  8
0.20
100
AcDbLine
 10
192.1503251300634
 20
285.9981565444382
 30
0.0
 11
192.1503251300634
 21
17.3374929761523
 31
0.0
  0
LINE
  5
622
330
61E
100
AcDbEntity
 67
     1
  8
0.20
100
AcDbLine
 10
10.52700123832403
 20
285.9981565444382
 30
0.0
 11
192.1503251300634
 21
285.9981565444382
 31
0.0
  0
LINE
  5
624
330
61E
100
AcDbEntity
 67
     1
  8
0.20
100
AcDbLine
 10
192.1503251300634
 20
57.33749297615231
 30
0.0
 11
10.52700123832403
 21
57.33749297615231
 31
0.0
  0
MTEXT
  5
626
102
{ACAD_XDICTIONARY
360
627
102
}
330
61E
100
AcDbEntity
 67
     1
  8
0.20
100
AcDbMText
 10
12.94918769890682
 20
53.20818808867649
 30
0.0
 40
1.5
 41
0.0
 71
     1
 72
     5
  1
2.71 - Shingle to Flat Roof - Internal.dwg
 73
     1
 44
1.0
1001
ACAD
1000
MTEXTBEGIN
1070
    73
1070
     1
1070
    44
1040
1.0
1070
    74
1070
     0
1000
MTEXTEND
  0
MTEXT
  5
628
330
61E
100
AcDbEntity
 67
     1
  8
0.20
100
AcDbMText
 10
11.75197219246297
 20
56.30042579405643
 30
0.0
 40
1.5
 41
15.8
 71
     1
 72
     5
  1
File Name:
 73
     1
 44
1.0
1001
ACAD
1000
MTEXTBEGIN
1070
    73
1070
     1
1070
    44
1040
1.0
1070
    74
1070
     0
1000
MTEXTEND
  0
LINE
  5
629
330
61E
100
AcDbEntity
 67
     1
  8
0.20
100
AcDbLine
 10
90.527001238324
 20
49.33749297615232
 30
0.0
 11
90.52700123832403
 21
57.3374929761523
 31
0.0
  0
MTEXT
  5
62A
330
61E
100
AcDbEntity
 67
     1
  8
0.20
100
AcDbMText
 10
91.67497914706904
 20
56.30042579405643
 30
0.0
 40
1.5
 41
15.8
 71
     1
 72
     5
  1
Scale:
 73
     1
 44
1.0
1001
ACAD
1000
MTEXTBEGIN
1070
    73
1070
     1
1070
    44
1040
1.0
1070
    74
1070
     0
1000
MTEXTEND
  0
MTEXT
  5
62B
102
{ACAD_XDICTIONARY
360
62C
102
}
330
61E
100
AcDbEntity
 67
     1
  8
0.20
100
AcDbMText
 10
93.36811846915361
 20
53.20818808867649
 30
0.0
 40
1.5
 41
0.0
 71
     1
 72
     5
  1
1:2 @ A4
 73
     1
 44
1.0
1001
ACAD
1000
MTEXTBEGIN
1070
    73
1070
     1
1070
    44
1040
1.0
1070
    74
1070
     0
1000
MTEXTEND
  0
LINE
  5
62D
330
61E
100
AcDbEntity
 67
     1
  8
0.20
100
AcDbLine
 10
152.1503251300634
 20
57.33749297615231
 30
0.0
 11
152.1503251300634
 21
39.33749297615232
 31
0.0
  0
LINE
  5
62E
330
61E
100
AcDbEntity
 67
     1
  8
0.20
100
AcDbLine
 10
192.1503251300634
 20
49.33749297615231
 30
0.0
 11
10.52700123832403
 21
49.33749297615232
 31
0.0
  0
LINE
  5
62F
330
61E
100
AcDbEntity
 67
     1
  8
0.20
100
AcDbLine
 10
192.1503251300634
 20
39.33749297615231
 30
0.0
 11
10.52700123832403
 21
39.33749297615232
 31
0.0
  0
LINE
  5
630
330
61E
100
AcDbEntity
 67
     1
  8
0.20
100
AcDbLine
 10
110.527001238324
 20
49.33749297615225
 30
0.0
 11
110.527001238324
 21
57.33749297615223
 31
0.0
  0
MTEXT
  5
631
330
61E
100
AcDbEntity
 67
     1
  8
0.20
100
AcDbMText
 10
111.6513155343928
 20
56.30042579405643
 30
0.0
 40
1.5
 41
15.8
 71
     1
 72
     5
  1
Drawn By:
 73
     1
 44
1.0
1001
ACAD
1000
MTEXTBEGIN
1070
    73
1070
     1
1070
    44
1040
1.0
1070
    74
1070
     0
1000
MTEXTEND
  0
MTEXT
  5
632
330
61E
100
AcDbEntity
 67
     1
  8
0.20
100
AcDbMText
 10
11.75197219246297
 20
48.17573676515224
 30
0.0
 40
1.5
 41
15.8
 71
     1
 72
     5
  1
Drawing Name:
 73
     1
 44
1.0
1001
ACAD
1000
MTEXTBEGIN
1070
    73
1070
     1
1070
    44
1040
1.0
1070
    74
1070
     0
1000
MTEXTEND
  0
MTEXT
  5
633
102
{ACAD_XDICTIONARY
360
634
102
}
330
61E
100
AcDbEntity
 67
     1
  8
0.20
100
AcDbMText
 10
12.94918769890682
 20
44.47960626276285
 30
0.0
 40
2.5
 41
0.0
 71
     1
 72
     5
  1
Shingle Roof to Flat Butynol Deck - Internal Corner Junction
 73
     1
 44
1.0
1001
ACAD
1000
MTEXTBEGIN
1070
    73
1070
     1
1070
    44
1040
1.0
1070
    74
1070
     0
1000
MTEXTEND
  0
MTEXT
  5
635
330
61E
100
AcDbEntity
 67
     1
  8
0.20
100
AcDbMText
 10
153.2311570719591
 20
56.29240076870599
 30
0.0
 40
1.5
 41
15.8
 71
     1
 72
     5
  1
Date:
 73
     1
 44
1.0
1001
ACAD
1000
MTEXTBEGIN
1070
    73
1070
     1
1070
    44
1040
1.0
1070
    74
1070
     0
1000
MTEXTEND
  0
MTEXT
  5
63B
330
61E
100
AcDbEntity
 67
     1
  8
0.20
100
AcDbMText
 10
153.2311570719591
 20
48.61722131630802
 30
0.0
 40
1.5
 41
15.8
 71
     1
 72
     5
  1
Sheet:
 73
     1
 44
1.0
1001
ACAD
1000
MTEXTBEGIN
1070
    73
1070
     1
1070
    44
1040
1.0
1070
    74
1070
     0
1000
MTEXTEND
  0
MTEXT
  5
63C
102
{ACAD_XDICTIONARY
360
63D
102
}
330
61E
100
AcDbEntity
 67
     1
  8
0.20
100
AcDbMText
 10
113.6567381868956
 20
53.20818808867649
 30
0.0
 40
1.5
 41
0.0
 71
     1
 72
     5
  1
I.M
 73
     1
 44
1.0
1001
ACAD
1000
MTEXTBEGIN
1070
    73
1070
     1
1070
    44
1040
1.0
1070
    74
1070
     0
1000
MTEXTEND
  0
MTEXT
  5
63E
102
{ACAD_XDICTIONARY
360
63F
102
}
330
61E
100
AcDbEntity
 67
     1
  8
0.20
100
AcDbMText
 10
155.1160907068108
 20
53.20818808867649
 30
0.0
 40
1.5
 41
0.0
 71
     1
 72
     5
  1
28th January 2013
 73
     1
 44
1.0
1001
ACAD
1000
MTEXTBEGIN
1070
    73
1070
     1
1070
    44
1040
1.0
1070
    74
1070
     0
1000
MTEXTEND
  0
MTEXT
  5
640
102
{ACAD_XDICTIONARY
360
641
102
}
330
61E
100
AcDbEntity
 67
     1
  8
0.20
100
AcDbMText
 10
154.8846494993793
 20
44.47960626276285
 30
0.0
 40
2.5
 41
0.0
 71
     1
 72
     5
  1
14
 73
     1
 44
1.0
1001
ACAD
1000
MTEXTBEGIN
1070
    73
1070
     1
1070
    44
1040
1.0
1070
    74
1070
     0
1000
MTEXTEND
  0
VIEWPORT
  5
642
102
{ACAD_XDICTIONARY
360
939
102
}
330
61E
100
AcDbEntity
 67
     1
  8
0.20
100
AcDbViewport
 10
101.3386631841937
 20
171.6678247602953
 30
0.0
 40
181.6233238917393
 41
228.660663568286
 68
     2
 69
     2
 12
879.1382812194388
 22
207.181120408834
 13
0.0
 23
0.0
 14
10.0
 24
10.0
 15
10.0
 25
10.0
 16
0.0
 26
0.0
 36
1.0
 17
0.0
 27
0.0
 37
0.0
 42
50.0
 43
0.0
 44
0.0
 45
457.3213271365719
 50
0.0
 51
0.0
 72
  1000
 90
    49248
  1

281
     0
 71
     1
 74
     0
110
0.0
120
0.0
130
0.0
111
1.0
121
0.0
131
0.0
112
0.0
122
1.0
132
0.0
 79
     0
146
0.0
  0
OLE2FRAME
  5
645
330
61E
100
AcDbEntity
 67
     1
  8
0.20
100
AcDbOle2Frame
 70
     2
  1
OLE
1001
ACAD
1000
OLEBEGIN
1070
    70
1070
     1
1070
    71
1070
     1
1070
    40
1040
0.0
1070
    41
1040
0.1619238588059488
1070
    42
1040
0.1617867940552742
1070
    72
1070
     0
1070
     3
1000

1070
    90
1071
        0
1070
    43
1040
0.0
1070
     4
1000

1070
    91
1071
        0
1070
    44
1040
0.0
1000
OLEEND
  0
LINE
  5
877
330
61E
100
AcDbEntity
 67
     1
  8
0.20
100
AcDbLine
 10
192.1663108328472
 20
39.3374927562799
 30
0.0
 11
10.54298694110787
 21
39.33749275627991
 31
0.0
  0
LINE
  5
878
330
61E
100
AcDbEntity
 67
     1
  8
0.20
100
AcDbLine
 10
192.166311627628
 20
39.33749333022097
 30
0.0
 11
10.5429877358887
 21
39.33749333022097
 31
0.0
  0
LINE
  5
879
330
61E
100
AcDbEntity
 67
     1
  8
0.05
 62
     7
100
AcDbLine
 10
100.5390201050104
 20
23.44177977764038
 30
0.0
 11
100.5390201050104
 21
17.33749333022096
 31
0.0
  0
MTEXT
  5
87A
102
{ACAD_XDICTIONARY
360
87B
102
}
330
61E
100
AcDbEntity
 67
     1
  8
0.20
100
AcDbMText
 10
103.3471002541944
 20
38.17942878146327
 30
0.0
 40
1.363599999999999
 41
0.0
 71
     1
 72
     5
  3
*  All constructions are to comply with New Zealand Building Standards and \P   Territorial Authority Regulations.\P*  The contractor shall verify all dimensions and levels on site before commencing work.\P*  These drawings are not to be used for con
  3
struction without Territorial Authority Consent.\P*  Do not attempt to reproduce these drawings in any unlawful manner without the consent of \P    Asphalt Shingle Roofing NZ.\P*  These drawings may be utilised in order to create working drawings for
  1
 submition to a Territorial \P    Authority or certifier for consent purposes.
 73
     1
 44
1.0
1001
ACAD
1000
MTEXTBEGIN
1070
    73
1070
     1
1070
    44
1040
1.0
1070
    74
1070
     0
1000
MTEXTEND
  0
IMAGE
  5
87C
330
61E
100
AcDbEntity
 67
     1
  8
0.05
 62
     7
 92
      140
310
8C00000001000000840000000600000005000000C68A0F7D02162540E6FFC07A187137400000000000000000C68A0F7D0216254068F53FFB32AB4340000000000000000001BA2E4E7F22594068F53FFB32AB4340000000000000000001BA2E4E7F225940E6FFC07A187137400000000000000000C68A0F7D02162540E6FFC0
310
7A187137400000000000000000
100
AcDbRasterImage
 90
        0
 10
10.5429877358887
 20
23.44177977764038
 30
0.0
 11
0.1195166432524857
 21
0.0
 31
0.0
 12
0.0
 22
0.1195166432524857
 32
0.0
 13
753.0
 23
133.0
340
874
 70
     7
280
     0
281
    50
282
    50
283
     0
360
87D
 71
     1
 91
        2
 14
-0.5
 24
-0.5
 14
752.5
 24
132.5
  0
LINE
  5
87E
330
61E
100
AcDbEntity
 67
     1
  8
0.20
100
AcDbLine
 10
192.166311627628
 20
17.33749333022096
 30
0.0
 11
10.5429877358887
 21
17.33749333022096
 31
0.0
  0
LINE
  5
87F
330
61E
100
AcDbEntity
 67
     1
  8
0.20
100
AcDbLine
 10
192.1663119874913
 20
39.33749339277322
 30
0.0
 11
10.54298809575199
 21
39.33749339277323
 31
0.0
  0
MTEXT
  5
880
330
61E
100
AcDbEntity
 67
     1
  8
0.05
 62
     7
100
AcDbMText
 10
12.13677701626637
 20
22.18578299263127
 30
0.0
 40
1.363599999999999
 41
101.1024152163841
 71
     1
 72
     5
  3
{\C256;Ph: 09 636 7051 | Fax: 09 636 7053 | Free Ph: 0800 261 116 | e-mail:  info@asphaltshingle.co.nz\Pwww.asphaltshingle.co.nz   |  PO Box \fTimes New Roman|b1|i1|c0|p18;24 676\fTimes New Roman|b1|i1|c0|p18;\H1.1x;,\H0.9091x; Royal Oak, Auckland, N
  1
ew Zealand}
  7
Compan
 73
     1
 44
1.0
1001
ACAD
1000
MTEXTBEGIN
1070
    73
1070
     1
1070
    44
1040
1.0
1070
    74
1070
     0
1000
MTEXTEND
  0
LINE
  5
881
330
61E
100
AcDbEntity
 67
     1
  8
0.20
100
AcDbLine
 10
192.1663102685527
 20
39.33749363843752
 30
0.0
 11
10.54298637681336
 21
39.33749363843753
 31
0.0
  0
LINE
  5
882
330
61E
100
AcDbEntity
 67
     1
  8
0.20
100
AcDbLine
 10
192.1663107003496
 20
39.33749319167351
 30
0.0
 11
10.54298680861029
 21
39.33749319167352
 31
0.0
  0
ENDSEC
  0
SECTION
  2
OBJECTS
  0
DICTIONARY
  5
C
330
0
100
AcDbDictionary
281
     1
  3
ACAD_COLOR
350
6B
  3
ACAD_FIELDLIST
350
14E
  3
ACAD_GROUP
350
D
  3
ACAD_IMAGE_DICT
350
648
  3
ACAD_IMAGE_VARS
350
876
  3
ACAD_LAYOUT
350
1A
  3
ACAD_MATERIAL
350
6A
  3
ACAD_MLINESTYLE
350
17
  3
ACAD_PLOTSETTINGS
350
19
  3
ACAD_PLOTSTYLENAME
350
E
  3
ACAD_TABLESTYLE
350
7E
  3
ACDBHEADERROUNDTRIPXREC
350
92D
  3
AcDbVariableDictionary
350
5E
  3
DWGPROPS
350
92C
  0
DICTIONARY
  5
10F
330
2
100
AcDbDictionary
280
     1
281
     1
  3
ACAD_LAYERFILTERS
360
3DB
  3
ACAD_LAYERSTATES
360
132
  3
ACLYDICTIONARY
360
3DA
  0
DICTIONARY
  5
46D
330
1F
100
AcDbDictionary
280
     1
281
     1
  3
ACAD_SORTENTS
360
46E
  0
DICTIONARY
  5
500
330
4FE
100
AcDbDictionary
280
     1
281
     1
  3
ACAD_SORTENTS
360
501
  0
DICTIONARY
  5
654
330
653
100
AcDbDictionary
280
     1
281
     1
  3
ACAD_SORTENTS
360
655
  0
DICTIONARY
  5
932
330
35C
100
AcDbDictionary
280
     1
281
     1
  3
ACAD_MTEXT_RT
360
933
  0
DICTIONARY
  5
934
330
581
100
AcDbDictionary
280
     1
281
     1
  3
ACAD_MTEXT_RT
360
935
  0
DICTIONARY
  5
937
330
61F
100
AcDbDictionary
280
     1
281
     1
  3
ACAD_XREC_ROUNDTRIP
360
938
  0
DICTIONARY
  5
627
330
626
100
AcDbDictionary
280
     1
281
     1
  0
DICTIONARY
  5
62C
330
62B
100
AcDbDictionary
280
     1
281
     1
  0
DICTIONARY
  5
634
330
633
100
AcDbDictionary
280
     1
281
     1
  0
DICTIONARY
  5
63D
330
63C
100
AcDbDictionary
280
     1
281
     1
  0
DICTIONARY
  5
63F
330
63E
100
AcDbDictionary
280
     1
281
     1
  0
DICTIONARY
  5
641
330
640
100
AcDbDictionary
280
     1
281
     1
  0
DICTIONARY
  5
939
330
642
100
AcDbDictionary
280
     1
281
     1
  3
ACAD_XREC_ROUNDTRIP
360
93A
  0
DICTIONARY
  5
87B
330
87A
100
AcDbDictionary
280
     1
281
     1
  0
IMAGEDEF_REACTOR
  5
87D
330
87C
100
AcDbRasterImageDefReactor
 90
        2
330
87C
  0
DICTIONARY
  5
6B
102
{ACAD_REACTORS
330
C
102
}
330
C
100
AcDbDictionary
281
     1
  0
ACAD_PROXY_OBJECT
  5
14E
102
{ACAD_REACTORS
330
C
102
}
330
C
100
AcDbProxyObject
 90
      499
 91
      507
 95
  4980761
 70
     0
 93
        3
310
90
 94
        0
1001
ACAD
1000
AcRTDxfName
1000
FIELDLIST
1000
AcRTDxfName
1000
FIELDLIST
1000
AcRTDxfName
1000
FIELDLIST
  0
DICTIONARY
  5
D
102
{ACAD_REACTORS
330
C
102
}
330
C
100
AcDbDictionary
281
     1
  0
DICTIONARY
  5
648
102
{ACAD_REACTORS
330
C
102
}
330
C
100
AcDbDictionary
281
     1
  3
ASCL logo
350
649
  3
asphalt logo
350
874
  0
RASTERVARIABLES
  5
876
102
{ACAD_REACTORS
330
C
102
}
330
C
100
AcDbRasterVariables
 90
        0
 70
     1
 71
     1
 72
     1
  0
DICTIONARY
  5
1A
102
{ACAD_REACTORS
330
C
102
}
330
C
100
AcDbDictionary
281
     1
  3
ASCL A4
350
61B
  3
Model
350
22
  0
DICTIONARY
  5
6A
102
{ACAD_REACTORS
330
C
102
}
330
C
100
AcDbDictionary
281
     1
  0
DICTIONARY
  5
17
102
{ACAD_REACTORS
330
C
102
}
330
C
100
AcDbDictionary
281
     1
  3
Standard
350
18
  0
DICTIONARY
  5
19
102
{ACAD_REACTORS
330
C
102
}
330
C
100
AcDbDictionary
281
     1
  0
ACDBDICTIONARYWDFLT
  5
E
102
{ACAD_REACTORS
330
C
102
}
330
C
100
AcDbDictionary
281
     1
  3
Normal
350
F
100
AcDbDictionaryWithDefault
340
F
  0
DICTIONARY
  5
7E
102
{ACAD_REACTORS
330
C
102
}
330
C
100
AcDbDictionary
281
     1
  3
Standard
350
7F
  0
DICTIONARY
  5
92D
102
{ACAD_REACTORS
330
C
102
}
330
C
100
AcDbDictionary
281
     1
  3
COLORDICT
350
92F
  3
MATERIALDICT
350
92E
  0
DICTIONARY
  5
5E
102
{ACAD_REACTORS
330
C
102
}
330
C
100
AcDbDictionary
281
     1
  3
CTABLESTYLE
350
84
  3
DIMASSOC
350
5F
  3
HIDETEXT
350
63
  3
PROJECTNAME
350
912
  0
XRECORD
  5
92C
102
{ACAD_REACTORS
330
C
102
}
330
C
100
AcDbXrecord
280
     1
  1
DWGPROPS COOKIE
  2

  3

  4

  6

  7

  8
Autodesk
  9

300
=
301
=
302
=
303
=
304
=
305
=
306
=
307
=
308
=
309
=
 40
0.0693341203703704
 41
2454141.559514792
 42
2456348.406694873
  1

 90
        0
  0
DICTIONARY
  5
3DB
102
{ACAD_REACTORS
330
10F
102
}
330
10F
100
AcDbDictionary
281
     1
  0
DICTIONARY
  5
132
102
{ACAD_REACTORS
330
10F
102
}
330
10F
100
AcDbDictionary
281
     1
  0
DICTIONARY
  5
3DA
102
{ACAD_REACTORS
330
10F
102
}
330
10F
100
AcDbDictionary
281
     1
1001
ACAD
1000
<All
  0
SORTENTSTABLE
  5
46E
102
{ACAD_REACTORS
330
46D
102
}
330
46D
100
AcDbSortentsTable
330
1F
331
309
  5
319
331
360
  5
365
331
417
  5
48D
331
7AA
  5
796
331
6DB
  5
6C7
331
30A
  5
31A
331
6DC
  5
6C8
331
7AB
  5
797
331
6CC
  5
7A2
331
361
  5
366
331
66E
  5
66E
331
479
  5
48E
331
362
  5
367
331
2FB
  5
2FE
331
7AC
  5
798
331
6CD
  5
7A3
331
580
  5
582
331
588
  5
5AA
331
363
  5
3FE
331
2FC
  5
2FF
331
6CE
  5
7A4
331
581
  5
583
331
589
  5
5B1
331
364
  5
3FF
331
2FD
  5
300
331
6CF
  5
7A5
331
582
  5
584
331
365
  5
400
331
2FE
  5
301
331
583
  5
585
331
366
  5
401
331
2FF
  5
302
331
584
  5
586
331
367
  5
402
331
300
  5
303
331
585
  5
587
331
319
  5
31C
331
301
  5
304
331
586
  5
588
331
31A
  5
322
331
587
  5
589
331
302
  5
305
331
303
  5
306
331
70D
  5
6F9
331
304
  5
307
331
70E
  5
6FA
331
76E
  5
75A
331
5AA
  5
5B2
331
49B
  5
580
331
305
  5
308
331
70F
  5
6FB
331
76F
  5
75B
331
306
  5
309
331
710
  5
6FC
331
770
  5
75C
331
2D0
  5
2D0
331
31F
  5
324
331
307
  5
30A
331
711
  5
6FD
331
3FE
  5
413
331
771
  5
75D
331
2D1
  5
2D1
331
320
  5
325
331
712
  5
6FE
331
3FF
  5
414
331
772
  5
75E
331
773
  5
75F
331
400
  5
415
331
321
  5
334
331
713
  5
6FF
331
401
  5
416
331
322
  5
348
331
714
  5
700
331
774
  5
760
331
402
  5
417
331
323
  5
34A
331
715
  5
701
331
775
  5
761
331
324
  5
355
331
716
  5
702
331
5B1
  5
320
331
6BF
  5
6BF
331
325
  5
358
331
5B2
  5
321
331
6C0
  5
6C0
331
6D0
  5
7A6
331
356
  5
35B
331
6C1
  5
6C1
331
6D1
  5
7A7
331
357
  5
35C
331
6D2
  5
7A8
331
358
  5
35D
331
6C3
  5
799
331
6D4
  5
7AA
331
470
  5
2D4
331
6C4
  5
79A
331
359
  5
35E
331
35A
  5
35F
331
6D5
  5
7AB
331
35B
  5
360
331
2DC
  5
2FC
331
6C6
  5
79C
331
6D6
  5
7AC
331
35C
  5
361
331
413
  5
46B
331
2C5
  5
2C5
331
334
  5
359
331
2DD
  5
2FD
331
6D7
  5
6C3
331
35D
  5
362
331
414
  5
46F
331
2C6
  5
2C6
331
7A7
  5
793
331
6D8
  5
6C4
331
415
  5
470
331
2C7
  5
2C7
331
35E
  5
363
331
6D9
  5
6C5
331
308
  5
318
331
35F
  5
364
331
416
  5
47A
331
505
  5
581
331
7A9
  5
795
331
6DA
  5
6C6
  0
SORTENTSTABLE
  5
501
102
{ACAD_REACTORS
330
500
102
}
330
500
100
AcDbSortentsTable
330
4FE
  0
SORTENTSTABLE
  5
655
102
{ACAD_REACTORS
330
654
102
}
330
654
100
AcDbSortentsTable
330
653
331
65E
  5
39
331
65C
  5
45
331
65A
  5
41
331
658
  5
3D
331
661
  5
3E
331
65F
  5
3B
331
65D
  5
3F
331
65B
  5
43
331
659
  5
40
331
657
  5
3C
  0
XRECORD
  5
933
102
{ACAD_REACTORS
330
932
102
}
330
932
100
AcDbXrecord
280
     1
 40
4411781.0
  1
\pt88;Roofing Underlay MUST have 100mm of Butynol membrane exposure for water-tight adhesion of Asphalt Shingles directly onto Butynol membrane.\P\PAll carpentry works and materials shall be provided by the main contractor.\P\PFor roofing underlay & 
  1
plywood installations, refer to Installation Guide bulletin.
  0
XRECORD
  5
935
102
{ACAD_REACTORS
330
934
102
}
330
934
100
AcDbXrecord
280
     1
 40
323561.0
  1
Refer to Specifications for conditions of roofs/decks with pitch less than 10.5%%d.
  0
XRECORD
  5
938
102
{ACAD_REACTORS
330
937
102
}
330
937
100
AcDbXrecord
280
     1
102
SHADEPLOT
 70
     0
  0
XRECORD
  5
93A
102
{ACAD_REACTORS
330
939
102
}
330
939
100
AcDbXrecord
280
     1
102
SHADEPLOT
 70
     0
  0
IMAGEDEF
  5
649
102
{ACAD_REACTORS
330
648
102
}
330
648
100
AcDbRasterImageDef
 90
        0
  1
D:\eboss\03. eboss logos\ASCL logo.jpg
 10
360.0
 20
89.0
 11
0.1388888888888889
 21
0.1388888888888889
280
     1
281
     2
  0
IMAGEDEF
  5
874
102
{ACAD_REACTORS
330
648
330
87D
102
}
330
648
100
AcDbRasterImageDef
 90
        0
  1
C:\Ashalt Net3.5\Main2\App_Images\asphalt logo.jpg
 10
753.0
 20
133.0
 11
0.2645833333333333
 21
0.2645833333333333
280
     1
281
     5
  0
LAYOUT
  5
61B
102
{ACAD_XDICTIONARY
360
61C
102
}
102
{ACAD_REACTORS
330
1A
102
}
330
1A
100
AcDbPlotSettings
  1

  2
Bullzip PDF Printer
  4
A4
  6

 40
3.174999952316284
 41
3.174999952316284
 42
3.175003051757812
 43
3.17498779296875
 44
209.8886566162109
 45
297.0530090332031
 46
4.37
 47
0.0
 48
8.819722556898568
 49
15.47791068044751
140
192.1503251300634
141
289.0602724585962
142
1.0
143
0.9411060145370392
 70
   692
 72
     1
 73
     0
 74
     4
  7
Eboss.ctb
 75
     0
147
1.062579544231191
148
-8.819722556898568
149
-15.47791068044751
100
AcDbLayout
  1
ASCL A4
 70
     1
 71
     1
 10
1.719077722092039
 20
12.48989912916784
 11
199.2465548467074
 21
292.0482725666407
 12
0.0
 22
0.0
 32
0.0
 14
10.52700123832403
 24
17.3374929761523
 34
0.0
 15
192.3005380287185
 25
285.9981565444382
 35
0.0
146
0.0
 13
0.0
 23
0.0
 33
0.0
 16
1.0
 26
0.0
 36
0.0
 17
0.0
 27
1.0
 37
0.0
 76
     0
330
61E
331
61F
1001
ACAD_PSEXT
1000
Adobe PDF.pc3
1000
Adobe PDF Converter
1000
My Documents
1000

1070
     0
  0
LAYOUT
  5
22
102
{ACAD_XDICTIONARY
360
930
102
}
102
{ACAD_REACTORS
330
1A
102
}
330
1A
100
AcDbPlotSettings
  1

  2
none_device
  4
ISO_A4_(210.00_x_297.00_MM)
  6

 40
7.5
 41
20.0
 42
7.5
 43
20.0
 44
210.0
 45
297.0
 46
11.54999923706054
 47
-13.65000009536743
 48
0.0
 49
0.0
140
0.0
141
0.0
142
1.0
143
8.704084754739808
 70
 11952
 72
     1
 73
     0
 74
     0
  7
C:\Documents and Settings\Sae-woon Lim\Application Data\Autodesk\AutoCAD 2005\R16.1\enu\Plot Styles\Eboss.ctb
 75
     0
147
0.1148885871608098
148
0.0
149
0.0
100
AcDbLayout
  1
Model
 70
     1
 71
     0
 10
0.0
 20
0.0
 11
12.0
 21
9.0
 12
0.0
 22
0.0
 32
0.0
 14
0.0
 24
0.0
 34
0.0
 15
0.0
 25
0.0
 35
0.0
146
0.0
 13
0.0
 23
0.0
 33
0.0
 16
1.0
 26
0.0
 36
0.0
 17
0.0
 27
1.0
 37
0.0
 76
     0
330
1F
1001
ACAD_PSEXT
1000
None
1000
None
1000
Not applicable
1000
The layout will not be plotted unless a new plotter configuration name is selected.
1070
     0
  0
MLINESTYLE
  5
18
102
{ACAD_REACTORS
330
17
102
}
330
17
100
AcDbMlineStyle
  2
STANDARD
 70
     0
  3

 62
   256
 51
90.0
 52
90.0
 71
     2
 49
0.5
 62
   256
  6
BYLAYER
 49
-0.5
 62
   256
  6
BYLAYER
  0
ACDBPLACEHOLDER
  5
F
102
{ACAD_REACTORS
330
E
102
}
330
E
  0
ACAD_PROXY_OBJECT
  5
7F
102
{ACAD_REACTORS
330
7E
102
}
330
7E
100
AcDbProxyObject
 90
      499
 91
      504
 95
  4980761
 70
     0
 93
     1841
310
4214DD185B99185C9928000000000000F83F0000000000003E0FC00000000000004901028000000C1008070000C3001FDFF8000000C1003FBFF000000182007F7FE00000030400FEFFC00000060801FDFF8000000C1003FBFF000000182000000000000000C2020B0000001820100E000186003FBFF000000182007F7FE000
310
00030400FEFFC00000060801FDFF8000000C1003FBFF000000182007F7FE0000003040000000000000012404160000003040201C00030C007F7FE00000030400FEFFC00000060801FDFF8000000C1003FBFF000000182007F7FE00000030400FEFFC000000608008
340
11
340
11
340
11
 94
        0
1001
ACAD
1000
AcRTDxfName
1000
TABLESTYLE
1000
AcRTDxfName
1000
TABLESTYLE
1000
AcRTDxfName
1000
TABLESTYLE
  0
XRECORD
  5
92F
102
{ACAD_REACTORS
330
92D
102
}
330
92D
100
AcDbXrecord
280
     1
340
6B
  0
XRECORD
  5
92E
102
{ACAD_REACTORS
330
92D
102
}
330
92D
100
AcDbXrecord
280
     1
340
6A
  0
DICTIONARYVAR
  5
84
102
{ACAD_REACTORS
330
5E
102
}
330
5E
100
DictionaryVariables
280
     0
  1
STANDARD
  0
DICTIONARYVAR
  5
5F
102
{ACAD_REACTORS
330
5E
102
}
330
5E
100
DictionaryVariables
280
     0
  1
2
  0
DICTIONARYVAR
  5
63
102
{ACAD_REACTORS
330
5E
102
}
330
5E
100
DictionaryVariables
280
     0
  1
1
  0
DICTIONARYVAR
  5
912
102
{ACAD_REACTORS
330
5E
102
}
330
5E
100
DictionaryVariables
280
     0
  1

  0
DICTIONARY
  5
61C
330
61B
100
AcDbDictionary
280
     1
281
     1
  3
ACAD_XREC_ROUNDTRIP
360
936
  3
ADSK_XREC_LAYOUTTHUMBNAIL
360
61D
  0
DICTIONARY
  5
930
330
22
100
AcDbDictionary
280
     1
281
     1
  3
ACAD_XREC_ROUNDTRIP
360
931
  0
XRECORD
  5
936
102
{ACAD_REACTORS
330
61C
102
}
330
61C
100
AcDbXrecord
280
     1
102
SHADEPLOT
 70
     1
102
SHADEPLOTRESLEVEL
 70
     2
102
SHADEPLOTCUSTOMDPI
 70
   300
  0
XRECORD
  5
61D
102
{ACAD_REACTORS
330
61C
102
}
330
61C
100
AcDbXrecord
280
     1
310
28000000630000008C0000000100080000000000B036000000000000000000000001000000000000FFFFFF0000000000FFFFFF000000000000000000000000000000000000000000000000000000000000000000330000006600000099000000CC000000FF00000000330000333300006633000099330000CC330000FF3300
310
0000660000336600006666000099660000CC660000FF66000000990000339900006699000099990000CC990000FF99000000CC000033CC000066CC000099CC0000CCCC0000FFCC000000FF000033FF000066FF000099FF0000CCFF0000FFFF000000003300330033006600330099003300CC003300FF003300003333003333
310
33006633330099333300CC333300FF33330000663300336633006666330099663300CC663300FF66330000993300339933006699330099993300CC993300FF99330000CC330033CC330066CC330099CC3300CCCC3300FFCC330000FF330033FF330066FF330099FF3300CCFF3300FFFF330000006600330066006600660099
310
006600CC006600FF00660000336600333366006633660099336600CC336600FF33660000666600336666006666660099666600CC666600FF66660000996600339966006699660099996600CC996600FF99660000CC660033CC660066CC660099CC6600CCCC6600FFCC660000FF660033FF660066FF660099FF6600CCFF6600
310
FFFF660000009900330099006600990099009900CC009900FF00990000339900333399006633990099339900CC339900FF33990000669900336699006666990099669900CC669900FF66990000999900339999006699990099999900CC999900FF99990000CC990033CC990066CC990099CC9900CCCC9900FFCC990000FF99
310
0033FF990066FF990099FF9900CCFF9900FFFF99000000CC003300CC006600CC009900CC00CC00CC00FF00CC000033CC003333CC006633CC009933CC00CC33CC00FF33CC000066CC003366CC006666CC009966CC00CC66CC00FF66CC000099CC003399CC006699CC009999CC00CC99CC00FF99CC0000CCCC0033CCCC0066CC
310
CC0099CCCC00CCCCCC00FFCCCC0000FFCC0033FFCC0066FFCC0099FFCC00CCFFCC00FFFFCC000000FF003300FF006600FF009900FF00CC00FF00FF00FF000033FF003333FF006633FF009933FF00CC33FF00FF33FF000066FF003366FF006666FF009966FF00CC66FF00FF66FF000099FF003399FF006699FF009999FF00CC
310
99FF00FF99FF0000CCFF0033CCFF0066CCFF0099CCFF00CCCCFF00FFCCFF0000FFFF0033FFFF0066FFFF0099FFFF00CCFFFF00FFFFFF00000000000D0D0D001A1A1A00282828003535350043434300505050005D5D5D006B6B6B00787878008686860093939300A1A1A100AEAEAE00BBBBBB00C9C9C900D6D6D600E4E4E400
310
F1F1F100FFFFFF0000000000000000000000000000000000000000000000000000000000000000000000000000000000E2E2E2E2E2E2E2E2E2E2E2E2E2E2E2E2E2E2E2E2E2E2E2E2E2E2E2E2E2E2E2E2E2E2E2E2E2E2E2E2E2E2E2E2E2E2E2E2E2E2E2E2E2E2E2E2E2E2E2E2E2E2E2E2E2E2E2E2E2E2E2E2E2E2E2E2E2E2E2
310
E2E2E2E2E2E2E2E2E2E2E2E2E2E2E2E2E2E2E2E2FFE2F5F5F5F5F5F5F5F5F5F5F5F5F5F5F5F5F5F5F5F5F5F5F5F5F5F5F5F5F5F5F5F5F5F5F5F5F5F5F5F5F5F5F5F5F5F5F5F5F5F5F5F5F5F5F5F5F5F5F5F5F5F5F5F5F5F5F5F5F5F5F5F5F5F5F5F5F5F5F5F5F5F5F5F5F5F5F5F5F5F5F5F5F5F5F5F5F5E2FFE2E2E2E2E2E2
310
E2E2E2F5F5F5F5F5F5F5F5F5E2E2E2E2E2E2E2E2E2E2E2E2E2E2E2F5F5F5F5F5F5F5F5F5E2E2E2E2E2E2E2E2E2E2E2E2E2E2E2F5F5F5F5F5F5F5F5F5E2E2E2E2E2E2E2E2E2E2E2E2E2E2E2F5F5F5F5F5F5F5F5F5E2E2E2E2E2E2E2E2E2FFE2E2F5F5F5F5F5F5F5F5F5F5F5F5F5F5F5F5F5F5F5F5F5F5F5F5F5F5F5F5F5F5F5
310
F5F5F5F5F5F5F5F5F5F5F5F5F5F5F5F5F5F5F5F5F5F5F5F5F5F5F5F5F5F5F5F5F5F5F5F5F5F5F5F5F5F5F5F5F5F5F5F5F5F5F5F5F5F5F5F5F5F5F5F5F5F5F5F5E2E2FFE2E2F5F5F5F5F5F5F5F5F5F5F5F5F5F5F5F5F5F5F5F5F5F5F5F5F5F5F5F5F5F5F5F5F5F5F5F5F5F5F5F5F5F5F5F5F5F5F5F5F5F5F5F5F5F5F5F5F5F5
310
F5F5F5F5F5F5F5F5F5F5F5F5F5F5F5F5F5F5F5F5F5F5F5F5F5F5F5F5F5F5F5F5F5F5F5F5F5E2E2FFE2E2F5F5F5F5F5F5F5F5F5F5F5F5F5F5F5F5F5F5F5F5F5F5F5F5F5F5F5F5F5F5F5F5F5F5F5F5F5F5F5F5F5F5F5F5F5F5F5F5F5F5F5F5F5F5F5F5F5F5F5F5F5F5F5F5F5F5F5F5F5F5F5F5F5F5F5F5F5F5F5F5F5F5F5F5F5
310
F5F5F5F5F5F5F5F5F5F5E2E280E2E2F5F5F5F5F5F5F5F5F5F5F5F5F5F5F5F5F5F5F5F5F5F5F5F5F5F5F5F5F5F5F5F5F5F5F5F5F5F5F5F5F5F5F5F5F5F5F5F5F5F5F5F5F5F5F5F5F5F5F5F5F5F5F5F5F5F5F5F5F5F5F5F5F5F5F5F5F5F5F5F5F5F5F5F5F5F5F5F5F5F5F5F5F5F5F5E2E2FFE2E2F5F5F5F5E2E2E2E2E2E2E2E2
310
E2E2E2E2E2E2E2E2E2E2E2E2E2E2E2E2E2E2E2E2E2E2E2E2E2E2E2E2E2E2E2E2E2E2E2E2E2E2E2E2E2E2E2E2E2E2E2E2E2E2E2E2E2E2E2E2E2E2E2E2E2E2E2E2E2E2E2E2E2E2E2E2E2E2E2E2E2E2E2F5F5F5F5E2E280E2E2F5F5F5F5E2E2E2E2E2E2E2E2E2E2E2E2E2E2E2E2E2E2E2E2E2E2E2E2E2E2E2E2E2E2E2E2E2E2E2
310
E2E2E2E2E2E2E2E2E2E2F5F5F5F5F5F5F5F5F5F5E2E2E2E2E2E2E2E2E2E2E2E2E2E2E2E2F5F5E2E2E2E2E2E2E2E2E2E2E2F5F5E2F5F5F5F5E2E2FFE2E2F5F5F5F5E2E2E2E2E2E2E2E2E2E2E2E2E2E2E2E2E2E2E2E2E2E2E2E2E2E2E2E2E2E2E2E2E2E2E2E2E2E2E2E2F5F5F5F5F5F5F5F5F5F5F5F5F5F5F5E2E2E2E2E2E2E2
310
E2E2E2E2E2E2E2E2E2F5F5E2E2E2E2E2E2E2E2E2E2E2F5F5E2F5F5F5F5E2E280E2E2F5F5F5F5E2E2E2E2E2E2E2E2E2E2E2E2E2E2E2E2E2E2E2E2E2E2E2E2E2E2E2F5F5F5F5F5F5F5F5F5F5F5F5F5F5F5F5F5F5F5F5F5F5F5F5F5F5F5F5E2E2E2E2E2E2E2E2F5F5E2E2E2E2E2E2E2F5E2E2E2E2E2E2E2E2E2E2F5F5F5E2F5F5
310
F5F5E2E2FFE2F5F5F5F5F5E2E2E2E2E2E2E2E2E2E2E2E2E2E2E2E2E2E2E2E2E2E2E2E2E2E2E2E2E2E2E2E2E2E2F5F5F5F5F5F5F5F5F5F5F5F5F5F5F5F5F5F5F5F5F5E2F5E2E2E2E2E2E2E2E2E2E2E2E2E2E2E2E2E2E2E2E2E2F5F5F5F5F5F5F5F5E2F5F5F5F5F5E280E2F5F5F5F5F5E2F5F5F5F5F5F5F5F5F5F5F5F5F5F5F5
310
F5F5F5F5F5F5F5F5F5F5F5F5F5F5F5F5F5F5F5F5F5F5F5F5F5F5F5F5F5F5F5F5F5F5F5F5F5F5F5E2F5E2E2E2E2E2E2E2E2E2E2E2E2E2E2E2E2E2E2E2E2E2F5F5F5F5F5F5F5F5E2F5F5F5F5F5E280E2F5F5F5F5F5E2E2E2E2E2E2E2E2E2E2E2E2E2E2E2E2E2E2E2E2E2E2E2E2E2E2E2E2E2E2E2E2E2E2E2E2E2E2E2E2E2E2E2
310
E2E2E2E2E2E2E2E2E2E2E2E2E2E2E2E2E2E2E2E2E2E2E2E2E2E2E2E2E2E2E2E2E2E2E2E2E2E2E2E2E2E2E2E2F5F5F5F5F5E280E2F5F5F5F5F5E2F5F5F5F5F5F5F5F5F5F5F5F5F5F5E2E2E2E2E2E2E2E2E2E2E2E2E2E2E2E2E2E2E2E2E2E2E2E2E2E2E2E2E2E2E2E2E2E2E2E2E2E2E2E2E2E2E2E2E2E2E2F5F5F5F5F5E2E2E2
310
F5F5F5F5F5F5F5F5F5F5F5F5F5F5F5F5E2F5F5F5F5F5E2FFE2F5F5F5F5F5E2E2E2E2E2E2E2E2E2E2E2E2E2E2E2E2F5F5F5F5F5F5F5F5F5F5F5F5F5F5F5F5F5F5F5F5F5F5F5F5F5F5F5F5F5F5F5F5F5F5F5F5F5F5F5F5F5F5F5F5F5F5F5F5F5F5F5E2F5F5F5F5F5F5F5F5F5F5F5F5F5F5F5F5F5F5E2F5F5F5F5F5E280E2F5F5
310
F5F5F5E2E2000000000000000000000000E2E2E2E2E2E2E2E2F5F5F5F5F5F5F5F5F5F5F5F5F5F5F5F5F5F5F5F5F5F5F5F5F5F5F5F5F5F5F5F5F5F5F5F5F5F5F5F5F5F5F5F5F5E2E2E2F5F5F5F5F5F5F5F5F5F5F5F5F5F5F5F5E2F5F5F5F5F5E2FFE2F5F5F5F5F5E2E2000000000000000000000000E2E2E2E2E2E2E2E2E2E2
310
E2E2E2E2E2E2E2E2E2E2E2E2E2E2E2E2E2E2E2E2E2E2E2E2E2E2E2E2E2E2E2E2E2E2E2E2E2E2E2E2E2E2E2E2E2E2E2E2E2E2E2E2E2E2E2E2E2E2E2E2E2E2E2F5F5F5F5F5E280E2F5F5F5F5F5E2E2000000000000000000000000E2E2E2E2E2E2E2E2E2E2E2E2E2E2E2E2E2E2E2E2E2F5F5F5E2E2E2E2E2E2F5F5F5E2F5E2E2
310
E2E2E2E2F5F5F5F5F5F5F5F5F5F5F5F5E2E2E2E2E2E2E2E2E2E2F5F5F5F5F5F5F5F5F5E2F5F5F5F5F5E2FFE2F5F5F5F5F5E2E2E2E2E2E2E2E2E2E2E2E2E2E2E2E2F5F5F5F5F5F5F5F5F5F5F5F5F5F5F5F5F5F5F5F5F5F5E2F5F5F5F5F5F5F5F5E2F5F5F5F5F5F5F5F5F5F5F5F5F5F5F5F5F5F5F5E2F5F5F5F5F5F5F5F5F5F5
310
F5F5F5F5F5F5F5F5E2F5F5F5F5F5E280E2F5F5F5F5F5E2F5F5F5F5F5F5F5F5F5F5F5F5F5F5E2E2E2E2E2F5F5F5F5F5F5F5F5F5F5F5F5F5F5F5F5F5F5E2E2E2F5F5F5F5F5F5E2E2E2E2E2F5F5F5F5F5F5F5F5F5F5F5F5F5F5F5E2E2E2F5F5F5F5F5F5F5F5F5F5F5F5F5F5F5F5E2F5F5F5F5F5E2FFE2E2F5F5F5F5E2E2E2E2E2
310
E2E2E2E2E2E2E2E2E2E2E2E2E2E2E2E2E2E2E2E2E2E2E2E2E2E2E2E2E2E2E2E2E2E2E2E2E2E2E2E2E2E2E2E2E2E2E2E2E2E2E2E2E2E2E2E2E2E2E2E2E2E2E2E2E2E2E2E2E2E2E2E2E2E2E2E2E2E2E2E2E2E2F5F5F5F5E2E2FFE2E2F5F5F5F5E2F5F5F5F5F5F5F5F5F5F5F5F5F5F5F5F5F5F5F5F5F5F5F5F5F5F5F5F5F5F5F5
310
F5F5F5F5F5F5F5F5F5F5F5F5F5F5F5F5F5F5F5F5F5F5F5F5F5F5F5F5F5F5F5F5F5F5F5F5F5F5F5F5F5F5F5F5F5F5F5F5F5F5F5F5F5F5E2F5F5F5F5E2E2FFE2E2F5F5F5F5E2F5F5F5F5F5F5F5F5F5F5F5F5F5F5F5F5F5F5F5F5F5F5F5F5F5F5F5F5F5F5F5F5F5F5F5F5F5F5F5F5F5F5F5F5F5F5F5F5F5F5F5F5F5F5F5F5F5F5
310
F5F5F5F5F5F5F5F5F5F5F5F5F5F5F5F5F5F5F5F5F5F5F5F5F5F5F5E2F5F5F5F5E2E2FFE2E2F5F5F5F5E2F5F5F5F5F5F5F5F5F5F5F5F5F5F5F5F5F5F5F5F5F5F5F5F5F5F5F5F5F5F5F5F5F5F5F5F5F5F5F5F5F5F5F5F5F5F5F5F5F5F5F5F5F5F5F5F5F5F5F5F5F5F5F5F5F5F5F5F5F5F5F5F5F5F5F5F5F5F5F5F5F5F5F5F5F5
310
E2F5F5F5F5E2E2FFE2E2F5F5F5F5E2F5F5F5F5F5F5F5F5F5F5F5F5F5F5F5F5F5F5F5F5F5F5F5F5F5F5F5F5F5F5F5F5F5F5F5F5F5F5F5F5F5F5F5F5F5F5F5F5F5F5F5F5F5F5F5F5F5F5F5F5F5F5F5F5F5F5F5F5F5F5F5F5F5F5F5F5F5F5F5F5F5F5F5F5F5E2F5F5F5F5E2E2FFE2E2F5F5F5F5E2F5F5F5F5F5F5F5F5F5F5F5F5
310
F5F5F5F5F5F5F5F5F5F5F5F5F5F5F5F5F5F5F5F5F5F5F5F5F5F5F5F5F5F5F5F5F5F5F5F5F5F5F5F5F5F5F5F5F5F5F5F5F5F5F5F5F5F5F5F5F5F5F5F5F5F5F5F5F5F5F5F5F5F5F5F5F5E2F5F5F5F5E2E2FFE2E2F5F5F5F5E2F5F5F5F5F5F5F5F5F5F5F5F5F5F5F5F5F5F5F5F5F5F5F5F5F5F5F5F5F5F5F5F5F5F5F5F5F5F5F5
310
F5F5F5F5F5F5F5F5F5F5F5F5F5F5F5F5F5F5F5F5F5F5F5F5F5F5F5F5F5F5F5F5F5F5F5F5F5F5F5F5F5F5F5F5F5F5E2F5F5F5F5E2E280E2E2F5F5F5F5E2F5F5F5F5F5F5F5F5F5F5F5F5F5F5F5F5F5F5F5F5F5F5F5F5F5F5F5F5F5F5F5F5F5F5F5F5F5F5F5F5F5F5F5F5F5F5F5F5F5F5F5F5F5F5F5F5F5F5F5F5F5F5F5F5F5F5
310
F5F5F5F5F5F5F5F5F5F5F5F5F5F5F5F5F5F5F5E2F5F5F5F5E2E280E2E2F5F5F5F5E2F5F5F5F5F5F5F5F5F5F5F5F5F5F5F5F5F5F5F5F5F5F5F5F5F5F5F5F5F5F5F5F5F5F5F5F5F5F5F5F5F5F5F5F5F5F5F5F5F5F5F5F5F5F5F5F5F5F5F5F5F5F5F5F5F5F5F5F5F5F5F5F5F5F5F5F5F5F5F5F5F5F5F5F5F5E2F5F5F5F5E2E280
310
E2E2F5F5F5F5E2F5F5F5F5F5F5F5F5F5F5F5F5F5F5F5F5F5F5F5F5F5F5F5F5F5F5F5F5F5F5F5F5F5F5F5F5F5F5F5F5F5F5F5F5F5F5F5F5F5F5F5F5F5F5F5F5F5F5F5F5F5F5F5F5F5F5F5F5F5F5F5F5F5F5F5F5F5F5F5F5F5F5F5F5F5E2F5F5F5F5E2E2FFE2E2F5F5F5F5E2F5F5F5F5F5F5F5F5F5F5F5F5F5F5F5F5F5F5F5F5
310
F5F5F5F5F5F5F5F5F5F5F5F5F5F5F5F5F5F5F5F5F5F5F5F5F5F5F5F5F5F5F5F5F5F5F5F5F5F5F5F5F5F5F5F5F5F5F5F5F5F5F5F5F5F5F5F5F5F5F5F5F5F5F5F5F5E2F5F5F5F5E2E2FFE2E2F5F5F5F5E2F5F5F5F5F5F5F5F5F5F5F5F5F5F5F5F5F5F5F5F5F5F5F5F5F5F5F5F5F5F5F5F5F5F5F5F5F5F5F5F5F5F5F5F5F5F5F5
310
F5F5F5F5F5F5F5F5F5F5F5F5F5F5F5F5F5F5F5F5F5F5F5F5F5F5F5F5F5F5F5F5F5F5F5F5F5F5E2F5F5F5F5E2E2FFE2E2F5F5F5F5E2F5F5F5F5F5F5F5F5F5F5F5F5F5F5F5F5F5F5F5F5F5F5F5F5F5F5F5F5F5F5F5F5F5F5F5F5F5F5F5F5F5F5F5F5F5F5F5F5F5F5F5F5F5F5F5F5F5F5F5F5F5F5F5F5F5F5F5F5F5F5F5F5F5F5
310
F5F5F5F5F5F5F5F5F5F5F5E2F5F5F5F5E2E280E2E2F5F5F5F5E2F5F5F5F5F5F5F5F5F5F5F5F5F5F5F5F5F5F5F5F5F5F5F5F5F5F5F5F5F5F5F5F5F5F5F5F5F5F5F5F5F5F5F5F5F5F5F5F5F5F5F5F5F5F5F5F5F5F5F5F5F5F5F5F5F5F5F5F5F5F5F5F5F5F5F5F5F5F5F5F5F5F5F5F5F5E2F5F5F5F5E2E2FFE2E2F5F5F5F5E2F5
310
F5F5F5F5F5F5F5F5F5F5F5F5F5F5F5F5F5F5F5F5F5F5F5F5F5F5F5F5F5F5F5F5F5F5F5F5F5F5F5F5F5F5F5F5F5F5F5F5F5F5F5F5F5F5F5F5F5F5F5F5F5F5F5F5F5F5F5F5F5F5F5F5F5F5F5F5F5F5F5F5F5F5F5F5E2F5F5F5F5E2E2FFE2E2F5F5F5F5E2F5F5F5F5F5F5F5F5F5F5F5F5F5F5F5F5F5F5F5F5F5F5F5F5F5F5F5F5
310
F5F5F5F5F5F5F5F5F5F5F5F5F5F5F5F5F5F5F5F5F5F5F5F5F5F5F5F5F5F5F5F5F5F5F5F5F5F5F5F5F5F5F5F5F5F5F5F5F5F5F5F5F5F5F5F5F5E2F5F5F5F5E2E2FFE2E2F5F5F5F5E2F5F5F5F5F5F5F5E2E2E2E2E2E2E2E2E2E2F5F5F5F5F5F5F5F5F5F5F5F5F5F5F5F5F5F5F5F5F5F5F5F5F5F5F5F5F5F5F5F5F5F5F5F5F5F5
310
F5F5F5F5F5F5F5F5F5F5F5F5F5F5F5F5F5F5F5F5F5F5F5F5F5F5F5F5F5F5E2F5F5F5F5E2E2FFE2F5F5F5F5F5E2F5F5F5F5F5E2E2E2E2E2E2E2E2E2E2E2E2E2F5F5F5F5F5F5F5F5F5F5F5F5F5F5F5F5F5F5F5F5F5F5F5F5F5F5F5F5F5F5F5F5F5F5F5F5F5F5F5F5F5F5F5F5F5F5F5F5F5F5F5F5F5F5F5F5F5F5F5F5F5F5F5F5
310
F5F5F5E2F5F5F5F5F5E2FFE2F5F5F5F5F5E2F5F5F5F5F5E2E2E2E2E2E2E2E2E2E2E2E2E2F5F5F5F5F5F5F5F5F5F5F5F5F5F5F5F5F5F5F5F5F5F5F5F5F5F5F5F5F5F5F5F5F5F5F5F5F5F5F5F5F5F5F5F5F5F5F5F5F5F5F5F5F5F5F5F5F5F5F5F5F5F5F5F5F5F5F5E2F5F5F5F5F5E2FFE2F5F5F5F5F5E2F5F5F5F5E2E2E2E2E2
310
E2E2E2E2E2E2E2E2E2F5F5F5F5F5F5F5F5F5F5F5F5F5F5F5F5F5F5F5F5F5F5F5F5F5F5F5F5F5F5F5F5F5F5F5F5F5F5F5F5F5F5F5F5F5F5F5F5F5F5F5F5F5F5F5F5F5F5F5F5F5F5F5F5F5F5F5E2F5F5F5F5F5E2FFE2F5F5F5F5F5E2F5F5F5F5E2E2E2E2E2E2E2E2E2E2E2E2E2E276767676F5F5F5F5F5F5F5F5F5F5F5F5F5F5
310
F5F5F5F5F5F5F5F5F5F5F5F5F5F5F5F5F5F5F5F5F5F5F5F5F5F5F5F5F5F5F5F5F5F5F5F5F5F5F5F5F5F5F5F5F5F5F5F5F5E2F5F5F5F5F5E2FFE2F5F5F5F5F5E2F5F5F5F5E2E2E2E2E2E2E2E2E2E2E2E2E2E2F5F5F576F5F5F5F5F5F5F5F5F5F5F5F5F5F5F5F5F5F5F5F5F5F5F5F5F5F5F5F5F5F5F5F5F5F5F5E2E2E2E2E2F5
310
F5F5F5F5F5F5F5F5F5F5F5F5F5F5F5F5F5F5F5F5F5F5E2F5F5F5F5F5E2FFE2F5F5F5F5F5E2F5F5F5F5F5F5E2E2E2E2E2E2E2E2E2E2E2E2F5F576F576F5F5F5F5F5F5F5F5F5F5F5F5F5F5F5F5F5F5F5F5F5F5F5F5F5F5F5F5F5F5F5F5F5F5E2E2E2E2E2E2E2E2E2E2E2E2E2E2E2E2E2E2E2E2E2E2E2E2F5F5F5F5E2F5F5F5F5
310
F5E280E2F5F5F5F5F5E2F5F576F5F5F5E2E2E2E2E2E2E2E2E2E2E2E2F5F576F576F5F5F5F5F5F5F5F5F5F5F5F5F5F5F5F5F5F5F5F5F5F5F5F5F5F5F5F5F5F5F5F5F5F5E2E2E2E2E2E2E2E2E2E2E2E2E2E2E2E2E2E2E2E2E2E2E2E2F5F5F5F5E2F5F5F5F5F5E2FFE2F5F5F5F5F5E2F5F576F5F5F5F5F5F5F5F5F5F5F5F5F5F5
310
F5F5F576F576F5F5F5F5F5F5F5F5F5F5F5F5F5F5F5F5F5F5F5F5F5F5F5F5F5F5F5F5F5F5F5F5F5F5E2E2E2E2E2E2E2E2E2E2E2E2E2E2E2E2E2E2E2E2F5F5F5F5F5F5F5F5E2F5F5F5F5F5E2FFE2F5F5F5F5F5E2F5F576F5F5F5F5F5F5F5F5F5F5F5F5F5F5F5F576F5F5F576F5F5F5F5F5F5F5F5F5F5F5F5F5F5F5F5F5F5F5F5
310
F5F5F5F5F5F5F5F5F5F5F5F5F5F5F5F5F5F5F5F5F5F5F5F5F5F5F5F5F5F5F5F5F5F5F5F5F5F5F5F5F5E2F5F5F5F5F5E2FFE2F5F5F5F5F5E2F5F576E2E2E2E2E2E2E2E2E2E2E2E2E2E2E2E276E2E2E276E2F5F5F5F5F5F5F5F5F5F5F5F5F5F5F5F5F5F5F5F5F5F5F5F5F5F5F5F5F5F5F5F5F5F5F5F5F5F5F5F5F5F5F5F5F5F5
310
F5F5F5F5F5F5F5F5F5F5F5F5F5F5E2F5F5F5F5F5E2FFE2E2F5F5F5F5E2F5F576F5F5F5F5F5F5F5F5F5F5F5F5F5F5F5F576F5F5F576E2E2E2F5F5F5F5F5F5F5F5F5F5F5F5F5F5F5F5F5F5F5F5F5F5F5F5F5F5F5F5F5F5E2E2E2E2E2E2E2E2E2E2E2E2E2E2E2E2E2E2E2E2E2F5F5F5F5F5F5F5E2F5F5F5F5E2E2FFE2E2F5F5F5
310
F5E2F5F576F5F5F5F5F5F5F5F5F5F5F5F5F5F5F576F5F5F5F5F576F5F5E2E2F5F5F5F5F5F5F5F5F5F5F5F5F5F5F5F5F5F5F5F5F5F5F5F5F5F5F5F5E2E2E2E2E2E2E2E2E2E2E2E2E2E2E2E2E2E2E2E2E2E2E2E2E2E2F5F5E2F5F5F5F5E2E2FFE2E2F5F5F5F5E2F5F576F5F5F5F5F5F5F5F5F5F5F5F5F5F5F576F5F5F5F5E276
310
F5F5F5F5E2E2F5F5F5F5F5F5F5F5F5F5F5F5F5F5F5F5F5F5F5F5F5F5F5F5F5F5E2E2E2E2E2E2E2E2E2E2E2E2E2E2E2E2E2E2E2E2E2E2E2E2E2E2F5F5E2F5F5F5F5E2E2FFE2E2F5F5F5F5E2F5F576F5F5F5F5F5F5F5F5F5F5F5F5F5F5F576F5F5F5F5E276F5F5F5F5F5F5E2F5F5F5F5F5F5F5F5F5F5F5F5F5F5F5F5F5F5F5F5
310
F5F5F5F5F5F5F5F5F5F5F5F5F5F5F5F5F5F5F5F5F5F5F5F5F5F5F5F5F5F5F5F5F5E2F5F5F5F5E2E2FFE2E2F5F5F5F5E2F5F576F5F5F5F5F5F5F5F5F5F5F5F5F5F576F5F5F5F5F5E276F5F5F5F5F5F5F5E2E2F5F5F5F5F5F5F5F5F5F5F5F5F5F5F5F5F5F5F5F5F5F5F5E2E2E2E2E2E2E2E2E2E2E2E2E2E2E2E2E2E2E2E2F5F5
310
F5F5F5F5F5F5E2F5F5F5F5E2E2FFE2E2F5F5F5F5E2F5F576F5F5F5F5F5F5F5F5F5F5F5F5F5F576F5F5F5F5F5E2F576F5F5F5F5F5F5F5F5E2E2F5F5F5F5F5F5F5F5F5F5F5F5F5F5F5F5F5F5F5F5F5E2E2E2E2E2E2E2E2E2E2E2E2E2E2E2E2E2E2E2E2F5F5F5F5F5F5F5F5E2F5F5F5F5E2E280E2E2F5F5F5F5E2F5F576F5F5F5
310
F5F5F5F5F5F5F5F5F5F5F576F5F5F5F5E2F5F576F5F5F5F5F5F5F5F5F5F5E2E2F5F5F5F5F5F5F5F5F5F5F5F5F5E2E2E2E2F5F5E2E2E2E2E2E2E2E2E2E2E2E2E2E2E2E2E2E2E2E2E2E2E2E2E2E2F5F5E2F5F5F5F5E2E2FFE2E2F5F5F5F5E2F5F576F5F5F5F5F5F5F5F5F5F5F5F5F576F5F5F5F5F5E2F5F576F5F5F5F5F5F5F5
310
F5F5F5F5F5E2F5F5F5F5F5F5F5F5F5F5F5E2E2E2E2E2E2F5E2E2E2E2E2E2E2E2E2E2E2E2E2E2E2E2E2E2E2E2E2E2E2E2E2E2F5F5E2F5F5F5F5E2E2FFE2E2F5F5F5F5E2F5F576F5F5F5F5F5F5F5F5F5F5F5F5F576F5F5F5F5F5E2F5F5F576F5F5F5F5F5F5F5F5F5F5F5F5E2E2F5F5F5F5F5F5F5F5F5E2F5E2E2F5E2F5E2E2E2
310
E2E2E2E2E2E2E2E2E2E2E2E2E2E2E2E2E2F5F5F5F5F5F5F5F5E2F5F5F5F5E2E2FFE2E2F5F5F5F5E2F5F576F5F5F5F5F5F5F5F5F5F5F5F5F576F5F5F5F5F5E2F5F5F576F5F5F5F5F5F5F5F5F5F5F5F5F5F5E2E2F5F5F5F5F5F5F5E2E2E2E2F5E2F5E2E2E2E2E2E2E2E2E2E2E2E2E2E2E2E2E2E2E2E2E2E2E2E2E2F5F5F5E2F5
310
F5F5F5E2E2FFE2E2F5F5F5F5E2F5F576F5F5F5F5F5F5F5F5F5F5F5F576F5F5F5F5F5E2F5F5F5F576F5F5F5F5F5F5F5F5F5F5F5F5F5F5F5F5E2F5F5F5F5F5F5E2E2E2E2E2E2F5E2E2E2E2E2E2E2E2E2E2E2E2E2E2E2E2E2E2E2E2E2E2E2E2E2F5F5F5E2F5F5F5F5E2E2FFE2E2F5F5F5F5E2F5F576F5F5F5F5F5F5F5F5F5F5F5
310
F576F5F5F5F5F5E2F5F5F5F5F576F5F5F5F5F5F5F5F5F5F5F5F5F5F5F5F5E2E2F5F5F5F5F5E2E2E2E2F5F5F5F5F5F5F5F5F5F5F5F5F5F5F5F5F5F5F5F5F5F5F5F5F5F5F5F5F5F5E2F5F5F5F5E2E2FFE2E2F5F5F5F5E2F5F576E2E2E2E2E2E2E2E2E2E2E2E276F5F5F5F5F5E2F5F5F5F5F576F5F5F5F5F5F5F5F5F5F5F5F5F5
310
F5F5F5F5F5E2E2F5F5F5F5F5F5F5F5F5F5F5F5F5F5F5F5F5F5F5F5F5F5F5F5F5F5F5F5F5F5F5F5F5F5F5F5F5E2F5F5F5F5E2E2FFE2E2F5F5F5F5E2F5767676F5F5F5F5F5F5F5F5F5F5F5E2F5F5F5F5F5E2F5F5F5F5F576F5F5F5F5F5F5F5F5F5F5F5F5F5F5F5F5F5F5F5F5E2E2F5F5F5F5F5F5F5F5F5F5F5F5F5F5F5F5F5F5
310
F5F5F5F5F5F5F5F5F5F5F5F5F5F5F5F5F5E2F5F5F5F5E2E2FFE2E2F5F5F5F5E2F5F576F5F5F5F5F5F5F5F5F5F5F5F5E2F5F5F5F5E2F5F5F5F5F5F5F576F5F5F5F5F5F5F5F5F5F5F5F5F5F5F5F5F5F5F5F5F5E2F5F5F5F5F5F5F5F5F5F5F5F5F5F5F5F5F5F5F5F5F5F5F5F5F5F5F5F5F5F5F5F5F5F5E2F5F5F5F5E2E2FFE2E2
310
F5F5F5F5E2F5F576F5F5F5F5F5F5F5F5F5F5F5F5E2F5F5F5F5E2F5F5F5F5F5F5F576F5F5F5F5F5F5F5F5F5F5F5F5F5F5F5F5F5F5F5F5F5F5E2E2F5F5F5F5F5F5F5F5F5F5F5F5F5F5F5F5F5F5F5F5F5F5F5F5F5F5F5F5F5F5F5F5E2F5F5F5F5E2E280E2E2F5F5F5F5E2F5F576F5F5F5F5F5F5F5F5F5F5F5F5E2F5F5F5F5E2F5
310
F5F5F5F5F5F57676F5F5F5F5F5F5F5F5F5F5F5F5F5F5F5F5F5F5F5F5F5F5F5E2E2F5F5F5F5F5F5F5F5F5F5F5F5F5F5F5F5F5F5F5F5F5F5F5F5F5F5F5F5F5F5E2F5F5F5F5E2E2FFE2F5F5F5F5F5E2F5F576CACAF5F5F5F5F5F5F5F5F5F5E2F5F5F5F5E2F5F5F5F5F5F5F5CA76F5F5F5F5F5F5F5F5F5F5F5F5F5F5F5F5F5F5F5
310
F5F5F5F5F5F5E2E2F5F5F5F5F5F5F5F5F5F5F5F5F5F5F5F5F5F5F5F5F5F5F5F5F5F5F5F5E2F5F5F5F5F5E2FFE2F5F5F5F5F5E2F5F576F5F5CACAF5F5F5F5F5F5F5F5E2F5F5F5E2F5F5F5F5F5F5F5E2F5CAE2F5F5F5F5F5F5F5F5F5F5F5F5F5F5F5F5F5F5F5F5F5F5F5F5F5F5E2F5F5F5F5F5F5F5F5F5F5F5F5F5F5F5F5F5F5
310
F5F5F5F5F5F5F5F5F5E2F5F5F5F5F5E2FFE2F5F5F5F5F5E2F5F576F5F5F5F5CACAF5F5F5F5F5F5E2F5F5F5E2F5F5F5F5F5F5F5E2F5CAF5E2E2F5F5F5F5F5F5F5F5F5F5F5F5F5F5F5F5F5F5F5F5F5F5F5F5F5E2E2F5F5F5F5F5F5F5F5F5F5F5F5F5F5F5F5F5F5F5F5F5F5F5F5F5E2F5F5F5F5F5E2FFE2F5F5F5F5F5E2F5F576
310
F5F5F5F5F5F5CACAF5F5F5F5E2F5F5F5E2F5F5F5F5F5F5E2F5F5F5CAF5F5E2E2F5F5F5F5F5F5F5F5F5F5F5F5F5F5F5F5F5F5F5F5F5F5F5F5F5E2E2F5F5F5F5F5F5F5F5F5F5F5F5F5F5F5F5F5F5F5F5F5F5F5E2F5F5F5F5F5E2FFE2F5F5F5F5F5E2F5F576F5F5F5F5F5F5F5F5CACAF5F5E2F5F5F5E2F5F5F5F5F5F5E2F5F5F5
310
F5CAF5F5F5E2E2F5F5F5F5F5F5F5F5F5F5F5F5F5F5F5F5F5F5F5F5F5F5F5F5F5E2E2F5F5F5F5F5F5F5F5F5F5F5F5F5F5F5F5F5F5F5F5F5E2F5F5F5F5F5E2FFE2F5F5F5F5F5E2F5F576F5F5F5F5F5F5F5F5F5F5CACAE2F5F5E2F5F5F5F5F5F5E2F5F5F5F5F5CAF5F5F5F5F5E2E2F5F5F5F5F5F5F5F5F5F5F5F5F5F5F5F5F5F5
310
F5F5F5F5F5F5F5E2F5F5F5F5F5F5F5F5F5F5F5F5F5F5F5F5F5F5F5F5E2F5F5F5F5F5E2FFE2F5F5F5F5F5E2F5F576E2E2E2E2E2E2E2E2E2E2E2E2CAE2E2CAF5F5F5F5F5F5E2F5F5F5F5F5F5CAF5F5F5F5F5F5E2E2F5F5F5F5F5F5F5F5F5F5F5F5F5F5F5F5F5F5F5F5F5F5F5F5E2E2F5F5F5F5F5F5F5F5F5F5F5F5F5F5F5F5F5
310
F5E2F5F5F5F5F5E2FFE2F5F5F5F5F5E2F5F576F5F5CAF5F5F5CACAF5F5F5CAF5F5F5E2E2E2F5F5F5E2F5F5F5F5F5F5F5F5CAF5F5F5F5F5F5F5E2E2F5F5F5F5F5F5F5F5F5F5F5F5F5F5F5F5F5F5F5F5F5F5F5F5E2E2F5F5F5F5F5F5F5F5F5F5F5F5F5F5F5F5E2F5F5F5F5F5E2FFE2F5F5F5F5F5E2F5F576F5F5CACAF5F5F5CA
310
CAF5F5CACAF5F5E2E2F5E2E2CAE2F5F5F5F5F5F5F5F5CAF5F5F5F5F5F5F5F5F5E2E2F5F5F5F5F5F5F5F5F5F5F5F5F5F5F5F5F5F5F5F5F5F5F5F5E2F5F5F5F5F5F5F5F5F5F5F5F5F5F5F5E2F5F5F5F5F5E280E2F5F5F5F5F5E2F5F576CAF5F5F5CACAF5F5CACAF5F5CACACAE2E2F5F5F5E2E2F5F5F5F5F5F5F5F5F5CAF5F5F5
310
F5F5F5F5F5F5F5E2E2F5F5F5F5F5F5F5F5F5F5F5F5F5F5F5F5F5F5F5F5F5F5F5E2E2F5F5F5F5F5F5F5F5F5F5F5F5F5E2F5F5F5F5F5E2FFE2E2F5F5F5F5E2F5F5760FCACA0F0F0FCACA0F0FCA76CA0FCACAF5CAF5F5CAE2E2F5F5F5F5F5F5F5F5F5CAF5F5F5F5F5F5F5F5F5F5F5E2F5F5F5F5F5F5F5F5F5F5F5F5F5F5F5F5F5
310
F5F5F5F5F5F5F5E2E2F5F5F5F5F5F5F5F5F5F5F5E2F5F5F5F5E2E2FFE2E2F5F5F5F5E2F5F576F5F5F5F5F5F5F5F5F5F57676F5F5F5CA0FCACAF5CAF5F5E2E2F5F5F5F5F5F5F5F5CAF5F5F5F5F5F5F5F5F5E2F5F5F5F5F5F5F5F5F5F5F5F5F5F5F5F5F5F5F5F5F5F5F5F5F5F5F5E2E2F5F5F5F5F5F5F5F5F5E2F5F5F5F5E2E2
310
FFE2E2F5F5F5F5E2F5F576F5F5F5F5F5F5F5F5F5F5F576F5F5CAE2CACACACAF5CAF5F5CAE2E2F5F5F5F5F5F5CAF5F5F5F5F5F5F5F5F5E2F5F5F5F5F5F5F5F5F5F5F5F5F5F5F5F5F5F5F5F5F5F5F5F5F5F5F5F5F5E2F5F5F5F5F5F5F5F5E2F5F5F5F5E2E2FFE2E2F5F5F5F5E2F5F576F5F5F5F5F5F5F5F5F5F5F576F57676CA
310
CAE2CACA0FCACAF5CAF5F5E2E2F5F5F5F5F5CAF5F5F5F5F5F5F5E2F5F5F5F5F5F5F5F5E2F5F5F5F5F5F5F5F5F5F5F5F5F5F5F5F5F5F5F5F5F5F5E2E2F5F5F5F576F5E2F5F5F5F5E2E2FFE2E2F5F5F5F5E2F5F576F5F5E2E2E2E2E2E2E2F5F576F576F5F5F5CACAE2CAF5CACAF5CAF5F5CAE2F5F5F5F5F5CAF5F5F5F5F5E2F5
310
F5F5F5F5F5F5F5E2E2E2E2F5F5F5F5F5F5F5F5F5F5F5F5F5F5F5F5F5F5F5F5F5F5E2E2F5F576F5E2F5F5F5F5E2E2FFE2E2F5F5F5F5E2F5E2E2E2E2E2E2E2E2E2E2E2F5F57676F576F5F5F5F5CACACACA0F0FCAF5F5CAF5E2E2CAF5F5CAF5F5F5F5F5E2F5F5F5F5F5F5F5F5F5F5E2E2E2F5F5F5F5F5F5F5F5F5F5F5F5F5F5F5
310
F5F5F5F5F5F5F5F5E2E276F5E2F5F5F5F5E2E2FFE2E2F5F5F5F5E2F5E2E2E2E2E2E2E2E2E2E2E2F5F57676F5F57676F5F5F5F5CACACACA0FCAF5CACAF5F5E2E2F5F5CAF5F5F5E2F5F5F5F5F5F5F5F5F5F5F5F5F5E2E2E2F5F5F5F5F5F5F5F5F5F5F5F5F5F5F5F5F5F5F5F5F5F5F576F5E2F5F5F5F5E2E2FFE2E2F5F5F5F5E2
310
E2E2E2E2E2E2E2E2E2E2E2E27676767676F576767676F5F5F5F5CACACAF5CA0FCAF5F5CAF5E2E2F5CAF5E2F5F5F5F5F5F5F5F5F5F5F5F5F5F5F5E2E2E2F5F5F5F5F5F5F5F5F5F5F5F5F5F5F5F5F5F5F5F5F5F576F5E2F5F5F5F5E2E2FFE2E2F5F5F5F5E2E2E2E2E2E2E2E2E2E2E2E2E2F5F5F5767676F5F576767676F5F5F5
310
F5CACACAF5CACAF5CAF5F5F5E2CAF5E2F5F5F5F5F5F5F5F5F5F5F5F5F5F5F5F5F5F5F5F5F5F5F5F5F5F5F5F5F5F5F5F5F5F5F5F5F5F5F5F576F5E2F5F5F5F5E2E280E2E2F5F5F5F5E2E2E2E2E2E2E2E2E2E2E2E2E2F5F5F5F5F5F57676F5F576767676F5F5F5CACACACACACAF5CAF5F5CAE2CAF5F5F5F5F5F5F5F5F5F5F5F5
310
F5F5F5F5F5F5F5F5F5F5F5F5F5F5F5F5F5F5F5F5F5F5F5F5F5F5F5F5F576F5E2F5F5F5F5E2E2FFE2E2F5F5F5F5E2F5F5F5F5F5F5F5F5F5F5F5F5F5F5F5F5F5F5F5F57676F576767676F5F5F5F5CACACAF50FCACAF5CAF5F5E2CAF5F5F5F5F5F5F5F5F5F5F5F5F5F5F5F5F5F5F5F5F5F5F5F5F5F5F5F5F5F5F5F5F5F5F5F5F5
310
F5F576F5E2F5F5F5F5E2E2FFE2E2F5F5F5F5E2F5F5F5F5F5F5F5F5F5F5F5F5F5F5F5F5F5F5F5E2E2E276F5F576767676F5F5F5F5CACACAF5CACACACAF5F5CAE2E2F5F5F5F5F5F5F5F5F5F5F5F5F5F5F5F5F5F5F5F5F5F5F5F5F5F5F5F5F5F5F5F5F5F5F5F5F576F5E2F5F5F5F5E2E2FFE2E2F5F5F5F5E2E2E2E2E2E2E2E2E2
310
E2E2E2E2E2E2E2E2E2F5E2E2E2E2E27676F5F576767676F5F5F5F5CACACA280FCAF5F5CAF5F5E2CA76767676767676E2E2E2E2E2F5F5F5F5F5F5F5F5F5F5F5F5F5F5F5F5F5F5F5F5F5F5F576F5E2F5F5F5F5E2E2FFE2E2F5F5F5F5E2E2E2E2E2E2E2E2E2E2E2E2E2E2E2E2E2E2F5E2F5E2E2E2E2F57676F5F576767676F5F5
310
F5E2CACA280FCAF5CACAF5F5CA76F5F5F5F5F5F5F5F5F5F5F5F5F5F5F5F5F5F5F5F5F5F5F5F5F5F5F5F5F5F5F5F5F5F576F5E2F5F5F5F5E2E2FFE2E2F5F5F5F5E2F5E2E2E2E2E2E2E2E2E2E2E2E2E2E2E2E2F5E2F5E2E2E2E2F5F5F57676F57676767676F5F576CACACAF5CA0FCAF5F5CA76E2E2F5F5F5F5F5F5F5F5F5F5F5
310
F5F5F5F5F5F5F5F5F5F5F5F5F5F5F5F5F5F5F5F5F576F5E2F5F5F5F5E2E2FFE2E2F5F5F5F5E2E2E2E2E2E2E2E2E2E2E2E2E2E2E2E2E2E2F5E2F5E2E2E2E2F5F5F5F5F576F5F5F5F5F576F576F5F5CACACA280FCAF5CA76F5F5CAE2F5F5F5F5F5F5F5F5F5F5F5F5F5F5F5F5F5F5F5F5F5F5F5F5F5F5F5F5F5F576F5E2F5F5F5
310
F5E2E2FFE2E2F5F5F5F5E2E2E2E2E2E2E2E2E2E2E2E2E2E2E2E2E2E2F5E2E2F5E2E2F5F5F5F5F5F5F57676F5F5F5F576F5F5F5F5F5CACAE2F5CAF576F5F5CAF5E2E2F5F5F5F5F5F5F5F5F5F5F5F5F5F5F5F5F5F5F5F5F5F5F5F5F5F5F5F576F5E2F5F5F5F5E2E2FFE2F5F5F5F5F5E2F5F5F5F5F5F5F5F5F5F5F5F5F5F5F5F5
310
F5F5F5F5E2E2F5F5F5F5F5F5F5F5F5F57676F5F5F5F5F5F5F5F5F5F5CACA280F7676F5CAF5F5F5CAF5F5F5F5F5F5F5F5F5F5F5F5F5F5F5F5F5F5F5F5F5F5F5F5F5F5F576F5E2F5F5F5F5F5E2FFE2F5F5F5F5F5E2F5F5F5F5F5F5F5F5F5F5F5F5F5F5F5F5F5F5F5F5F5F5F5F5F5F5F5F5F5F5F5F5F5F576F5F5F5F5F5F5F5F5
310
F5F5F5CACA760FCACACAF5F5CAE2E2F5F5F5F5F5F5F5F5F5F5F5F5F5F5F5F5F5F5F5F5F5F5F5F5F576F5E2F5F5F5F5F5E280E2F5F5F5F5F5E2F5F5F5F5F5F5F5F5F5F5F5F5F5F5F5F5F5F5F5F5F5F5F5F5F5F5F5F5F5F5F5F5F5F5F57676F5F5F5F5F5F5F5F5F5F5E2CAECCA0FCACAF5CAF5F5E2CAF5F5F5F5F5F5F5F5F5F5
310
F5F5F5F5F5F5F5F5F5F5F5F5F576F5E2F5F5F5F5F5E2FFE2F5F5F5F5F5E2F5F5F5F5F5F5F5F5F5F5F5F5F5F5F5F5F5F5F5F5F5F5F5F5F5F5F5F5F5F5F5F5F5F5F5F5F57676F5F5F5F5F5F5F5F5F5F5CACAECCACACAF5CAF5F5CAE2E2F5F5F5F5F5F5F5F5F5F5F5F5F5F5F5F5F5F5F5F5F576F5E2F5F5F5F5F5E2FFE2F5F5F5
310
F5F5E2F5F5F5F5F5F5F5F5F5F5F5F5F5F5F5F5F5F5F5F5F5F5F5F5F5F5F5F5F5F5F5F5F5F5F5F5F576F57676F5F5F5F5F5F5F5F5F5E2CACAECCA0FCAF5F5CAF5F5E2F5F5F5F5F5F5F5F5F5F5F5F5F5F5F5F5F5F5F5F576F5E2F5F5F5F5F5E2FFE2F5F5F5F5F5E2F5F5F5F5F5F5F5F5F5F5F5F5F5F5F5F5F5F5F5F5F5F5F5F5
310
F5F5F5F5F5F5F5F5F5F5F5F5F5F5F576F576F5F5F5F5F5F5F5F5F5F5E2CACACA0FCAF5CACAF5F5CAE2F5F5F5F5F5F5F5F5F5F5F5F5F5F5F5F576767676E2F5F5F5F5F5E2FFE2F5F5F5F5F5E2F5F5F5F5F5F5F5F5F5F5F5F5F5F5F5F5F5F5F5F5F5F5F5F5F5F5F5F5F5F5F5F5F5F5F5F5F5F5F5F5F5767676F5F5F5F5F5F5F5
310
F5F5F5E2CAECCACAE2CAF5F5CAF5E2E2F5F5F5F5F5F5F5F5F5F5F5F5F5F5F57676F5E2F5F5F5F5F5E2FFE2F5F5F5F5F5E2F5F5F5F5F5F5F5F5F5F5F5F5F5F5F5F5F5F5F5F5F5F5F5F5F5F5F5F5F5F5F5F5F5F5F5F5F5F5F5F5F5F576767676F5F5F5F5F5F5F5F5F5E2CACAEC280FCAF5CAF5F5F5CAE2F5F5F5F5F5F5F5F5F5
310
F5F5F5F5F576F5E2F5F5F5F5F5E2FFE2F5F5F5F5F5E2F5F5F5F5F5F5F5F5F5F5F5F5F5F5F5F5F5F5F5F5F5F5F5F5F5F5F5F5F5F5F5F5F5F5F5F5F5F5F5F5F5F5F5F576F57676F5F5F5F5F5F5F5F5F5F5CACACA28CAF5CAF5F5CAF5E2F5F5F5F5F5F5F5F5F5F5F5F5F576F5E2F5F5F5F5F5E2FFE2F5F5F5F5F5E2F5F5F5F5F5
310
F5F5F5F5F5F5F5F5F5F5F5F5F5F5F5F5F5F5F5F5F5F5F5F5F5F5F5F5F5F5F5F5F5F5F5F5F5F5F5F5F576F576F5F5F5F5F5F5F5F5F576E2CAECCA0FCACAF5CAF5F5E2CAF5F5F5F5F5F5F5F5F5F5F576F5E2F5F5F5F5F5E2FFE2E2F5F5F5F5E2F5F5F5F5F5F5F5F5F5F5F5F5F5F5F5F5F5F5F5F5F5F5F5F5F5F5F5F5F5F5F5F5
310
F5F5F5F5F5F5F5F5F5F5F5F5F5F5F5F5767676F5F5F5F5F5F5F576F5F5CACAECF5CACAF5CAF5F5CAE2E2F5F5F5F5F5F5F5F5F576F5E2F5F5F5F5E2E2FFE2E2F5F5F5F5E2F5F5F5F5F5F5F5F5F5F5F5F5F5F5F5F5F5F5F5F5F5F5F5F5F5F5F5F5F5F5F5F5F5F5F5F5F5F5F5F5F5F5F5F5F5F5F5F5F576767676F5F5F5F5F576
310
F5F5F5E2CACACACA0FCAF5F5CAF5F5E2E2F5F5F5F5F5F5F576F5E2F5F5F5F5E2E280E2E2F5F5F5F5E2F5F5F5F5F5F5F5F5F5F5F5F5F5F5F5F5F5F5F5F5F5F5F5F5F5F5F5F5F5F5F5F5F5F5F5F5F5F5F5F5F5F5F5F5F5F5F5F5F5F5F5F5F57676F5F5F576F5F5F5F5F5E2CACACA0FCAF5CACAF5F5CAE2F5F5F5F5F5F576F5E2
310
F5F5F5F5E2E2FFE2E2F5F5F5F5E2F5F5F5F5F5F5F5F5F5F5F5F5F5F5F5F5F5F5F5F5F5F5F5F5F5F5F5F5F5F5F5F5F5F5F5F5F5F5F5F5F5F5F5F5F5F5F5F5F5F5F5F5F5F5F576F5F576F5F5F5F5F5F5F5E2CAE228CA0FCAF5F5CAF5E2E2F5F5F5F576F5E2F5F5F5F5E2E2FFE2E2F5F5F5F5E2F5F5F5F5F5F5F5F5F5F5F5F5F5
310
F5F5F5F5F5F5F5F5F5F5F5F5F5F5F5F5F5F5F5F5F5F5F5F5F5E2E2E2E2E2E2E2E2E2E2E2E2E2E2F5F5F5F5767676F5F5F5F5F5F5F5F5F5CACAE2280FCAF5CAF5F5F5CAE2F5F576F5E2F5F5F5F5E2E2FFE2E2F5F5F5F5E2F5F5F5F5F5F5F5F5F5F5F5F5F5F5F5F5F5F5F5F5F5F5F5F5F5F5F5F5F5F5F5F5F5F5F5F5F5F5E2E2
310
E2E2E2E2E2E2E2E2E2E2E2E2F5F5F5F5F5F57676F5F5F5F5F5F5F5F5F5E2CACACACACAE2CAF5F5CAF5E2E276F5E2F5F5F5F5E2E2FFE2E2F5F5F5F5E2F5F5F5F5F5F5F5F5F5F5F5F5F5F5F5F5F5F5F5F5F5F5F5F5F5F5F5F5F5F5F5F5F5F5E2E2E2E2E2E2E2E2E2E2E2E2E2E2E2E2E2E276767676767676F576F5F5F5F5F5F5
310
F5F5F5F5E2CAE2280FCACAF5CAF5F5F576F5E2F5F5F5F5E2E2FFE2E2F5F5F5F5E2F5F5F5F5F5F5F5F5F5F5F5F5F5F5F5F5F5F5F5F5F5F5F5F5F5F5F5F5F5F5F5F5F5F5F5E2E2E2E2E2E2E2E2E2E2E2E2E2E2E2E2E2F5F5F5F5F5F5F5F5F57676F5F5F5F5F5F5F5F5F5F5CACACA28CACAF5CAF5F576F5E2F5F5F5F5E2E2FFE2
310
E2F5F5F5F5E2F5F5F5F5F5F5F5F5F5F5F5F5F5F5F5F5F5F5F5F5F5F5F5F5F5F5F5F5F5F5F5F5F5F5F5E2E2E2E2E2E2E2E2E2E2E2E2E2E2E2E2E2F5F5F5F5F5F5F5F5F5F5F57676F5F5F5F5F5F5F5F5F5ECCACACACA0FCAF5F576F5E2F5F5F5F5E2E2FFE2E2F5F5F5F5E2F5F5F5F5F5F5F5F5F5F5F5F5F5F5F5F5F5F5F5F5F5
310
F5F5F5F5F5F5F5F5F5F5F5F5F5F5F5F5F5F5F5F5F5F5F5F5F5F5F5F5F5F5F5F5F5F5F5F5F5F5F5F5F5F5F5F57676F5F5F5F5F5F5F5F5F5E2CACACA28CAE276F5E2F5F5F5F5E2E2FFE2E2F5F5F5F5E2F5F5F5F5F5F5F5F5F5F5F5F5F5F5F5F5F5F5F5F5F5F5F5F5F5F5F5F5F5F5F5F5F5F5F5F5F5F5F5F5F5F5F5F5F5F5F5F5
310
F5F5F5F5F5F5F5F5F5F5F5F5F5F5F5F5F5F5F576F5F5F5F5F5F5F5F5F5F5E2CACACA2876F5E2F5F5F5F5E2E2FFE2E2F5F5F5F5E2F5F5F5F5F5F5F5F5F5F5F5F5F5F5F5F5F5F5F5F5F5F5F5F5F5F5F5F5F5F5F5F5F5F5F5F5F5F5F5F5F5F5F5F5F5F5F5F5F5F5F5F5F5F5F5F5F5F5F5F5F5F5F5F5F5F5F5F57676F5F5F5F5F5
310
F5F576F5E2CAE2CACAF5E2F5F5F5F5E2E280E2E2F5F5F5F5E2F5F5F5F5F5F5F5F5F5F5F5F5F5F5F5F5F5F5F5F5F5F5F5F5F5F5F5F5F5F5F5F5F5F5F5F5F5F5F5F5F5F5F5F5F5F5F5F5F5F5F5F5F5F5F5F5F5F5F5F5F5F5F5F5F5F5F5F5F5F57676F5F5F5F5F576F5F5F5CACACAF5E2F5F5F5F5E2E2FFE2E2F5F5F5F5E2F5F5
310
F5F5F5F5F5F5F5F5F5F5F5F5F5F5F5F5F5F5F5F5F5F5F5F5F5F5F5F5F5F5F5F5F5F5F5F5F5F5F5F5F5F5F5F5F5F5F5F5F5F5F5F5F5F5F5F5F5F5F5F5F5F5F5F5F5F5F5F5F5F57676F5F576F5F5F5F5F5F5CAF5E2F5F5F5F5E2E2FFE2E2F5F5F5F5E2F5F5F5F5F5F5F5F5F5F5F5F5F5F5F5F5F5F5F5F5F5F5F5F5F5F5F5F5F5
310
F5F5F5F5F5F5F5F5F5F5F5F5F5F5F5F5F5F5F5F5F5F5F5F5F5F5F5F5F5F5F5F5F5F5F5F5F5F5F5F5F5F5F5F5F576F576F5F5F5F5F5F576F5E2F5F5F5F5E2E2FFE2E2F5F5F5F5E2F5F5F5F5F5F5F5F5F5F5F5F5F5F5F5F5F5F5F5F5F5F5F5F5F5F5F5F5F5F5F5F5F5F5F5F5F5F5F5F5F5F5F5F5F5F5F5F5F5F5F5F5F5F5F5F5
310
F5F5F5F5F5F5F5F5F5F5F5F5F5F5F5F5F5F5F576F5F5F5F5F5F5F5F5F5E2F5F5F5F5E2E2FFE2E2F5F5F5F5E2F5F5F5F5F5F5F5F5F5F5F5F5F5F5F5F5F5F5F5F5F5F5F5F5F5F5F5F5F5F5F5F5F5F5F5F5F5F5F5F5F5F5F5F5F5F5F5F5F5F5F5F5F5F5F5F5F5F5F5F5F5F5F5F5F5F5F5F5F5F5F5F5F5F5F5F5F5F5F5F5F5F5F5
310
F5F5E2F5F5F5F5E2E2FFE2F5F5F5F5F5E2F5F5F5F5F5F5F5F5F5F5F5F5F5F5F5F5F5F5F5F5F5F5F5F5F5F5F5F5F5F5F5F5F5F5F5F5F5F5F5F5F5F5F5F5F5F5F5F5F5F5F5F5F5F5F5F5F5F5F5F5F5F5F5F5F5F5F5F5F5F5F5F5F5F5F5F5F5F5F5F5F5F5F5F5F5E2F5F5F5F5F5E2FFE2F5F5F5F5F5E2F5F5F5F5F5F5F5F5F5F5
310
F5F5F5F5F5F5F5F5F5F5F5F5F5F5F5F5F5F5F5F5F5F5F5F5F5F5F5F5F5F5F5F5F5F5F5F5F5F5F5F5F5F5F5F5F5F5F5F5F5F5F5F5F5F5F5F5F5F5F5F5F5F5F5F5F5F5F5F5F5F5F5F5F5F5F5E2F5F5F5F5F5E2FFE2F5F5F5F5F5E2F5F5F5F5F5F5F5F5F5F5F5F5F5F5F5F5F5F5F5F5F5F5F5F5F5F5F5F5F5F5F5F5F5F5F5F5F5
310
F5F5F5F5F5F5F5F5F5F5F5F5F5F5F5F5F5F5F5F5F5F5F5F5F5F5F5F5F5F5F5F5F5F5F5F5F5F5F5F5F5F5F5F5F5F5F5F5E2F5F5F5F5F5E2FFE2F5F5F5F5F5E2F5F5F5F5F5F5F5F5F5F5F5F5F5F5F5F5F5F5F5F5F5F5F5F5F5F5F5F5F5F5F5F5F5F5F5F5F5F5F5F5F5F5F5F5F5F5F5F5F5F5F5F5F5F5F5F5F5F5F5F5F5F5F5F5
310
F5F5F5F5F5F5F5F5F5F5F5F5F5F5F5F5F5F5F5F5F5E2F5F5F5F5F5E2FFE2F5F5F5F5F5E2F5F5F5F5F5F5F5F5F5F5F5F5F5F5F5F5F5F5F5F5F5F5F5F5F5F5F5F5F5F5F5F5F5F5F5F5F5F5F5F5F5F5F5F5F5F5F5F5F5F5F5F5F5F5F5F5F5F5F5F5F5F5F5F5F5F5F5F5F5F5F5F5F5F5F5F5F5F5F5F5F5F5F5F5F5E2F5F5F5F5F5
310
E280E2F5F5F5F5F5E2F5F5F5F5F5F5F5F5F5F5F5F5F5F5F5F5F5F5F5F5F5F5F5F5F5F5F5F5F5F5F5F5F5F5F5F5F5F5F5F5F5F5F5F5F5F5F5F5F5F5F5F5F5F5F5F5F5F5F5F5F5F5F5F5F5F5F5F5F5F5F5F5F5F5F5F5F5F5F5F5F5F5F5F5F5E2F5F5F5F5F5E2FFE2F5F5F5F5F5E2F5F5F5F5F5F5F5F5F5F5F5F5F5F5F5F5F5F5
310
F5F5F5F5F5F5F5F5F5F5F5F5F5F5F5F5F5F5F5F5F5F5F5F5F5F5F5F5F5F5F5F5F5F5F5F5F5F5F5F5F5F5F5F5F5F5F5F5F5F5F5F5F5F5F5F5F5F5F5F5F5F5F5F5F5F5F5E2F5F5F5F5F5E2FFE2F5F5F5F5F5E2F5F5F5F5F5F5F5F5F5F5F5F5F5F5F5F5F5F5F5F5F5F5F5F5F5F5F5F5F5F5F5F5F5F5F5F5F5F5F5F5F5F5F5F5F5
310
F5F5F5F5F5F5F5F5F5F5F5F5F5F5F5F5F5F5F5F5F5F5F5F5F5F5F5F5F5F5F5F5F5F5F5F5F5F5F5F5E2F5F5F5F5F5E2FFE2F5F5F5F5F5E2F5F5F5F5F5F5F5F5F5F5F5F5F5F5F5F5F5F5F5F5F5F5F5F5F5F5F5F5F5F5F5F5F5F5F5F5F5F5F5F5F5F5F5F5F5F5F5F5F5F5F5F5F5F5F5F5F5F5F5F5F5F5F5F5F5F5F5F5F5F5F5F5
310
F5F5F5F5F5F5F5F5F5F5F5F5F5E2F5F5F5F5F5E2FFE2F5F5F5F5F5E2F5F5F5F5F5F5F5F5F5F5F5F5F5F5F5F5F5F5F5F5F5F5F5F5F5F5F5F5F5F5F5F5F5F5F5F5F5F5F5F5F5F5F5F5F5F5F5F5F5F5F5F5F5F5F5F5F5F5F5F5F5F5F5F5F5F5F5F5F5F5F5F5F5F5F5F5F5F5F5F5F5F5F5F5F5E2F5F5F5F5F5E2FFE2E2F5F5F5F5
310
E2F5F5F5F5F5F5F5F5F5F5F5F5F5F5F5F5F5F5F5F5F5F5F5F5F5F5F5F5F5F5F5F5F5F5F5F5F5F5F5F5F5F5F5F5F5F5F5F5F5F5F5F5F5F5F5F5F5F5F5F5F5F5F5F5F5F5F5F5F5F5F5F5F5F5F5F5F5F5F5F5F5F5F5F5F5E2F5F5F5F5E2E2FFE2E2F5F5F5F5E2F5F5F5F5F5F5F5F5F5F5F5F5F5F5F5F5F5F5F5F5F5F5F5F5F5F5
310
F5F5F5F5F5F5F5F5F5F5F5F5F5F5F5F5F5F5F5F5F5F5F5F5F5F5F5F5F5F5F5F5F5F5F5F5F5F5F5F5F5F5F5F5F5F5F5F5F5F5F5F5F5F5F5F5F5F5F5E2F5F5F5F5E2E2FFE2E2F5F5F5F5E2F5F5F5F5F5F5F5F5F5F5F5F5F5F5F5F5F5F5F5F5F5F5F5F5F5F5F5F5F5F5F5F5F5F5F5F5F5F5F5F5F5F5F5F5F5F5F5F5F5F5F5F5F5
310
F5F5F5F5F5F5F5F5F5F5F5F5F5F5F5F5F5F5F5F5F5F5F5F5F5F5F5F5F5F5F5F5E2F5F5F5F5E2E2FFE2E2F5F5F5F5E2E2E2E2E2E2E2E2E2E2E2E2E2E2E2E2E2E2E2E2E2E2E2E2E2E2E2E2E2E2E2E2E2E2E2E2E2E2E2E2E2E2E2E2E2E2E2E2E2E2E2E2E2E2E2E2E2E2E2E2E2E2E2E2E2E2E2E2E2E2E2E2E2E2E2E2E2E2E2E2E2
310
E2E2E2E2E2E2F5F5F5F5E2E2FFE2E2F5F5F5F5F5F5F5F5F5F5F5F5F5F5F5F5F5F5F5F5F5F5F5F5F5F5F5F5F5F5F5F5F5F5F5F5F5F5F5F5F5F5F5F5F5F5F5F5F5F5F5F5F5F5F5F5F5F5F5F5F5F5F5F5F5F5F5F5F5F5F5F5F5F5F5F5F5F5F5F5F5F5F5F5F5F5F5F5F5F5F5F5F5F5F5E2E280E2E2F5F5F5F5F5F5F5F5F5F5F5F5
310
F5F5F5F5F5F5F5F5F5F5F5F5F5F5F5F5F5F5F5F5F5F5F5F5F5F5F5F5F5F5F5F5F5F5F5F5F5F5F5F5F5F5F5F5F5F5F5F5F5F5F5F5F5F5F5F5F5F5F5F5F5F5F5F5F5F5F5F5F5F5F5F5F5F5F5F5F5F5F5F5F5F5F5E2E2FFE2E2F5F5F5F5F5F5F5F5F5F5F5F5F5F5F5F5F5F5F5F5F5F5F5F5F5F5F5F5F5F5F5F5F5F5F5F5F5F5F5
310
F5F5F5F5F5F5F5F5F5F5F5F5F5F5F5F5F5F5F5F5F5F5F5F5F5F5F5F5F5F5F5F5F5F5F5F5F5F5F5F5F5F5F5F5F5F5F5F5F5F5F5F5F5F5F5F5E2E2FFE2E2F5F5F5F5F5F5F5F5F5F5F5F5F5F5F5F5F5F5F5F5F5F5F5F5F5F5F5F5F5F5F5F5F5F5F5F5F5F5F5F5F5F5F5F5F5F5F5F5F5F5F5F5F5F5F5F5F5F5F5F5F5F5F5F5F5F5
310
F5F5F5F5F5F5F5F5F5F5F5F5F5F5F5F5F5F5F5F5F5F5F5F5F5F5F5F5F5E2E2FFE2E2E2E2E2E2E2E2E2F5F5F5F5F5F5F5F5F5E2E2E2E2E2E2E2E2E2E2E2E2E2E2E2F5F5F5F5F5F5F5F5F5E2E2E2E2E2E2E2E2E2E2E2E2E2E2E2F5F5F5F5F5F5F5F5F5E2E2E2E2E2E2E2E2E2E2E2E2E2E2E2F5F5F5F5F5F5F5F5F5E2E2E2E2E2
310
E2E2E2E2FFE2F5F5F5F5F5F5F5F5F5F5F5F5F5F5F5F5F5F5F5F5F5F5F5F5F5F5F5F5F5F5F5F5F5F5F5F5F5F5F5F5F5F5F5F5F5F5F5F5F5F5F5F5F5F5F5F5F5F5F5F5F5F5F5F5F5F5F5F5F5F5F5F5F5F5F5F5F5F5F5F5F5F5F5F5F5F5F5F5F5F5F5F5F5F5F5F5F5E2FFE2E2E2E2E2E2E2E2E2E2E2E2E2E2E2E2E2E2E2E2E2E2
310
E2E2E2E2E2E2E2E2E2E2E2E2E2E2E2E2E2E2E2E2E2E2E2E2E2E2E2E2E2E2E2E2E2E2E2E2E2E2E2E2E2E2E2E2E2E2E2E2E2E2E2E2E2E2E2E2E2E2E2E2E2E2E2E2E2E2E2E2E2E2E2E2E2E2E2E2E2FF
  0
XRECORD
  5
931
102
{ACAD_REACTORS
330
930
102
}
330
930
100
AcDbXrecord
280
     1
102
SHADEPLOT
 70
     0
102
SHADEPLOTRESLEVEL
 70
     2
102
SHADEPLOTCUSTOMDPI
 70
   300
  0
ENDSEC
  0
EOF
